osu file format v14

[General]
AudioFilename: audio.mp3
AudioLeadIn: 0
PreviewTime: 42994
Countdown: 0
SampleSet: Soft
StackLeniency: 0.4
Mode: 0
LetterboxInBreaks: 0
WidescreenStoryboard: 1

[Editor]
Bookmarks: 16348,21682,43015,64348,75015,85682,107015,128348,139015,149682,160348
DistanceSpacing: 0.8
BeatDivisor: 4
GridSize: 32
TimelineZoom: 3.899997

[Metadata]
Title:Idyllic World
TitleUnicode:Idyllic World
Artist:Krimek
ArtistUnicode:Krimek
Creator:Krimek
Version:Nozuchi's Insane
Source:
Tags:FA Featured Artist electronic instrumental atmospheric hardcore breakcore crossbreed GALAXY OF MIND/MINE MIND/E MIND MINE -Tynamo [BH]Lithium Nozuchi milr_ nytrocide_ nytro ganyumymommy Sylvarus Dignan
BeatmapID:4155298
BeatmapSetID:1978614

[Difficulty]
HPDrainRate:5
CircleSize:3.8
OverallDifficulty:7.5
ApproachRate:9
SliderMultiplier:1.4
SliderTickRate:0.5

[Events]
//Background and Video events
0,0,"background by krimek.jpg",0,0
//Break Periods
//Storyboard Layer 0 (Background)
//Storyboard Layer 1 (Fail)
//Storyboard Layer 2 (Pass)
//Storyboard Layer 3 (Foreground)
//Storyboard Layer 4 (Overlay)
//Storyboard Sound Samples

[TimingPoints]
349,333.333333333333,4,2,1,40,1,0
17015,-100,4,2,1,42,0,0
17682,-100,4,2,1,45,0,0
18348,-100,4,2,1,47,0,0
19015,-100,4,2,1,50,0,0
19682,-100,4,2,1,52,0,0
20348,-100,4,2,1,55,0,0
21015,-100,4,2,1,57,0,0
21348,-166.666666666667,4,2,1,50,0,0
21515,-166.666666666667,4,2,1,60,0,0
21682,-100,4,2,1,60,0,0
41682,-100,4,2,1,65,0,0
43015,-83.3333333333333,4,2,1,70,0,0
43682,-71.4285714285714,4,2,1,70,0,0
44015,-100,4,2,1,70,0,0
44682,-125,4,2,1,70,0,0
45848,-83.3333333333333,4,2,1,70,0,0
47682,-62.5,4,2,1,70,0,1
48015,-62.5,4,2,1,70,0,0
48348,-83.3333333333333,4,2,1,70,0,0
49015,-71.4285714285714,4,2,1,70,0,0
49348,-100,4,2,1,70,0,0
51682,-83.3333333333333,4,2,1,70,0,0
53015,-62.5,4,2,1,70,0,0
53348,-100,4,2,1,70,0,0
53682,-83.3333333333333,4,2,1,70,0,0
54348,-71.4285714285714,4,2,1,70,0,0
54682,-100,4,2,1,70,0,0
55348,-125,4,2,1,70,0,0
56514,-83.3333333333333,4,2,1,70,0,0
58348,-62.5,4,2,1,70,0,1
58682,-100,4,2,1,70,0,0
59015,-83.3333333333333,4,2,1,70,0,0
59515,-71.4285714285714,4,2,1,70,0,0
60015,-100,4,2,1,70,0,0
64348,-125,4,1,1,60,0,0
66182,-166.666666666667,4,1,1,60,0,0
66682,-71.4285714285714,4,1,1,60,0,0
67015,-125,4,1,1,60,0,0
67515,-166.666666666667,4,1,1,60,0,0
68348,-125,4,1,1,60,0,0
68848,-166.666666666667,4,1,1,60,0,0
69015,-71.4285714285714,4,1,1,60,0,0
69682,-100,4,1,1,60,0,0
70182,-125,4,1,1,60,0,0
71015,-100,4,1,1,60,0,0
71515,-125,4,1,1,60,0,0
72015,-71.4285714285714,4,1,1,60,0,0
72348,-100,4,1,1,60,0,0
72848,-125,4,1,1,60,0,0
73682,-100,4,1,1,60,0,0
74015,-90.9090909090909,4,1,1,60,0,0
74682,-83.3333333333333,4,1,1,60,0,0
75015,-125,4,1,1,65,0,0
75348,-83.3333333333333,4,1,1,65,0,1
75682,-83.3333333333333,4,1,1,65,0,0
76348,-100,4,1,1,65,0,0
80348,-100,4,1,1,70,0,0
84348,-83.3333333333333,4,1,1,70,0,0
85682,-125,4,2,1,80,0,0
89682,-100,4,2,1,80,0,0
90682,-125,4,2,1,80,0,0
93682,-83.3333333333333,4,2,1,80,0,0
95932,-62.5,4,2,1,80,0,0
96348,-100,4,2,1,80,0,0
104348,-83.3333333333333,4,2,1,80,0,0
106348,-62.5,4,2,1,80,0,0
106682,-100,4,2,1,80,0,1
111682,-71.4285714285714,4,2,1,80,0,1
112015,-100,4,2,1,80,0,1
117015,-71.4285714285714,4,2,1,80,0,1
117682,-100,4,2,1,80,0,1
122348,-71.4285714285714,4,2,1,80,0,1
122682,-100,4,2,1,80,0,1
123015,-100,4,2,1,80,0,1
128348,-100,4,2,1,70,0,0
139015,-83.3333333333333,4,2,1,75,0,0
149682,-100,4,2,1,60,0,0
160348,-100,4,2,1,50,0,0

[Colours]
Combo1 : 255,21,138
Combo2 : 191,223,255
Combo3 : 255,128,192
Combo4 : 72,95,153

[HitObjects]
256,192,16348,12,0,21015,0:0:0:0:
168,115,21348,6,0,L|127:104,1,41.9999987182618
246,44,21682,6,0,L|263:112,1,70,6|2,3:1|0:2,0:0:0:0:
339,161,22015,1,8,3:2:0:0:
269,219,22182,1,2,0:2:0:0:
339,275,22348,2,0,P|386:283|421:292,1,70,2|2,3:2|0:2,0:0:0:0:
188,212,22682,2,0,P|153:219|119:225,1,70,8|2,3:2|0:2,0:0:0:0:
246,341,23015,6,0,P|255:280|270:213,1,105,2|0,3:2|0:0,0:0:0:0:
269,219,23348,1,8,3:2:0:0:
263,59,23598,1,0,0:0:0:0:
263,59,23682,2,0,P|266:41|269:24,2,35,2|0|2,3:2|0:0|0:2,0:0:0:0:
260,141,24015,5,8,3:2:0:0:
260,141,24182,1,2,0:2:0:0:
483,81,24348,6,0,B|445:59|445:59|334:102,1,140,2|8,3:2|3:2,0:0:0:0:
356,94,24848,1,2,0:2:0:0:
423,156,25015,2,0,L|402:236,1,70,2|2,3:2|0:2,0:0:0:0:
458,297,25348,1,8,3:2:0:0:
458,297,25515,1,2,0:2:0:0:
54,87,25848,5,2,0:2:0:0:
88,171,26015,1,8,3:2:0:0:
178,160,26182,1,2,0:2:0:0:
458,297,26515,5,2,0:2:0:0:
424,213,26682,1,8,3:2:0:0:
334,224,26848,1,2,0:2:0:0:
205,327,27015,6,0,P|150:306|110:298,2,70,2|2|8,3:2|0:2|3:2,0:0:0:0:
71,233,27515,1,2,0:2:0:0:
160,218,27682,2,0,P|172:170|188:134,1,70,2|2,3:2|0:2,0:0:0:0:
137,70,28015,1,8,3:2:0:0:
269,214,28182,1,2,0:2:0:0:
325,133,28348,2,0,P|277:124|241:112,1,70,2|2,3:2|0:2,0:0:0:0:
179,151,28682,2,0,P|133:161|56:187,1,105,8|0,3:2|0:0,0:0:0:0:
62,175,29015,2,0,P|36:170|8:161,2,35,0|0|2,3:2|0:0|0:2,0:0:0:0:
153,246,29348,5,8,3:2:0:0:
153,246,29515,1,2,0:2:0:0:
381,194,29682,6,0,P|415:199|449:208,1,70,2|2,3:2|0:2,0:0:0:0:
434,120,30015,1,8,3:2:0:0:
434,120,30182,1,2,0:2:0:0:
253,34,30348,6,0,P|287:28|321:19,1,70,2|2,3:2|0:2,0:0:0:0:
306,108,30681,1,8,3:2:0:0:
306,108,30848,1,2,0:2:0:0:
121,35,31015,5,2,3:2:0:0:
121,35,31348,5,8,3:2:0:0:
51,93,31515,1,2,0:2:0:0:
133,131,31682,5,2,3:2:0:0:
240,63,31848,1,2,0:2:0:0:
267,198,32015,1,8,3:2:0:0:
218,139,32182,1,2,0:2:0:0:
368,65,32348,6,0,P|418:84|448:88,1,70,6|2,3:2|0:2,0:0:0:0:
500,150,32682,1,8,3:2:0:0:
420,194,32848,1,2,0:2:0:0:
481,261,33015,2,0,P|470:310|467:342,1,70,2|2,3:2|0:2,0:0:0:0:
313,207,33348,2,0,P|324:158|327:126,1,70,8|2,3:2|0:2,0:0:0:0:
381,271,33682,5,2,3:2:0:0:
381,271,33848,1,0,0:0:0:0:
312,320,34015,2,0,P|265:301|191:284,1,105,8|0,3:2|0:0,0:0:0:0:
192,290,34348,2,0,P|168:299|140:304,2,35,2|0|2,3:2|0:0|0:2,0:0:0:0:
286,221,34682,5,8,3:2:0:0:
286,221,34848,1,2,0:2:0:0:
31,147,35015,6,0,P|67:162|106:172,1,70,2|2,3:2|0:2,0:0:0:0:
182,115,35348,1,8,3:2:0:0:
66,257,35515,1,2,0:2:0:0:
66,257,35598,1,0,0:0:0:0:
66,257,35682,2,0,P|71:286|73:314,2,35,2|0|2,3:2|0:0|0:2,0:0:0:0:
103,167,36015,2,0,P|94:118|81:81,1,70,8|2,3:2|0:2,0:0:0:0:
178,245,36348,5,2,3:2:0:0:
265,219,36515,1,2,0:2:0:0:
354,202,36682,1,8,3:2:0:0:
443,189,36848,1,2,0:2:0:0:
292,139,37015,6,0,P|301:104|307:65,1,70,2|2,3:2|0:2,0:0:0:0:
412,263,37348,2,0,P|403:298|397:337,1,70,8|2,3:2|0:2,0:0:0:0:
313,354,37682,5,2,3:2:0:0:
240,319,37848,1,2,0:2:0:0:
94,249,38015,5,8,3:2:0:0:
129,176,38181,1,2,0:2:0:0:
199,30,38348,5,2,3:2:0:0:
272,65,38514,1,2,0:2:0:0:
418,135,38682,5,8,3:2:0:0:
256,192,38848,1,2,0:2:0:0:
418,135,39015,6,0,L|389:210,1,70,2|2,3:2|0:2,0:0:0:0:
443,271,39348,1,8,3:2:0:0:
443,271,39682,5,2,3:2:0:0:
256,192,39848,1,2,0:2:0:0:
368,312,40015,2,0,L|290:327,1,70,8|2,3:2|0:2,0:0:0:0:
34,346,40348,5,2,3:2:0:0:
8,268,40515,1,2,0:2:0:0:
87,246,40682,1,8,3:2:0:0:
110,323,40848,1,2,0:2:0:0:
222,152,41015,5,2,3:2:0:0:
194,235,41182,1,2,0:2:0:0:
277,258,41349,1,8,3:2:0:0:
302,176,41515,1,2,0:2:0:0:
165,95,41682,6,0,P|156:48|145:20,1,70,2|2,3:2|0:3,0:0:0:0:
431,140,42015,2,0,P|415:190|406:242,1,105,8|2,3:3|0:3,0:0:0:0:
406,242,42348,1,2,3:3:0:0:
209,298,42515,2,0,P|217:322|224:356,2,35,8|0|8,0:3|0:0|3:2,0:0:0:0:
57,212,42848,5,2,0:3:0:0:
57,212,42932,1,2,0:3:0:0:
57,212,43015,6,0,B|92:209|118:221|118:221|125:187|148:155,1,125.999996154785,14|0,3:1|0:0,0:0:0:0:
142,162,43348,1,2,3:2:0:0:
76,112,43515,5,10,3:1:0:0:
233,205,43682,2,0,B|256:189|279:187|279:187|271:166|274:128,1,97.9999970092774,8|2,0:3|0:3,0:0:0:0:
76,112,44015,5,10,3:1:0:0:
184,77,44182,2,0,B|189:52|201:42|201:42|180:28|172:4,2,70,8|2|2,0:3|3:1|3:2,0:0:0:0:
281,136,44682,6,0,L|338:125,1,56,8|0,0:3|3:0,0:0:0:0:
398,77,45015,2,0,B|434:121|434:121|404:168,1,112,8|0,3:3|3:0,0:0:0:0:
404,167,45515,1,8,0:3:0:0:
307,259,45682,5,10,3:1:0:0:
440,331,45848,2,0,B|411:301|411:301|357:321,1,83.9999974365235,10|2,3:1|3:2,0:0:0:0:
217,345,46182,2,0,L|206:294,1,41.9999987182618,10|0,3:1|0:0,0:0:0:0:
192,290,46348,2,0,L|227:194,1,83.9999974365235,8|2,3:3|0:3,0:0:0:0:
307,259,46682,2,0,L|292:307,2,41.9999987182618,10|0|8,3:1|0:0|0:3,0:0:0:0:
359,196,47015,5,2,3:1:0:0:
471,157,47182,1,2,3:2:0:0:
387,103,47348,1,8,3:3:0:0:
387,103,47432,1,0,3:2:0:0:
387,103,47515,1,0,3:0:0:0:
358,202,47682,6,0,B|334:157|334:157|338:150|335:109|335:109|336:104|336:104|297:88|297:88|304:86|238:0,1,224,8|0,3:1|3:0,0:0:0:0:
255,23,48182,1,8,0:1:0:0:
170,138,48348,6,0,B|114:124|60:107|60:107|87:129|107:166,1,167.999994873047,10|2,3:1|3:2,0:0:0:0:
138,246,48848,5,10,3:1:0:0:
65,315,49015,2,0,B|66:294|55:276|55:276|58:264|42:216,1,97.9999970092774,8|2,0:3|0:3,0:0:0:0:
229,294,49348,2,0,P|220:327|214:362,1,70,10|8,3:1|0:3,0:0:0:0:
136,252,49682,5,10,3:1:0:0:
280,166,49848,1,8,3:1:0:0:
353,290,50015,1,10,0:1:0:0:
446,251,50182,1,8,3:1:0:0:
446,251,50265,1,2,0:3:0:0:
446,251,50348,2,0,L|462:174,2,70,10|10|10,3:1|2:1|3:3,0:0:0:0:
52,104,51015,6,0,B|72:75|81:42|81:42|107:62|160:72,1,140,10|2,3:1|0:1,0:0:0:0:
122,147,51515,1,10,3:1:0:0:
97,227,51682,6,0,B|136:233|159:251|159:251|167:221|185:195,1,125.999996154785,8|8,0:3|0:3,0:0:0:0:
237,141,52015,2,0,L|290:129,3,41.9999987182618,10|2|2|2,3:1|0:3|0:1|0:3,0:0:0:0:
342,184,52348,5,2,3:1:0:0:
429,63,52515,1,8,0:3:0:0:
429,63,52598,1,0,0:0:0:0:
429,63,52682,2,0,L|511:80,1,83.9999974365235,10|8,3:3|0:3,0:0:0:0:
344,193,53015,6,0,B|383:148|329:115|256:91|331:18,1,168,10|0,3:1|0:0,0:0:0:0:
348,89,53348,2,0,B|343:117|311:121|307:147,1,70,6|2,3:2|0:2,0:0:0:0:
191,341,53682,5,14,3:1:0:0:
122,288,53848,2,0,P|66:293|49:338,1,83.9999974365235,2|2,0:2|3:2,0:0:0:0:
191,341,54182,5,10,3:1:0:0:
250,266,54348,2,0,P|245:221|189:205,1,97.9999970092774,8|2,0:3|0:3,0:0:0:0:
191,341,54682,5,10,3:1:0:0:
284,361,54848,2,0,P|335:349|360:345,2,70,8|2|2,0:3|3:1|3:2,0:0:0:0:
415,251,55348,6,0,P|420:218|426:187,1,56,8|0,0:3|3:0,0:0:0:0:
495,100,55682,2,0,P|453:120|384:77,1,112,8|0,3:3|3:0,0:0:0:0:
395,96,56182,1,8,0:3:0:0:
251,41,56348,5,10,3:1:0:0:
207,134,56515,2,0,B|163:145|181:169|138:180,1,83.9999974365235,10|2,3:1|3:2,0:0:0:0:
22,63,56848,2,0,L|70:78,1,41.9999987182618,10|0,3:1|0:0,0:0:0:0:
80,85,57015,2,0,L|174:61,1,83.9999974365235,8|2,3:3|0:3,0:0:0:0:
251,41,57348,2,0,L|309:55,2,41.9999987182618,10|0|8,3:1|0:0|0:3,0:0:0:0:
332,125,57682,5,2,3:1:0:0:
401,63,57848,1,2,3:2:0:0:
437,163,58015,1,8,3:3:0:0:
437,163,58098,1,0,3:2:0:0:
437,163,58182,1,0,3:0:0:0:
337,132,58348,6,0,B|312:168|312:187|312:187|300:191|300:191|276:210|239:217|239:217|247:228|247:228|224:264|214:345,1,224,8|0,3:1|3:0,0:0:0:0:
222,292,58848,1,8,0:1:0:0:
136,342,59015,6,0,P|93:330|43:320,1,83.9999974365235,10|2,3:1|0:2,0:0:0:0:
118,253,59348,1,2,3:2:0:0:
277,363,59515,1,10,3:1:0:0:
223,291,59682,2,0,B|258:281|273:285|273:285|293:275|320:267,1,97.9999970092774,8|2,0:3|0:3,0:0:0:0:
451,363,60015,2,0,P|410:351|369:342,1,70,10|8,3:1|0:3,0:0:0:0:
256,193,60348,5,10,3:1:0:0:
146,58,60515,1,8,3:1:0:0:
282,8,60682,1,10,0:1:0:0:
210,126,60848,1,8,3:1:0:0:
210,126,60932,1,2,0:3:0:0:
210,126,61015,2,0,P|173:133|125:148,2,70,10|10|10,3:1|2:1|3:3,0:0:0:0:
410,65,61682,6,0,P|469:89|456:176,1,140,10|2,3:1|0:1,0:0:0:0:
472,157,62182,1,10,3:1:0:0:
399,192,62348,2,0,P|352:171|350:120,1,105,8|8,0:3|0:3,0:0:0:0:
323,94,62682,2,0,L|308:44,2,46.6666666666667,10|0|0,3:1|0:0|0:0,0:0:0:0:
281,123,63015,6,0,P|241:133|189:140,1,70,2|8,3:1|3:3,0:0:0:0:
166,218,63348,2,0,P|132:209|97:203,1,70,10|8,3:3|3:3,0:0:0:0:
49,134,63682,6,0,P|21:145|0:147,3,35,10|0|2|0,3:1|0:0|3:3|0:0,0:0:0:0:
93,69,64015,2,0,P|75:62|62:52,3,35,6|0|2|0,3:2|0:0|3:2|0:0,0:0:0:0:
166,40,64348,6,0,P|255:43|272:128,2,168,14|10|10,3:1|2:3|2:2,0:0:0:0:
353,202,65598,5,8,2:2:0:0:
353,202,65682,2,0,L|331:314,1,112,2|10,3:2|2:3,0:0:0:0:
260,285,66182,2,0,L|277:197,1,83.9999974365235,10|10,2:3|2:3,0:0:0:0:
192,233,66682,2,0,P|175:240|193:237,1,48.9999985046387,10|0,3:1|2:0,0:0:0:0:
485,35,67015,6,0,B|442:71|442:71|374:38,1,112,10|10,3:1|2:3,0:0:0:0:
322,81,67515,2,0,B|284:104|284:104|237:81,1,83.9999974365235,10|10,2:3|2:3,0:0:0:0:
191,32,68015,1,10,2:2:0:0:
120,73,68265,5,8,2:2:0:0:
120,73,68348,2,0,L|94:207,1,112,2|10,3:2|2:3,0:0:0:0:
81,263,68848,1,10,2:3:0:0:
12,205,69015,5,10,2:1:0:0:
205,161,69182,1,10,2:1:0:0:
266,237,69348,5,2,3:1:0:0:
474,361,69682,6,0,B|465:306|436:308|388:307|381:238,1,140,10|10,3:1|2:3,0:0:0:0:
461,232,70182,2,0,B|455:186|416:195|384:179|385:131,1,112,10|10,2:3|2:3,0:0:0:0:
452,105,70682,1,10,2:2:0:0:
378,68,70932,5,8,2:2:0:0:
378,68,71015,2,0,B|336:36|283:59|283:59|270:81|235:89,1,140,2|10,3:2|2:3,0:0:0:0:
259,171,71515,2,0,B|225:145|183:164|183:164|172:181|144:187,1,112,10|10,2:3|2:3,0:0:0:0:
94,135,72015,2,0,B|78:129|80:115|80:115|98:114|100:137,1,48.9999985046387,10|0,3:1|2:0,0:0:0:0:
31,360,72348,6,0,P|62:313|161:333,1,140,10|10,3:1|2:3,0:0:0:0:
214,356,72848,2,0,P|246:318|317:321,1,112,10|10,2:3|2:3,0:0:0:0:
366,369,73348,1,10,2:2:0:0:
433,312,73598,5,8,2:2:0:0:
433,312,73682,2,0,L|414:220,1,70,10|2,3:1|2:3,0:0:0:0:
340,177,74015,2,0,L|261:159,1,77.0000023498536,10|10,3:1|2:3,0:0:0:0:
200,93,74348,1,10,2:1:0:0:
117,159,74515,1,10,2:1:0:0:
117,159,74598,1,8,2:1:0:0:
117,159,74682,2,0,L|90:69,1,83.9999974365235,2|10,3:1|2:1,0:0:0:0:
226,293,75015,6,0,L|206:368,1,56,10|2,3:1|2:3,0:0:0:0:
309,269,75348,2,0,B|260:199|260:199|154:233,1,167.999994873047,10|2,3:1|3:2,0:0:0:0:
115,261,75848,1,10,2:3:0:0:
59,209,76015,1,10,3:1:0:0:
380,114,76265,5,8,2:2:0:0:
380,114,76348,2,0,L|460:135,1,70,10|2,3:1|2:3,0:0:0:0:
319,40,76682,2,0,B|251:48|272:98|193:112,1,140,10|2,3:1|3:2,0:0:0:0:
144,59,77182,1,10,2:3:0:0:
79,100,77348,1,10,3:1:0:0:
315,280,77598,5,8,2:2:0:0:
315,280,77682,2,0,L|336:188,1,70,10|2,3:1|2:3,0:0:0:0:
440,268,78015,2,0,B|459:245|459:245|414:114,1,140,10|2,3:1|3:2,0:0:0:0:
361,94,78515,1,10,2:3:0:0:
399,27,78682,1,10,3:1:0:0:
181,208,78932,5,8,2:2:0:0:
181,208,79015,2,0,B|131:219|158:245|99:261,1,70,10|2,3:1|2:3,0:0:0:0:
248,273,79348,2,0,P|281:219|243:142,1,140,10|2,3:1|3:2,0:0:0:0:
202,95,79848,1,10,2:3:0:0:
255,151,80015,2,0,P|292:163|337:147,1,70,2|0,3:1|0:0,0:0:0:0:
120,28,80348,6,0,P|107:69|102:98,1,70,10|2,3:1|3:3,0:0:0:0:
12,194,80682,2,0,P|25:153|30:124,1,70,10|10,3:1|3:3,0:0:0:0:
208,20,81015,2,0,P|195:61|190:90,1,70,10|10,3:1|3:3,0:0:0:0:
90,217,81348,1,10,3:1:0:0:
339,334,81598,5,8,2:2:0:0:
339,334,81682,2,0,P|352:293|357:264,1,70,10|2,3:1|3:3,0:0:0:0:
447,168,82016,2,0,P|434:209|429:238,1,70,10|10,3:1|3:3,0:0:0:0:
251,342,82349,2,0,P|264:301|269:272,1,70,10|10,3:1|3:3,0:0:0:0:
369,145,82682,2,0,P|362:179|351:212,1,70,10|10,3:1|3:3,0:0:0:0:
34,338,83015,5,10,3:1:0:0:
34,338,83348,5,10,3:1:0:0:
80,267,83515,1,10,3:1:0:0:
163,275,83682,1,10,3:1:0:0:
276,164,83848,6,0,P|289:139|291:116,1,35,10|8,3:1|3:3,0:0:0:0:
369,145,84015,2,0,P|367:116|357:95,1,35,10|0,3:1|3:0,0:0:0:0:
439,81,84182,2,0,P|423:57|404:44,1,35,10|8,3:1|3:2,0:0:0:0:
274,20,84348,6,0,L|235:370,1,335.999989746094,10|0,3:1|0:0,0:0:0:0:
236,353,85348,1,0,0:0:0:0:
37,239,85682,5,6,2:1:0:0:
107,214,85848,1,2,2:2:0:0:
132,284,86015,1,10,2:2:0:0:
62,309,86182,1,2,2:2:0:0:
256,352,87015,6,0,L|266:290,1,56,2|2,2:2|2:3,0:0:0:0:
256,224,87348,2,0,L|266:162,2,56,10|2|2,2:2|2:3|2:2,0:0:0:0:
256,96,87848,2,0,L|266:34,2,56,10|10|10,2:3|2:2|2:3,0:0:0:0:
480,147,88348,5,2,2:2:0:0:
402,175,88514,1,2,2:2:0:0:
374,97,88681,1,10,2:2:0:0:
452,69,88848,1,2,2:2:0:0:
236,359,89682,6,0,L|275:10,1,350,2|10,2:2|2:3,0:0:0:0:
274,11,90682,2,0,L|284:82,1,56,10|10,2:2|2:2,0:0:0:0:
416,320,91015,5,2,2:2:0:0:
467,249,91348,1,10,2:2:0:0:
467,249,91515,2,0,P|458:213|455:173,1,56,2|2,2:3|2:2,0:0:0:0:
338,208,91848,2,0,P|346:235|350:263,2,56,10|10|10,2:3|2:2|2:3,0:0:0:0:
379,62,92348,5,2,2:2:0:0:
379,62,92515,1,2,2:3:0:0:
306,106,92682,2,0,P|278:96|246:90,1,56,10|2,2:2|2:3,0:0:0:0:
134,50,93015,5,2,2:2:0:0:
98,120,93182,2,0,P|70:130|38:136,2,56,10|10|10,2:3|2:2|2:3,0:0:0:0:
170,197,93682,6,0,B|216:218|216:218|249:274|224:345,1,167.999994873047,10|10,2:1|2:2,0:0:0:0:
302,377,94182,2,0,B|355:346|365:282|365:282|344:237,1,167.999994873047,10|10,2:1|2:3,0:0:0:0:
287,168,94682,6,0,B|311:117|372:120|372:120|400:156|455:138,1,167.999994873047,10|2,2:1|2:2,0:0:0:0:
512,20,95182,2,0,B|488:71|427:68|427:68|399:32|344:50,1,167.999994873047,10|2,2:1|2:3,0:0:0:0:
149,117,95682,6,0,L|66:89,1,83.9999974365235,10|10,3:1|2:3,0:0:0:0:
203,49,95932,1,10,2:3:0:0:
203,49,96015,2,0,B|252:88|252:88|208:201,1,168,14|10,2:2|2:3,0:0:0:0:
126,220,96348,5,6,3:2:0:0:
60,261,96515,1,2,2:2:0:0:
101,327,96681,1,10,2:3:0:0:
167,286,96848,1,2,2:2:0:0:
256,352,97015,6,0,L|272:263,1,70,2|10,3:2|2:3,0:0:0:0:
321,215,97348,1,10,2:3:0:0:
261,155,97515,1,10,3:3:0:0:
327,103,97682,2,0,P|371:96|411:83,1,70,2|2,3:2|2:3,0:0:0:0:
194,205,98015,2,0,P|141:213|93:229,1,105,10|0,2:3|2:0,0:0:0:0:
92,229,98348,1,2,3:2:0:0:
122,135,98515,2,0,P|117:100|108:66,2,70,10|10|10,2:3|2:3|3:3,0:0:0:0:
384,169,99015,5,2,3:2:0:0:
457,124,99182,1,2,2:2:0:0:
412,51,99348,1,10,2:3:0:0:
339,96,99515,1,2,2:2:0:0:
256,32,99682,6,0,L|240:121,1,70,2|10,3:2|2:3,0:0:0:0:
207,176,100015,1,10,2:3:0:0:
267,233,100182,1,10,3:3:0:0:
202,285,100348,2,0,L|120:301,1,70,2|2,3:2|2:3,0:0:0:0:
334,175,100682,5,10,2:3:0:0:
415,188,100848,2,0,B|411:228|411:228|370:250,1,70,2|2,2:3|3:2,0:0:0:0:
265,102,101182,2,0,B|294:73|294:73|399:105,1,140,10|10,2:3|3:3,0:0:0:0:
267,233,101682,6,0,P|258:271|253:319,1,70,6|2,3:2|3:2,0:0:0:0:
184,346,102015,1,10,3:3:0:0:
40,306,102182,2,0,P|98:292|120:285,1,70,2|2,3:2|3:2,0:0:0:0:
256,307,102515,2,0,P|302:313|401:339,1,140,10|10,3:3|3:3,0:0:0:0:
392,336,103015,6,0,P|380:297|374:255,1,70,2|2,3:2|3:3,0:0:0:0:
235,116,103348,1,10,3:3:0:0:
157,192,103515,2,0,P|186:195|251:212,1,70,2|2,3:3|3:2,0:0:0:0:
336,77,103848,2,0,P|370:72|405:65,2,70,10|10|10,3:3|3:3|3:3,0:0:0:0:
115,94,104348,6,0,B|131:57|131:57|208:50|242:131,1,167.999994873047,10|10,3:1|2:2,0:0:0:0:
341,231,104848,2,0,B|325:268|325:268|248:275|214:194,1,167.999994873047,10|10,3:1|2:3,0:0:0:0:
244,124,105348,2,0,B|261:100|284:98|284:98|265:115|257:154,1,83.9999974365235,10|10,3:1|2:3,0:0:0:0:
152,256,105682,5,2,3:2:0:0:
75,296,105848,1,10,3:1:0:0:
157,342,106015,5,10,3:2:0:0:
62,213,106182,1,2,3:3:0:0:
237,377,106348,6,0,P|288:329|405:343,1,168,10|10,3:1|2:3,0:0:0:0:
444,375,106682,2,0,L|526:359,1,70,14|10,3:2|2:3,0:0:0:0:
303,226,107015,6,0,L|320:148,1,70,14|2,3:1|0:2,0:0:0:0:
269,88,107348,1,2,3:2:0:0:
202,139,107515,2,0,P|159:165|78:130,1,140,10|2,3:1|0:3,0:0:0:0:
61,52,108015,1,10,3:1:0:0:
61,52,108182,1,8,0:3:0:0:
80,134,108348,2,0,L|66:214,1,70,2|2,3:1|3:2,0:0:0:0:
226,321,108682,2,0,L|212:241,1,70,8|0,0:3|3:0,0:0:0:0:
159,188,109015,5,8,3:3:0:0:
126,273,109182,1,2,2:3:0:0:
258,182,109348,2,0,P|295:197|331:206,1,70,0|8,3:0|0:3,0:0:0:0:
428,290,109682,5,10,3:1:0:0:
491,235,109848,2,0,P|473:155|462:76,1,140,10|10,3:1|3:1,0:0:0:0:
421,25,110348,2,0,P|405:50|361:63,1,70,8|2,3:3|0:3,0:0:0:0:
321,134,110682,2,0,P|281:123|266:76,1,70,10|8,3:1|0:3,0:0:0:0:
208,39,111015,1,2,3:1:0:0:
132,0,111182,1,2,3:2:0:0:
77,63,111348,1,8,3:3:0:0:
77,63,111432,1,0,3:2:0:0:
77,63,111515,1,0,3:0:0:0:
150,106,111682,6,0,B|163:124|174:130|174:130|177:158|177:158|200:207|198:269,1,146.999995513916,8|8,3:1|2:3,0:0:0:0:
206,248,112015,2,0,B|230:218|230:218|201:189,1,70,0|8,3:0|0:1,0:0:0:0:
127,343,112348,6,0,P|169:350|203:357,1,70,10|2,3:1|0:2,0:0:0:0:
358,224,112682,1,2,3:2:0:0:
398,297,112848,2,0,P|363:303|329:309,1,70,10|8,3:1|0:3,0:0:0:0:
206,248,113182,1,2,0:3:0:0:
289,107,113348,2,0,P|279:150|274:176,1,70,10|8,3:1|0:3,0:0:0:0:
240,363,113682,5,10,3:1:0:0:
240,363,113848,1,8,3:1:0:0:
311,317,114015,2,0,L|399:336,1,70,10|8,0:1|3:1,0:0:0:0:
206,248,114348,2,0,L|118:229,1,70,10|10,3:1|2:1,0:0:0:0:
274,175,114682,1,10,3:3:0:0:
92,360,115015,6,0,P|38:332|53:236,1,140,10|2,3:1|0:1,0:0:0:0:
103,213,115515,1,10,3:1:0:0:
207,266,115682,2,0,P|191:303|148:308,1,70,8|8,0:3|0:3,0:0:0:0:
103,213,116015,2,0,P|146:203|187:195,1,70,10|2,3:1|0:1,0:0:0:0:
311,136,116348,5,2,3:1:0:0:
381,181,116515,1,8,0:3:0:0:
455,141,116682,2,0,L|466:93,2,35,10|0|8,3:3|2:0|0:3,0:0:0:0:
461,287,117015,6,0,P|388:266|305:250,1,146.999995513916,10|8,3:1|2:3,0:0:0:0:
313,255,117348,2,0,P|240:234|157:218,1,146.999995513916,6|8,3:2|2:3,0:0:0:0:
90,160,117682,6,0,P|84:121|76:82,1,70,14|2,3:1|0:2,0:0:0:0:
141,36,118015,1,2,3:2:0:0:
201,95,118182,2,0,P|250:66|335:97,1,140,10|2,3:1|0:3,0:0:0:0:
378,153,118682,1,10,3:1:0:0:
378,153,118848,1,8,0:3:0:0:
452,113,119015,2,0,P|457:74|464:33,1,70,2|2,3:1|3:2,0:0:0:0:
304,191,119348,2,0,P|299:225|294:260,1,70,8|0,0:3|3:0,0:0:0:0:
340,337,119682,5,8,3:3:0:0:
205,261,119848,1,2,2:3:0:0:
179,362,120015,2,0,P|213:350|267:340,1,70,0|8,3:0|0:3,0:0:0:0:
95,222,120348,5,10,3:1:0:0:
20,261,120515,2,0,P|-5:220|49:133,1,140,10|10,3:1|3:1,0:0:0:0:
64,65,121015,2,0,L|155:49,1,70,8|2,3:3|0:3,0:0:0:0:
174,126,121348,2,0,L|265:142,1,70,10|8,3:1|0:3,0:0:0:0:
306,81,121682,1,2,3:1:0:0:
380,42,121848,1,2,3:2:0:0:
455,111,122015,1,8,3:3:0:0:
455,111,122098,1,0,3:2:0:0:
455,111,122182,1,0,3:0:0:0:
370,170,122348,6,0,B|397:219|397:219|387:267|387:267|415:339,1,146.999995513916,8|8,3:1|2:3,0:0:0:0:
410,318,122682,2,0,B|454:328|454:328|468:294,1,70,0|8,3:0|0:1,0:0:0:0:
290,276,123015,5,10,3:1:0:0:
209,301,123182,1,2,0:2:0:0:
237,138,123348,5,2,3:2:0:0:
191,208,123515,1,10,3:1:0:0:
107,66,123682,5,8,0:3:0:0:
117,149,123849,1,2,0:3:0:0:
189,31,124015,5,10,3:1:0:0:
32,128,124182,1,8,0:3:0:0:
201,31,124348,2,0,L|289:51,1,70,10|8,3:1|3:1,0:0:0:0:
326,112,124682,2,0,L|423:91,1,70,10|8,0:1|3:1,0:0:0:0:
465,41,125015,5,10,3:1:0:0:
409,200,125182,1,10,2:1:0:0:
512,215,125348,2,0,P|501:180|494:139,1,70,10|8,3:3|0:3,0:0:0:0:
331,273,125682,5,10,3:1:0:0:
247,238,125848,1,2,0:1:0:0:
184,304,126015,1,2,0:1:0:0:
104,259,126182,1,10,3:1:0:0:
37,320,126348,2,0,L|127:291,1,70,8|8,0:3|0:3,0:0:0:0:
217,135,126682,5,10,3:1:0:0:
217,135,126848,1,2,0:1:0:0:
152,73,127015,2,0,P|157:56|158:39,2,35,6|0|8,3:2|2:0|3:3,0:0:0:0:
272,196,127348,2,0,P|267:213|266:230,2,35,10|0|8,3:3|2:0|3:3,0:0:0:0:
272,76,127682,2,0,P|325:65|354:56,1,70,10|2,3:1|3:3,0:0:0:0:
163,200,128015,2,0,P|110:211|81:220,1,70,6|2,3:2|3:2,0:0:0:0:
412,124,128348,6,0,P|421:140|424:171,3,35,6|0|2|0,3:1|2:0|2:3|2:0,0:0:0:0:
494,193,128682,2,0,P|484:208|459:226,3,35,2|0|2|0,3:2|2:0|2:3|2:0,0:0:0:0:
475,298,129015,2,0,P|456:297|428:284,3,35,2|0|2|0,3:2|2:0|2:3|2:0,0:0:0:0:
374,334,129348,2,0,P|359:312|356:266,1,70,2|2,3:2|3:3,0:0:0:0:
293,161,129682,6,0,P|267:173|245:175,3,35,2|0|2|0,3:2|2:0|2:3|2:0,0:0:0:0:
213,234,130015,2,0,P|187:222|165:220,3,35,2|0|2|0,3:2|2:0|2:3|2:0,0:0:0:0:
146,153,130348,2,0,P|111:161|70:169,1,70,2|2,3:2|2:3,0:0:0:0:
25,267,130682,2,0,P|60:259|101:251,1,70,2|2,3:2|0:3,0:0:0:0:
205,80,131015,6,0,P|212:57|209:37,3,35,2|0|2|0,3:2|2:0|2:3|2:0,0:0:0:0:
287,14,131348,2,0,P|294:37|291:57,3,35,2|0|2|0,3:2|2:0|2:3|2:0,0:0:0:0:
364,88,131682,2,0,P|371:65|368:45,3,35,2|0|2|0,3:2|2:0|2:3|2:0,0:0:0:0:
435,8,132015,2,0,P|450:37|447:88,1,70,2|2,3:2|3:3,0:0:0:0:
497,166,132348,6,0,P|461:175|433:181,3,35,2|0|2|0,3:2|2:0|2:3|2:0,0:0:0:0:
414,235,132682,2,0,P|378:226|350:220,3,35,2|0|2|0,3:2|2:0|2:3|2:0,0:0:0:0:
337,162,133015,2,0,P|301:171|273:177,3,35,2|0|2|0,3:2|2:0|2:3|2:0,0:0:0:0:
254,231,133349,2,0,P|218:222|190:216,3,35,2|0|2|0,3:2|2:0|0:3|2:0,0:0:0:0:
171,162,133682,5,2,3:2:0:0:
90,186,133848,1,2,2:3:0:0:
42,117,134015,1,2,3:2:0:0:
92,50,134182,1,2,2:3:0:0:
172,78,134348,2,0,P|177:57|181:35,3,35,2|0|2|0,3:2|2:0|2:3|2:0,0:0:0:0:
261,45,134682,2,0,P|253:82|244:118,1,70,2|2,3:2|3:3,0:0:0:0:
304,176,135015,6,0,L|357:163,3,35,2|0|2|0,3:2|2:0|2:3|2:0,0:0:0:0:
248,238,135348,2,0,L|214:229,3,35,2|0|2|0,3:2|2:0|2:3|2:0,0:0:0:0:
304,297,135682,2,0,L|337:288,3,35,2|0|2|0,3:2|2:0|2:3|2:0,0:0:0:0:
227,334,136015,2,0,L|193:325,3,35,2|0|2|0,3:2|2:0|0:3|2:0,0:0:0:0:
295,376,136348,5,2,3:2:0:0:
256,192,136515,12,2,138682,0:2:0:0:
240,181,139015,6,0,L|133:156,1,83.9999974365235,6|2,3:2|2:3,0:0:0:0:
106,95,139348,1,10,3:2:0:0:
158,161,139515,2,0,B|218:97|218:97|178:23,1,167.999994873047,2|10,2:3|2:3,0:0:0:0:
263,21,140015,2,0,P|306:31|350:35,1,83.9999974365235,10|10,3:2|3:3,0:0:0:0:
378,117,140348,1,2,3:2:0:0:
378,117,140515,2,0,P|282:125|189:148,1,167.999994873047,2|2,2:3|2:3,0:0:0:0:
138,181,141015,2,0,P|110:175|85:168,2,41.9999987182618,2|0|10,3:2|2:0|2:3,0:0:0:0:
208,226,141348,1,10,3:2:0:0:
151,288,141515,1,10,0:3:0:0:
216,341,141682,6,0,P|265:323|332:310,1,83.9999974365235,2|2,3:2|2:3,0:0:0:0:
361,262,142015,1,10,3:2:0:0:
361,262,142182,2,0,B|368:185|448:194|443:95,1,167.999994873047,2|10,2:3|2:3,0:0:0:0:
403,45,142682,1,10,3:2:0:0:
329,5,142848,1,10,3:3:0:0:
272,67,143015,2,0,P|238:94|186:91,1,83.9999974365235,2|2,3:2|2:3,0:0:0:0:
104,63,143348,1,10,0:2:0:0:
149,182,143848,1,10,2:3:0:0:
149,182,144015,2,0,P|100:171|83:109,1,83.9999974365235,10|10,0:2|3:3,0:0:0:0:
104,63,144348,6,0,L|206:39,1,83.9999974365235,2|2,3:2|3:3,0:0:0:0:
274,96,144682,1,10,3:2:0:0:
274,96,144848,2,0,L|395:118,2,83.9999974365235,2|2|10,3:3|3:2|3:3,0:0:0:0:
185,43,145348,2,0,B|158:80|158:80|185:128,1,83.9999974365235,10|10,3:2|3:3,0:0:0:0:
148,196,145682,6,0,L|170:296,1,83.9999974365235,2|2,3:2|3:3,0:0:0:0:
271,319,146015,2,0,L|289:236,1,83.9999974365235,10|2,3:2|3:3,0:0:0:0:
398,190,146348,1,2,3:2:0:0:
398,190,146515,1,10,3:3:0:0:
462,261,146682,2,0,P|430:291|378:286,1,83.9999974365235,10|10,3:2|3:3,0:0:0:0:
324,222,147015,6,0,P|288:212|260:205,3,41.9999987182618,2|0|2|0,3:2|3:0|3:3|3:0,0:0:0:0:
264,173,147348,2,0,P|228:183|200:190,3,41.9999987182618,10|0|2|0,3:2|3:0|3:3|3:0,0:0:0:0:
200,219,147682,2,0,P|164:209|136:202,3,41.9999987182618,2|0|10|8,3:2|3:0|3:3|3:3,0:0:0:0:
140,170,148015,2,0,P|104:180|76:187,3,41.9999987182618,10|0|10|8,3:2|3:0|3:3|3:3,0:0:0:0:
72,213,148348,5,2,3:2:0:0:
72,213,148432,1,0,3:0:0:0:
72,213,148515,2,0,P|72:238|53:288,1,41.9999987182618,2|0,3:3|3:0,0:0:0:0:
102,295,148682,1,10,3:2:0:0:
102,295,148766,1,0,3:0:0:0:
102,295,148849,2,0,P|119:311|131:357,1,41.9999987182618,2|0,3:3|3:0,0:0:0:0:
169,322,149015,2,0,P|198:323|227:340,1,41.9999987182618,2|2,3:2|3:3,0:0:0:0:
238,297,149182,2,0,P|267:295|296:279,1,41.9999987182618,10|10,3:3|3:3,0:0:0:0:
297,327,149348,2,0,P|326:328|355:345,1,41.9999987182618,10|2,3:2|3:3,0:0:0:0:
366,302,149515,2,0,P|395:300|424:284,1,41.9999987182618,10|10,3:3|3:3,0:0:0:0:
445,312,149682,5,6,2:1:0:0:
498,182,150015,5,10,2:2:0:0:
465,104,150265,1,0,2:0:0:0:
465,104,150432,1,0,2:0:0:0:
383,125,150682,1,10,2:2:0:0:
14,202,151348,5,10,2:2:0:0:
47,280,151598,1,0,2:0:0:0:
47,280,151765,1,0,2:0:0:0:
129,259,152015,1,10,2:2:0:0:
212,184,152348,5,2,2:2:0:0:
305,248,152682,5,10,2:2:0:0:
385,223,152932,1,0,2:0:0:0:
385,223,153098,1,0,2:0:0:0:
464,195,153348,1,10,2:2:0:0:
207,136,154015,5,10,2:2:0:0:
127,111,154265,1,0,2:0:0:0:
127,111,154431,1,0,2:0:0:0:
48,83,154681,1,10,2:2:0:0:
87,187,155015,5,2,2:2:0:0:
170,261,155348,5,10,2:2:0:0:
113,323,155598,1,0,2:0:0:0:
113,323,155765,1,0,2:0:0:0:
34,293,156015,1,10,2:2:0:0:
342,123,156682,5,10,2:2:0:0:
399,61,156932,1,0,2:0:0:0:
399,61,157099,1,0,2:0:0:0:
478,91,157349,1,10,2:2:0:0:
441,196,157682,5,2,2:2:0:0:
495,291,158015,5,10,2:2:0:0:
423,317,158265,1,0,2:0:0:0:
423,317,158432,1,0,2:0:0:0:
351,342,158682,1,10,2:2:0:0:
138,147,159015,5,2,2:2:0:0:
77,217,159348,5,10,2:2:0:0:
132,237,159598,1,0,2:0:0:0:
132,237,159765,1,2,2:3:0:0:
188,256,160015,1,10,2:2:0:0:
256,192,160348,5,6,2:2:0:0:
