osu file format v14

[General]
AudioFilename: audio.mp3
AudioLeadIn: 0
PreviewTime: 42994
Countdown: 0
SampleSet: Soft
StackLeniency: 0.4
Mode: 0
LetterboxInBreaks: 0
WidescreenStoryboard: 1

[Editor]
Bookmarks: 21682,32348,43015,85682,96348,107015,117682,128348,139015,149682
DistanceSpacing: 0.8
BeatDivisor: 8
GridSize: 8
TimelineZoom: 3.699998

[Metadata]
Title:Idyllic World
TitleUnicode:Idyllic World
Artist:Krimek
ArtistUnicode:Krimek
Creator:Krimek
Version:-Tynamek's Extra
Source:
Tags:FA Featured Artist electronic instrumental atmospheric hardcore breakcore crossbreed GALAXY OF MIND/MINE MIND/E MIND MINE -Tynamo [BH]Lithium Nozuchi milr_ nytrocide_ nytro ganyumymommy Sylvarus Dignan
BeatmapID:4201405
BeatmapSetID:1978614

[Difficulty]
HPDrainRate:6
CircleSize:4
OverallDifficulty:9
ApproachRate:9.2
SliderMultiplier:1.8
SliderTickRate:0.5

[Events]
//Background and Video events
0,0,"background by krimek.jpg",0,0
//Break Periods
2,64548,68445
2,69882,71778
//Storyboard Layer 0 (Background)
//Storyboard Layer 1 (Fail)
//Storyboard Layer 2 (Pass)
//Storyboard Layer 3 (Foreground)
//Storyboard Layer 4 (Overlay)
//Storyboard Sound Samples

[TimingPoints]
349,333.333333333333,4,2,1,40,1,0
17015,-100,4,2,1,42,0,0
17682,-100,4,2,1,45,0,0
18348,-100,4,2,1,47,0,0
19015,-100,4,2,1,50,0,0
19682,-100,4,2,1,52,0,0
20348,-100,4,2,1,55,0,0
21015,-100,4,2,1,57,0,0
21348,-100,4,2,1,50,0,0
21515,-100,4,2,1,60,0,0
41682,-100,4,2,1,65,0,0
43015,-100,4,2,1,70,0,1
43515,-50,4,2,1,70,0,1
44015,-100,4,2,1,70,0,1
44348,-50,4,2,1,70,0,1
45682,-100,4,2,1,70,0,1
46682,-50,4,2,1,70,0,1
47015,-100,4,2,1,70,0,1
47682,-36.3636363636364,4,2,1,70,0,1
48015,-100,4,2,1,70,0,1
48348,-50,4,2,1,70,0,1
48848,-50,4,2,1,70,0,1
49348,-33.3333333333333,4,2,1,70,0,1
49682,-100,4,2,1,70,0,1
50682,-100,4,2,1,70,0,1
51015,-100,4,2,1,70,0,1
53015,-50,4,2,1,70,0,1
53348,-100,4,2,1,70,0,1
54182,-50,4,2,1,70,0,1
55015,-50,4,2,1,70,0,1
56348,-100,4,2,1,70,0,1
57348,-50,4,2,1,70,0,1
58348,-50,4,2,1,70,0,1
58682,-100,4,2,1,70,0,1
59515,-50,4,2,1,70,0,1
60265,-100,4,2,1,70,0,1
64348,-100,4,1,1,60,0,0
75015,-100,4,1,1,65,0,0
80015,-200,4,1,1,65,0,0
80348,-100,4,1,1,70,0,0
85682,-80,4,2,1,80,0,0
86182,-100,4,2,1,80,0,0
87015,-80,4,2,1,80,0,0
87515,-100,4,2,1,80,0,0
88348,-80,4,2,1,80,0,0
88848,-100,4,2,1,80,0,0
91015,-80,4,2,1,80,0,0
91515,-100,4,2,1,80,0,0
92348,-80,4,2,1,80,0,0
93681,-66.6666666666667,4,2,1,80,0,0
95682,-61.7283950617284,4,2,1,80,0,0
96348,-80,4,2,1,80,0,0
105682,-66.6666666666667,4,2,1,80,0,0
107015,-100,4,2,1,80,0,0
107515,-50,4,2,1,80,0,0
108015,-100,4,2,1,80,0,0
108348,-50,4,2,1,80,0,0
109682,-100,4,2,1,80,0,0
110682,-50,4,2,1,80,0,0
111015,-100,4,2,1,80,0,0
111682,-36.3636363636364,4,2,1,80,0,0
112015,-100,4,2,1,80,0,0
112348,-50,4,2,1,80,0,0
112848,-50,4,2,1,80,0,0
113348,-33.3333333333333,4,2,1,80,0,0
113682,-100,4,2,1,80,0,0
114682,-100,4,2,1,80,0,0
115015,-100,4,2,1,80,0,0
117015,-50,4,2,1,80,0,0
117348,-100,4,2,1,80,0,0
118182,-50,4,2,1,80,0,0
118682,-100,4,2,1,80,0,0
119015,-50,4,2,1,80,0,0
120348,-100,4,2,1,80,0,0
121348,-50,4,2,1,80,0,0
122348,-50,4,2,1,80,0,0
122682,-100,4,2,1,80,0,0
123015,-50,4,2,1,80,0,0
123515,-50,4,2,1,80,0,0
124265,-100,4,2,1,80,0,0
127015,-83.3333333333333,4,2,1,80,0,0
128348,-100,4,2,1,70,0,1
138682,-100,4,2,1,70,0,0
139015,-100,4,2,1,75,0,1
143015,-100,4,2,1,75,0,0
144348,-100,4,2,1,75,0,1
149682,-100,4,2,1,60,0,0
155015,-133.333333333333,4,2,1,60,0,0
160348,-133.333333333333,4,2,1,50,0,0

[Colours]
Combo1 : 255,21,138
Combo2 : 191,223,255
Combo3 : 255,128,192
Combo4 : 72,95,153

[HitObjects]
256,192,16348,12,0,21348,0:0:0:0:
275,252,21515,5,0,0:0:0:0:
275,252,21682,1,6,3:1:0:0:
204,229,21848,1,2,0:2:0:0:
204,154,22015,1,8,3:2:0:0:
275,131,22182,1,2,0:2:0:0:
319,192,22348,1,2,3:2:0:0:
194,234,22515,1,2,0:2:0:0:
279,118,22682,1,8,3:2:0:0:
279,264,22848,1,2,0:2:0:0:
194,147,23015,6,0,L|93:155,1,90,2|0,3:2|0:0,0:0:0:0:
202,298,23348,2,0,L|303:290,1,90,8|0,3:2|0:0,0:0:0:0:
459,223,23682,1,2,3:2:0:0:
459,146,23848,1,2,0:2:0:0:
387,123,24015,1,8,3:2:0:0:
342,185,24182,1,2,0:2:0:0:
387,247,24348,6,0,L|487:258,1,90,2|0,3:2|0:0,0:0:0:0:
387,123,24682,1,8,3:2:0:0:
387,123,24848,1,2,0:2:0:0:
314,146,25015,1,2,3:2:0:0:
270,83,25182,1,2,0:2:0:0:
316,22,25348,1,8,3:2:0:0:
388,47,25515,2,0,L|397:158,1,90,2|0,0:2|3:2,0:0:0:0:
281,286,25848,5,2,0:2:0:0:
208,262,26015,1,8,3:2:0:0:
208,185,26182,2,0,L|332:179,1,90,2|0,0:2|3:2,0:0:0:0:
286,297,26515,1,2,0:2:0:0:
199,180,26682,1,8,3:2:0:0:
329,225,26848,1,2,0:2:0:0:
208,262,27015,5,2,3:2:0:0:
141,300,27182,1,2,0:2:0:0:
84,244,27348,1,8,3:2:0:0:
119,175,27515,1,2,0:2:0:0:
196,189,27682,1,2,3:2:0:0:
141,316,27848,1,2,0:2:0:0:
113,160,28015,2,0,L|215:153,1,90,8|2,3:2|0:2,0:0:0:0:
321,192,28348,5,2,3:2:0:0:
276,253,28515,1,2,0:2:0:0:
203,230,28682,2,0,L|198:129,1,90,8|0,3:2|0:0,0:0:0:0:
346,113,29015,2,0,L|341:202,1,90,0|2,3:2|0:2,0:0:0:0:
307,321,29348,1,8,3:2:0:0:
384,319,29515,1,2,0:2:0:0:
404,245,29682,5,2,3:2:0:0:
281,249,29848,1,2,0:2:0:0:
391,326,30015,1,8,3:2:0:0:
341,202,30182,1,2,0:2:0:0:
301,331,30348,1,2,3:2:0:0:
415,241,30515,1,2,0:2:0:0:
270,244,30682,1,8,3:2:0:0:
428,235,30848,1,2,0:2:0:0:
295,341,31015,6,0,L|287:240,1,90,2|0,3:2|0:0,0:0:0:0:
428,111,31348,1,8,3:2:0:0:
472,173,31515,1,2,0:2:0:0:
428,235,31682,1,2,3:2:0:0:
355,212,31848,1,2,0:2:0:0:
355,135,32015,1,8,3:2:0:0:
428,111,32182,1,2,0:2:0:0:
282,159,32348,5,6,3:2:0:0:
209,135,32515,1,2,0:2:0:0:
136,111,32682,1,8,3:2:0:0:
63,87,32849,1,2,0:2:0:0:
79,163,33015,5,2,3:2:0:0:
193,59,33182,1,2,0:2:0:0:
225,211,33348,1,8,3:2:0:0:
339,107,33515,1,2,0:2:0:0:
371,259,33682,6,0,B|383:283|383:283|455:300,1,90,2|0,3:2|0:0,0:0:0:0:
307,214,34015,2,0,B|285:197|285:197|213:212,1,90,8|0,3:2|0:0,0:0:0:0:
184,340,34348,5,2,3:2:0:0:
168,264,34515,1,2,0:2:0:0:
152,189,34682,1,8,3:2:0:0:
136,114,34849,1,2,0:2:0:0:
92,242,35015,6,0,P|55:219|10:213,1,90,2|2,3:2|0:2,0:0:0:0:
211,137,35348,2,0,P|248:113|293:107,1,90,8|2,3:2|0:2,0:0:0:0:
353,187,35682,5,2,3:2:0:0:
376,260,35849,1,2,0:2:0:0:
313,304,36016,1,8,3:2:0:0:
252,258,36182,1,2,0:2:0:0:
375,259,36348,6,0,P|389:302|378:345,1,90,2|2,3:2|0:2,0:0:0:0:
252,258,36682,2,0,P|209:271|166:260,1,90,8|2,3:2|0:2,0:0:0:0:
253,134,37015,2,0,P|239:91|250:48,1,90,2|2,3:2|0:2,0:0:0:0:
377,134,37349,2,0,P|419:120|462:131,1,90,8|2,3:2|0:2,0:0:0:0:
500,226,37682,5,2,3:2:0:0:
421,202,37848,1,2,0:2:0:0:
334,269,38015,5,8,3:2:0:0:
255,293,38181,1,2,0:2:0:0:
164,226,38348,5,2,3:2:0:0:
85,202,38514,1,2,0:2:0:0:
65,351,38682,2,0,P|94:314|105:266,1,90,8|2,3:2|0:2,0:0:0:0:
143,151,39015,2,0,P|113:114|102:66,1,90,2|2,3:2|0:2,0:0:0:0:
221,61,39348,6,0,B|225:112|192:141|192:141|160:169|164:226,1,180,8|2,3:2|3:2,0:0:0:0:
175,306,39848,1,2,0:2:0:0:
256,294,40015,1,8,3:2:0:0:
244,213,40182,1,2,0:2:0:0:
97,271,40348,6,0,B|90:311|90:311|92:319|92:319|84:359,1,90,2|2,3:2|0:2,0:0:0:0:
244,213,40682,2,0,B|237:173|237:173|239:165|239:165|232:125,1,90,8|2,3:2|0:2,0:0:0:0:
16,259,41015,6,0,B|9:299|9:299|11:307|11:307|3:347,1,90,2|2,3:2|0:2,0:0:0:0:
163,224,41348,2,0,B|155:183|155:183|157:175|157:175|150:135,1,90,8|2,3:2|0:2,0:0:0:0:
141,48,41682,5,2,3:2:0:0:
32,19,41848,1,2,0:3:0:0:
62,128,42015,1,8,3:3:0:0:
228,84,42182,5,2,0:3:0:0:
249,80,42265,1,2,0:3:0:0:
270,76,42348,1,2,3:3:0:0:
379,47,42514,5,8,0:3:0:0:
349,156,42681,1,8,3:2:0:0:
319,265,42848,1,2,0:3:0:0:
126,146,43015,6,0,L|84:99,1,45,14|0,3:1|0:0,0:0:0:0:
228,84,43182,2,0,L|289:71,1,45,2|0,0:2|0:0,0:0:0:0:
238,191,43348,2,0,L|218:250,1,45,2|0,3:2|0:0,0:0:0:0:
38,208,43515,6,0,B|0:125|0:125|23:23,2,180,10|8|2,3:1|0:3|0:3,0:0:0:0:
176,344,44015,2,0,L|183:280,1,45,10|0,3:1|0:0,0:0:0:0:
233,235,44182,2,0,L|240:171,1,45,8|0,0:3|0:0,0:0:0:0:
291,60,44348,6,0,B|494:86,2,180,2|2|8,3:1|3:2|0:3,0:0:0:0:
512,19,44848,1,0,3:0:0:0:
291,60,45015,6,0,B|109:39,2,180,8|2|0,3:3|2:3|3:0,0:0:0:0:
68,112,45515,1,8,0:3:0:0:
370,139,45682,6,0,L|356:202,1,45,10|0,3:1|0:0,0:0:0:0:
341,319,45848,2,0,L|293:275,1,45,10|0,3:1|0:0,0:0:0:0:
208,210,46015,2,0,L|269:190,1,45,2|0,3:2|0:0,0:0:0:0:
188,314,46182,6,0,P|197:351|175:320,2,90,10|8|2,3:1|3:3|0:3,0:0:0:0:
292,48,46682,6,0,B|278:45|266:46|266:46|263:39|263:39|261:47|261:47|249:50|249:50|239:55|239:55|233:51|233:51|236:57|236:57|226:64|226:64|218:73|218:73|210:70|210:70|215:76|215:76|209:86|209:86|206:96|206:96|196:98|196:98|205:102|205:102|202:111|202:111|202:121|202:121|193:125|193:125|202:125|202:125|204:139|204:139|208:149|208:149|200:155|200:155|211:153|211:153|216:165|227:174,1,270,10|0,3:1|0:0,0:0:0:0:
250,195,47015,1,2,3:1:0:0:
120,60,47182,1,2,3:2:0:0:
111,235,47348,1,8,3:3:0:0:
180,216,47431,1,0,3:2:0:0:
250,195,47515,1,0,3:0:0:0:
19,282,47682,6,0,B|17:256|17:256|9:248|9:248|24:239|24:239|8:232|8:232|23:223|23:223|6:216|6:216|22:207|22:207|5:200|5:200|21:191|21:191|4:184|4:184|20:175|20:175|3:168|3:168|19:159|19:159|2:152|2:152|17:143|17:143|1:136|1:136|16:127|16:127|0:120|0:120|15:111|15:111|7:104|7:104|5:77,1,371.250003540516,8|0,3:1|0:0,0:0:0:0:
1,52,48015,2,0,L|58:59,1,45,0|0,3:0|0:0,0:0:0:0:
120,60,48182,1,8,0:1:0:0:
280,115,48348,6,0,B|246:145|246:145|98:152,2,180,10|2|2,3:1|0:2|3:2,0:0:0:0:
419,11,48848,6,0,B|442:23|442:23|451:18|451:18|445:26|445:26|447:36|460:44|460:44|475:40|475:40|462:48|462:48|454:61|469:71|469:71|490:71|490:71|470:75|470:75|452:85|467:97|467:97|485:105|485:105|465:102|465:102|447:105|458:120|458:120|468:129|468:129|456:124|456:124|438:123|438:141|438:141|442:150|442:150|434:143|434:143|413:144|409:168|409:168|394:169|375:194|387:228,1,450,10|0,3:1|0:0,0:0:0:0:
400,263,49348,6,0,B|385:266|385:266|375:261|375:261|372:278|372:278|360:265|360:265|356:282|356:282|344:269|344:269|341:287|341:287|329:273|329:273|325:291|325:291|313:277|313:277|310:295|310:295|298:281|298:281|294:299|294:299|282:286|282:286|279:303|279:303|267:290|267:290|263:307|263:307|252:294|252:294|248:311|248:311|238:306|238:306|221:310,1,360,10|0,3:1|0:0,0:0:0:0:
196,318,49682,6,0,L|186:256,1,45,10|0,3:1|0:0,0:0:0:0:
308,155,49848,2,0,L|300:199,1,45,8|0,3:1|0:0,0:0:0:0:
114,288,50015,6,0,L|104:226,1,45,10|0,0:1|0:0,0:0:0:0:
226,125,50181,2,0,L|218:169,1,45,8|2,3:1|0:3,0:0:0:0:
32,258,50348,6,0,L|22:196,1,45,10|2,3:1|0:3,0:0:0:0:
144,95,50515,2,0,L|136:139,1,45,10|0,2:1|0:0,0:0:0:0:
355,73,50682,6,0,L|353:91,4,11.25,10|0|0|0|0,3:3|0:0|0:0|0:0|0:0,0:0:0:0:
355,73,51015,2,0,B|298:58|298:58|146:90,1,180,10|2,3:1|0:1,0:0:0:0:
98,105,51515,1,10,3:1:0:0:
268,223,51682,2,0,B|287:179|287:179|283:96,1,90,8|8,0:3|0:3,0:0:0:0:
105,190,52015,5,10,3:1:0:0:
118,208,52098,1,2,0:3:0:0:
131,226,52181,1,2,0:1:0:0:
152,232,52265,1,2,0:3:0:0:
174,237,52348,2,0,L|178:174,1,45,2|0,3:1|0:0,0:0:0:0:
140,326,52515,5,8,0:3:0:0:
95,318,52598,1,0,0:0:0:0:
58,294,52681,1,10,3:3:0:0:
31,257,52765,1,0,0:0:0:0:
21,214,52848,1,8,0:3:0:0:
251,315,53015,6,0,B|264:317|276:317|276:317|279:324|279:324|280:316|280:316|293:313|293:313|303:309|303:309|310:314|310:314|307:307|307:307|317:300|317:300|325:291|325:291|332:295|332:295|328:289|328:289|335:279|335:279|338:268|338:268|348:267|348:267|340:263|340:263|342:254|342:254|343:244|343:244|352:241|352:241|343:240|343:240|341:227|341:227|337:216|337:216|345:210|345:210|336:211|336:211|330:200|320:191,1,270,10|0,3:1|0:0,0:0:0:0:
296,171,53348,1,6,3:2:0:0:
394,334,53515,1,2,0:2:0:0:
470,247,53682,6,0,L|450:176,1,45,14|0,3:1|0:0,0:0:0:0:
417,91,53848,2,0,L|365:143,1,45,2|0,0:2|0:0,0:0:0:0:
299,216,54015,2,0,L|370:234,1,45,2|0,3:2|0:0,0:0:0:0:
491,45,54182,6,0,B|452:12|452:12|307:15,2,180,10|8|2,3:1|0:3|0:3,0:0:0:0:
470,247,54682,1,10,3:1:0:0:
437,141,54848,1,8,0:3:0:0:
337,276,55015,6,0,B|310:277|290:262|290:262|259:186|291:99,2,180,2|2|8,3:1|3:2|0:3,0:0:0:0:
371,188,55515,1,0,3:0:0:0:
381,0,55682,6,0,B|408:-1|428:14|428:14|459:90|427:177,2,180,8|2|0,3:3|2:3|3:0,0:0:0:0:
347,88,56182,1,8,0:3:0:0:
138,25,56348,6,0,L|65:40,1,45,10|0,3:1|0:0,0:0:0:0:
25,131,56515,2,0,L|98:146,1,45,10|0,3:1|0:0,0:0:0:0:
140,232,56682,2,0,L|67:247,1,45,2|0,3:2|0:0,0:0:0:0:
38,321,56848,6,0,P|41:357|52:329,2,90,10|8|2,3:1|3:3|0:3,0:0:0:0:
182,225,57348,6,0,B|195:222|207:222|207:222|210:215|210:215|211:223|211:223|224:226|224:226|234:230|234:230|241:225|241:225|238:232|238:232|248:239|248:239|256:248|256:248|263:244|263:244|259:250|259:250|266:260|266:260|269:270|269:270|279:272|279:272|270:276|270:276|273:285|273:285|274:295|274:295|283:298|283:298|274:299|274:299|272:312|272:312|268:323|268:323|276:329|276:329|266:327|266:327|261:339|250:348,1,270,10|0,3:1|0:0,0:0:0:0:
231,371,57682,1,2,3:1:0:0:
138,302,57848,1,2,3:2:0:0:
336,211,58015,1,8,3:3:0:0:
345,282,58098,1,0,3:2:0:0:
353,354,58182,1,0,3:0:0:0:
155,133,58348,6,0,B|186:131|186:131|193:123|193:123|199:134|199:134|204:122|204:122|210:133|210:133|218:122|218:122|223:133|223:133|231:122|231:122|238:132|238:132|244:121|244:121|252:130|252:130|259:120|259:120|264:131|264:131|271:119|271:119|276:131|276:131|281:119|281:119|286:131|286:131|293:123|293:123|331:120,1,270,8|0,3:1|0:0,0:0:0:0:
352,120,58682,1,0,3:0:0:0:
216,217,58848,1,8,0:1:0:0:
251,42,59015,6,0,L|359:34,1,90,10|2,3:1|0:2,0:0:0:0:
460,107,59348,1,2,3:2:0:0:
289,248,59515,6,0,B|277:239|270:230|270:230|263:232|263:232|268:226|268:226|261:215|261:215|258:204|258:204|250:202|250:202|257:200|257:200|256:188|256:188|257:176|257:176|250:173|250:173|257:172|257:172|260:160|260:160|266:152|266:152|260:143|260:143|269:147|269:147|274:138|274:138|281:132|281:132|277:123|277:123|284:129|284:129|295:122|295:122|306:117|306:117|305:108|305:108|310:116|310:116|323:113|337:115,1,270,10|0,3:1|0:0,0:0:0:0:
366,115,59848,1,2,0:3:0:0:
453,197,60015,6,0,B|464:205|471:214|471:214|478:212|478:212|473:218|473:218|480:229|480:229|483:240|483:240|491:242|491:242|484:244|484:244|485:256|485:256|484:268|484:268|491:271|491:271|484:272|484:272|481:284|481:284|475:292|475:292|481:301|481:301|472:297|472:297|467:306|467:306|460:312|460:312|464:321|464:321|457:315|457:315|446:322|446:322|435:327|435:327|436:336|436:336|431:328|431:328|418:331|404:329,1,270,10|0,3:1|0:0,0:0:0:0:
376,330,60348,6,0,L|333:315,1,45,10|0,3:1|0:0,0:0:0:0:
264,308,60515,2,0,L|206:288,1,45,8|0,3:1|0:0,0:0:0:0:
89,234,60682,6,0,L|147:214,1,45,10|0,0:1|0:0,0:0:0:0:
209,192,60849,2,0,L|267:172,1,45,8|2,3:1|0:3,0:0:0:0:
462,157,61015,6,0,L|404:137,1,45,10|2,3:1|0:3,0:0:0:0:
313,105,61182,2,0,L|255:85,1,45,10|0,2:1|0:0,0:0:0:0:
162,34,61348,6,0,L|156:82,1,45,10|0,3:3|0:0,0:0:0:0:
162,34,61682,5,10,3:1:0:0:
206,96,61848,1,2,0:1:0:0:
162,158,62015,1,2,0:1:0:0:
89,134,62182,1,10,3:1:0:0:
89,57,62348,1,8,0:3:0:0:
221,95,62515,1,8,0:3:0:0:
72,143,62682,5,10,3:1:0:0:
77,178,62793,1,0,0:0:0:0:
84,213,62904,1,0,0:0:0:0:
91,248,63015,6,0,L|102:300,1,45,2|0,3:1|0:0,0:0:0:0:
125,311,63182,2,0,L|136:363,1,45,8|0,3:3|0:0,0:0:0:0:
249,358,63348,2,0,L|260:306,1,45,10|0,3:3|0:0,0:0:0:0:
283,295,63515,2,0,L|294:243,1,45,8|0,3:3|0:0,0:0:0:0:
275,175,63682,5,10,3:1:0:0:
292,172,63765,1,0,0:0:0:0:
309,173,63848,1,2,3:3:0:0:
325,181,63932,1,0,0:0:0:0:
386,131,64015,5,6,3:2:0:0:
351,101,64098,1,0,0:0:0:0:
306,91,64182,1,2,3:2:0:0:
261,98,64265,1,0,0:0:0:0:
343,23,64348,5,14,3:1:0:0:
467,373,69015,6,0,L|470:389,4,11.25,10|0|0|0|0,2:1|0:0|0:0|0:0|2:0,0:0:0:0:
388,342,69182,2,0,L|391:358,4,11.25,10|0|0|0|8,2:1|0:0|0:0|0:0|2:3,0:0:0:0:
319,381,69348,1,2,3:1:0:0:
256,192,69682,5,10,3:1:0:0:
256,192,72348,12,10,74848,2:1:0:0:
459,37,75015,6,0,L|465:136,1,90,10|2,3:1|2:3,0:0:0:0:
395,209,75348,1,10,3:1:0:0:
394,231,75432,1,2,2:3:0:0:
393,253,75515,1,10,2:3:0:0:
392,275,75598,1,2,2:3:0:0:
391,297,75682,2,0,L|388:350,2,45,2|0|10,3:2|2:0|2:3,0:0:0:0:
313,354,75932,1,8,2:3:0:0:
313,354,76015,1,10,3:1:0:0:
227,209,76265,1,8,2:2:0:0:
181,223,76348,6,0,L|178:276,3,45,10|2|2|2,3:1|2:3|2:3|2:3,0:0:0:0:
104,312,76682,2,0,L|101:267,1,45,10|2,3:1|2:3,0:0:0:0:
45,212,76848,1,10,2:3:0:0:
42,189,76932,1,2,2:3:0:0:
39,166,77015,1,2,3:2:0:0:
37,143,77098,1,0,2:0:0:0:
35,120,77182,2,0,L|29:54,1,45,10|8,2:3|2:3,0:0:0:0:
22,0,77348,1,10,3:1:0:0:
203,43,77598,1,8,2:2:0:0:
234,72,77682,5,10,3:1:0:0:
231,93,77765,1,2,2:3:0:0:
228,115,77848,1,2,2:3:0:0:
226,137,77932,1,2,2:3:0:0:
223,159,78015,2,0,L|215:213,1,45,10|2,3:1|2:3,0:0:0:0:
151,244,78182,1,10,2:3:0:0:
154,265,78265,1,2,2:3:0:0:
157,287,78348,2,0,L|164:341,2,45,2|0|10,3:2|2:0|2:3,0:0:0:0:
232,384,78598,1,8,2:3:0:0:
232,384,78682,1,10,3:1:0:0:
370,309,78932,1,8,2:2:0:0:
412,291,79015,6,0,L|415:231,3,45,10|2|2|2,3:1|2:3|2:3|2:3,0:0:0:0:
346,201,79348,2,0,L|343:141,1,45,10|2,3:1|2:3,0:0:0:0:
406,104,79515,1,10,2:3:0:0:
406,92,79598,1,2,2:3:0:0:
407,81,79681,1,2,3:2:0:0:
407,70,79764,1,0,2:0:0:0:
408,59,79848,1,10,2:3:0:0:
409,47,79932,1,8,2:3:0:0:
325,8,80015,6,0,L|330:68,1,45,2|0,3:1|0:0,0:0:0:0:
328,52,80348,6,0,P|295:52|264:60,1,45,10|2,3:1|2:3,0:0:0:0:
211,65,80515,2,0,P|178:72|150:88,1,45,2|2,3:3|2:3,0:0:0:0:
122,152,80682,6,0,P|155:151|186:159,1,45,10|2,3:1|2:3,0:0:0:0:
239,164,80849,2,0,P|271:171|299:187,1,45,10|2,3:3|2:3,0:0:0:0:
309,246,81015,6,0,P|275:245|244:253,1,45,10|0,3:1|2:0,0:0:0:0:
192,258,81182,2,0,P|159:265|131:281,1,45,10|8,3:3|2:3,0:0:0:0:
116,346,81348,6,0,P|149:345|180:353,1,45,10|0,3:1|2:0,0:0:0:0:
233,358,81515,2,0,P|265:365|293:381,1,45,10|8,3:3|2:2,0:0:0:0:
358,376,81682,6,0,P|387:335|387:317,1,45,10|2,3:1|2:3,0:0:0:0:
418,275,81848,2,0,P|422:224|413:209,1,45,2|2,3:3|2:3,0:0:0:0:
291,286,82015,6,0,P|308:238|303:221,1,45,10|2,3:1|2:3,0:0:0:0:
322,172,82181,2,0,P|313:122|300:109,1,45,10|2,3:3|2:3,0:0:0:0:
202,216,82349,6,0,P|206:165|197:150,1,45,10|0,3:1|2:0,0:0:0:0:
203,98,82515,2,0,P|181:52|166:43,1,45,10|8,3:3|2:3,0:0:0:0:
97,171,82682,6,0,P|88:121|75:108,1,45,10|0,3:1|2:0,0:0:0:0:
68,57,82848,2,0,P|35:18|18:13,1,45,10|8,3:3|2:2,0:0:0:0:
1,174,83015,5,10,3:1:0:0:
0,185,83098,1,2,3:3:0:0:
1,203,83182,1,2,3:3:0:0:
9,223,83265,1,2,3:3:0:0:
27,242,83348,1,10,3:1:0:0:
55,256,83432,1,2,3:3:0:0:
90,257,83515,1,10,3:1:0:0:
127,242,83598,1,2,3:3:0:0:
150,203,83682,1,10,3:1:0:0:
169,157,83765,1,0,3:0:0:0:
210,122,83848,1,10,3:1:0:0:
268,115,83932,1,8,3:3:0:0:
317,136,84015,1,10,3:1:0:0:
348,185,84098,1,0,3:0:0:0:
339,247,84182,1,10,3:1:0:0:
289,292,84265,1,8,3:2:0:0:
217,293,84348,1,10,3:1:0:0:
256,192,84432,12,0,85515,0:0:0:0:
217,293,85682,6,0,B|181:288|155:259|155:259|171:286|174:313,2,112.5,6|2|10,2:1|2:2|2:2,0:0:0:0:
335,133,86182,2,0,P|306:212|222:209,1,180,2|10,2:2|2:3,0:0:0:0:
266,150,86682,1,10,2:2:0:0:
330,288,86848,5,10,2:3:0:0:
351,292,86931,1,8,2:3:0:0:
372,296,87015,2,0,B|382:367|382:367|419:350,2,112.5,2|2|10,2:2|2:3|2:2,0:0:0:0:
505,134,87515,2,0,B|495:204|495:204|453:213|453:213|444:279,1,180,2|10,2:3|2:3,0:0:0:0:
495,336,88015,1,10,2:2:0:0:
372,296,88182,1,10,2:3:0:0:
249,256,88348,6,0,L|302:273,1,56.25,2|0,2:2|2:0,0:0:0:0:
356,220,88515,2,0,L|373:166,1,56.25,2|0,2:2|2:0,0:0:0:0:
320,113,88682,2,0,L|266:95,1,56.25,10|0,2:2|2:0,0:0:0:0:
213,149,88849,2,0,B|197:201|197:201|165:162|115:154|115:154|66:169,1,180,2|10,2:2|2:3,0:0:0:0:
15,194,89348,1,10,2:2:0:0:
167,91,89515,5,10,2:3:0:0:
163,69,89598,1,8,2:3:0:0:
159,48,89682,2,0,B|95:67|95:67|51:51,2,90,2|2|10,2:2|2:3|2:2,0:0:0:0:
213,149,90182,2,0,B|277:168|277:168|321:152,2,90,2|2|10,2:3|2:2|2:3,0:0:0:0:
159,250,90682,2,0,B|95:269|95:269|51:253,1,90,10|10,2:2|2:2,0:0:0:0:
22,143,91015,6,0,P|90:158|97:192,2,112.5,2|2|10,2:2|2:3|2:2,0:0:0:0:
43,345,91515,2,0,P|128:330|158:249,1,180,2|10,2:3|2:3,0:0:0:0:
73,261,92015,1,10,2:2:0:0:
227,308,92182,5,10,2:3:0:0:
231,286,92265,1,8,2:3:0:0:
235,265,92348,2,0,B|247:315|247:315|255:323|255:323|266:382,2,112.5,2|2|10,2:2|2:3|2:2,0:0:0:0:
298,160,92848,2,0,B|310:110|310:110|318:102|318:102|329:42,2,112.5,2|2|10,2:3|2:2|2:3,0:0:0:0:
361,265,93348,2,0,B|373:315|373:315|381:323|381:323|392:382,1,112.5,10|10,2:2|2:3,0:0:0:0:
465,178,93682,6,0,B|472:198|498:208|536:195|553:156|552:101|492:58|412:60|377:100|342:162|391:242,1,337.500012874604,10|0,2:1|2:0,0:0:0:0:
298,160,94182,2,0,B|291:228|344:269|344:269|409:318|391:371|391:371|336:363|336:363|346:314,1,337.500012874604,10|8,2:1|2:3,0:0:0:0:
272,304,94682,6,0,B|256:371|256:371|123:341|123:341|153:212,1,337.500012874604,10|0,2:1|2:0,0:0:0:0:
76,222,95182,2,0,B|90:156|90:156|282:100|282:100|298:32,1,337.500012874604,10|0,2:1|2:0,0:0:0:0:
219,38,95682,6,0,B|200:41|200:41|190:36|190:36|187:53|187:53|175:40|175:40|171:57|171:57|159:44|159:44|156:62|156:62|144:48|144:48|140:66|140:66|128:52|128:52|125:70|125:70|113:56|113:56|109:74|109:74|97:61|97:61|94:78|94:78|82:65|82:65|78:82|78:82|67:69|67:69|63:86|63:86|53:81|53:81|30:87,1,364.500008898926,10|2,3:1|2:3,0:0:0:0:
13,11,96182,1,10,2:3:0:0:
57,159,96348,6,0,B|63:179|63:179|161:150,2,112.5,6|2|10,3:2|2:2|2:3,0:0:0:0:
231,132,96848,1,2,2:2:0:0:
172,296,97015,2,0,B|199:237|166:187|166:187|133:134|162:79,1,225,2|10,3:2|2:3,0:0:0:0:
235,50,97515,1,10,3:3:0:0:
326,172,97682,6,0,B|381:188|381:188|438:170,2,112.5,2|2|10,3:2|2:3|2:3,0:0:0:0:
231,132,98182,1,2,2:3:0:0:
380,0,98348,2,0,B|396:55|396:55|378:112,2,112.5,2|10|10,3:2|2:3|2:3,0:0:0:0:
326,172,98848,1,10,3:3:0:0:
359,272,99015,6,0,L|422:281,1,56.25,2|0,3:2|2:0,0:0:0:0:
491,283,99182,2,0,L|467:224,1,56.25,2|0,2:2|2:0,0:0:0:0:
435,164,99348,2,0,L|396:214,1,56.25,10|0,2:3|2:0,0:0:0:0:
287,317,99515,6,0,B|331:351|331:351|415:351,2,112.5,2|2|10,2:2|3:2|2:3,0:0:0:0:
318,116,100015,2,0,L|327:183,1,56.25,10|0,2:3|2:0,0:0:0:0:
304,182,100182,2,0,L|313:249,1,56.25,10|8,3:3|2:3,0:0:0:0:
287,317,100348,5,2,3:2:0:0:
200,184,100515,2,0,B|179:215|179:215|188:308,2,112.5,2|10|2,2:3|2:3|2:3,0:0:0:0:
127,369,101015,1,2,3:2:0:0:
13,312,101182,2,0,B|-8:281|-8:281|1:188,2,112.5,10|10|10,2:3|2:3|3:3,0:0:0:0:
10,92,101682,6,0,P|39:100|74:99,1,56.25,6|0,3:2|2:0,0:0:0:0:
86,126,101848,2,0,P|116:126|150:116,1,56.25,2|2,3:2|2:3,0:0:0:0:
186,53,102015,6,0,P|216:53|250:63,1,56.25,10|0,3:3|2:0,0:0:0:0:
268,39,102181,2,0,P|297:47|327:65,1,56.25,2|0,3:2|2:0,0:0:0:0:
359,152,102348,6,0,P|352:183|353:217,1,56.25,2|0,3:2|2:0,0:0:0:0:
333,221,102515,2,0,P|345:250|365:278,1,56.25,10|8,3:3|2:3,0:0:0:0:
456,277,102682,6,0,P|443:306|423:333,1,56.25,10|0,3:3|2:0,0:0:0:0:
436,348,102849,2,0,P|409:365|376:375,1,56.25,10|8,3:3|2:3,0:0:0:0:
255,368,103015,6,0,L|259:303,1,56.25,2|0,3:2|2:0,0:0:0:0:
275,331,103182,2,0,L|279:266,1,56.25,2|0,3:3|2:0,0:0:0:0:
170,285,103348,6,0,L|166:220,1,56.25,10|0,3:3|2:0,0:0:0:0:
136,232,103515,2,0,L|132:167,1,56.25,2|0,3:3|2:0,0:0:0:0:
338,218,103682,6,0,L|342:153,1,56.25,2|0,3:2|2:0,0:0:0:0:
397,150,103848,2,0,L|401:85,1,56.25,10|8,3:3|2:3,0:0:0:0:
168,132,104015,6,0,L|164:67,1,56.25,10|0,3:3|2:0,0:0:0:0:
91,56,104182,2,0,L|87:-9,1,56.25,10|8,3:3|2:3,0:0:0:0:
321,0,104348,6,0,B|336:90|336:90|313:146|313:146|339:277,1,281.25,10|0,3:1|2:0,0:0:0:0:
427,239,104848,2,0,P|369:191|255:320,1,281.25,10|8,3:1|2:3,0:0:0:0:
341,298,105348,2,0,B|275:313|215:288|215:288|223:308|211:333,1,168.75,10|8,3:1|2:3,0:0:0:0:
102,229,105682,6,0,B|-103:229|-103:453|281:453|281:229|281:37|89:37|-103:37|-103:421|281:421|281:165,1,945.000036048891,2|10,3:2|2:3,0:0:0:0:
204,81,107015,6,0,L|143:68,1,45,14|0,3:1|2:0,0:0:0:0:
308,157,107182,2,0,L|369:144,1,45,2|2,0:2|2:3,0:0:0:0:
204,233,107349,2,0,L|143:220,1,45,2|0,3:2|2:0,0:0:0:0:
349,273,107515,6,0,B|298:269|269:302|269:302|241:334|185:330,2,180,10|8|2,3:1|0:3|0:3,0:0:0:0:
512,382,108015,2,0,L|505:318,1,45,10|0,3:1|2:0,0:0:0:0:
455,273,108182,2,0,L|448:209,1,45,8|8,0:3|2:3,0:0:0:0:
371,43,108348,6,0,B|327:47|327:47|341:184,2,180,2|2|8,3:1|3:2|0:3,0:0:0:0:
349,273,108848,1,0,3:0:0:0:
455,273,109015,6,0,B|498:268|498:268|485:132,2,180,8|2|0,3:3|2:3|3:0,0:0:0:0:
477,43,109515,1,8,0:3:0:0:
349,273,109682,6,0,L|362:334,1,45,10|0,3:1|2:0,0:0:0:0:
273,168,109849,2,0,L|286:107,1,45,10|2,3:1|2:3,0:0:0:0:
197,272,110016,2,0,L|210:333,1,45,2|0,3:2|2:0,0:0:0:0:
166,384,110182,2,0,B|121:374|121:374|130:330,2,90,10|8|2,3:1|3:3|0:3,0:0:0:0:
197,272,110682,6,0,B|195:260|195:260|190:257|190:257|198:252|198:252|189:249|189:249|197:244|188:241|188:241|195:236|195:236|187:233|187:233|194:227|185:226|185:226|193:220|193:220|184:217|184:217|191:212|183:209|183:209|190:204|190:204|164:197|164:197|171:191|171:191|162:188|170:183|170:183|161:180|161:180|169:175|169:175|160:173|167:168|167:168|158:165|158:165|166:160|166:160|157:157|165:152|165:152|156:149|156:149|163:144|163:144|154:142|161:136|161:136|157:133|157:133|156:119,1,270,10|8,3:1|2:3,0:0:0:0:
150,91,111015,1,2,3:1:0:0:
108,252,111182,1,2,3:2:0:0:
79,75,111348,1,8,3:3:0:0:
58,5,111432,1,0,3:2:0:0:
129,21,111516,1,0,3:0:0:0:
266,217,111682,6,0,B|291:212|291:212|298:204|298:204|309:218|309:218|314:201|314:201|325:215|325:215|330:198|330:198|340:213|340:213|346:195|346:195|356:211|356:211|362:193|362:193|372:208|372:208|378:191|378:191|388:206|388:206|394:188|394:188|404:202|404:202|409:186|409:186|420:200|420:200|425:183|425:183|436:198|436:198|442:189|442:189|468:185,1,371.250003540516,8|8,3:1|2:3,0:0:0:0:
478,183,112015,2,0,L|484:227,1,45,0|0,3:0|0:0,0:0:0:0:
498,303,112182,1,8,0:1:0:0:
326,167,112348,5,10,3:1:0:0:
302,88,112514,1,2,0:2:0:0:
221,193,112682,5,2,3:2:0:0:
197,272,112848,1,10,3:1:0:0:
116,167,113016,5,8,0:3:0:0:
92,88,113182,1,2,0:3:0:0:
173,12,113348,6,0,B|176:27|176:27|171:37|171:37|188:40|188:40|175:52|175:52|192:56|192:56|179:68|179:68|197:71|197:71|183:83|183:83|201:87|201:87|187:99|187:99|205:101|205:101|191:114|191:114|209:118|209:118|196:130|196:130|213:133|213:133|200:145|200:145|217:149|217:149|204:160|204:160|221:163|221:163|216:174|216:174|220:191,1,360,10|0,3:1|0:0,0:0:0:0:
228,213,113682,6,0,L|289:223,1,45,10|0,3:1|2:0,0:0:0:0:
136,96,113848,2,0,L|92:88,1,45,8|2,3:1|2:3,0:0:0:0:
258,295,114015,6,0,L|320:305,1,45,10|0,0:1|2:0,0:0:0:0:
106,178,114181,2,0,L|62:170,1,45,8|0,3:1|2:0,0:0:0:0:
288,377,114348,6,0,L|350:387,1,45,10|0,3:1|2:0,0:0:0:0:
76,260,114515,2,0,L|32:252,1,45,10|8,2:1|2:3,0:0:0:0:
213,109,114682,2,0,L|228:111,4,11.25,10|0|0|0|0,3:3|0:0|0:0|0:0|2:0,0:0:0:0:
213,109,115015,6,0,B|157:108|132:73|132:73|106:38|55:37,1,180,10|2,3:1|0:1,0:0:0:0:
66,122,115515,1,10,3:1:0:0:
231,34,115682,2,0,P|274:43|303:76,1,90,8|8,0:3|0:3,0:0:0:0:
212,192,116015,2,0,P|198:149|212:108,1,90,10|2,3:1|0:1,0:0:0:0:
275,151,116265,5,2,0:3:0:0:
297,158,116348,2,0,L|357:178,1,45,2|0,3:1|2:0,0:0:0:0:
428,222,116515,2,0,L|471:208,1,45,8|2,0:3|2:3,0:0:0:0:
302,244,116682,2,0,L|344:258,1,45,10|0,3:3|2:0,0:0:0:0:
423,308,116849,2,0,L|466:294,1,45,8|0,0:3|2:0,0:0:0:0:
295,318,117015,6,0,B|283:316|271:312|271:312|266:317|266:317|268:310|268:310|256:303|256:303|248:296|248:296|242:300|242:300|245:293|245:293|238:284|238:284|233:272|233:272|225:276|225:276|231:269|231:269|228:257|228:257|227:246|227:246|218:244|218:244|227:241|227:241|228:231|228:231|230:224|230:224|223:216|223:216|232:218|232:218|237:207|237:207|244:197|244:197|238:188|238:188|248:193|248:193|258:184|269:179,1,270,10|8,3:1|2:3,0:0:0:0:
302,244,117348,1,6,3:2:0:0:
124,284,117515,1,2,0:2:0:0:
124,102,117682,6,0,L|63:89,1,45,14|0,3:1|2:0,0:0:0:0:
224,188,117848,2,0,L|269:179,1,45,2|2,0:2|2:3,0:0:0:0:
124,284,118015,2,0,L|63:271,1,45,2|0,3:2|2:0,0:0:0:0:
269,324,118182,6,0,B|218:320|189:353|189:353|161:385|105:381,2,180,10|8|2,3:1|0:3|0:3,0:0:0:0:
384,348,118682,2,0,L|391:291,1,45,10|0,3:1|2:0,0:0:0:0:
360,263,118848,2,0,L|367:206,1,45,8|8,0:3|2:3,0:0:0:0:
446,141,119015,6,0,B|406:101|406:101|279:101,2,180,2|2|8,3:1|3:2|0:3,0:0:0:0:
459,265,119515,1,0,3:0:0:0:
298,276,119682,6,0,B|271:193|271:193|285:77,2,180,8|2|0,3:3|2:3|3:0,0:0:0:0:
384,348,120182,1,8,0:3:0:0:
222,373,120348,6,0,L|211:302,1,45,10|0,3:1|2:0,0:0:0:0:
188,197,120515,2,0,L|132:242,1,45,10|2,3:1|2:3,0:0:0:0:
53,315,120682,2,0,L|120:341,1,45,2|0,3:2|2:0,0:0:0:0:
298,276,120848,6,0,L|170:289,2,90,10|8|2,3:1|3:3|0:3,0:0:0:0:
405,87,121348,6,0,B|392:81|380:79|380:79|379:72|379:72|376:79|376:79|363:79|363:79|353:81|353:81|347:76|347:76|348:83|348:83|337:87|337:87|327:94|327:94|321:89|321:89|324:96|324:96|315:105|315:105|310:115|310:115|300:113|300:113|307:119|307:119|302:127|302:127|300:136|300:136|290:138|290:138|299:141|299:141|298:154|298:154|300:165|300:165|290:169|290:169|300:170|300:170|304:182|312:193,1,270,10|8,3:1|2:3,0:0:0:0:
339,214,121682,1,2,3:1:0:0:
481,128,121848,1,2,3:2:0:0:
324,55,122015,1,8,3:3:0:0:
252,64,122098,1,0,3:2:0:0:
295,122,122182,1,0,3:0:0:0:
148,271,122348,6,0,B|144:258|144:258|137:254|137:254|147:245|147:245|133:242|133:242|143:233|143:233|130:230|130:230|140:221|140:221|127:219|127:219|137:210|137:210|123:207|123:207|133:198|133:198|120:196|120:196|130:186|130:186|117:184|117:184|127:175|127:175|113:172|113:172|123:163|123:163|110:161|110:161|120:151|120:151|113:147|113:147|109:136,1,270,8|8,3:1|2:3,0:0:0:0:
97,108,122682,2,0,L|40:121,1,45,0|0,3:0|0:0,0:0:0:0:
19,234,122848,1,8,0:1:0:0:
221,154,123015,6,0,B|254:238|254:238|226:329,2,180,10|2|2,3:1|0:2|3:2,0:0:0:0:
31,127,123515,6,0,B|42:123|42:123|45:118|45:118|51:125|51:125|53:116|53:116|59:122|60:113|60:113|66:120|66:120|68:111|68:111|74:117|75:108|75:108|82:115|82:115|83:106|83:106|89:112|91:103|91:103|97:110|97:110|101:83|101:83|107:90|107:90|109:81|115:87|115:87|116:78|116:78|122:85|122:85|124:76|130:82|130:82|131:73|131:73|138:80|138:80|139:71|145:77|145:77|147:68|147:68|153:75|153:75|154:66|160:72|160:72|163:67|163:67|173:64,1,270,10|0,3:1|2:0,0:0:0:0:
205,53,123848,1,2,0:3:0:0:
319,254,124015,6,0,B|306:260|295:263|295:263|293:270|293:270|290:263|290:263|278:263|278:263|267:261|267:261|261:267|261:267|263:260|263:260|251:256|251:256|241:250|241:250|235:255|235:255|237:248|237:248|229:239|229:239|223:230|223:230|213:232|213:232|221:226|221:226|215:217|215:217|213:208|213:208|203:207|203:207|211:204|211:204|210:191|210:191|211:179|211:179|202:176|202:176|212:175|212:175|215:162|223:151,1,270,10|8,3:1|2:3,0:0:0:0:
239,133,124348,6,0,L|298:126,1,45,10|0,3:1|2:0,0:0:0:0:
384,125,124515,2,0,L|361:180,1,45,8|2,3:1|2:3,0:0:0:0:
319,254,124682,2,0,L|283:206,1,45,10|0,0:1|2:0,0:0:0:0:
243,87,124848,6,0,L|318:109,1,45,8|2,3:1|0:3,0:0:0:0:
421,152,125015,2,0,L|365:205,1,45,10|2,3:1|0:3,0:0:0:0:
278,273,125182,2,0,L|259:198,1,45,10|8,2:1|2:3,0:0:0:0:
318,163,125348,6,0,L|321:181,4,11.25,10|0|0|0|0,3:3|0:0|0:0|0:0|0:0,0:0:0:0:
318,163,125682,5,10,3:1:0:0:
227,130,125848,1,2,0:1:0:0:
194,221,126015,1,2,0:1:0:0:
285,254,126181,1,10,3:1:0:0:
294,88,126348,5,8,0:3:0:0:
152,154,126514,1,8,0:3:0:0:
218,296,126681,1,10,3:1:0:0:
360,230,126847,1,2,0:1:0:0:
248,21,127015,6,0,B|228:31|228:31|221:26|221:26|226:33|226:33|224:41|213:48|213:48|201:45|201:45|211:52|211:52|218:62|206:71|206:71|188:71|188:71|205:74|205:74|220:83|207:93|207:93|192:99|192:99|209:97|209:97|224:99|215:112|215:112|206:120|206:120|216:115|216:115|232:114|232:130|232:130|228:137|228:137|235:131|235:131|253:132|256:152|256:152|268:153|283:173|275:200|275:200|254:223|228:220|221:209|221:209|202:216|192:201|192:201|194:192|194:192|189:199|189:199|176:206|169:192|169:192|168:182|168:182|166:193|166:193|159:207|150:195|150:195|144:179|144:179|145:195|145:195|142:211|128:202|128:202|117:189|117:189|125:204|125:204|124:219|111:219|111:219|100:213|100:213|109:222|109:222|108:235|102:240|102:240|94:239|94:239|101:244|101:244|102:266,1,755.999976928712,6|2,3:2|3:2,0:0:0:0:
22,133,128349,5,6,3:1:0:0:
6,90,128432,1,0,2:0:0:0:
17,48,128515,1,2,2:3:0:0:
51,19,128598,1,0,2:0:0:0:
95,17,128682,2,0,L|151:27,3,45,2|0|2|0,3:2|2:0|2:3|2:0,0:0:0:0:
159,112,129015,5,2,3:2:0:0:
169,156,129098,1,0,2:0:0:0:
180,200,129182,1,2,2:3:0:0:
190,244,129265,1,0,2:0:0:0:
200,287,129348,2,0,L|256:297,1,45,2|0,3:2|2:0,0:0:0:0:
110,239,129515,2,0,L|54:249,1,45,2|0,3:3|2:0,0:0:0:0:
246,160,129682,5,2,3:2:0:0:
275,195,129765,1,0,2:0:0:0:
317,206,129848,1,2,2:3:0:0:
359,191,129931,1,0,2:0:0:0:
382,154,130015,2,0,L|398:99,3,45,2|0|2|0,3:2|2:0|2:3|2:0,0:0:0:0:
311,127,130348,5,2,3:2:0:0:
318,74,130431,1,0,2:0:0:0:
355,36,130514,1,2,2:3:0:0:
408,28,130597,1,0,2:0:0:0:
455,52,130681,1,2,3:2:0:0:
478,100,130764,1,0,2:0:0:0:
468,152,130848,1,2,0:3:0:0:
458,204,130931,1,0,2:0:0:0:
469,258,131015,6,0,L|485:313,1,45,2|0,3:2|2:0,0:0:0:0:
382,154,131182,2,0,L|398:99,1,45,2|0,2:3|2:0,0:0:0:0:
295,258,131348,2,0,L|311:313,1,45,2|0,3:2|2:0,0:0:0:0:
208,154,131515,2,0,L|224:99,1,45,2|0,2:3|2:0,0:0:0:0:
159,27,131682,5,2,3:2:0:0:
148,71,131765,1,0,2:0:0:0:
138,115,131849,1,2,2:3:0:0:
128,159,131932,1,0,2:0:0:0:
118,202,132015,2,0,L|62:212,1,45,2|0,3:2|2:0,0:0:0:0:
208,154,132182,2,0,L|264:164,1,45,2|0,3:3|2:0,0:0:0:0:
286,227,132348,5,2,3:2:0:0:
318,195,132431,1,0,2:0:0:0:
325,152,132514,1,2,2:3:0:0:
307,111,132597,1,0,2:0:0:0:
268,92,132681,2,0,L|211:80,3,45,2|0|2|0,3:2|2:0|2:3|2:0,0:0:0:0:
140,22,133015,5,2,3:2:0:0:
151,74,133098,1,0,2:0:0:0:
162,127,133181,1,2,2:3:0:0:
173,180,133265,1,0,2:0:0:0:
122,198,133348,1,2,3:2:0:0:
111,250,133431,1,0,2:0:0:0:
100,303,133514,1,2,0:3:0:0:
89,356,133598,1,0,2:0:0:0:
50,318,133682,6,0,L|-5:334,1,45,2|0,3:2|2:0,0:0:0:0:
154,231,133849,2,0,L|209:247,1,45,2|0,2:3|2:0,0:0:0:0:
50,144,134015,2,0,L|-5:160,1,45,2|0,3:2|2:0,0:0:0:0:
154,57,134182,2,0,L|209:73,1,45,2|0,2:3|2:0,0:0:0:0:
296,117,134348,5,2,3:2:0:0:
325,152,134431,1,0,2:0:0:0:
367,163,134514,1,2,2:3:0:0:
409,148,134597,1,0,2:0:0:0:
432,111,134681,2,0,L|448:56,1,45,2|0,3:2|2:0,0:0:0:0:
414,225,134848,2,0,L|426:268,1,45,2|0,3:3|2:0,0:0:0:0:
491,301,135015,5,2,3:2:0:0:
462,336,135098,1,0,2:0:0:0:
420,347,135181,1,2,2:3:0:0:
378,332,135264,1,0,2:0:0:0:
355,295,135348,2,0,L|339:240,3,45,2|0|2|0,3:2|2:0|2:3|2:0,0:0:0:0:
414,225,135682,6,0,L|426:268,1,45,2|0,3:2|2:0,0:0:0:0:
270,277,135848,2,0,L|283:321,1,45,2|0,2:3|2:0,0:0:0:0:
220,87,136015,6,0,L|207:130,1,45,2|0,3:2|2:0,0:0:0:0:
363,139,136181,2,0,L|350:182,1,45,2|0,0:3|2:0,0:0:0:0:
421,212,136348,5,2,3:2:0:0:
414,225,136431,1,0,2:0:0:0:
403,241,136515,1,2,2:3:0:0:
386,254,136598,1,0,2:0:0:0:
360,258,136681,1,2,3:2:0:0:
328,256,136765,1,0,2:0:0:0:
298,237,136848,1,2,2:3:0:0:
277,204,136931,1,0,2:0:0:0:
279,160,137015,1,2,3:2:0:0:
287,111,137098,1,0,2:0:0:0:
271,59,137181,1,2,2:3:0:0:
228,21,137265,1,0,2:0:0:0:
174,12,137348,1,2,3:2:0:0:
122,36,137431,1,0,2:0:0:0:
96,94,137515,1,2,3:3:0:0:
113,158,137598,1,0,2:0:0:0:
173,198,137682,6,0,L|185:241,1,45,2|0,3:2|2:0,0:0:0:0:
30,250,137848,2,0,L|42:293,1,45,2|0,2:3|2:0,0:0:0:0:
246,289,138015,6,0,L|258:332,1,45,2|0,3:2|2:0,0:0:0:0:
103,341,138181,2,0,L|115:384,1,45,2|0,2:3|2:0,0:0:0:0:
319,380,138348,5,2,3:2:0:0:
175,316,138682,5,2,0:2:0:0:
246,289,138848,1,2,3:3:0:0:
318,264,139015,2,0,L|323:202,3,45,6|0|2|2,3:2|2:0|2:3|2:3,0:0:0:0:
385,165,139348,5,10,3:2:0:0:
357,130,139431,1,0,2:0:0:0:
315,113,139514,1,2,2:3:0:0:
271,117,139598,1,0,2:0:0:0:
234,142,139682,1,2,3:2:0:0:
197,167,139765,1,0,2:0:0:0:
152,171,139849,1,10,2:3:0:0:
111,154,139932,1,8,2:3:0:0:
83,119,140015,2,0,L|80:72,1,45,10|0,3:2|2:0,0:0:0:0:
176,35,140182,2,0,L|173:79,1,45,10|8,3:3|2:3,0:0:0:0:
121,243,140348,5,2,3:2:0:0:
165,246,140431,1,0,2:0:0:0:
210,250,140514,1,2,2:3:0:0:
255,254,140598,1,0,2:0:0:0:
300,258,140682,2,0,L|350:261,1,45,10|0,3:2|2:0,0:0:0:0:
417,268,140848,2,0,L|467:271,1,45,2|0,2:3|2:0,0:0:0:0:
398,127,141015,5,2,3:2:0:0:
366,143,141098,1,0,2:0:0:0:
383,176,141182,1,10,2:3:0:0:
415,159,141265,1,8,2:3:0:0:
384,140,141348,1,10,3:2:0:0:
378,156,141431,1,0,2:0:0:0:
396,162,141515,1,10,0:3:0:0:
401,145,141598,1,8,2:3:0:0:
390,152,141682,5,2,3:2:0:0:
351,129,141765,1,0,2:0:0:0:
307,126,141848,1,2,2:3:0:0:
266,143,141932,1,0,2:0:0:0:
237,177,142015,2,0,P|230:201|228:234,1,45,10|0,3:2|2:0,0:0:0:0:
193,309,142182,5,2,2:3:0:0:
154,331,142265,1,0,2:0:0:0:
110,334,142348,1,2,3:2:0:0:
69,317,142432,1,0,2:0:0:0:
40,283,142515,2,0,P|32:259|30:226,1,45,10|8,2:3|2:3,0:0:0:0:
43,147,142681,2,0,P|66:152|96:167,1,45,10|0,3:2|2:0,0:0:0:0:
160,217,142848,2,0,P|143:234|116:253,1,45,10|8,3:3|2:3,0:0:0:0:
55,53,143015,5,2,3:2:0:0:
63,51,143098,1,0,2:0:0:0:
72,49,143182,1,2,2:3:0:0:
80,48,143265,1,0,2:0:0:0:
142,93,143348,5,10,0:2:0:0:
150,94,143431,1,0,2:0:0:0:
159,96,143515,1,2,2:3:0:0:
167,98,143598,1,0,2:0:0:0:
228,50,143682,5,2,0:2:0:0:
236,48,143765,1,0,2:0:0:0:
245,46,143849,1,10,2:3:0:0:
253,45,143932,1,8,2:3:0:0:
296,108,144015,5,10,0:2:0:0:
305,110,144098,1,0,2:0:0:0:
313,112,144182,2,0,L|366:121,1,45,10|8,3:3|2:3,0:0:0:0:
448,128,144348,5,2,3:2:0:0:
470,229,144515,1,2,3:3:0:0:
306,325,144682,5,10,3:2:0:0:
333,197,144849,1,2,3:3:0:0:
193,84,145015,5,2,3:2:0:0:
227,244,145182,1,10,3:3:0:0:
82,367,145348,5,10,3:2:0:0:
122,179,145515,1,10,3:3:0:0:
4,61,145682,5,2,3:2:0:0:
30,262,145848,1,2,3:3:0:0:
262,95,146015,5,10,3:2:0:0:
61,121,146181,1,2,3:3:0:0:
228,353,146349,5,2,3:2:0:0:
202,152,146515,1,10,3:3:0:0:
87,322,146682,5,10,3:2:0:0:
61,121,146848,1,10,3:3:0:0:
255,274,147015,5,2,3:2:0:0:
287,267,147098,1,0,3:0:0:0:
314,250,147182,1,2,3:3:0:0:
331,223,147265,1,0,3:0:0:0:
338,192,147348,1,10,3:2:0:0:
331,159,147432,1,0,3:0:0:0:
314,133,147515,1,2,3:3:0:0:
287,115,147598,1,0,3:0:0:0:
255,108,147682,1,2,3:2:0:0:
223,115,147765,1,0,3:0:0:0:
197,133,147848,1,10,3:3:0:0:
179,159,147932,1,8,3:3:0:0:
172,192,148015,1,10,3:2:0:0:
179,223,148098,1,0,3:0:0:0:
197,250,148182,1,10,3:3:0:0:
223,267,148265,1,8,3:3:0:0:
255,275,148348,5,2,3:2:0:0:
314,250,148432,1,0,3:0:0:0:
339,192,148515,1,2,3:3:0:0:
314,132,148598,1,0,3:0:0:0:
256,107,148682,1,10,3:2:0:0:
196,132,148765,1,0,3:0:0:0:
171,192,148848,1,2,3:3:0:0:
196,250,148932,1,0,3:0:0:0:
255,275,149015,5,2,3:2:0:0:
314,250,149099,1,2,3:3:0:0:
339,192,149182,1,10,3:3:0:0:
314,132,149265,1,10,3:3:0:0:
256,107,149349,1,10,3:2:0:0:
196,132,149432,1,2,3:3:0:0:
171,192,149515,1,10,3:3:0:0:
196,250,149599,1,10,3:3:0:0:
256,192,149682,5,6,2:1:0:0:
480,328,150015,2,0,B|387:303|387:303|404:337,1,135,10|0,2:2|2:0,0:0:0:0:
416,360,150348,2,0,B|509:385|509:385|491:350,1,135,2|8,2:2|2:3,0:0:0:0:
448,240,150682,2,0,B|361:216,1,90,10|10,2:2|2:3,0:0:0:0:
256,192,151015,5,2,2:2:0:0:
32,328,151348,2,0,B|125:303|125:303|107:337,1,135,10|0,2:2|2:0,0:0:0:0:
96,360,151681,2,0,B|3:385|3:385|20:350,1,135,2|8,2:2|2:3,0:0:0:0:
64,240,152015,2,0,B|150:216,1,90,10|10,2:2|2:3,0:0:0:0:
256,192,152348,5,2,2:2:0:0:
183,332,152682,2,0,P|142:281|150:216,1,135,10|0,2:2|2:0,0:0:0:0:
160,192,153015,2,0,P|167:126|126:75,1,135,2|8,2:2|2:3,0:0:0:0:
65,33,153348,2,0,P|99:5|144:4,1,90,10|10,2:2|2:3,0:0:0:0:
256,64,153682,5,2,2:2:0:0:
328,332,154015,2,0,P|369:281|362:216,1,135,10|0,2:2|2:0,0:0:0:0:
352,192,154348,2,0,P|344:126|385:75,1,135,2|8,2:2|2:3,0:0:0:0:
446,33,154681,2,0,P|412:5|368:4,1,90,10|10,2:2|2:3,0:0:0:0:
256,64,155015,5,2,2:2:0:0:
377,228,155348,2,0,B|409:324,2,101.250003862381,10|0|10,2:2|2:0|2:3,0:0:0:0:
316,273,156015,2,0,B|336:337,1,67.5000025749208,10|10,2:2|2:3,0:0:0:0:
255,328,156348,5,2,2:2:0:0:
133,228,156682,2,0,B|101:324,2,101.250003862381,10|0|10,2:2|2:0|2:3,0:0:0:0:
194,273,157349,2,0,B|173:337,1,67.5000025749208,10|10,2:2|2:3,0:0:0:0:
255,328,157682,6,0,B|254:281|302:249|334:233|366:217|414:185|414:121|366:57|286:57|254:121,1,405.000015449525,2|10,2:2|2:2,0:0:0:0:
255,122,159015,2,0,B|223:58|143:58|95:122|95:186|143:218|175:234|207:250|255:282|254:328,1,405.000015449525,2|10,2:2|2:2,0:0:0:0:
256,192,160348,5,6,2:2:0:0:
