osu file format v14

[General]
AudioFilename: audio.mp3
AudioLeadIn: 0
PreviewTime: 42994
Countdown: 0
SampleSet: Soft
StackLeniency: 0.4
Mode: 0
LetterboxInBreaks: 0
WidescreenStoryboard: 1

[Editor]
Bookmarks: 16348,21682,43015,64348,75015,85682,96348,107015,128348,139015,149682,160348
DistanceSpacing: 0.8
BeatDivisor: 4
GridSize: 8
TimelineZoom: 2.899999

[Metadata]
Title:Idyllic World
TitleUnicode:Idyllic World
Artist:Krimek
ArtistUnicode:Krimek
Creator:Krimek
Version:[BH]Lithium's Insane
Source:
Tags:FA Featured Artist electronic instrumental atmospheric hardcore breakcore crossbreed GALAXY OF MIND/MINE MIND/E MIND MINE -Tynamo [BH]Lithium Nozuchi milr_ nytrocide_ nytro ganyumymommy Sylvarus Dignan
BeatmapID:4107793
BeatmapSetID:1978614

[Difficulty]
HPDrainRate:5.4
CircleSize:4
OverallDifficulty:8
ApproachRate:9
SliderMultiplier:1.6
SliderTickRate:1

[Events]
//Background and Video events
0,0,"background by krimek.jpg",0,0
//Break Periods
//Storyboard Layer 0 (Background)
//Storyboard Layer 1 (Fail)
//Storyboard Layer 2 (Pass)
//Storyboard Layer 3 (Foreground)
//Storyboard Layer 4 (Overlay)
//Storyboard Sound Samples

[TimingPoints]
349,333.333333333333,4,2,1,40,1,0
17015,-100,4,2,1,42,0,0
17682,-100,4,2,1,45,0,0
18348,-100,4,2,1,47,0,0
19015,-100,4,2,1,50,0,0
19682,-100,4,2,1,52,0,0
20348,-100,4,2,1,55,0,0
21015,-100,4,2,1,57,0,0
21348,-100,4,2,1,50,0,0
21515,-100,4,2,1,60,0,0
41682,-100,4,2,1,65,0,0
43015,-66.6666666666667,4,2,1,70,0,1
64348,-133.333333333333,4,1,1,60,0,0
75015,-117.647058823529,4,1,1,65,0,0
80348,-117.647058823529,4,1,1,70,0,0
85682,-100,4,2,1,80,0,0
107015,-100,4,2,1,80,0,1
128348,-86.9565217391304,4,2,1,70,0,0
139015,-100,4,2,1,75,0,0
149682,-100,4,2,1,60,0,0
160348,-100,4,2,1,50,0,0

[Colours]
Combo1 : 255,21,138
Combo2 : 191,223,255
Combo3 : 255,128,192
Combo4 : 72,95,153

[HitObjects]
256,192,16348,12,0,21348,0:0:0:0:
359,111,21515,5,0,0:0:0:0:
423,232,21682,6,0,P|429:193|443:156,1,80,6|2,3:1|0:2,0:0:0:0:
441,60,22015,1,8,3:2:0:0:
359,111,22182,1,2,0:2:0:0:
298,51,22348,2,0,P|330:75|354:106,1,80,2|2,3:2|0:2,0:0:0:0:
218,215,22682,2,0,P|243:183|275:160,1,80,8|2,3:2|0:2,0:0:0:0:
332,353,23015,6,0,P|256:330|180:353,1,160,2|8,3:2|3:2,0:0:0:0:
60,203,23682,2,0,P|74:240|80:279,1,80,2|2,3:2|0:2,0:0:0:0:
164,100,24015,2,0,P|149:137|143:176,1,80,8|2,3:2|0:2,0:0:0:0:
24,12,24348,6,0,B|96:33|96:33|134:1|174:5,1,160,2|8,3:2|3:2,0:0:0:0:
252,62,24848,1,2,0:2:0:0:
337,17,25015,2,0,L|416:25,1,80,2|2,3:2|0:2,0:0:0:0:
466,108,25348,1,8,3:2:0:0:
370,118,25515,1,2,0:2:0:0:
235,254,25848,5,2,0:2:0:0:
326,280,26015,2,0,P|316:242|326:204,1,80,8|2,3:2|0:2,0:0:0:0:
503,277,26515,5,2,0:2:0:0:
412,245,26682,2,0,P|421:283|412:321,1,80,8|2,3:2|0:2,0:0:0:0:
253,179,27015,6,0,L|332:187,1,80,2|2,3:2|0:2,0:0:0:0:
265,331,27348,2,0,L|185:339,1,80,8|2,3:2|0:2,0:0:0:0:
161,173,27682,1,2,3:2:0:0:
209,255,27848,1,2,0:2:0:0:
323,107,28015,6,0,L|332:187,1,80,8|2,3:2|0:2,0:0:0:0:
246,51,28348,1,2,3:2:0:0:
334,12,28515,1,2,0:2:0:0:
411,68,28682,1,8,3:2:0:0:
265,331,29182,5,2,0:2:0:0:
342,275,29348,1,8,3:2:0:0:
256,237,29515,1,2,0:2:0:0:
419,219,29682,5,2,3:2:0:0:
428,313,29848,1,2,0:2:0:0:
351,181,30015,1,8,3:2:0:0:
342,275,30182,1,2,0:2:0:0:
496,163,30348,2,0,L|488:83,1,80,2|2,3:2|0:2,0:0:0:0:
343,101,30682,2,0,L|351:181,1,80,8|2,3:2|0:2,0:0:0:0:
428,313,31015,5,2,3:2:0:0:
179,293,31348,1,8,3:2:0:0:
265,331,31515,1,2,0:2:0:0:
188,199,31682,2,0,P|149:189|111:199,1,80,2|2,3:2|0:2,0:0:0:0:
16,331,32015,2,0,P|54:340|92:330,1,80,8|2,3:2|0:2,0:0:0:0:
256,236,32348,5,6,3:2:0:0:
251,147,32515,1,2,0:2:0:0:
159,31,32682,1,8,3:2:0:0:
164,121,32848,1,2,0:2:0:0:
332,112,33015,2,0,P|293:115|259:136,1,80,2|2,3:2|0:2,0:0:0:0:
394,217,33348,2,0,P|354:214|320:193,1,80,8|2,3:2|0:2,0:0:0:0:
433,51,33682,6,0,L|431:131,1,80,2|0,3:2|0:0,0:0:0:0:
488,284,34015,2,0,L|486:205,1,80,8|0,3:2|0:0,0:0:0:0:
320,193,34348,1,2,3:2:0:0:
254,263,34515,1,2,0:2:0:0:
424,351,34682,1,8,3:2:0:0:
358,281,34848,1,2,0:2:0:0:
292,351,35015,6,0,B|239:372|194:342|194:342|137:352,1,160,2|8,3:2|3:2,0:0:0:0:
58,297,35515,1,2,0:2:0:0:
134,237,35682,2,0,P|145:199|143:159,1,80,2|2,3:2|0:2,0:0:0:0:
41,29,36015,1,8,3:2:0:0:
32,125,36182,1,2,0:2:0:0:
184,45,36348,6,0,P|221:31|261:30,1,80,2|2,3:2|0:2,0:0:0:0:
389,136,36682,2,0,P|351:122|311:121,1,80,8|2,3:2|0:2,0:0:0:0:
236,181,37015,1,2,3:2:0:0:
245,276,37182,1,2,0:2:0:0:
114,171,37348,1,8,3:2:0:0:
236,270,37515,1,2,0:2:0:0:
311,121,37682,6,0,P|351:122|389:136,1,80,2|2,3:2|0:2,0:0:0:0:
441,326,38015,2,0,L|441:246,1,80,8|2,3:2|0:2,0:0:0:0:
303,130,38348,2,0,L|302:209,1,80,2|2,3:2|0:2,0:0:0:0:
467,46,38682,1,8,3:2:0:0:
352,16,38848,1,2,0:2:0:0:
206,95,39015,6,0,P|166:94|128:80,1,80,2|2,3:2|0:2,0:0:0:0:
207,205,39348,2,0,P|169:218|129:219,1,80,8|0,3:2|0:0,0:0:0:0:
43,141,39682,1,2,3:2:0:0:
218,88,39848,1,2,0:2:0:0:
117,216,40015,1,8,3:2:0:0:
119,74,40182,1,2,0:2:0:0:
234,278,40348,6,0,L|233:357,1,80,2|2,3:2|0:2,0:0:0:0:
296,161,40682,2,0,L|375:161,1,80,8|2,3:2|0:2,0:0:0:0:
179,99,41015,2,0,L|178:19,1,80,2|2,3:2|0:2,0:0:0:0:
117,216,41348,2,0,L|37:216,1,80,8|2,3:2|0:2,0:0:0:0:
276,75,41682,5,2,3:2:0:0:
204,188,41848,1,2,0:3:0:0:
375,161,42015,1,8,3:3:0:0:
215,185,42182,1,2,0:3:0:0:
364,280,42348,1,2,3:3:0:0:
457,142,42515,1,8,0:3:0:0:
276,75,42682,5,8,3:2:0:0:
264,77,42765,1,2,0:3:0:0:
252,80,42848,1,2,0:3:0:0:
240,83,42932,1,2,0:3:0:0:
227,86,43015,6,0,P|169:73|123:36,1,120.000004577637,14|2,3:1|0:2,0:0:0:0:
139,196,43348,1,2,3:2:0:0:
21,92,43515,1,10,3:1:0:0:
25,96,43682,2,0,L|36:215,1,120.000004577637,8|2,0:3|0:3,0:0:0:0:
224,251,44015,1,10,3:1:0:0:
228,255,44182,6,0,L|216:374,1,120.000004577637,8|2,0:3|3:1,0:0:0:0:
136,204,44515,1,2,3:2:0:0:
245,79,44682,1,8,0:3:0:0:
300,203,44848,1,0,3:0:0:0:
308,20,45015,5,8,3:3:0:0:
171,115,45182,1,2,2:3:0:0:
296,195,45348,1,0,3:0:0:0:
249,86,45515,1,8,0:3:0:0:
462,70,45682,6,0,P|489:82|512:101,1,60.0000022888184,10|0,3:1|0:0,0:0:0:0:
427,158,45848,2,0,P|441:184|449:213,1,60.0000022888184,10|0,3:1|0:0,0:0:0:0:
364,83,46015,1,2,3:2:0:0:
372,271,46182,2,0,P|322:239|292:189,1,120.000004577637,10|8,3:1|3:3,0:0:0:0:
360,79,46515,1,2,0:3:0:0:
182,34,46682,6,0,B|210:88|210:88|243:40,1,120.000004577637,10|8,3:1|0:3,0:0:0:0:
83,126,47015,5,2,3:1:0:0:
200,209,47182,1,2,3:2:0:0:
84,359,47348,1,8,3:3:0:0:
77,323,47432,1,0,3:2:0:0:
73,287,47515,1,0,3:0:0:0:
210,103,47682,6,0,B|259:121|259:121|350:117|350:117|297:146|297:146|327:165,1,240.000009155274,8|0,3:1|3:0,0:0:0:0:
462,112,48182,1,8,0:1:0:0:
432,278,48348,6,0,B|412:370|412:370|396:349,2,120.000004577637,10|2|2,3:1|0:2|3:2,0:0:0:0:
200,209,48848,6,0,B|188:288|188:288|232:269|232:269|280:311|280:311|268:358,1,240.000009155274,10|2,3:1|0:3,0:0:0:0:
108,248,49348,1,10,3:1:0:0:
308,223,49515,1,8,0:3:0:0:
228,102,49682,5,10,3:1:0:0:
300,211,49848,1,8,3:1:0:0:
351,28,50015,1,10,0:1:0:0:
216,110,50182,1,8,3:1:0:0:
427,175,50348,1,10,3:1:0:0:
204,118,50515,1,10,2:1:0:0:
428,51,50682,6,0,B|425:81|425:81|433:139|433:139|431:171,1,120.000004577637,10|8,3:3|0:3,0:0:0:0:
422,376,51015,2,0,P|432:275|335:304,1,240.000009155274,10|2,3:1|0:1,0:0:0:0:
151,172,51515,1,10,3:1:0:0:
162,284,51682,1,8,0:3:0:0:
254,219,51848,1,8,0:3:0:0:
59,237,52015,5,10,3:1:0:0:
55,241,52098,1,2,0:3:0:0:
51,245,52182,1,2,0:1:0:0:
47,249,52265,1,2,0:3:0:0:
43,253,52348,6,0,L|35:312,1,60.0000022888184,2|0,3:1|0:0,0:0:0:0:
162,284,52515,2,0,L|154:343,1,60.0000022888184,8|0,0:3|0:0,0:0:0:0:
77,144,52682,1,10,3:3:0:0:
66,133,52765,1,0,0:0:0:0:
55,122,52848,1,8,0:3:0:0:
250,101,53015,6,0,P|168:162|254:219,1,240.000009155274,10|6,3:1|3:2,0:0:0:0:
379,148,53515,1,2,0:2:0:0:
288,15,53682,5,14,3:1:0:0:
368,133,53848,1,2,0:2:0:0:
184,118,54015,1,2,3:2:0:0:
328,74,54182,1,10,3:1:0:0:
268,213,54348,2,0,P|264:272|275:331,1,120.000004577637,8|2,0:3|0:3,0:0:0:0:
368,133,54682,1,10,3:1:0:0:
373,243,54848,1,8,0:3:0:0:
451,339,55015,6,0,P|408:298|377:247,1,120.000004577637,2|2,3:1|3:2,0:0:0:0:
509,94,55348,2,0,P|465:135|434:186,1,120.000004577637,8|0,0:3|3:0,0:0:0:0:
500,259,55682,1,8,3:3:0:0:
368,133,55848,1,2,2:3:0:0:
275,331,56015,2,0,L|155:343,1,120.000004577637,0|8,3:0|0:3,0:0:0:0:
68,125,56348,6,0,L|78:65,1,60.0000022888184,10|0,3:1|0:0,0:0:0:0:
164,76,56515,2,0,L|174:16,1,60.0000022888184,10|0,3:1|0:0,0:0:0:0:
214,198,56682,1,2,3:2:0:0:
72,139,56848,2,0,L|50:257,2,120.000004577637,10|8|2,3:1|3:3|0:3,0:0:0:0:
266,61,57348,5,10,3:1:0:0:
270,65,57515,1,8,0:3:0:0:
134,249,57682,5,2,3:1:0:0:
285,146,57848,1,2,3:2:0:0:
164,76,58015,1,8,3:3:0:0:
161,90,58098,1,0,3:2:0:0:
158,105,58182,1,0,3:0:0:0:
288,297,58348,6,0,B|345:320|394:283|394:283|381:312|381:312|421:283|471:291,1,240.000009155274,8|0,3:1|3:0,0:0:0:0:
331,219,58848,1,8,0:1:0:0:
423,46,59015,6,0,P|466:85|474:143,1,120.000004577637,10|2,3:1|0:2,0:0:0:0:
328,43,59348,1,2,3:2:0:0:
236,232,59515,6,0,B|242:172|242:172|288:135,1,120.000004577637,10|8,3:1|0:3,0:0:0:0:
349,305,59848,1,2,0:3:0:0:
169,367,60015,6,0,B|116:360|116:360|99:365|99:365|50:356,1,120.000004577637,10|8,3:1|0:3,0:0:0:0:
47,212,60348,5,10,3:1:0:0:
150,90,60515,1,8,3:1:0:0:
49,63,60682,1,10,0:1:0:0:
148,239,60848,1,8,3:1:0:0:
267,67,61015,5,10,3:1:0:0:
241,219,61182,1,10,2:1:0:0:
150,90,61348,1,10,3:3:0:0:
358,196,61515,1,8,0:3:0:0:
149,239,61682,6,0,L|138:358,1,120.000004577637,10|2,3:1|0:1,0:0:0:0:
238,202,62015,2,0,L|227:142,1,60.0000022888184,2|0,0:1|0:0,0:0:0:0:
287,332,62182,2,0,L|298:273,1,60.0000022888184,10|2,3:1|0:3,0:0:0:0:
374,121,62348,2,0,L|363:61,2,60.0000022888184,8|0|8,0:3|0:0|0:3,0:0:0:0:
444,305,62682,6,0,L|385:316,1,60.0000022888184,10|2,3:1|0:3,0:0:0:0:
435,297,62848,2,0,L|375:307,1,60.0000022888184,2|2,0:1|0:3,0:0:0:0:
444,186,63015,5,2,3:1:0:0:
299,130,63182,1,8,3:3:0:0:
460,92,63348,1,10,3:3:0:0:
286,132,63515,1,8,3:3:0:0:
425,288,63682,5,10,3:1:0:0:
395,293,63765,1,0,0:0:0:0:
365,298,63848,1,2,3:3:0:0:
336,303,63932,1,0,0:0:0:0:
306,308,64015,1,6,3:2:0:0:
277,313,64098,1,0,0:0:0:0:
247,318,64182,1,2,3:2:0:0:
217,323,64265,1,0,0:0:0:0:
188,328,64348,6,0,L|129:316,3,60.0000022888184,14|2|10|10,3:1|2:3|2:3|2:3,0:0:0:0:
202,243,65015,2,0,P|204:214|197:184,1,60.0000022888184,2|10,2:2|2:3,0:0:0:0:
131,133,65348,2,0,L|72:144,1,60.0000022888184,10|10,2:2|2:3,0:0:0:0:
117,217,65598,1,8,2:2:0:0:
121,221,65682,6,0,L|62:232,1,60.0000022888184,2|2,3:2|2:3,0:0:0:0:
202,243,66015,2,0,L|260:254,1,60.0000022888184,10|10,2:3|2:3,0:0:0:0:
401,190,66348,1,2,2:2:0:0:
317,192,66515,1,10,2:3:0:0:
426,324,66682,2,0,P|426:294|435:266,1,60.0000022888184,10|10,3:1|2:3,0:0:0:0:
484,205,66932,1,8,2:2:0:0:
488,201,67015,6,0,P|488:171|479:142,3,60.0000022888184,10|2|10|10,3:1|2:3|2:3|2:3,0:0:0:0:
413,91,67682,2,0,L|353:85,1,60.0000022888184,2|10,2:2|2:3,0:0:0:0:
296,22,68015,2,0,L|236:16,1,60.0000022888184,10|10,2:2|2:3,0:0:0:0:
178,69,68265,1,8,2:2:0:0:
174,73,68348,6,0,L|168:132,1,60.0000022888184,2|2,3:2|2:3,0:0:0:0:
61,89,68682,2,0,P|83:69|95:42,1,60.0000022888184,10|10,2:3|2:3,0:0:0:0:
97,254,69015,5,10,2:1:0:0:
213,308,69182,1,10,2:1:0:0:
184,229,69348,1,2,3:1:0:0:
126,333,69515,1,10,2:3:0:0:
322,172,69682,5,10,3:1:0:0:
349,251,69848,1,2,2:3:0:0:
296,316,70015,1,10,2:3:0:0:
239,166,70182,1,10,2:3:0:0:
184,229,70348,1,2,2:2:0:0:
213,308,70515,1,10,2:3:0:0:
322,172,70682,2,0,L|381:162,1,60.0000022888184,10|10,2:2|2:3,0:0:0:0:
443,207,70932,1,8,2:2:0:0:
448,212,71015,6,0,P|450:241|447:271,1,60.0000022888184,2|2,3:2|2:3,0:0:0:0:
382,323,71348,2,0,P|379:353|382:383,1,60.0000022888184,10|10,2:3|2:3,0:0:0:0:
296,256,71682,2,0,P|298:286|296:316,1,60.0000022888184,2|10,2:2|2:3,0:0:0:0:
145,358,72015,2,0,L|204:349,1,60.0000022888184,10|10,3:1|2:3,0:0:0:0:
211,269,72265,1,8,2:2:0:0:
207,265,72348,5,10,3:1:0:0:
130,230,72515,1,2,2:3:0:0:
129,145,72682,1,10,2:3:0:0:
275,131,72848,1,10,2:3:0:0:
198,98,73015,1,2,2:2:0:0:
280,214,73182,1,10,2:3:0:0:
128,144,73348,2,0,P|118:116|116:87,1,60.0000022888184,10|10,2:2|2:3,0:0:0:0:
46,52,73598,1,8,2:2:0:0:
42,56,73682,6,0,B|46:133|46:133|23:177,1,120.000004577637,10|10,3:1|3:1,0:0:0:0:
207,265,74348,1,10,2:1:0:0:
128,144,74515,1,10,2:1:0:0:
122,131,74598,1,8,2:1:0:0:
118,116,74682,1,2,3:1:0:0:
163,18,74848,1,10,2:1:0:0:
275,131,75015,6,0,L|342:121,1,68.0000012969971,10|2,3:1|2:3,0:0:0:0:
469,66,75348,2,0,P|439:51|406:50,1,68.0000012969971,10|10,3:1|2:3,0:0:0:0:
354,214,75682,1,2,3:2:0:0:
434,265,75848,1,10,2:3:0:0:
342,121,76015,2,0,L|275:131,1,68.0000012969971,10|0,3:1|0:0,0:0:0:0:
211,194,76265,1,8,2:2:0:0:
207,198,76348,6,0,B|193:232|193:232|201:262,1,68.0000012969971,10|2,3:1|2:3,0:0:0:0:
297,369,76682,2,0,L|288:302,1,68.0000012969971,10|10,3:1|2:3,0:0:0:0:
134,330,77015,1,2,3:2:0:0:
44,297,77182,1,10,2:3:0:0:
201,262,77348,2,0,B|215:228|215:228|206:197,1,68.0000012969971,10|10,3:1|2:3,0:0:0:0:
143,133,77598,1,8,2:2:0:0:
139,129,77682,6,0,L|135:61,1,68.0000012969971,10|2,3:1|2:3,0:0:0:0:
44,143,78015,2,0,P|52:175|75:200,1,68.0000012969971,10|10,3:1|2:3,0:0:0:0:
222,23,78348,1,2,3:2:0:0:
286,92,78515,1,10,2:3:0:0:
135,61,78682,2,0,L|139:129,1,68.0000012969971,10|0,3:1|0:0,0:0:0:0:
201,192,78932,1,8,2:2:0:0:
205,196,79015,6,0,P|228:221|237:254,1,68.0000012969971,10|2,3:1|2:3,0:0:0:0:
355,157,79348,2,0,P|332:182|324:215,1,68.0000012969971,10|10,3:1|2:3,0:0:0:0:
221,355,79682,2,0,L|154:339,1,68.0000012969971,2|10,3:2|2:3,0:0:0:0:
344,325,80015,2,0,P|376:336|409:340,1,68.0000012969971,2|0,3:1|0:0,0:0:0:0:
443,167,80348,5,10,3:1:0:0:
463,261,80515,1,2,3:3:0:0:
344,120,80682,1,10,3:1:0:0:
324,214,80848,1,10,3:3:0:0:
455,84,81015,5,10,3:1:0:0:
363,112,81182,1,10,3:3:0:0:
307,26,81348,2,0,L|375:29,1,68.0000012969971,10|10,3:1|3:3,0:0:0:0:
257,108,81598,1,8,2:2:0:0:
253,112,81682,6,0,L|185:114,1,68.0000012969971,10|2,3:1|3:3,0:0:0:0:
320,250,82015,2,0,L|317:182,1,68.0000012969971,10|10,3:1|3:3,0:0:0:0:
182,317,82348,2,0,L|249:314,1,68.0000012969971,10|10,3:1|3:3,0:0:0:0:
115,179,82682,2,0,L|117:246,1,68.0000012969971,10|10,3:1|3:3,0:0:0:0:
383,186,83015,6,0,P|349:178|316:181,1,68.0000012969971,10|2,3:1|3:3,0:0:0:0:
182,317,83348,1,10,3:1:0:0:
209,225,83515,1,10,3:1:0:0:
301,252,83682,1,10,3:1:0:0:
274,344,83848,1,10,3:1:0:0:
197,213,84015,5,10,3:1:0:0:
170,329,84182,1,10,3:1:0:0:
286,356,84348,1,10,3:1:0:0:
256,192,84515,12,0,85348,0:0:0:0:
60,323,85515,5,0,0:0:0:0:
119,228,85682,2,0,P|124:267|145:301,2,80,6|2|10,2:1|2:2|2:2,0:0:0:0:
227,375,86182,2,0,P|248:342|253:302,2,80,2|2|10,2:2|2:2|2:3,0:0:0:0:
202,239,86682,1,10,2:2:0:0:
232,148,86848,1,10,2:3:0:0:
262,57,87015,5,2,2:2:0:0:
311,139,87182,1,2,2:3:0:0:
361,223,87348,2,0,B|402:231|402:231|438:218,1,80,10|2,2:2|2:3,0:0:0:0:
476,130,87682,1,2,2:2:0:0:
427,48,87848,2,0,B|386:40|386:40|349:52,1,80,10|10,2:3|2:2,0:0:0:0:
311,139,88182,1,10,2:3:0:0:
148,74,88348,5,2,2:2:0:0:
60,169,88515,1,2,2:2:0:0:
156,257,88682,1,10,2:2:0:0:
243,161,88848,2,0,L|239:82,1,80,2|2,2:2|2:2,0:0:0:0:
147,272,89182,2,0,L|143:351,2,80,10|10|10,2:3|2:2|2:3,0:0:0:0:
233,371,89682,6,0,P|271:381|305:362,1,80,2|2,2:2|2:3,0:0:0:0:
311,201,90015,2,0,P|273:191|239:210,1,80,10|2,2:2|2:3,0:0:0:0:
366,284,90348,1,2,2:2:0:0:
458,158,90515,2,0,L|454:238,1,80,10|10,2:3|2:2,0:0:0:0:
372,122,90848,1,10,2:2:0:0:
504,12,91015,6,0,P|431:42|352:32,1,160,2|10,2:2|2:2,0:0:0:0:
279,94,91515,2,0,P|206:64|127:74,1,160,2|10,2:3|2:3,0:0:0:0:
62,144,92015,1,10,2:2:0:0:
155,164,92182,1,10,2:3:0:0:
163,338,92348,6,0,B|152:315|149:287|161:261|161:261|161:261|161:261|135:264|108:255|88:234,1,160,2|10,2:2|2:2,0:0:0:0:
127,73,92848,1,2,2:3:0:0:
155,164,93015,1,2,2:2:0:0:
250,165,93182,1,10,2:3:0:0:
280,74,93348,1,10,2:2:0:0:
202,17,93515,1,10,2:3:0:0:
343,189,93682,6,0,B|455:179|455:179|474:136,1,160,10|10,2:1|2:2,0:0:0:0:
414,28,94182,2,0,B|395:71|395:71|316:79|316:79|333:39,1,160,10|10,2:1|2:3,0:0:0:0:
227,19,94682,2,0,B|210:56|210:56|221:94,1,80,10|10,2:1|2:3,0:0:0:0:
343,189,95015,5,2,2:2:0:0:
338,285,95182,2,0,B|280:277|280:277|259:268|259:268|237:272|237:272|179:265,1,160,10|2,2:1|2:3,0:0:0:0:
405,340,95682,2,0,B|479:314|479:314|421:257,1,160,10|14,3:1|2:2,0:0:0:0:
247,348,96182,1,10,2:3:0:0:
247,181,96348,5,6,3:2:0:0:
174,244,96515,1,2,2:2:0:0:
96,186,96682,1,10,2:3:0:0:
96,186,96848,2,0,P|106:148|100:108,1,80,2|2,2:2|3:2,0:0:0:0:
191,14,97182,1,10,2:3:0:0:
199,109,97348,1,10,2:3:0:0:
56,27,97515,1,10,3:3:0:0:
191,14,97682,6,0,B|231:16|231:16|269:29,1,80,2|2,3:2|2:3,0:0:0:0:
326,182,98015,2,0,P|325:142|330:102,1,80,10|2,2:3|2:3,0:0:0:0:
393,29,98348,1,2,3:2:0:0:
488,42,98515,2,0,L|408:46,1,80,10|10,2:3|2:3,0:0:0:0:
329,102,98848,1,10,3:3:0:0:
422,217,99015,6,0,P|423:177|418:137,2,80,2|2|10,3:2|2:2|2:3,0:0:0:0:
326,203,99515,2,0,P|344:278|413:314,1,160,2|10,2:2|2:3,0:0:0:0:
287,360,100015,2,0,P|248:350|209:346,1,80,10|10,2:3|3:3,0:0:0:0:
107,266,100348,6,0,P|145:256|185:252,1,80,2|2,3:2|2:3,0:0:0:0:
206,79,100682,1,10,2:3:0:0:
40,53,100848,2,0,P|79:49|118:39,1,80,2|2,2:3|3:2,0:0:0:0:
236,170,101182,1,10,2:3:0:0:
288,89,101348,1,10,2:3:0:0:
376,127,101515,1,10,3:3:0:0:
428,46,101682,5,6,3:2:0:0:
292,104,101848,1,2,3:2:0:0:
434,29,102015,1,10,3:3:0:0:
326,203,102182,1,2,3:2:0:0:
460,121,102348,6,0,L|456:201,1,80,2|10,3:2|3:3,0:0:0:0:
375,358,102682,2,0,L|379:278,1,80,10|10,3:3|3:3,0:0:0:0:
270,303,103015,5,2,3:2:0:0:
182,341,103182,1,2,3:3:0:0:
359,341,103348,2,0,L|363:261,1,80,10|2,3:3|3:3,0:0:0:0:
266,111,103682,1,2,3:2:0:0:
282,206,103848,1,10,3:3:0:0:
172,65,104015,2,0,L|176:145,1,80,10|10,3:3|3:3,0:0:0:0:
96,280,104348,6,0,B|108:242|108:242|99:203,1,80,10|2,3:1|2:3,0:0:0:0:
176,145,104682,1,10,2:2:0:0:
41,75,104848,2,0,B|98:24|98:24|171:65,1,160,10|10,3:1|2:3,0:0:0:0:
264,44,105348,2,0,B|302:55|302:55|342:50,1,80,10|10,3:1|2:3,0:0:0:0:
465,117,105682,5,2,3:2:0:0:
410,196,105848,1,10,3:1:0:0:
481,258,106015,1,10,3:2:0:0:
426,337,106182,1,2,3:3:0:0:
339,134,106348,5,10,3:1:0:0:
355,275,106515,1,10,2:3:0:0:
465,117,106682,1,14,3:2:0:0:
481,258,106848,1,10,2:3:0:0:
339,134,107015,6,0,P|300:126|260:128,1,80,14|2,3:1|0:2,0:0:0:0:
144,224,107348,1,2,3:2:0:0:
148,228,107515,2,0,L|152:135,1,80,10|8,3:1|0:3,0:0:0:0:
259,43,107848,1,2,0:3:0:0:
263,47,108015,2,0,L|259:140,1,80,10|8,3:1|0:3,0:0:0:0:
76,164,108348,6,0,P|79:124|96:88,1,80,2|2,3:1|3:2,0:0:0:0:
262,283,108682,2,0,P|259:243|242:207,1,80,8|0,0:3|3:0,0:0:0:0:
148,228,109015,1,8,3:3:0:0:
87,86,109182,2,0,P|70:122|67:162,1,80,2|0,2:3|3:0,0:0:0:0:
144,224,109515,1,8,0:3:0:0:
78,363,109682,6,0,B|38:358,1,40,10|0,3:1|2:0,0:0:0:0:
69,273,109848,2,0,B|29:268,1,40,10|2,3:1|2:3,0:0:0:0:
176,312,110015,2,0,B|255:302,1,80,2|10,3:2|3:1,0:0:0:0:
358,144,110348,2,0,B|368:223,1,80,8|2,3:3|0:3,0:0:0:0:
481,357,110682,2,0,B|488:325|488:325|479:279,1,80,10|8,3:1|0:3,0:0:0:0:
340,301,111015,5,2,3:1:0:0:
447,206,111182,1,2,3:2:0:0:
288,88,111348,1,8,3:3:0:0:
284,92,111432,1,0,3:2:0:0:
281,97,111515,1,0,3:0:0:0:
438,129,111682,2,0,B|373:140|373:140|352:162|352:162|289:171,1,160,8|0,3:1|3:0,0:0:0:0:
201,211,112182,1,8,0:1:0:0:
139,90,112348,5,10,3:1:0:0:
79,165,112515,1,2,0:2:0:0:
135,86,112682,1,2,3:2:0:0:
205,215,112848,1,10,3:1:0:0:
131,82,113015,2,0,P|96:63|57:63,1,80,8|2,0:3|0:3,0:0:0:0:
292,174,113348,2,0,P|332:174|366:155,1,80,10|8,3:1|0:3,0:0:0:0:
256,28,113682,5,10,3:1:0:0:
209,219,113848,1,8,3:1:0:0:
131,82,114015,1,10,0:1:0:0:
288,170,114182,1,8,3:1:0:0:
79,165,114348,1,10,3:1:0:0:
227,110,114515,1,10,2:1:0:0:
273,254,114682,2,0,B|279:298|279:298|275:333,1,80,10|8,3:3|0:3,0:0:0:0:
113,339,115015,5,10,3:1:0:0:
195,289,115182,1,2,0:1:0:0:
273,342,115348,1,2,0:1:0:0:
430,304,115515,1,10,3:1:0:0:
393,214,115682,2,0,B|433:207|433:207|468:226,1,80,8|8,0:3|0:3,0:0:0:0:
347,330,116015,2,0,B|312:349|312:349|272:342,1,80,10|2,3:1|0:1,0:0:0:0:
288,170,116348,6,0,L|288:75,1,80,2|8,3:1|0:3,0:0:0:0:
393,214,116682,2,0,B|400:176|400:176|395:135,1,80,10|8,3:3|0:3,0:0:0:0:
193,212,117015,2,0,B|182:251|182:251|194:289,1,80,10|2,3:1|0:3,0:0:0:0:
288,90,117348,2,0,L|193:90,1,80,6|2,3:2|0:2,0:0:0:0:
194,288,117682,5,14,3:1:0:0:
288,170,117848,1,2,0:2:0:0:
117,168,118015,1,2,3:2:0:0:
263,335,118182,2,0,B|276:293|276:293|269:258,1,80,10|8,3:1|0:3,0:0:0:0:
109,185,118515,1,2,0:3:0:0:
366,185,118682,2,0,L|287:170,1,80,10|8,3:1|0:3,0:0:0:0:
57,41,119015,5,2,3:1:0:0:
209,72,119182,1,2,3:2:0:0:
109,185,119348,1,8,0:3:0:0:
208,90,119515,1,0,3:0:0:0:
287,170,119682,2,0,L|366:185,1,80,8|2,3:3|2:3,0:0:0:0:
475,78,120015,2,0,L|396:93,1,80,0|8,3:0|0:3,0:0:0:0:
441,317,120348,6,0,B|450:278,1,40,10|0,3:1|2:0,0:0:0:0:
441,201,120515,2,0,B|450:162,1,40,10|2,3:1|2:3,0:0:0:0:
348,364,120682,2,0,B|331:286,1,80,2|10,3:2|3:1,0:0:0:0:
155,231,121015,1,8,3:3:0:0:
287,169,121182,1,2,0:3:0:0:
198,335,121348,2,0,P|158:349|116:339,1,80,10|8,3:1|0:3,0:0:0:0:
81,138,121682,6,0,L|85:178,1,40,2|0,3:1|2:0,0:0:0:0:
160,96,121848,2,0,L|164:136,1,40,2|2,3:2|2:3,0:0:0:0:
254,59,122015,1,8,3:3:0:0:
256,39,122098,1,0,3:2:0:0:
258,19,122182,1,0,3:0:0:0:
395,144,122348,2,0,L|387:224,1,80,8|2,3:1|2:3,0:0:0:0:
444,50,122682,2,0,B|391:41|391:41|366:48,1,80,0|8,3:0|0:1,0:0:0:0:
239,207,123015,5,10,3:1:0:0:
396,130,123182,1,2,0:2:0:0:
254,59,123348,1,2,3:2:0:0:
387,223,123515,2,0,L|379:303,1,80,10|8,3:1|0:3,0:0:0:0:
308,119,123848,1,2,0:3:0:0:
212,295,124015,2,0,L|220:375,1,80,10|8,3:1|0:3,0:0:0:0:
96,245,124348,5,10,3:1:0:0:
306,279,124515,1,8,3:1:0:0:
150,152,124682,1,10,0:1:0:0:
133,355,124848,1,8,3:1:0:0:
242,187,125015,1,10,3:1:0:0:
47,161,125182,1,10,2:1:0:0:
212,295,125348,2,0,B|248:299|248:299|290:288,1,80,10|8,3:3|0:3,0:0:0:0:
318,115,125682,6,0,P|335:151|342:190,1,80,10|2,3:1|0:1,0:0:0:0:
116,303,126015,2,0,P|123:264|140:228,1,80,2|10,0:1|3:1,0:0:0:0:
317,288,126348,2,0,L|238:298,1,80,8|8,0:3|0:3,0:0:0:0:
192,130,126682,1,10,3:1:0:0:
192,130,126848,1,2,0:1:0:0:
20,71,127015,6,0,L|29:151,1,80,6|8,3:2|3:3,0:0:0:0:
140,227,127348,2,0,L|220:218,1,80,10|8,3:3|3:3,0:0:0:0:
225,33,127682,2,0,B|185:28|185:28|147:40,1,80,10|2,3:1|3:3,0:0:0:0:
290,179,128015,1,6,3:2:0:0:
324,22,128182,1,2,3:2:0:0:
336,106,128348,6,0,L|390:126,3,46.0000008773804,6|0|2|0,3:1|2:0|2:3|2:0,0:0:0:0:
452,194,128682,1,2,3:2:0:0:
463,238,128765,1,0,2:0:0:0:
452,282,128848,1,2,2:3:0:0:
421,316,128932,1,0,2:0:0:0:
378,331,129015,2,0,L|332:324,3,46.0000008773804,2|0|2|0,3:2|2:0|2:3|2:0,0:0:0:0:
273,264,129348,2,0,L|227:270,1,46.0000008773804,2|0,3:2|2:0,0:0:0:0:
161,347,129515,2,0,L|207:353,1,46.0000008773804,2|0,3:3|2:0,0:0:0:0:
64,305,129682,6,0,L|58:259,3,46.0000008773804,2|0|2|0,3:2|2:0|2:3|2:0,0:0:0:0:
145,214,130015,2,0,L|151:168,3,46.0000008773804,2|0|2|0,3:2|2:0|2:3|2:0,0:0:0:0:
43,105,130348,1,2,3:2:0:0:
58,62,130432,1,0,2:0:0:0:
92,32,130515,1,2,2:3:0:0:
136,22,130598,1,0,2:0:0:0:
179,36,130682,2,0,L|228:45,3,46.0000008773804,2|0|2|0,3:2|2:0|0:3|2:0,0:0:0:0:
317,130,131015,6,0,L|326:85,3,46.0000008773804,2|0|2|0,3:2|2:0|2:3|2:0,0:0:0:0:
413,213,131348,2,0,L|404:168,3,46.0000008773804,2|0|2|0,3:2|2:0|2:3|2:0,0:0:0:0:
324,267,131682,1,2,3:2:0:0:
288,294,131765,1,0,2:0:0:0:
243,299,131848,1,2,2:3:0:0:
202,279,131932,1,0,2:0:0:0:
176,240,132015,2,0,L|167:195,1,46.0000008773804,2|0,3:2|2:0,0:0:0:0:
89,309,132182,2,0,L|80:354,1,46.0000008773804,2|0,3:3|2:0,0:0:0:0:
30,245,132348,5,2,3:2:0:0:
28,211,132432,1,0,2:0:0:0:
26,176,132515,1,2,2:3:0:0:
24,142,132598,1,0,2:0:0:0:
21,107,132682,2,0,L|30:62,3,46.0000008773804,2|0|2|0,3:2|2:0|2:3|2:0,0:0:0:0:
135,67,133015,2,0,L|126:22,3,46.0000008773804,2|0|2|0,3:2|2:0|2:3|2:0,0:0:0:0:
230,115,133348,2,0,L|239:70,3,46.0000008773804,2|0|2|0,3:2|2:0|0:3|2:0,0:0:0:0:
340,34,133682,5,2,3:2:0:0:
385,31,133765,1,0,2:0:0:0:
417,62,133848,1,2,2:3:0:0:
416,107,133932,1,0,2:0:0:0:
382,136,134015,2,0,L|336:141,3,46.0000008773804,2|0|2|0,3:2|2:0|2:3|2:0,0:0:0:0:
441,228,134348,2,0,L|487:233,3,46.0000008773804,2|0|2|0,3:2|2:0|2:3|2:0,0:0:0:0:
358,352,134682,2,0,L|364:306,1,46.0000008773804,2|0,3:2|2:0,0:0:0:0:
259,203,134848,2,0,L|265:249,1,46.0000008773804,2|0,3:3|2:0,0:0:0:0:
181,363,135015,6,0,L|135:368,3,46.0000008773804,2|0|2|0,3:2|2:0|2:3|2:0,0:0:0:0:
64,293,135348,2,0,L|69:247,1,46.0000008773804,2|0,3:2|2:0,0:0:0:0:
169,201,135515,1,2,2:3:0:0:
165,197,135598,1,0,2:0:0:0:
161,193,135682,2,0,L|156:147,1,46.0000008773804,2|0,3:2|2:0,0:0:0:0:
41,76,135848,2,0,L|87:71,1,46.0000008773804,2|0,2:3|2:0,0:0:0:0:
184,18,136015,2,0,L|230:23,1,46.0000008773804,2|0,3:2|2:0,0:0:0:0:
290,115,136182,2,0,L|295:161,1,46.0000008773804,2|0,0:3|2:0,0:0:0:0:
384,56,136348,6,0,L|389:10,3,46.0000008773804,2|0|2|0,3:2|2:0|2:3|2:0,0:0:0:0:
459,162,136682,2,0,L|454:116,3,46.0000008773804,2|0|2|0,3:2|2:0|2:3|2:0,0:0:0:0:
393,230,137015,2,0,L|347:225,3,46.0000008773804,2|0|2|0,3:2|2:0|2:3|2:0,0:0:0:0:
487,314,137348,2,0,L|482:268,1,46.0000008773804,2|0,3:2|2:0,0:0:0:0:
376,339,137515,2,0,L|371:385,1,46.0000008773804,2|0,3:3|2:0,0:0:0:0:
260,300,137682,5,2,3:2:0:0:
257,266,137765,1,0,2:0:0:0:
254,231,137848,1,2,2:3:0:0:
251,197,137932,1,0,2:0:0:0:
248,163,138015,2,0,L|243:112,3,46.0000008773804,2|0|2|0,3:2|2:0|2:3|2:0,0:0:0:0:
160,231,138348,2,0,P|150:251|144:274,2,46.0000008773804,2|0|2,3:2|2:0|2:3,0:0:0:0:
80,29,138682,5,2,0:2:0:0:
136,115,138848,1,2,3:3:0:0:
326,72,139015,6,0,P|361:53|390:26,1,80,6|2,3:2|2:3,0:0:0:0:
234,52,139348,1,10,3:2:0:0:
337,159,139515,2,0,P|376:165|416:159,1,80,2|2,2:3|3:2,0:0:0:0:
214,194,139848,1,10,2:3:0:0:
294,294,140015,1,10,3:2:0:0:
176,304,140182,1,10,3:3:0:0:
171,309,140265,1,8,2:3:0:0:
167,313,140348,6,0,P|128:319|88:313,1,80,2|2,3:2|2:3,0:0:0:0:
273,141,140682,2,0,P|264:220|293:294,1,160,10|2,3:2|3:2,0:0:0:0:
279,45,141182,1,10,2:3:0:0:
188,78,141348,2,0,P|148:83|109:81,1,80,10|10,3:2|0:3,0:0:0:0:
30,29,141598,1,8,2:3:0:0:
30,29,141682,6,0,L|37:109,1,80,2|2,3:2|2:3,0:0:0:0:
110,170,142015,1,10,3:2:0:0:
54,332,142182,2,0,L|61:252,1,80,2|2,2:3|3:2,0:0:0:0:
192,158,142515,1,10,2:3:0:0:
265,220,142682,2,0,P|305:220|343:209,1,80,10|10,3:2|3:3,0:0:0:0:
437,41,143015,5,2,3:2:0:0:
359,98,143182,1,2,2:3:0:0:
432,159,143348,2,0,B|442:197|442:197|440:237,1,80,10|2,0:2|2:3,0:0:0:0:
273,298,143682,2,0,B|263:260|263:260|265:220,1,80,2|10,0:2|2:3,0:0:0:0:
383,326,144015,1,10,0:2:0:0:
350,111,144182,1,10,3:3:0:0:
177,189,144348,6,0,L|98:199,1,80,2|2,3:2|3:3,0:0:0:0:
306,90,144682,2,0,L|227:100,1,80,10|2,3:2|3:3,0:0:0:0:
109,76,145015,2,0,L|30:86,1,80,2|10,3:2|3:3,0:0:0:0:
295,213,145348,2,0,L|374:203,1,80,10|10,3:2|3:3,0:0:0:0:
116,276,145682,5,2,3:2:0:0:
168,356,145848,1,2,3:3:0:0:
287,248,146015,1,10,3:2:0:0:
263,341,146182,1,2,3:3:0:0:
130,166,146348,6,0,L|209:176,1,80,2|10,3:2|3:3,0:0:0:0:
405,35,146682,2,0,L|326:45,1,80,10|10,3:2|3:3,0:0:0:0:
301,129,146932,1,8,2:3:0:0:
305,133,147015,6,0,L|300:173,3,40,2|0|2|0,3:2|3:0|3:3|3:0,0:0:0:0:
374,202,147348,2,0,L|379:242,3,40,10|0|2|0,3:2|3:0|3:3|3:0,0:0:0:0:
334,354,147682,2,0,P|314:355|294:353,3,40,2|0|10|8,3:2|3:0|3:3|3:3,0:0:0:0:
201,288,148015,2,0,P|181:287|161:289,3,40,10|0|10|8,3:2|3:0|3:3|3:3,0:0:0:0:
41,353,148348,5,2,3:2:0:0:
62,332,148432,1,0,3:0:0:0:
74,304,148515,1,2,3:3:0:0:
75,275,148598,1,0,3:0:0:0:
65,247,148682,1,10,3:2:0:0:
54,219,148765,1,0,3:0:0:0:
55,189,148848,1,2,3:3:0:0:
67,162,148932,1,0,3:0:0:0:
88,141,149015,6,0,P|95:122|99:102,1,40,2|2,3:2|3:3,0:0:0:0:
177,33,149182,2,0,P|183:51|187:71,1,40,10|10,3:3|3:3,0:0:0:0:
241,172,149348,1,10,3:2:0:0:
259,180,149432,1,2,3:3:0:0:
278,184,149515,1,10,3:3:0:0:
298,184,149598,1,10,3:3:0:0:
318,180,149682,6,0,P|370:152|430:153,1,120,6|2,2:1|2:3,0:0:0:0:
445,165,150015,2,0,L|442:245,1,80,10|2,2:2|2:3,0:0:0:0:
428,260,150265,2,0,L|439:340,1,80,0|0,2:0|2:0,0:0:0:0:
284,308,150682,6,0,B|231:319|231:319|209:339|209:339|173:345,1,120,10|8,2:2|2:3,0:0:0:0:
155,336,151015,1,2,2:2:0:0:
111,250,151182,1,2,2:3:0:0:
265,184,151348,6,0,B|271:144|271:144|259:106,1,80,10|2,2:2|2:3,0:0:0:0:
247,87,151598,2,0,L|244:47,1,40,0|2,2:0|2:2,0:0:0:0:
253,28,151765,2,0,L|332:30,1,80,0|8,2:0|2:3,0:0:0:0:
347,44,152015,1,10,2:2:0:0:
144,154,152182,1,10,2:3:0:0:
140,158,152265,1,8,2:3:0:0:
136,162,152348,6,0,P|83:142|86:86,1,120,2|0,2:2|2:0,0:0:0:0:
102,73,152682,2,0,L|180:59,1,80,10|2,2:2|2:3,0:0:0:0:
199,68,152932,2,0,L|212:146,1,80,0|0,2:0|2:0,0:0:0:0:
180,339,153348,6,0,L|60:328,1,120,10|8,2:2|2:3,0:0:0:0:
396,54,154015,6,0,P|395:93|410:130,1,80,10|2,2:2|2:3,0:0:0:0:
425,147,154265,1,0,2:0:0:0:
438,163,154348,2,0,P|440:182|438:202,1,40,2|0,2:2|2:0,0:0:0:0:
349,222,154515,2,0,P|346:241|348:261,1,40,10|8,2:3|2:3,0:0:0:0:
457,355,154682,1,10,2:2:0:0:
433,215,154848,1,10,2:3:0:0:
191,251,155015,6,0,P|184:211|191:172,1,80,2|2,2:2|2:3,0:0:0:0:
236,77,155348,2,0,P|177:73|123:96,1,120,10|0,2:2|2:0,0:0:0:0:
104,124,155682,1,2,2:2:0:0:
90,152,155765,2,0,L|11:137,1,80,0|8,2:0|2:3,0:0:0:0:
112,265,156015,2,0,L|190:250,1,80,10|10,2:2|2:3,0:0:0:0:
27,353,156348,1,2,2:2:0:0:
267,274,156682,6,0,L|272:234,1,40,10|0,2:2|2:0,0:0:0:0:
349,327,156932,2,0,L|354:366,1,40,0|2,2:0|2:2,0:0:0:0:
361,335,157098,2,0,L|366:374,1,40,0|10,2:0|2:3,0:0:0:0:
429,247,157348,1,10,2:2:0:0:
370,170,157515,1,10,2:3:0:0:
443,54,157682,5,2,2:2:0:0:
261,118,158015,2,0,P|243:110|229:96,1,40,10|0,2:2|2:0,0:0:0:0:
337,19,158265,2,0,P|318:25|302:37,1,40,0|2,2:0|2:2,0:0:0:0:
335,8,158432,2,0,P|315:13|299:25,1,40,0|10,2:0|2:3,0:0:0:0:
287,214,158682,1,10,2:2:0:0:
44,57,159348,6,0,L|83:50,1,40,10|0,2:2|2:0,0:0:0:0:
132,166,159598,2,0,L|93:173,1,40,0|2,2:0|2:2,0:0:0:0:
123,183,159765,2,0,L|83:189,1,40,2|10,2:3|2:3,0:0:0:0:
71,323,160015,1,10,2:2:0:0:
256,192,160348,5,6,2:2:0:0:
