osu file format v14

[General]
AudioFilename: audio.mp3
AudioLeadIn: 0
PreviewTime: 109851
Countdown: 0
SampleSet: Soft
StackLeniency: 0.7
Mode: 2
LetterboxInBreaks: 0
WidescreenStoryboard: 0

[Editor]
Bookmarks: 36476,58476,90476,110476,144476,160476,192476,210476,242476,260476,294476,330476
DistanceSpacing: 1.3
BeatDivisor: 4
GridSize: 32
TimelineZoom: 1.5

[Metadata]
Title:Archetype no Ido no Kaibutsu
TitleUnicode:アーキタイプの井戸の怪物
Artist:Krik/Krak
ArtistUnicode:Krik/Krak
Creator:-Rustyy
Version:Essence of Life
Source:
Tags:jrock j-rock rock japanese gothic symphonic adinda nordic catch cup ncc 4 digit n4dcc finals tb tiebreaker female vocal vocals vocalist krikkrak
BeatmapID:4205733
BeatmapSetID:2019558

[Difficulty]
HPDrainRate:6
CircleSize:4
OverallDifficulty:9.4
ApproachRate:9.4
SliderMultiplier:3.49999990463257
SliderTickRate:2

[Events]
//Background and Video events
0,0,"aaa.jpg",0,0
//Break Periods
2,242676,248936
//Storyboard Layer 0 (Background)
//Storyboard Layer 1 (Fail)
//Storyboard Layer 2 (Pass)
//Storyboard Layer 3 (Foreground)
//Storyboard Layer 4 (Overlay)
//Storyboard Sound Samples

[TimingPoints]
476,500,4,2,1,45,1,0
476,-142.857142857143,4,2,1,45,0,0
32476,-142.857142857143,4,2,1,65,0,0
35976,-142.857142857143,4,2,1,75,0,0
36476,-95.2380952380952,4,2,1,85,0,0
58476,-95.2380952380952,4,2,1,65,0,0
106476,-95.2380952380952,4,2,1,75,0,0
108476,-95.2380952380952,4,2,1,85,0,0
110476,-95.2380952380952,4,2,1,90,0,1
144476,-95.2380952380952,4,2,1,65,0,0
160476,-105.263157894737,4,2,1,55,0,0
190226,-105.263157894737,4,2,1,80,0,0
190476,-95.2380952380952,4,2,1,70,0,0
192476,-95.2380952380952,4,2,1,80,0,0
210476,-133.333333333333,4,2,1,60,0,0
226476,-133.333333333333,4,2,1,65,0,0
242476,-95.2380952380952,4,2,1,60,0,0
250476,-95.2380952380952,4,2,1,70,0,0
258476,-95.2380952380952,4,2,1,75,0,0
259976,-95.2380952380952,4,2,1,80,0,0
260476,-95.2380952380952,4,2,1,90,0,1
294476,-95.2380952380952,4,2,1,87,0,0
310476,-95.2380952380952,4,2,1,85,0,0

[Colours]
Combo1 : 255,217,0
Combo2 : 26,0,255
Combo3 : 192,192,192
Combo4 : 0,128,0

[HitObjects]
147,341,476,6,0,P|109:294|344:360,1,857.499950466158,2|0,0:0|0:0,0:0:0:0:
167,335,2476,6,0,P|255:295|128:12,1,489.999971694947,2|0,0:0|0:0,0:0:0:0:
421,316,4476,6,0,B|363:325|323:315|271:286|246:209|240:154|261:97|311:55|442:51|441:51|461:54|461:54|150:303,1,857.499950466158,2|0,0:0|0:0,0:0:0:0:
348,351,6476,6,0,P|413:320|308:18,1,489.999971694947,2|0,0:0|0:0,0:0:0:0:
112,341,8476,6,0,B|161:102|161:102|221:338|221:338|279:84|274:99,1,734.999957542421,2|0,0:0|0:0,0:0:0:0:
151,74,10226,1,0,0:0:0:0:
326,37,10476,6,0,L|86:195,1,244.999985847474,2|0,0:0|0:0,0:0:0:0:
365,179,11476,2,0,P|424:210|341:335,1,244.999985847474,2|0,0:0|0:0,0:0:0:0:
115,341,12476,6,0,B|177:346|242:334|281:288|309:230|291:197|166:190|120:199|68:202|46:167|40:126|40:70|53:44|85:25|152:10|310:7,1,734.999957542421,2|0,0:0|0:0,0:0:0:0:
123,42,14476,6,0,L|107:308,1,244.999985847474,2|0,0:0|0:0,0:0:0:0:
355,255,15476,2,0,L|83:214,1,244.999985847474,2|0,0:0|0:0,0:0:0:0:
359,357,16476,6,0,P|420:304|86:34,1,734.999957542421,2|0,0:0|0:0,0:0:0:0:
218,62,18226,1,0,0:0:0:0:
395,89,18476,6,0,P|288:106|406:342,1,489.999971694947,2|2,0:0|0:0,0:0:0:0:
176,357,20476,6,0,P|335:353|107:204,1,734.999957542421,2|0,0:0|0:0,0:0:0:0:
234,263,22226,1,0,0:0:0:0:
408,296,22476,6,0,L|131:252,1,244.999985847474,2|0,0:0|0:0,0:0:0:0:
412,272,23476,2,0,L|424:25,1,244.999985847474,2|0,0:0|0:0,0:0:0:0:
171,40,24476,6,0,B|106:58|77:88|42:191|34:213|99:297|135:320|178:345|257:360|290:358|388:347|421:316|435:246|223:256,1,734.999957542421,2|0,0:0|0:0,0:0:0:0:
124,232,26226,1,0,0:0:0:0:
296,202,26476,6,0,P|371:166|296:52,1,244.999985847474,2|0,0:0|0:0,0:0:0:0:
74,28,27476,2,0,P|17:68|94:192,1,244.999985847474,2|0,0:0|0:0,0:0:0:0:
335,278,28476,5,2,0:0:0:0:
137,341,28976,1,2,0:0:0:0:
217,344,29142,1,2,0:0:0:0:
137,341,29309,1,2,0:0:0:0:
299,297,29476,1,2,0:0:0:0:
421,242,29726,1,2,0:0:0:0:
482,142,29976,1,2,0:0:0:0:
421,242,30226,1,2,0:0:0:0:
220,214,30476,5,2,0:1:0:0:
139,186,30642,1,2,0:0:0:0:
220,214,30809,1,2,0:0:0:0:
374,154,30976,1,2,0:0:0:0:
300,118,31142,1,2,0:0:0:0:
209,105,31309,1,2,0:0:0:0:
363,62,31476,1,2,0:0:0:0:
444,75,31642,1,2,0:0:0:0:
363,62,31809,1,2,0:0:0:0:
453,115,31976,1,2,0:0:0:0:
494,172,32142,1,2,0:0:0:0:
453,115,32309,1,2,0:0:0:0:
298,126,32475,5,2,0:1:0:0:
256,192,32726,12,2,35976,0:0:0:0:
373,202,36226,5,2,0:0:0:0:
56,54,36476,6,0,L|281:86,1,183.749989385605,14|8,0:1|0:0,0:0:0:0:
34,167,36851,2,0,L|133:195,2,91.8749946928026,2|8|8,0:0|0:1|0:1,0:0:0:0:
147,228,37226,2,0,L|161:337,1,91.8749946928026,10|0,0:0|0:0,0:0:0:0:
370,174,37476,6,8,L|168:145,1,183.749989385605,10|8,0:1|0:0,0:0:0:0:
280,126,37851,1,0,0:0:0:0:
466,200,37976,2,0,L|338:212,1,91.8749946928026,10|8,0:1|0:1,0:0:0:0:
478,233,38226,2,0,L|486:344,1,91.8749946928026,8|0,0:0|0:0,0:0:0:0:
281,343,38476,6,0,P|220:259|280:228,1,183.749989385605,10|8,0:1|0:0,0:0:0:0:
449,179,38851,2,0,L|378:111,1,91.8749946928026,2|8,0:0|0:1,0:0:0:0:
281,97,39101,1,8,0:1:0:0:
373,47,39226,2,0,L|384:166,1,91.8749946928026,10|0,0:0|0:0,0:0:0:0:
196,144,39476,6,0,P|140:232|189:264,1,183.749989385605,10|8,0:1|0:0,0:0:0:0:
277,280,39851,1,0,0:0:0:0:
84,325,39976,2,0,L|76:214,1,91.8749946928026,10|8,0:1|0:1,0:0:0:0:
179,199,40226,2,0,L|89:177,1,91.8749946928026,8|0,0:0|0:0,0:0:0:0:
276,147,40476,6,8,L|286:38,1,91.8749946928026,14|0,0:1|0:0,0:0:0:0:
192,42,40726,1,8,0:0:0:0:
385,115,40851,1,0,0:0:0:0:
293,120,40976,1,8,0:1:0:0:
201,126,41101,1,0,0:0:0:0:
305,179,41226,2,0,L|320:280,1,91.8749946928026,10|0,0:0|0:0,0:0:0:0:
104,341,41476,6,8,L|216:363,2,91.8749946928026,14|0|8,0:1|0:0|0:0,0:0:0:0:
294,273,41851,1,2,0:0:0:0:
104,215,41976,2,0,L|97:115,1,91.8749946928026,14|0,0:1|0:0,0:0:0:0:
301,78,42226,2,0,L|410:75,1,91.8749946928026,10|0,0:0|0:0,0:0:0:0:
158,35,42476,6,0,P|97:119|158:135,1,183.749989385605,10|8,0:0|0:0,0:0:0:0:
325,184,42851,1,10,0:0:0:0:
105,239,42976,2,0,L|89:348,1,91.8749946928026,8|0,0:0|0:0,0:0:0:0:
325,330,43226,2,0,L|336:222,1,91.8749946928026,10|0,0:0|0:0,0:0:0:0:
114,155,43476,5,10,0:1:0:0:
337,126,43601,1,8,0:0:0:0:
114,75,43726,2,0,L|216:83,1,91.8749946928026,8|8,0:0|0:0,0:0:0:0:
428,41,43976,1,10,0:0:0:0:
197,123,44101,1,8,0:0:0:0:
446,194,44226,2,0,L|346:215,1,91.8749946928026,10|8,0:0|0:0,0:0:0:0:
127,227,44476,6,8,L|318:252,1,183.749989385605,14|8,0:1|0:0,0:0:0:0:
96,319,44851,2,0,L|209:327,2,91.8749946928026,2|8|8,0:0|0:1|0:1,0:0:0:0:
298,279,45226,2,0,L|308:172,1,91.8749946928026,10|0,0:0|0:0,0:0:0:0:
74,45,45476,6,8,P|26:134|87:173,1,183.749989385605,10|8,0:1|0:0,0:0:0:0:
171,213,45851,1,0,0:0:0:0:
366,289,45976,2,8,L|256:291,1,91.8749946928026,10|8,0:1|0:1,0:1:0:0:
375,333,46226,2,0,L|488:346,1,91.8749946928026,10|0,0:0|0:0,0:0:0:0:
267,265,46476,6,8,P|221:182|284:142,1,183.749989385605,14|8,0:1|0:0,0:0:0:0:
483,119,46851,2,0,L|411:41,1,91.8749946928026,2|8,0:0|0:1,0:0:0:0:
329,50,47101,1,8,0:1:0:0:
145,131,47226,2,0,L|241:127,1,91.8749946928026,10|0,0:0|0:0,0:0:0:0:
41,160,47476,6,0,L|34:258,1,91.8749946928026,10|0,0:1|0:0,0:0:0:0:
128,301,47726,2,0,L|29:311,1,91.8749946928026,10|0,0:0|0:0,0:0:0:0:
243,352,47976,2,8,L|252:253,1,91.8749946928026,10|8,0:1|0:1,0:1:0:0:
157,224,48226,2,0,L|148:113,1,91.8749946928026,10|0,0:0|0:0,0:0:0:0:
382,168,48476,6,0,P|399:54|330:47,1,183.749989385605,14|8,0:1|0:0,0:0:0:0:
169,86,48851,2,0,L|263:105,2,91.8749946928026,2|8|8,0:0|0:1|0:1,0:0:0:0:
365,194,49226,2,0,L|376:311,1,91.8749946928026,10|0,0:0|0:0,0:0:0:0:
171,280,49476,6,0,L|74:289,1,91.8749946928026,14|0,0:1|0:0,0:0:0:0:
172,336,49726,2,0,L|186:232,1,91.8749946928026,10|0,0:0|0:0,0:0:0:0:
392,190,49976,2,8,L|491:177,1,91.8749946928026,10|8,0:1|0:1,0:1:0:0:
380,131,50226,2,0,L|366:27,1,91.8749946928026,10|0,0:0|0:0,0:0:0:0:
163,90,50476,6,8,L|363:121,1,183.749989385605,10|8,0:0|0:1,0:0:0:0:
252,143,50851,1,10,0:0:0:0:
447,226,50976,2,0,L|246:235,1,183.749989385605,8|10,0:0|0:0,0:0:0:0:
356,283,51351,1,8,0:0:0:0:
144,329,51476,5,8,0:0:0:0:
94,313,51538,2,8,L|76:244,2,45.9374973464013
266,221,51726,2,0,L|340:263,2,61.2499964618684,8|8|8,0:0|0:0|0:0,0:0:0:0:
446,188,51976,6,0,L|459:76,1,91.8749946928026,8|8,0:0|0:0,0:0:0:0:
244,45,52226,2,0,L|357:48,1,91.8749946928026,10|8,0:0|0:0,0:0:0:0:
131,128,52476,5,14,0:1:0:0:
38,139,52601,2,0,L|30:237,1,91.8749946928026,0|8,0:0|0:0,0:0:0:0:
235,266,52851,2,0,L|243:378,1,91.8749946928026,2|8,0:0|0:1,0:0:0:0:
54,296,53101,1,8,0:0:0:0:
240,217,53226,2,0,L|138:201,1,91.8749946928026,10|0,0:0|0:0,0:0:0:0:
359,137,53476,6,0,L|464:124,1,91.8749946928026,14|0,0:0|0:0,0:0:0:0:
349,85,53726,2,0,L|461:78,1,91.8749946928026
212,57,53976,2,0,L|99:50,1,91.8749946928026,10|0,0:0|0:0,0:0:0:0:
357,124,54226,2,0,L|364:239,1,91.8749946928026
108,222,54476,5,10,0:1:0:0:
219,348,54601,2,0,L|235:132,1,183.749989385605,8|8,0:0|0:1,0:0:0:0:
432,135,54976,1,8,0:0:0:0:
277,77,55226,2,0,L|406:59,1,91.8749946928026,8|8,0:0|0:0,0:0:0:0:
162,40,55476,5,8,0:1:0:0:
71,73,55601,1,8,0:0:0:0:
25,161,55726,1,8,0:1:0:0:
71,73,55851,1,0,0:0:0:0:
263,125,55976,2,0,L|152:106,1,91.8749946928026,8|8,0:0|0:1,0:0:0:0:
274,178,56226,2,0,L|174:162,1,91.8749946928026,8|8,0:1|0:0,0:0:0:0:
374,277,56476,6,0,L|486:277,1,91.8749946928026,10|0,0:0|0:0,0:0:0:0:
266,217,56726,2,0,L|470:207,1,183.749989385605,8|8,0:1|0:1,0:0:0:0:
112,180,57226,2,8,L|69:175,1,22.9687486732007,10|8,0:0|0:0,0:0:0:0:
234,125,57476,2,0,L|44:109,1,183.749989385605,8|8,0:1|0:1,0:0:0:0:
260,35,57976,2,0,L|267:142,1,91.8749946928026,10|0,0:0|0:0,0:0:0:0:
164,126,58226,2,0,L|153:226,1,91.8749946928026,2|2,0:0|0:0,0:0:0:0:
379,200,58476,6,0,P|429:293|359:318,1,183.749989385605,14|8,0:1|0:1,0:0:0:0:
291,331,58851,1,2,0:0:0:0:
475,270,58976,1,8,0:0:0:0:
309,229,59226,2,0,L|304:133,1,91.8749946928026,2|8,0:0|0:1,0:0:0:0:
190,89,59476,6,0,L|281:69,2,91.8749946928026,2|0|8,0:0|0:0|0:1,0:0:0:0:
376,34,59976,2,0,L|386:218,1,183.749989385605,10|0,0:0|0:0,0:0:0:0:
69,268,60476,6,8,L|271:291,1,183.749989385605,10|8,0:1|0:1,0:1:0:0:
159,304,60851,1,2,0:0:0:0:
353,352,60976,1,8,0:0:0:0:
187,226,61226,2,0,L|286:190,1,91.8749946928026,10|0,0:1|0:0,0:0:0:0:
161,145,61476,6,0,L|66:122,2,91.8749946928026,10|0|0,0:1|0:0|0:0,0:0:0:0:
364,68,61976,2,0,L|175:49,1,183.749989385605,10|0,0:0|0:0,0:0:0:0:
89,43,62351,1,0,3:0:0:0:
294,49,62476,6,8,P|354:121|284:163,1,183.749989385605,10|8,0:1|0:1,0:1:0:0:
208,167,62851,1,2,0:0:0:0:
16,175,62976,1,8,0:0:0:0:
181,316,63226,2,0,L|70:292,1,91.8749946928026,2|8,0:0|0:1,0:0:0:0:
193,262,63476,6,0,L|313:270,1,91.8749946928026,2|0,0:0|0:0,0:0:0:0:
205,228,63726,1,8,0:1:0:0:
16,62,63976,2,0,L|179:160,1,183.749989385605,10|0,0:0|0:0,0:0:0:0:
495,195,64476,6,8,L|290:160,1,183.749989385605,10|8,0:1|0:1,0:1:0:0:
116,293,64976,2,0,L|303:285,1,183.749989385605,10|0,0:0|0:0,0:0:0:0:
392,279,65351,1,8,0:0:0:0:
197,232,65476,6,0,L|192:135,1,91.8749946928026,10|0,0:0|0:0,0:0:0:0:
285,121,65726,1,8,0:3:0:0:
161,72,65851,2,0,L|111:62,1,45.9374973464013
286,42,65976,2,0,L|292:155,1,91.8749946928026,10|8,0:0|0:0,0:0:0:0:
85,150,66226,1,8,0:3:0:0:
399,218,66476,6,0,L|189:263,1,183.749989385605,14|8,0:1|0:1,0:0:0:0:
311,283,66851,1,2,0:0:0:0:
106,290,66976,1,8,0:0:0:0:
272,347,67226,2,0,L|278:239,1,91.8749946928026,2|8,0:0|0:1,0:0:0:0:
173,201,67476,5,2,0:0:0:0:
264,194,67601,1,0,0:0:0:0:
356,187,67726,1,8,0:1:0:0:
151,146,67976,2,0,P|91:61|155:29,1,183.749989385605,10|0,0:0|0:0,0:0:0:0:
225,46,68351,1,8,0:0:0:0:
422,96,68476,6,0,L|316:109,1,91.8749946928026,10|8,0:1|0:0,0:0:0:0:
431,159,68726,2,0,L|440:260,1,91.8749946928026,8|2,0:1|0:0,0:0:0:0:
248,307,68976,1,8,0:0:0:0:
63,238,69226,2,0,L|53:140,1,91.8749946928026,2|8,0:0|0:1,0:0:0:0:
164,141,69476,6,0,L|175:40,1,91.8749946928026,2|8,0:0|0:1,0:0:0:0:
55,34,69726,1,0,0:0:0:0:
260,117,69976,2,0,L|44:117,1,183.749989385605,10|0,0:0|0:0,0:0:0:0:
169,160,70351,1,8,0:0:0:0:
383,231,70476,6,8,L|288:217,2,91.8749946928026,10|0|8,0:1|0:0|0:1,0:1:0:0:
191,282,70851,1,2,0:0:0:0:
283,328,70976,2,0,L|296:132,1,183.749989385605,8|2,0:0|0:0,0:0:0:0:
203,125,71351,1,8,0:1:0:0:
17,60,71476,6,0,L|95:8,1,91.8749946928026,2|0,0:0|0:0,0:0:0:0:
196,62,71726,1,10,0:1:0:0:
381,131,71976,2,0,L|172:141,1,183.749989385605,10|2,0:0|0:0,0:0:0:0:
106,142,72351,1,8,0:0:0:0:
336,226,72476,5,14,0:1:0:0:
336,226,72726,1,8,0:0:0:0:
151,302,72851,2,8,L|254:313,1,91.8749946928026
38,336,73101,1,12,0:1:0:0:
38,336,73351,1,8,0:1:0:0:
222,266,73476,6,0,L|318:268,1,91.8749946928026,8|8,0:0|0:0,0:0:0:0:
119,210,73726,1,8,0:0:0:0:
304,186,73976,1,8,0:0:0:0:
105,139,74101,2,0,L|97:32,1,91.8749946928026,8|8,0:0|0:0,0:0:0:0:
431,71,74476,6,8,L|229:80,1,183.749989385605,14|8,0:1|0:1,0:1:0:0:
339,109,74851,1,2,0:0:0:0:
145,160,74976,1,8,0:0:0:0:
309,201,75226,2,0,L|317:317,1,91.8749946928026,2|8,0:0|0:1,0:0:0:0:
208,331,75476,6,0,L|319:349,2,91.8749946928026,2|0|8,0:0|0:0|0:1,0:0:0:0:
393,283,75976,2,0,P|439:194|373:161,1,183.749989385605,10|0,0:0|0:0,0:0:0:0:
70,111,76476,6,8,L|176:85,2,91.8749946928026,10|0|8,0:1|0:0|0:1,0:1:0:0:
260,194,76851,2,0,L|144:193,1,91.8749946928026,2|8,0:0|0:0,0:0:0:0:
341,274,77226,2,0,L|459:285,1,91.8749946928026,10|0,0:1|0:0,0:0:0:0:
316,336,77476,6,0,P|250:259|305:225,1,183.749989385605,10|0,0:1|0:0,0:0:0:0:
462,204,77976,2,0,P|471:102|396:72,1,183.749989385605,10|0,0:0|0:0,0:0:0:0:
95,49,78476,6,8,L|283:86,1,183.749989385605,10|8,0:1|0:1,0:1:0:0:
184,123,78851,1,2,0:0:0:0:
375,172,78976,1,8,0:0:0:0:
210,198,79226,2,0,L|198:298,1,91.8749946928026,2|8,0:0|0:1,0:0:0:0:
320,333,79476,6,0,L|209:304,2,91.8749946928026,2|0|8,0:0|0:0|0:1,0:0:0:0:
114,285,79976,2,0,P|62:200|134:152,1,183.749989385605,8|2,0:0|0:0,0:0:0:0:
424,62,80476,6,8,L|216:52,1,183.749989385605,10|8,0:1|0:1,0:1:0:0:
148,45,80851,1,2,0:0:0:0:
348,111,80976,1,8,0:0:0:0:
36,155,81226,1,10,0:0:0:0:
350,217,81476,6,8,P|404:278|326:337,1,183.749989385605,14|8,0:0|0:3,0:0:0:0:
242,351,81851,2,0,L|180:347,1,45.9374973464013
352,299,81976,2,0,L|356:196,1,91.8749946928026,10|8,0:0|0:0,0:0:0:0:
137,159,82226,1,8,0:3:0:0:
458,93,82476,5,14,0:1:0:0:
366,86,82601,1,0,0:0:0:0:
464,56,82726,2,0,L|470:170,1,91.8749946928026,8|0,0:1|0:0,0:0:0:0:
274,79,82975,1,8,0:0:0:0:
202,143,83226,2,0,L|301:137,1,91.8749946928026,2|8,0:0|0:1,0:0:0:0:
182,172,83476,6,0,L|175:283,1,91.8749946928026,2|0,0:0|0:0,0:0:0:0:
269,291,83726,1,8,0:1:0:0:
453,352,83976,2,0,P|489:259|419:223,1,183.749989385605,10|0,0:0|0:0,0:0:0:0:
339,207,84351,1,8,0:0:0:0:
155,154,84476,6,0,L|355:140,1,183.749989385605,10|8,0:1|0:1,0:0:0:0:
246,111,84851,1,2,0:0:0:0:
445,49,84976,1,8,0:0:0:0:
279,83,85226,2,0,L|270:185,1,91.8749946928026,2|8,0:0|0:1,0:0:0:0:
67,218,85476,5,2,0:0:0:0:
157,231,85601,1,8,0:1:0:0:
67,218,85726,1,2,0:0:0:0:
381,285,85976,2,0,L|161:306,1,183.749989385605,10|2,0:0|0:0,0:0:0:0:
290,321,86351,1,8,0:0:0:0:
106,338,86476,6,0,P|62:244|135:217,1,183.749989385605,10|8,0:1|0:1,0:0:0:0:
205,199,86851,1,2,0:0:0:0:
18,118,86976,1,8,0:0:0:0:
202,82,87226,2,0,L|207:183,1,91.8749946928026,2|8,0:0|0:1,0:0:0:0:
317,227,87476,5,2,0:0:0:0:
225,235,87601,1,0,0:0:0:0:
134,243,87726,1,8,0:1:0:0:
321,295,87976,2,0,L|500:355,1,183.749989385605,8|2,0:0|0:0,0:0:0:0:
404,352,88351,1,8,0:0:0:0:
194,289,88476,5,10,0:1:0:0:
359,209,88726,2,0,L|231:187,1,91.8749946928026,8|10,0:0|0:0,0:0:0:0:
470,127,88976,1,8,0:0:0:0:
235,249,89101,2,0,L|427:126,1,183.749989385605,12|8,0:1|0:0,0:0:0:0:
151,56,89476,6,0,L|253:81,1,91.8749946928026,10|8,0:0|0:1,0:0:0:0:
32,117,89726,1,10,0:1:0:0:
198,134,89976,2,0,L|84:111,1,91.8749946928026,10|8,0:0|0:0,0:0:0:0:
334,183,90226,1,10,0:1:0:0:
117,218,90351,1,8,0:0:0:0:
354,329,90476,6,0,P|384:258|283:207,1,183.749989385605,14|0,0:1|0:0,0:0:0:0:
413,163,90851,1,2,0:0:0:0:
215,141,90976,1,8,0:0:0:0:
169,57,91101,1,0,0:0:0:0:
215,141,91226,1,2,0:0:0:0:
307,177,91351,1,8,0:0:0:0:
413,244,91476,6,0,L|312:227,2,91.8749946928026,10|0|8,0:1|0:0|0:1,0:0:0:0:
218,278,91976,2,0,L|27:283,1,183.749989385605,8|2,0:0|0:0,0:0:0:0:
357,225,92476,6,8,L|142:203,1,183.749989385605,10|8,0:1|0:1,0:1:0:0:
83,182,92851,1,2,0:0:0:0:
267,123,92976,1,8,0:0:0:0:
432,36,93226,1,2,0:0:0:0:
341,27,93351,1,0,0:0:0:0:
432,36,93476,5,10,0:1:0:0:
478,96,93601,1,8,0:0:0:0:
432,36,93726,2,0,L|331:59,1,91.8749946928026
129,160,93976,2,0,L|337:172,1,183.749989385605,10|2,0:0|0:0,0:0:0:0:
404,181,94351,1,8,0:0:0:0:
193,295,94476,6,0,P|136:209|195:181,1,183.749989385605,10|0,0:1|0:0,0:0:0:0:
274,169,94851,1,2,0:0:0:0:
76,122,94976,1,8,0:0:0:0:
259,75,95226,2,0,L|167:55,1,91.8749946928026,2|0,0:0|0:0,0:0:0:0:
262,107,95476,6,0,L|316:33,2,91.8749946928026,10|8|8,0:1|0:1|0:1,0:0:0:0:
171,117,95851,1,2,0:0:0:0:
363,213,95976,2,0,L|464:225,1,91.8749946928026,8|0,0:0|0:0,0:0:0:0:
464,160,96226,1,2,0:0:0:0:
144,255,96476,6,8,L|110:248,1,22.9687486732007,10|8,0:3|0:3,0:1:0:0:
275,187,96726,2,0,L|62:168,1,183.749989385605,8|8,0:1|0:1,0:0:0:0:
414,117,97226,2,0,L|452:113,1,22.9687486732007,8|8,0:0|0:0,0:0:0:0:
275,52,97476,5,10,0:3:0:0:
366,52,97601,1,8,0:3:0:0:
458,52,97726,1,8,0:1:0:0:
146,126,97976,2,0,L|182:122,1,22.9687486732007,8|8,0:0|0:0,0:0:0:0:
303,172,98226,2,0,L|299:268,1,91.8749946928026,10|8,0:1|0:0,0:0:0:0:
81,322,98476,6,0,L|256:241,1,183.749989385605,14|0,0:1|0:0,0:0:0:0:
156,218,98851,1,2,0:0:0:0:
352,138,98976,1,8,0:0:0:0:
186,95,99226,2,0,L|293:78,1,91.8749946928026,2|0,0:0|0:0,0:0:0:0:
380,45,99476,6,0,L|268:-12,2,91.8749946928026,10|0|8,0:1|0:0|0:1,0:0:0:0:
194,87,99976,2,0,L|14:141,1,183.749989385605,8|10,0:0|0:1,0:0:0:0:
392,156,100476,6,8,P|445:238|381:278,1,183.749989385605,10|8,0:1|0:1,0:1:0:0:
195,338,100851,2,0,L|316:350,1,91.8749946928026,2|8,0:0|0:0,0:0:0:0:
125,275,101226,2,0,L|35:232,1,91.8749946928026,2|8,0:0|0:0,0:0:0:0:
135,206,101476,6,0,L|182:108,2,91.8749946928026,10|8|8,0:1|0:0|0:1,0:0:0:0:
301,85,101976,2,0,L|209:29,1,91.8749946928026,10|8,0:0|0:0,0:0:0:0:
422,25,102226,2,0,L|432:125,1,91.8749946928026,8|8,0:0|0:0,0:0:0:0:
217,189,102476,6,0,L|398:275,1,183.749989385605,14|8,0:1|0:1,0:0:0:0:
69,306,102976,1,12,0:0:0:0:
234,260,103226,2,0,L|137:251,1,91.8749946928026,2|8,0:0|0:0,0:0:0:0:
235,197,103476,5,8,0:1:0:0:
144,183,103601,1,8,0:0:0:0:
265,181,103726,2,0,L|362:168,1,91.8749946928026,8|0,0:1|0:0,0:0:0:0:
118,51,103976,1,8,0:0:0:0:
118,51,104226,1,2,0:0:0:0:
435,35,104476,6,0,L|442:225,1,183.749989385605,14|8,0:1|0:1,0:0:0:0:
127,273,104976,2,0,L|316:368,1,183.749989385605,12|2,0:0|0:0,0:0:0:0:
199,359,105351,1,8,0:0:0:0:
389,293,105476,6,0,L|432:379,2,91.8749946928026,10|8|8,0:1|0:0|0:1,0:0:0:0:
296,268,105851,1,2,0:0:0:0:
496,228,105976,2,0,L|322:155,1,183.749989385605,12|2,0:0|0:0,0:0:0:0:
17,57,106476,6,0,L|214:157,1,183.749989385605,14|0,0:1|0:0,0:0:0:0:
376,214,106851,2,0,L|266:225,1,91.8749946928026,8|10,0:3|0:3,0:0:0:0:
439,256,107226,2,0,L|451:370,1,91.8749946928026,0|8,0:0|0:3,0:0:0:0:
236,302,107476,6,0,L|224:197,1,91.8749946928026,10|8,0:1|0:0,0:0:0:0:
337,323,107726,2,8,L|339:227,1,91.8749946928026,8|0,0:1|0:0,0:0:0:0:
142,161,107976,2,0,L|243:154,2,91.8749946928026,10|8|8,0:0|0:3|0:3,0:0:0:0:
340,90,108351,1,8,0:0:0:0:
100,34,108476,6,0,P|59:139|100:152,1,183.749989385605,14|0,0:1|0:0,0:0:0:0:
296,234,108851,2,0,L|203:290,1,91.8749946928026,14|0,0:1|0:0,0:0:0:0:
401,291,109070,1,8,0:0:0:0:
444,293,109101,1,8,0:0:0:0:
234,359,109226,2,0,L|221:258,1,91.8749946928026,10|0,0:1|0:0,0:0:0:0:
467,204,109476,5,14,0:1:0:0:
467,204,109851,1,8,0:0:0:0:
281,167,109976,2,0,L|326:117,1,61.2499964618684,10|8,0:0|0:3,0:0:0:0:
389,130,110142,1,8,0:3:0:0:
213,99,110226,2,0,L|155:54,1,61.2499964618684,6|4,0:3|0:3,0:0:0:0:
97,63,110392,1,4,0:3:0:0:
318,33,110476,6,0,P|373:113|318:153,1,183.749989385605,14|8,0:1|0:0,0:0:0:0:
135,176,110851,2,0,L|209:245,1,91.8749946928026,2|8,0:0|0:1,0:0:0:0:
295,261,111101,1,8,0:1:0:0:
97,342,111226,2,0,L|84:235,1,91.8749946928026,10|0,0:0|0:0,0:0:0:0:
290,184,111476,6,0,L|100:152,1,183.749989385605,10|8,0:1|0:0,0:0:0:0:
202,130,111851,1,0,0:0:0:0:
402,56,111976,2,0,L|241:38,2,91.8749946928026,10|8|8,0:1|0:1|0:0,0:0:0:0:
88,51,112476,6,8,P|37:136|96:175,1,183.749989385605,12|8,0:1|0:0,0:0:0:0:
281,241,112851,2,0,L|176:227,2,91.8749946928026,2|8|8,0:0|0:1|0:1,0:0:0:0:
84,328,113226,2,0,L|212:329,1,91.8749946928026,10|0,0:0|0:0,0:0:0:0:
385,315,113476,6,0,P|446:240|383:207,1,183.749989385605,10|8,0:1|0:0,0:0:0:0:
301,191,113851,1,0,0:0:0:0:
496,126,113976,1,10,0:1:0:0:
414,91,114101,1,8,0:1:0:0:
325,65,114226,1,8,0:0:0:0:
16,54,114476,6,8,L|97:3,2,91.8749946928026,14|0|8,0:1|0:0|0:0,0:0:0:0:
199,117,114851,2,0,L|293:145,1,91.8749946928026,2|8,0:0|0:1,0:0:0:0:
297,205,115101,1,8,0:1:0:0:
103,208,115226,2,0,L|94:319,1,91.8749946928026,10|0,0:0|0:0,0:0:0:0:
316,268,115476,6,0,L|107:243,1,183.749989385605,14|8,0:1|0:0,0:0:0:0:
319,174,115851,1,2,0:0:0:0:
120,161,115976,2,0,L|24:150,1,91.8749946928026,12|0,0:1|0:0,0:0:0:0:
225,122,116226,2,0,L|242:19,1,91.8749946928026,10|0,0:0|0:0,0:0:0:0:
432,69,116476,6,0,L|341:125,1,91.8749946928026,10|0,0:1|0:0,0:0:0:0:
252,108,116726,1,8,0:0:0:0:
51,197,116851,2,0,L|190:175,2,91.8749946928026,2|8|8,0:0|0:1|0:1,0:0:0:0:
285,222,117226,2,0,L|296:328,1,91.8749946928026,10|0,0:0|0:0,0:0:0:0:
87,296,117476,5,10,0:1:0:0:
318,267,117601,1,8,0:0:0:0:
71,219,117726,2,0,L|173:209,1,91.8749946928026,8|8,0:0|0:0,0:0:0:0:
384,152,117976,1,10,0:0:0:0:
156,112,118101,1,8,0:0:0:0:
365,68,118226,2,0,L|474:65,1,91.8749946928026,10|8,0:0|0:0,0:0:0:0:
210,44,118476,6,0,P|154:129|217:167,1,183.749989385605,14|8,0:1|0:0,0:0:0:0:
418,256,118851,2,0,L|316:212,2,91.8749946928026,2|8|8,0:0|0:1|0:1,0:0:0:0:
216,282,119226,2,0,L|113:288,1,91.8749946928026,10|0,0:0|0:0,0:0:0:0:
314,185,119476,6,0,L|87:159,1,183.749989385605,10|8,0:1|0:0,0:0:0:0:
224,138,119851,1,0,0:0:0:0:
28,72,119976,2,8,L|131:65,2,91.8749946928026,10|8|10,0:1|0:1|0:0,0:1:0:0:
362,50,120476,6,0,L|160:32,1,183.749989385605,14|8,0:1|0:0,0:0:0:0:
371,137,120851,2,0,L|464:155,1,91.8749946928026,2|8,0:0|0:1,0:0:0:0:
471,210,121101,1,8,0:1:0:0:
274,255,121226,2,0,L|262:154,1,91.8749946928026,10|0,0:0|0:0,0:0:0:0:
456,294,121476,6,0,L|364:290,1,91.8749946928026,10|0,0:1|0:0,0:0:0:0:
273,319,121726,2,0,L|385:299,1,91.8749946928026,10|0,0:0|0:0,0:0:0:0:
161,225,121976,2,8,L|254:215,1,91.8749946928026,10|8,0:1|0:1,0:1:0:0:
161,225,122226,2,0,L|52:218,1,91.8749946928026,10|0,0:0|0:0,0:0:0:0:
283,86,122476,6,0,L|188:69,2,91.8749946928026,14|0|8,0:1|0:0|0:0,0:0:0:0:
469,103,122851,2,0,L|393:163,1,91.8749946928026,2|8,0:0|0:1,0:0:0:0:
295,160,123101,1,8,0:1:0:0:
480,217,123226,2,0,L|486:313,1,91.8749946928026,10|0,0:0|0:0,0:0:0:0:
274,296,123476,6,0,L|263:187,1,91.8749946928026,14|0,0:1|0:0,0:0:0:0:
163,206,123726,2,0,L|151:113,1,91.8749946928026,10|0,0:0|0:0,0:0:0:0:
357,130,123976,2,8,L|364:35,1,91.8749946928026,14|8,0:1|0:1,0:1:0:0:
465,92,124226,2,0,L|472:-7,1,91.8749946928026,10|0,0:0|0:0,0:0:0:0:
253,69,124476,6,0,L|188:65,1,61.2499964618684,10|8,0:0|0:3,0:0:0:0:
376,122,124642,1,8,0:3:0:0:
438,160,124726,2,0,L|459:228,2,61.2499964618684,8|8|8,0:3|0:3|0:3,0:0:0:0:
266,212,124976,6,0,L|370:209,1,91.8749946928026,8|8,0:0|0:0,0:0:0:0:
166,279,125226,2,0,L|45:271,1,91.8749946928026,8|8,0:0|0:0,0:0:0:0:
264,153,125476,5,8,0:3:0:0:
310,72,125601,1,8,0:3:0:0:
264,153,125726,1,8,0:3:0:0:
172,163,125851,1,8,0:3:0:0:
81,204,125976,2,0,L|190:213,1,91.8749946928026,6|4,0:3|0:3,0:0:0:0:
360,267,126226,2,0,L|461:292,1,91.8749946928026,4|4,0:3|0:3,0:0:0:0:
240,325,126476,6,0,L|459:324,1,183.749989385605,14|8,0:1|0:0,0:0:0:0:
220,248,126851,2,0,L|211:144,1,91.8749946928026,2|8,0:0|0:1,0:0:0:0:
304,141,127101,1,8,0:1:0:0:
492,62,127226,2,0,L|393:41,1,91.8749946928026,10|0,0:0|0:0,0:0:0:0:
195,67,127476,6,0,L|394:92,1,183.749989385605,10|8,0:1|0:0,0:0:0:0:
471,120,127851,1,0,0:0:0:0:
275,205,127976,2,0,L|493:218,1,183.749989385605,10|8,0:1|0:0,0:0:0:0:
139,325,128476,6,8,P|83:240|135:204,1,183.749989385605,10|8,0:1|0:0,0:0:0:0:
318,161,128851,2,0,L|241:93,1,91.8749946928026,2|8,0:0|0:1,0:0:0:0:
147,85,129101,1,8,0:1:0:0:
331,62,129226,2,0,L|428:64,1,91.8749946928026,10|0,0:0|0:0,0:0:0:0:
208,165,129476,6,0,L|12:235,1,183.749989385605,10|8,0:1|0:0,0:0:0:0:
128,259,129851,1,0,0:0:0:0:
338,291,129976,2,0,L|241:271,2,91.8749946928026,10|8|8,0:1|0:1|0:0,0:0:0:0:
22,156,130476,6,0,L|93:97,1,91.8749946928026,14|0,0:1|0:0,0:0:0:0:
195,109,130726,1,8,0:0:0:0:
389,46,130851,2,0,L|307:-25,1,91.8749946928026,2|8,0:0|0:1,0:0:0:0:
218,37,131101,1,8,0:1:0:0:
406,119,131226,2,0,L|496:135,1,91.8749946928026,10|0,0:0|0:0,0:0:0:0:
281,217,131476,6,0,L|370:236,2,91.8749946928026,14|0|8,0:1|0:0|0:0,0:0:0:0:
96,223,131851,1,2,0:0:0:0:
295,294,131976,2,0,L|172:309,1,91.8749946928026,12|0,0:1|0:0,0:0:0:0:
407,350,132226,2,0,L|418:256,1,91.8749946928026,10|0,0:0|0:0,0:0:0:0:
229,193,132476,6,0,L|411:168,1,183.749989385605,10|8,0:0|0:0,0:0:0:0:
208,115,132851,1,10,0:0:0:0:
410,106,132976,2,0,L|419:12,1,91.8749946928026,8|0,0:0|0:0,0:0:0:0:
230,46,133226,2,0,L|329:45,1,91.8749946928026,10|0,0:0|0:0,0:0:0:0:
101,93,133476,5,10,0:1:0:0:
321,147,133601,1,8,0:0:0:0:
97,174,133726,2,0,L|91:279,1,91.8749946928026,8|8,0:0|0:0,0:0:0:0:
276,296,133976,1,10,0:0:0:0:
461,311,134101,1,8,0:0:0:0:
251,239,134226,2,0,L|362:230,1,91.8749946928026,10|8,0:0|0:0,0:0:0:0:
106,197,134476,6,0,P|62:106|122:75,1,183.749989385605,14|8,0:1|0:0,0:0:0:0:
313,57,134851,2,0,L|207:45,2,91.8749946928026,2|8|8,0:0|0:1|0:1,0:0:0:0:
100,117,135226,2,0,L|93:216,1,91.8749946928026,10|0,0:0|0:0,0:0:0:0:
295,281,135476,6,8,L|96:303,1,183.749989385605,10|8,0:1|0:0,0:0:0:0:
205,317,135851,1,0,0:0:0:0:
20,211,135976,2,8,L|117:197,2,91.8749946928026,10|8|10,0:1|0:1|0:0,0:1:0:0:
352,193,136476,6,8,P|410:136|321:93,1,183.749989385605,10|8,0:1|0:0,0:0:0:0:
159,48,136851,2,0,L|68:33,2,91.8749946928026,2|8|8,0:0|0:1|0:1,0:0:0:0:
355,129,137226,2,0,L|230:146,1,91.8749946928026,10|0,0:0|0:0,0:0:0:0:
454,194,137476,6,0,L|468:296,1,91.8749946928026,10|0,0:1|0:0,0:0:0:0:
364,258,137726,2,0,L|354:352,1,91.8749946928026,10|0,0:0|0:0,0:0:0:0:
154,294,137976,2,8,L|52:296,1,91.8749946928026,10|8,0:1|0:1,0:1:0:0:
164,250,138226,2,0,L|177:151,1,91.8749946928026,10|0,0:0|0:0,0:0:0:0:
382,123,138476,6,0,L|164:98,1,183.749989385605,14|8,0:1|0:0,0:0:0:0:
16,45,138851,2,0,L|128:18,2,91.8749946928026,2|8|8,0:0|0:1|0:1,0:0:0:0:
211,103,139226,2,0,L|227:213,1,91.8749946928026,10|0,0:0|0:0,0:0:0:0:
430,245,139476,6,0,L|322:231,1,91.8749946928026,14|0,0:1|0:0,0:0:0:0:
247,274,139726,2,0,L|355:266,1,91.8749946928026,10|0,0:0|0:0,0:0:0:0:
142,179,139976,2,8,L|43:158,1,91.8749946928026,14|8,0:1|0:1,0:1:0:0:
154,116,140226,2,0,L|26:96,1,91.8749946928026,10|0,0:0|0:0,0:0:0:0:
296,37,140476,6,0,P|349:117|285:158,1,183.749989385605,10|8,0:0|0:1,0:0:0:0:
201,170,140851,1,10,0:0:0:0:
403,270,140976,2,0,L|199:250,1,183.749989385605,8|10,0:0|0:1,0:0:0:0:
313,219,141351,1,8,0:0:0:0:
91,184,141476,6,8,L|69:139,2,45.9374973464013,8|8|8,0:0|0:0|0:0,0:0:0:0:
142,205,141663,1,8,0:0:0:0:
300,143,141726,2,0,L|244:95,1,61.2499964618684,8|8,0:0|0:0,0:0:0:0:
186,97,141892,1,8,0:0:0:0:
342,51,141976,6,0,L|454:54,1,91.8749946928026,8|8,0:0|0:0,0:0:0:0:
214,151,142226,2,0,L|318:150,1,91.8749946928026,10|8,0:0|0:0,0:0:0:0:
121,198,142476,6,0,P|68:292|130:324,1,183.749989385605,14|8,0:1|0:0,0:0:0:0:
304,295,142851,2,0,L|186:274,1,91.8749946928026,2|8,0:0|0:1,0:0:0:0:
27,228,143101,1,8,0:0:0:0:
223,191,143226,2,0,L|231:88,1,91.8749946928026,10|0,0:0|0:0,0:0:0:0:
23,46,143476,6,8,L|213:35,1,183.749989385605,14|0,0:0|0:0,0:0:0:0:
115,39,143851,1,0,0:0:0:0:
344,106,143976,2,0,P|408:177|335:217,1,183.749989385605,10|0,0:0|0:0,0:0:0:0:
264,218,144351,1,0,0:0:0:0:
496,289,144476,5,14,0:1:0:0:
332,335,144726,2,0,L|226:320,2,91.8749946928026,0|2|8,0:0|0:0|0:0,0:0:0:0:
144,248,145226,1,10,0:1:0:0:
307,182,145476,2,0,L|226:120,1,91.8749946928026,0|2,0:0|0:0,0:0:0:0:
141,108,145726,1,8,0:1:0:0:
325,51,145976,1,2,0:0:0:0:
16,44,146226,1,10,0:0:0:0:
186,36,146476,6,8,L|349:161,2,183.749989385605,10|8|8,0:1|0:1|0:0,0:1:0:0:
374,238,147101,2,0,L|470:221,2,91.8749946928026,2|10|2,0:0|0:1|0:0,0:0:0:0:
176,293,147476,2,0,L|366:307,1,183.749989385605,10|2,0:1|0:0,0:0:0:0:
174,219,147976,1,10,0:0:0:0:
128,145,148101,1,0,0:0:0:0:
174,219,148226,1,10,0:1:0:0:
277,98,148351,1,2,0:0:0:0:
73,57,148476,5,14,0:1:0:0:
239,41,148726,2,0,L|276:131,2,91.8749946928026,0|2|8,0:0|0:0|0:0,0:0:0:0:
73,57,149226,1,10,0:1:0:0:
279,192,149476,2,0,L|286:380,1,183.749989385605,2|10,0:0|0:1,0:0:0:0:
118,253,149976,1,2,0:0:0:0:
436,185,150226,1,10,0:0:0:0:
272,147,150476,6,8,P|224:61|282:31,1,183.749989385605,10|8,0:1|0:1,0:1:0:0:
446,35,150976,1,8,0:0:0:0:
278,112,151226,2,0,L|179:100,1,91.8749946928026,10|0,0:1|0:0,0:0:0:0:
392,174,151476,1,6,0:3:0:0:
226,212,151726,1,10,0:1:0:0:
180,277,151851,1,8,0:0:0:0:
226,212,151976,1,10,0:0:0:0:
318,222,152101,1,8,0:1:0:0:
112,187,152226,1,10,0:0:0:0:
431,104,152476,5,14,0:1:0:0:
262,60,152726,1,0,0:0:0:0:
349,33,152851,1,2,0:0:0:0:
437,6,152976,1,8,0:0:0:0:
254,103,153226,1,10,0:1:0:0:
421,187,153476,2,0,L|219:187,2,183.749989385605,2|10|2,0:0|0:1|0:0,0:0:0:0:
102,286,154226,1,10,0:0:0:0:
268,253,154476,6,8,P|323:186|253:135,1,183.749989385605,10|8,0:1|0:1,0:1:0:0:
92,93,154976,1,8,0:0:0:0:
280,39,155101,2,0,L|208:113,1,91.8749946928026,2|10,0:0|0:1,0:0:0:0:
130,123,155351,1,2,0:0:0:0:
326,185,155476,2,0,P|380:266|313:307,1,183.749989385605,10|10,0:1|0:1,0:0:0:0:
159,333,155976,1,10,0:0:0:0:
251,313,156101,1,0,0:0:0:0:
344,261,156226,2,0,L|212:247,1,91.8749946928026,10|2,0:1|0:0,0:0:0:0:
436,176,156476,5,14,0:1:0:0:
257,124,156726,2,0,L|324:59,1,91.8749946928026,0|2,0:0|0:0,0:0:0:0:
414,76,156976,1,8,0:0:0:0:
224,59,157226,1,10,0:1:0:0:
391,36,157476,2,0,L|210:122,1,183.749989385605,2|10,0:0|0:1,0:0:0:0:
59,120,157976,1,2,0:0:0:0:
379,194,158226,1,10,0:0:0:0:
214,201,158476,6,8,P|163:288|221:322,1,183.749989385605,10|8,0:1|0:1,0:1:0:0:
382,265,158976,2,0,L|284:247,2,91.8749946928026,8|2|2,0:0|0:0|0:0,0:0:0:0:
180,197,159476,1,10,0:0:0:0:
371,168,159601,2,0,L|376:73,1,91.8749946928026,8|10,0:0|0:1,0:0:0:0:
283,67,159851,1,8,0:0:0:0:
477,45,159976,2,8,L|375:60,1,91.8749946928026,10|8,0:0|0:0,0:0:0:0:
192,136,160226,2,0,L|314:151,1,91.8749946928026,6|0,0:3|0:0,0:0:0:0:
81,41,160476,6,0,P|21:120|157:281,1,332.499982061387,14|2,0:1|0:0,0:0:0:0:
291,289,161226,1,2,0:0:0:0:
491,229,161476,2,0,L|189:68,1,332.499982061387,2|2,0:0|0:0,0:0:0:0:
357,57,162226,1,2,0:0:0:0:
160,68,162476,6,0,L|461:222,1,332.499982061387,2|2,0:0|0:0,0:0:0:0:
319,246,163226,1,2,0:0:0:0:
120,320,163476,2,0,P|50:265|171:109,1,332.499982061387,2|2,0:0|0:0,0:0:0:0:
331,73,164226,1,2,0:0:0:0:
16,35,164476,5,10,0:1:0:0:
243,112,164976,2,0,L|83:189,1,166.249991030693,2|2,0:0|0:0,0:0:0:0:
294,353,165476,2,0,P|349:245|171:123,1,332.499982061387,2|2,0:0|0:0,0:0:0:0:
66,85,166226,1,2,0:0:0:0:
378,49,166476,6,0,L|108:274,1,332.499982061387,10|2,0:1|0:0,0:0:0:0:
289,273,167226,1,0,0:0:0:0:
91,178,167476,1,10,0:0:0:0:
302,163,167726,1,8,0:0:0:0:
105,283,167976,2,0,L|91:78,1,166.249991030693,2|2,0:0|0:0,0:0:0:0:
406,70,168476,5,14,0:1:0:0:
174,144,168976,2,0,L|165:319,1,166.249991030693,2|2,0:0|0:0,0:0:0:0:
365,211,169476,2,0,L|77:27,1,332.499982061387,2|2,0:0|0:0,0:0:0:0:
235,43,170226,1,2,0:0:0:0:
438,47,170476,6,0,P|475:142|321:275,1,332.499982061387,2|2,0:0|0:0,0:0:0:0:
473,297,171226,1,2,0:0:0:0:
272,322,171476,2,0,P|187:245|310:87,1,332.499982061387,2|2,0:0|0:0,0:0:0:0:
448,76,172226,1,2,0:0:0:0:
138,68,172476,5,10,0:1:0:0:
306,138,172976,2,0,L|469:193,1,166.249991030693,2|2,0:0|0:0,0:0:0:0:
274,330,173476,2,0,P|180:244|316:115,1,332.499982061387,2|2,0:0|0:0,0:0:0:0:
434,93,174226,1,0,0:0:0:0:
251,46,174476,6,0,L|431:51,1,166.249991030693,2|0,0:0|0:0,0:0:0:0:
245,119,174976,2,0,L|55:150,1,166.249991030693,2|0,0:0|0:0,0:0:0:0:
263,167,175476,2,0,L|269:349,1,166.249991030693,8|8,0:0|0:1,0:0:0:0:
87,353,175976,2,0,L|81:177,1,166.249991030693,10|2,0:1|0:0,0:0:0:0:
401,134,176476,6,8,L|205:108,1,166.249991030693,14|8,0:1|0:1,0:1:0:0:
388,38,176976,2,0,L|396:216,1,166.249991030693,2|2,0:0|0:0,0:0:0:0:
197,258,177476,2,0,L|421:6,1,332.499982061387,2|2,0:0|0:0,0:0:0:0:
267,39,178226,1,2,0:0:0:0:
79,258,178476,6,0,P|174:226|70:83,1,332.499982061387,2|2,0:0|0:0,0:0:0:0:
214,42,179226,1,2,0:0:0:0:
409,87,179476,2,0,L|152:338,1,332.499982061387,2|2,0:0|0:0,0:0:0:0:
326,314,180226,1,2,0:0:0:0:
16,263,180476,6,8,L|162:181,1,166.249991030693,10|8,0:1|0:1,0:1:0:0:
316,153,180976,2,0,L|149:62,1,166.249991030693,2|2,0:0|0:0,0:0:0:0:
361,36,181476,2,0,P|402:140|240:265,1,332.499982061387,2|2,0:0|0:0,0:0:0:0:
115,298,182226,1,2,0:0:0:0:
429,349,182476,6,8,L|432:172,1,166.249991030693,10|8,0:1|0:1,0:1:0:0:
281,159,182976,2,0,L|447:143,1,166.249991030693,2|0,0:0|0:0,0:0:0:0:
244,45,183476,2,0,P|185:155|326:295,1,332.499982061387,2|10,0:0|0:3,0:0:0:0:
465,286,184226,1,8,0:3:0:0:
154,212,184476,6,0,L|16:114,1,166.249991030693,12|8,0:1|0:1,0:0:0:0:
166,78,184976,2,0,L|334:12,1,166.249991030693,2|2,0:0|0:0,0:0:0:0:
135,34,185476,2,0,P|97:166|249:287,1,332.499982061387,2|2,0:0|0:0,0:0:0:0:
80,311,186226,1,2,0:0:0:0:
263,266,186476,6,0,L|445:275,1,166.249991030693,2|0,0:0|0:0,0:0:0:0:
251,206,186976,2,0,L|239:34,1,166.249991030693,2|0,0:0|0:0,0:0:0:0:
424,98,187476,2,0,L|181:344,1,332.499982061387,2|2,0:0|0:0,0:0:0:0:
344,314,188226,1,0,0:0:0:0:
31,231,188476,6,8,L|28:58,1,166.249991030693,10|8,0:1|0:1,0:1:0:0:
230,139,188976,2,0,L|48:98,1,166.249991030693,2|0,0:0|0:0,0:0:0:0:
268,46,189476,2,0,L|278:276,1,166.249991030693,2|0,0:0|0:0,0:0:0:0:
109,238,189976,1,2,0:0:0:0:
426,279,190226,1,8,0:0:0:0:
101,320,190476,6,0,P|53:232|107:189,1,183.749989385605,12|8,0:1|0:1,0:0:0:0:
196,177,190851,1,0,0:0:0:0:
380,165,190976,1,12,0:0:0:0:
295,264,191101,2,0,L|283:35,1,183.749989385605,8|0,0:1|0:0,0:0:0:0:
473,55,191476,5,10,0:0:0:0:
287,50,191601,2,0,L|188:41,2,91.8749946928026,8|10|8,0:0|0:1|0:1,0:0:0:0:
95,116,191976,2,8,L|86:221,1,91.8749946928026,10|8,0:0|0:1,0:0:0:0:
288,256,192226,2,0,L|431:291,1,91.8749946928026,10|0,0:0|0:0,0:0:0:0:
161,350,192476,6,0,L|267:298,1,91.8749946928026,12|0,0:1|0:0,0:0:0:0:
336,293,192726,1,10,0:0:0:0:
136,248,192851,1,2,0:0:0:0:
324,219,192976,2,0,L|423:208,1,91.8749946928026,8|10,0:1|0:1,0:0:0:0:
317,154,193226,2,0,L|304:60,1,91.8749946928026,8|2,0:0|0:0,0:0:0:0:
117,36,193476,6,0,L|106:142,1,91.8749946928026,8|0,0:1|0:0,0:0:0:0:
315,219,193726,2,0,L|408:237,1,91.8749946928026,10|0,0:0|0:0,0:0:0:0:
219,298,193976,2,8,L|120:312,1,91.8749946928026,10|8,0:1|0:1,0:1:0:0:
229,243,194226,2,0,L|125:240,1,91.8749946928026,10|0,0:0|0:0,0:0:0:0:
339,152,194476,6,0,L|431:163,2,91.8749946928026,10|0|8,0:1|0:0|0:0,0:0:0:0:
492,71,194976,2,0,L|375:73,1,91.8749946928026,8|8,0:1|0:1,0:0:0:0:
302,110,195226,2,0,L|422:124,1,91.8749946928026,10|0,0:0|0:0,0:0:0:0:
191,170,195476,6,8,P|139:251|197:293,1,183.749989385605,10|8,0:1|0:0,0:0:0:0:
288,309,195851,1,0,0:0:0:0:
103,336,195976,2,8,L|206:323,1,91.8749946928026,10|8,0:1|0:1,0:1:0:0:
98,271,196226,2,0,L|91:174,1,91.8749946928026,10|0,0:0|0:0,0:0:0:0:
297,83,196476,5,10,0:1:0:0:
205,75,196601,1,0,0:0:0:0:
113,68,196726,1,8,0:0:0:0:
287,32,196976,2,8,L|296:147,1,91.8749946928026,10|8,0:1|0:1,0:1:0:0:
191,128,197226,2,0,L|184:241,1,91.8749946928026,10|0,0:0|0:0,0:0:0:0:
376,267,197476,6,0,L|478:279,1,91.8749946928026,10|0,0:1|0:0,0:0:0:0:
366,312,197726,2,0,L|478:322,1,91.8749946928026,10|0,0:0|0:0,0:0:0:0:
266,256,197976,2,8,L|167:267,1,91.8749946928026,10|8,0:1|0:1,0:1:0:0:
278,209,198226,2,0,L|170:213,1,91.8749946928026,10|0,0:0|0:0,0:0:0:0:
373,37,198476,6,0,P|421:128|350:174,1,183.749989385605,10|8,0:0|0:0,0:0:0:0:
170,185,198851,1,8,0:0:0:0:
357,256,198976,2,0,L|465:274,1,91.8749946928026,10|0,0:0|0:0,0:0:0:0:
246,313,199226,2,0,L|139:321,1,91.8749946928026,8|0,0:0|0:0,0:0:0:0:
339,333,199476,5,10,0:1:0:0:
432,302,199601,1,8,0:0:0:0:
478,230,199726,1,8,0:0:0:0:
432,302,199851,1,8,0:0:0:0:
233,194,199976,2,0,L|346:191,1,91.8749946928026,10|8,0:0|0:0,0:0:0:0:
127,132,200226,2,0,L|23:125,1,91.8749946928026,10|8,0:0|0:0,0:0:0:0:
246,57,200476,6,0,L|349:69,2,91.8749946928026,14|0|10,0:1|0:0|0:0,0:0:0:0:
62,44,200851,1,2,0:0:0:0:
258,124,200976,2,0,L|146:135,1,91.8749946928026,8|10,0:1|0:1,0:0:0:0:
268,201,201226,2,0,L|380:212,1,91.8749946928026,8|2,0:0|0:0,0:0:0:0:
150,249,201476,6,0,L|143:350,1,91.8749946928026,8|0,0:1|0:0,0:0:0:0:
356,284,201726,2,0,L|363:176,1,91.8749946928026,10|0,0:0|0:0,0:0:0:0:
261,144,201976,2,8,L|379:142,1,91.8749946928026,10|8,0:1|0:1,0:1:0:0:
157,88,202226,2,0,L|37:79,1,91.8749946928026,10|0,0:0|0:0,0:0:0:0:
268,35,202476,5,10,0:1:0:0:
359,38,202601,1,0,0:0:0:0:
451,42,202726,1,8,0:0:0:0:
273,123,202976,2,8,L|375:120,1,91.8749946928026,10|8,0:1|0:1,0:1:0:0:
171,185,203226,2,0,L|64:198,1,91.8749946928026,10|0,0:0|0:0,0:0:0:0:
289,277,203476,6,0,L|188:258,2,91.8749946928026,10|0|8,0:1|0:0|0:0,0:0:0:0:
95,337,203976,2,8,L|86:243,1,91.8749946928026,10|8,0:1|0:1,0:1:0:0:
192,224,204226,2,0,L|201:130,1,91.8749946928026,10|0,0:0|0:0,0:0:0:0:
406,67,204476,6,8,L|311:50,2,91.8749946928026,14|0|8,0:1|0:0|0:0,0:0:0:0:
205,174,204976,1,10,0:1:0:0:
296,177,205101,1,0,0:0:0:0:
388,181,205226,1,8,0:0:0:0:
68,308,205476,6,0,L|171:298,1,91.8749946928026,10|0,0:1|0:0,0:0:0:0:
56,262,205726,2,0,L|47:164,1,91.8749946928026,10|0,0:0|0:0,0:0:0:0:
255,112,205976,2,8,L|162:95,1,91.8749946928026,10|8,0:1|0:1,0:1:0:0:
266,25,206226,2,0,L|275:132,1,91.8749946928026,10|0,0:0|0:0,0:0:0:0:
70,37,206476,6,0,P|31:136|107:164,1,183.749989385605,10|8,0:0|0:1,0:0:0:0:
173,193,206851,1,8,0:0:0:0:
359,284,206976,2,0,L|242:268,1,91.8749946928026,8|0,0:0|0:0,0:0:0:0:
369,235,207226,2,0,L|239:219,1,91.8749946928026,8|8,0:1|0:0,0:0:0:0:
469,166,207476,6,8,L|491:114,2,45.9374973464013,10|8|8,0:0|0:0|0:0,0:0:0:0:
419,182,207663,1,8,0:0:0:0:
263,229,207726,2,0,L|193:227,2,61.2499964618684,8|8|8,0:0|0:0|0:0,0:0:0:0:
92,317,207976,6,8,L|86:211,1,91.8749946928026
274,147,208226,2,8,L|174:131,1,91.8749946928026
385,75,208476,6,0,L|502:87,2,91.8749946928026,10|8|8,0:1|0:0|0:1,0:0:0:0:
218,70,208976,2,0,L|313:63,1,91.8749946928026,8|0,0:0|0:0,0:0:0:0:
125,48,209226,1,8,0:0:0:0:
323,29,209351,1,8,0:0:0:0:
119,104,209476,5,8,0:1:0:0:
73,172,209601,1,8,0:0:0:0:
119,104,209726,1,8,0:1:0:0:
207,128,209851,1,0,0:0:0:0:
392,205,209976,2,0,L|494:222,1,91.8749946928026,8|8,0:0|0:0,0:0:0:0:
281,274,210226,2,0,L|180:282,1,91.8749946928026,8|8,0:1|0:0,0:0:0:0:
450,365,210476,6,0,P|480:286|209:30,2,525.000005722046,14|2|2,0:1|0:0|0:0,0:0:0:0:
181,340,213476,1,2,0:0:0:0:
389,357,214476,6,0,P|418:250|227:363,2,525.000005722046,2|2|2,0:0|0:0|0:0,0:0:0:0:
244,227,217476,2,0,L|438:46,1,262.500002861023,2|2,0:0|0:0,0:0:0:0:
185,8,218476,6,0,P|99:51|239:372,2,525.000005722046,2|2|2,0:0|0:0|0:0,0:0:0:0:
349,105,221476,1,2,0:0:0:0:
136,63,222476,6,0,P|147:153|484:370,2,525.000005722046,2|2|2,0:0|0:0|0:0,0:0:0:0:
338,55,225476,1,2,0:0:0:0:
112,57,225976,2,0,L|105:225,1,131.250001430512,2|2,0:0|0:0,0:0:0:0:
357,60,226476,6,0,P|416:150|306:248,1,262.500002861023,2|2,0:0|0:0,0:0:0:0:
195,260,227226,1,2,0:0:0:0:
384,300,227476,2,0,L|85:263,1,262.500002861023,2|2,0:0|0:0,0:0:0:0:
353,175,228476,6,0,L|79:127,1,262.500002861023,2|2,0:0|0:0,0:0:0:0:
226,93,229226,1,2,0:0:0:0:
414,34,229476,2,0,P|477:95|385:222,1,262.500002861023,2|2,0:0|0:0,0:0:0:0:
150,338,230476,6,0,L|406:226,1,262.500002861023,2|2,0:0|0:0,0:0:0:0:
259,209,231226,1,2,0:0:0:0:
437,132,231476,2,0,L|170:79,1,262.500002861023,2|2,0:0|0:0,0:0:0:0:
311,41,232226,1,2,0:0:0:0:
126,53,232476,6,0,L|377:174,2,262.500002861023,2|2|2,0:0|0:0|0:0,0:0:0:0:
118,206,233976,1,2,0:0:0:0:
356,322,234476,6,0,P|386:234|244:162,1,262.500002861023,2|2,0:0|0:0,0:0:0:0:
395,119,235226,1,2,0:0:0:0:
206,81,235476,2,0,L|475:82,1,262.500002861023,2|2,0:0|0:0,0:0:0:0:
240,29,236476,6,0,P|181:97|293:207,1,262.500002861023,2|2,0:0|0:0,0:0:0:0:
146,228,237226,1,2,0:0:0:0:
322,288,237476,2,0,L|40:323,1,262.500002861023,2|2,0:0|0:0,0:0:0:0:
293,348,238476,6,0,P|331:258|212:161,1,262.500002861023,2|2,0:0|0:0,0:0:0:0:
91,143,239226,1,2,0:0:0:0:
277,82,239476,2,0,L|10:36,1,262.500002861023,2|2,0:0|0:0,0:0:0:0:
150,74,240226,1,2,0:0:0:0:
346,36,240476,6,0,P|394:114|218:339,1,393.750004291535,2|2,0:0|0:0,0:0:0:0:
185,340,241351,1,2,0:0:0:0:
121,336,241476,1,2,0:0:0:0:
374,272,241976,2,0,P|406:224|346:181,1,131.250001430512,2|2,0:0|0:0,0:0:0:0:
45,105,242476,5,10,0:1:0:0:
337,293,249476,6,0,L|237:269,2,91.8749946928026,2|0|0,3:0|3:0|3:0,0:0:0:0:
171,208,249976,2,0,L|267:158,1,91.8749946928026,2|0,3:0|3:0,0:0:0:0:
340,145,250226,2,0,L|246:132,1,91.8749946928026,2|0,3:0|3:0,0:0:0:0:
439,57,250476,5,2,3:0:0:0:
277,31,250976,2,0,L|264:148,2,91.8749946928026,0|0|2,3:0|0:0|3:0,3:0:0:0:
462,164,251476,2,0,L|304:282,1,183.749989385605,2|0,3:0|3:0,3:0:0:0:
142,282,251976,2,0,L|307:187,1,183.749989385605,2|2,3:0|3:0,0:0:0:0:
105,154,252476,5,2,3:0:0:0:
288,113,252726,2,0,L|108:221,2,183.749989385605,0|0|2,3:0|3:0|3:0,0:0:0:0:
107,75,253476,2,0,L|283:176,1,183.749989385605,2|2,3:0|3:0,0:0:0:0:
429,223,253976,2,0,L|344:292,2,91.8749946928026,2|0|2,3:0|3:0|3:0,0:0:0:0:
254,334,254476,6,0,L|249:131,1,183.749989385605,2|0,3:0|3:0,3:0:0:0:
61,114,254976,2,0,L|241:14,1,183.749989385605,0|2,3:0|3:0,3:0:0:0:
404,86,255476,2,0,L|209:216,1,183.749989385605,2|2,3:0|3:0,0:0:0:0:
446,204,255976,2,0,L|456:399,1,183.749989385605,2|2,3:0|3:0,0:0:0:0:
138,323,256476,6,0,L|52:283,1,91.8749946928026,2|0,3:0|3:0,0:0:0:0:
155,250,256726,2,0,L|166:153,1,91.8749946928026,0|2,3:0|3:0,0:0:0:0:
71,134,256976,1,0,3:0:0:0:
256,71,257226,2,0,L|151:52,1,91.8749946928026,0|0,3:0|0:0,0:0:0:0:
376,57,257476,6,0,L|263:48,2,91.8749946928026,8|0|0,3:1|3:0|0:0,0:0:0:0:
210,160,257976,2,0,L|397:161,1,183.749989385605,10|0,3:2|3:0,3:0:0:0:
487,165,258351,1,0,3:0:0:0:
294,210,258476,6,8,L|290:312,1,91.8749946928026,10|8,3:2|3:2,3:2:0:0:
395,315,258725,2,0,L|344:359,1,61.2499964618684,8|8,0:1|0:1,0:0:0:0:
281,343,258892,1,8,0:1:0:0:
111,291,258976,6,8,L|229:266,1,91.8749946928026
107,234,259225,2,0,L|81:177,2,61.2499964618684,8|8|8,0:1|0:1|0:1,0:0:0:0:
309,128,259476,6,0,L|125:52,1,183.749989385605,8|8,0:3|0:3,0:0:0:0:
326,51,259976,2,0,L|419:64,1,91.8749946928026,6|0,0:3|0:0,0:0:0:0:
427,116,260226,1,4,0:3:0:0:
83,181,260476,6,0,L|275:211,1,183.749989385605,14|8,0:1|0:0,0:0:0:0:
53,300,260851,2,0,L|156:292,2,91.8749946928026,2|8|8,0:0|0:1|0:1,0:0:0:0:
248,352,261226,2,0,L|260:255,1,91.8749946928026,10|0,0:0|0:0,0:0:0:0:
460,235,261476,6,0,P|477:149|395:115,1,183.749989385605,10|8,0:1|0:0,0:0:0:0:
309,104,261851,1,0,0:0:0:0:
495,47,261976,2,0,L|378:27,2,91.8749946928026,10|8|8,0:1|0:1|0:0,0:0:0:0:
173,48,262476,6,8,P|132:150|193:165,1,183.749989385605,12|8,0:1|0:0,0:0:0:0:
367,208,262851,2,0,L|298:276,1,91.8749946928026,2|8,0:0|0:1,0:0:0:0:
203,270,263101,1,8,0:1:0:0:
399,347,263226,2,0,L|496:356,1,91.8749946928026,10|0,0:0|0:0,0:0:0:0:
282,271,263476,6,0,L|470:252,1,183.749989385605,10|8,0:1|0:0,0:0:0:0:
372,223,263851,1,0,0:0:0:0:
168,190,263976,2,0,L|258:176,2,91.8749946928026,10|8|8,0:1|0:1|0:0,0:0:0:0:
486,83,264476,5,14,0:1:0:0:
410,46,264601,1,0,0:0:0:0:
308,34,264726,1,8,0:0:0:0:
108,109,264851,2,0,L|194:171,1,91.8749946928026,2|8,0:0|0:1,0:0:0:0:
276,186,265101,1,8,0:1:0:0:
71,197,265226,2,0,L|61:305,1,91.8749946928026,10|0,0:0|0:0,0:0:0:0:
286,270,265476,6,0,L|175:251,2,91.8749946928026,14|0|8,0:1|0:0|0:0,0:0:0:0:
94,207,265851,1,2,0:0:0:0:
283,155,265976,2,0,L|164:138,1,91.8749946928026,12|0,0:1|0:0,0:0:0:0:
381,85,266226,2,0,L|503:77,1,91.8749946928026,10|0,0:0|0:0,0:0:0:0:
243,35,266476,6,0,P|194:123|250:161,1,183.749989385605,10|8,0:0|0:0,0:0:0:0:
438,204,266851,1,10,0:0:0:0:
247,253,266976,2,0,L|148:256,1,91.8749946928026,8|0,0:0|0:1,0:0:0:0:
362,262,267226,2,0,L|370:362,1,91.8749946928026,10|0,0:0|0:0,0:0:0:0:
147,338,267476,5,10,0:1:0:0:
369,314,267601,1,8,0:0:0:0:
146,275,267726,2,0,L|44:262,1,91.8749946928026,8|8,0:0|0:0,0:0:0:0:
280,198,267976,1,10,0:0:0:0:
67,174,268101,1,8,0:0:0:0:
286,116,268226,2,0,L|392:114,1,91.8749946928026,10|8,0:0|0:0,0:0:0:0:
141,39,268476,6,0,P|99:126|163:161,1,183.749989385605,14|8,0:1|0:0,0:0:0:0:
348,221,268851,2,0,L|252:239,2,91.8749946928026,2|8|8,0:0|0:1|0:1,0:0:0:0:
162,318,269226,2,0,L|277:340,1,91.8749946928026,10|0,0:0|0:0,0:0:0:0:
445,245,269476,6,0,L|240:225,1,183.749989385605,10|8,0:1|0:0,0:0:0:0:
170,204,269851,1,0,0:0:0:0:
363,145,269976,2,8,L|463:166,2,91.8749946928026,10|8|10,0:1|0:1|0:0,0:1:0:0:
46,41,270476,6,0,P|24:143|102:172,1,183.749989385605,14|8,0:1|0:0,0:0:0:0:
264,227,270851,2,0,L|176:283,1,91.8749946928026,2|8,0:0|0:1,0:0:0:0:
87,274,271101,1,8,0:1:0:0:
276,327,271226,2,0,L|377:332,1,91.8749946928026,10|0,0:0|0:0,0:0:0:0:
172,242,271476,6,0,L|287:241,1,91.8749946928026,10|0,0:1|0:0,0:0:0:0:
165,197,271726,2,0,L|64:187,1,91.8749946928026,10|0,0:0|0:0,0:0:0:0:
270,112,271976,2,8,L|165:102,1,91.8749946928026,10|8,0:1|0:1,0:1:0:0:
270,63,272226,2,0,L|373:57,1,91.8749946928026,10|0,0:0|0:0,0:0:0:0:
143,44,272476,6,0,L|339:134,1,183.749989385605,14|8,0:1|0:0,0:0:0:0:
496,203,272851,2,0,L|386:212,2,91.8749946928026,2|8|8,0:0|0:1|0:1,0:0:0:0:
295,284,273226,2,0,L|179:296,1,91.8749946928026,10|0,0:0|0:0,0:0:0:0:
418,342,273476,6,0,L|424:248,1,91.8749946928026,14|0,0:1|0:0,0:0:0:0:
325,235,273726,2,0,L|317:140,1,91.8749946928026,10|0,0:0|0:0,0:0:0:0:
129,122,273976,2,8,L|241:114,1,91.8749946928026,14|8,0:1|0:1,0:1:0:0:
128,84,274226,2,0,L|25:74,1,91.8749946928026,10|0,0:0|0:0,0:0:0:0:
241,189,274476,6,0,L|312:189,1,61.2499964618684,10|8,0:0|0:3,0:0:0:0:
115,251,274642,2,0,L|85:321,2,61.2499964618684,8|8|8,0:3|0:3|3:0,0:0:0:0:
177,231,274892,1,8,0:3:0:0:
366,166,274976,2,0,L|253:154,1,91.8749946928026,8|8,0:0|0:0,0:0:0:0:
470,49,275226,2,0,L|477:157,1,91.8749946928026,8|8,0:0|0:0,0:0:0:0:
269,205,275476,6,0,L|361:189,1,91.8749946928026,8|8,0:3|0:3,0:0:0:0:
259,251,275726,2,0,L|386:236,1,91.8749946928026,8|8,0:3|0:3,0:0:0:0:
153,326,275976,2,0,L|143:221,1,91.8749946928026,6|4,0:3|0:3,0:0:0:0:
359,168,276226,2,0,L|366:69,1,91.8749946928026,4|4,0:3|0:3,0:0:0:0:
135,68,276476,6,0,L|335:118,1,183.749989385605,14|8,0:1|0:0,0:0:0:0:
124,192,276851,2,0,L|30:208,1,91.8749946928026,2|8,0:0|0:1,0:0:0:0:
24,263,277101,1,8,0:1:0:0:
228,316,277226,2,0,L|121:301,1,91.8749946928026,10|0,0:0|0:0,0:0:0:0:
341,358,277476,6,0,P|384:271|325:242,1,183.749989385605,10|8,0:1|0:0,0:0:0:0:
233,224,277851,1,0,0:0:0:0:
35,159,277976,2,0,L|171:135,1,91.8749946928026,10|8,0:1|0:1,0:0:0:0:
216,124,278226,2,0,L|121:112,1,91.8749946928026,8|0,0:0|0:0,0:0:0:0:
346,67,278476,6,8,L|145:45,1,183.749989385605,14|8,0:1|0:0,0:0:0:0:
362,171,278851,2,0,L|261:192,2,91.8749946928026,2|8|8,0:0|0:1|0:1,0:0:0:0:
160,272,279226,2,0,L|253:290,1,91.8749946928026,10|0,0:0|0:0,0:0:0:0:
459,353,279476,6,0,P|481:252|410:225,1,183.749989385605,10|8,0:1|0:0,0:0:0:0:
331,205,279851,1,0,0:0:0:0:
141,167,279976,2,0,L|240:156,1,91.8749946928026,10|8,0:1|0:1,0:0:0:0:
133,120,280226,2,0,L|121:21,1,91.8749946928026,8|0,0:0|0:0,0:0:0:0:
329,64,280476,6,0,L|258:128,1,91.8749946928026,14|0,0:1|0:0,0:0:0:0:
159,138,280726,1,8,0:0:0:0:
353,236,280851,2,0,L|456:250,1,91.8749946928026,2|8,0:0|0:1,0:0:0:0:
455,308,281101,1,8,0:1:0:0:
251,345,281226,2,0,L|358:333,1,91.8749946928026,10|0,0:0|0:0,0:0:0:0:
151,288,281476,6,0,L|141:191,1,91.8749946928026,14|0,0:1|0:0,0:0:0:0:
234,182,281726,1,8,0:0:0:0:
39,130,281851,1,2,0:0:0:0:
237,105,281976,2,0,L|335:95,1,91.8749946928026,12|0,0:1|0:0,0:0:0:0:
121,44,282226,2,0,L|225:38,1,91.8749946928026,10|0,0:0|0:0,0:0:0:0:
438,68,282476,6,0,L|243:98,1,183.749989385605,14|8,0:0|0:0,0:0:0:0:
444,167,282851,1,10,0:0:0:0:
259,222,282976,2,0,L|158:236,1,91.8749946928026,8|0,0:0|0:0,0:0:0:0:
386,298,283226,2,0,L|486:306,1,91.8749946928026,10|0,0:0|0:0,0:0:0:0:
268,350,283476,5,10,0:1:0:0:
59,315,283601,1,8,0:0:0:0:
287,219,283726,2,0,L|292:124,1,91.8749946928026,8|8,0:0|0:0,0:0:0:0:
70,91,283976,1,10,0:0:0:0:
301,51,284101,1,8,0:0:0:0:
75,28,284226,2,0,L|64:146,1,91.8749946928026,10|8,0:0|0:0,0:0:0:0:
288,191,284476,6,0,L|90:226,1,183.749989385605,14|8,0:1|0:0,0:0:0:0:
296,283,284851,2,0,L|307:177,1,91.8749946928026,2|8,0:0|0:1,0:0:0:0:
213,172,285101,1,8,0:1:0:0:
400,132,285226,2,0,L|492:128,1,91.8749946928026,10|0,0:0|0:0,0:0:0:0:
266,39,285476,6,8,P|224:126|291:163,1,183.749989385605,10|8,0:1|0:0,0:0:0:0:
375,195,285851,1,0,0:0:0:0:
167,335,285976,2,8,L|158:220,1,91.8749946928026,10|8,0:1|0:1,0:1:0:0:
263,236,286226,2,0,L|274:139,1,91.8749946928026,10|0,0:0|0:0,0:0:0:0:
56,112,286476,6,8,L|169:102,2,91.8749946928026,10|0|8,0:1|0:0|0:0,0:0:0:0:
263,43,286851,2,0,L|154:113,1,91.8749946928026,2|8,0:0|0:1,0:0:0:0:
84,122,287101,1,8,0:1:0:0:
290,207,287226,2,0,L|393:212,1,91.8749946928026,10|0,0:0|0:0,0:0:0:0:
180,323,287476,6,0,L|53:301,1,91.8749946928026,10|0,0:1|0:0,0:0:0:0:
190,273,287726,2,0,L|75:258,1,91.8749946928026,10|0,0:0|0:0,0:0:0:0:
311,192,287976,2,8,L|211:177,1,91.8749946928026,10|8,0:1|0:1,0:1:0:0:
323,144,288226,2,0,L|223:131,1,91.8749946928026,10|0,0:0|0:0,0:0:0:0:
431,38,288476,6,0,P|474:129|403:162,1,183.749989385605,14|8,0:1|0:0,0:0:0:0:
231,199,288851,2,0,L|311:270,1,91.8749946928026,2|8,0:0|0:1,0:0:0:0:
403,275,289101,1,8,0:1:0:0:
211,331,289226,2,0,L|204:227,1,91.8749946928026,10|0,0:0|0:0,0:0:0:0:
391,191,289476,6,0,L|277:169,1,91.8749946928026,14|0,0:1|0:0,0:0:0:0:
402,132,289726,2,0,L|416:35,1,91.8749946928026,10|0,0:0|0:0,0:0:0:0:
210,85,289976,2,8,L|304:70,1,91.8749946928026,14|8,0:1|0:1,0:1:0:0:
198,31,290226,2,0,L|185:147,1,91.8749946928026,10|0,0:0|0:0,0:0:0:0:
395,135,290476,6,0,P|418:229|344:260,1,183.749989385605,10|0,0:0|0:0,0:0:0:0:
261,284,290851,1,10,0:0:0:0:
453,348,290976,2,0,L|251:328,1,183.749989385605,8|2,0:0|0:0,0:0:0:0:
362,302,291351,1,8,0:0:0:0:
161,286,291476,6,8,L|154:223,1,45.9374973464013,8|8,0:0|0:0,0:0:0:0:
218,219,291601,2,8,L|226:162,1,45.9374973464013
66,146,291726,2,0,L|36:80,2,61.2499964618684,8|8|8,0:0|0:0|0:0,0:0:0:0:
236,75,291976,6,0,L|129:55,1,91.8749946928026,8|8,0:0|0:0,0:0:0:0:
341,83,292226,2,0,L|442:78,1,91.8749946928026,10|8,0:0|0:0,0:0:0:0:
237,134,292476,6,0,L|135:116,2,91.8749946928026,14|0|8,0:1|0:0|0:0,0:0:0:0:
27,214,292851,2,0,L|138:214,2,91.8749946928026,2|8|8,0:0|0:1|0:0,0:0:0:0:
233,298,293226,2,0,L|329:307,1,91.8749946928026,10|0,0:0|0:0,0:0:0:0:
121,349,293476,6,8,P|76:254|135:226,1,183.749989385605,14|0,0:0|0:0,0:0:0:0:
217,212,293851,1,0,0:0:0:0:
441,155,293976,2,0,L|335:145,1,91.8749946928026,10|0,0:0|0:0,0:0:0:0:
97,105,294226,2,0,L|210:98,1,91.8749946928026,2|0,0:0|0:0,0:0:0:0:
421,40,294476,6,0,P|456:134|396:171,1,183.749989385605,14|8,0:1|0:0,0:0:0:0:
189,227,294851,2,0,L|286:256,2,91.8749946928026,2|8|8,0:0|0:1|0:1,0:0:0:0:
299,182,295226,2,8,L|332:91,2,91.8749946928026,10|0|8,0:0|0:0|0:1,0:0:0:0:
86,186,295601,6,0,L|159:255,1,91.8749946928026,2|8,0:0|0:0,0:0:0:0:
257,271,295851,1,0,0:0:0:0:
67,341,295976,2,8,L|56:227,1,91.8749946928026,10|8,0:1|0:1,0:1:0:0:
158,224,296226,2,0,L|174:116,1,91.8749946928026,10|0,0:0|0:0,0:0:0:0:
373,78,296476,6,0,L|187:35,2,183.749989385605,10|8|8,0:1|0:0|0:1,0:0:0:0:
184,157,297101,2,0,L|74:183,2,91.8749946928026,10|10|2,0:1|0:0|0:0,0:0:0:0:
370,239,297476,6,0,L|269:226,1,91.8749946928026,10|0,0:1|0:0,0:0:0:0:
371,303,297726,2,0,L|386:187,1,91.8749946928026,10|0,0:0|0:0,0:0:0:0:
188,167,297976,2,8,L|279:155,1,91.8749946928026,10|8,0:1|0:1,0:1:0:0:
175,121,298226,2,0,L|57:112,1,91.8749946928026,10|0,0:0|0:0,0:0:0:0:
288,47,298476,6,0,L|86:37,1,183.749989385605,10|8,0:1|0:0,0:0:0:0:
296,125,298851,1,2,0:0:0:0:
342,181,298976,1,8,0:1:0:0:
296,125,299101,1,8,0:1:0:0:
204,172,299226,2,0,L|299:173,1,91.8749946928026,10|0,0:0|0:0,0:0:0:0:
96,266,299476,6,0,L|201:261,1,91.8749946928026,8|2,0:1|0:0,0:0:0:0:
278,227,299726,2,0,L|178:212,1,91.8749946928026,8|0,0:0|0:0,0:0:0:0:
375,166,299976,2,8,L|382:60,1,91.8749946928026,10|8,0:1|0:1,0:1:0:0:
280,52,300226,2,0,L|397:48,1,91.8749946928026,10|0,0:0|0:0,0:0:0:0:
172,108,300476,6,0,L|357:144,2,183.749989385605,10|8|8,0:1|0:0|0:1,0:0:0:0:
369,235,301226,2,0,L|272:250,1,91.8749946928026,10|0,0:0|0:0,0:0:0:0:
76,313,301476,5,10,0:1:0:0:
31,227,301601,1,8,0:0:0:0:
76,313,301726,1,10,0:0:0:0:
166,344,301851,1,8,0:0:0:0:
366,292,301976,1,10,0:0:0:0:
168,241,302101,1,8,0:0:0:0:
367,210,302226,2,0,L|492:210,1,91.8749946928026,10|8,0:0|0:0,0:0:0:0:
241,175,302476,6,0,P|196:83|266:50,1,183.749989385605,14|8,0:1|0:0,0:0:0:0:
442,100,302851,2,0,L|357:156,1,91.8749946928026,2|8,0:0|0:1,0:0:0:0:
272,152,303101,1,8,0:1:0:0:
380,186,303226,2,0,L|398:301,1,91.8749946928026,10|0,0:0|0:0,0:0:0:0:
180,307,303476,6,0,L|177:207,1,91.8749946928026,8|2,0:1|0:0,0:0:0:0:
281,212,303726,2,0,L|290:111,1,91.8749946928026,8|0,0:0|0:0,0:0:0:0:
99,104,303976,2,8,L|215:74,1,91.8749946928026,10|8,0:1|0:1,0:1:0:0:
85,35,304226,2,0,L|76:162,1,91.8749946928026,10|0,0:0|0:0,0:0:0:0:
329,218,304476,6,0,L|130:192,2,183.749989385605,14|8|8,0:1|0:0|0:1,0:0:0:0:
126,308,305101,2,0,L|230:318,2,91.8749946928026,10|10|2,0:1|0:0|0:0,0:0:0:0:
331,257,305476,6,0,L|477:247,1,91.8749946928026,10|0,0:1|0:0,0:0:0:0:
321,208,305726,2,0,L|426:199,1,91.8749946928026,10|0,0:0|0:0,0:0:0:0:
206,137,305976,2,8,L|96:121,1,91.8749946928026,10|8,0:1|0:1,0:1:0:0:
217,85,306226,2,0,L|114:73,1,91.8749946928026,10|0,0:0|0:0,0:0:0:0:
328,97,306476,6,0,L|94:112,1,183.749989385605,10|8,0:1|0:0,0:0:0:0:
332,236,306851,2,0,L|458:245,2,91.8749946928026,2|8|8,0:0|0:1|0:1,0:0:0:0:
240,303,307226,2,8,L|352:306,1,91.8749946928026,10|0,0:0|0:0,0:0:0:0:
138,354,307476,6,0,L|45:339,1,91.8749946928026,8|2,0:1|0:0,0:0:0:0:
149,289,307726,2,0,L|159:191,1,91.8749946928026,8|0,0:0|0:0,0:0:0:0:
364,180,307976,2,8,L|456:161,1,91.8749946928026,10|8,0:1|0:1,0:1:0:0:
352,128,308226,2,0,L|340:30,1,91.8749946928026,10|0,0:0|0:0,0:0:0:0:
151,69,308476,6,0,L|211:122,1,61.2499964618684,10|4,0:0|0:3,0:0:0:0:
264,135,308642,1,4,0:3:0:0:
106,200,308726,2,0,L|28:195,2,61.2499964618684,4|4|4,0:3|0:3|0:3,0:0:0:0:
260,302,308976,1,4,0:3:0:0:
353,332,309101,1,10,0:3:0:0:
395,251,309226,1,10,0:3:0:0:
353,332,309351,1,0,0:0:0:0:
160,250,309476,6,0,L|275:235,1,91.8749946928026,10|0,0:0|0:0,0:0:0:0:
343,199,309726,2,0,L|215:187,1,91.8749946928026,10|0,0:1|0:0,0:0:0:0:
444,143,309976,2,0,L|453:26,1,91.8749946928026,14|0,0:0|0:0,0:0:0:0:
228,25,310226,2,0,L|212:137,1,91.8749946928026,10|0,0:1|0:0,0:0:0:0:
445,194,310476,6,0,L|265:278,1,183.749989385605,14|8,0:1|0:0,0:0:0:0:
74,314,310851,2,0,L|187:328,2,91.8749946928026,2|8|8,0:0|0:1|0:1,0:0:0:0:
263,242,311226,2,0,L|279:130,1,91.8749946928026,10|0,0:0|0:0,0:0:0:0:
67,30,311476,6,8,P|31:123|116:152,1,183.749989385605,10|8,0:1|0:0,0:0:0:0:
181,197,311851,1,0,0:0:0:0:
367,249,311976,2,0,L|273:235,2,91.8749946928026,10|8|8,0:1|0:1|0:0,0:0:0:0:
41,293,312476,6,0,L|238:263,1,183.749989385605,10|8,0:1|0:0,0:0:0:0:
26,171,312851,2,0,L|155:164,2,91.8749946928026,2|8|8,0:0|0:1|0:1,0:0:0:0:
213,36,313226,2,0,L|226:139,1,91.8749946928026,10|0,0:0|0:0,0:0:0:0:
432,163,313476,6,0,P|321:222|238:225,1,183.749989385605,10|8,0:1|0:0,0:0:0:0:
358,245,313851,1,0,0:0:0:0:
173,317,313976,2,0,L|66:320,1,91.8749946928026,10|8,0:1|0:1,0:0:0:0:
71,235,314226,1,8,0:0:0:0:
401,152,314476,6,8,L|293:133,2,91.8749946928026,14|0|8,0:1|0:0|0:0,0:0:0:0:
191,61,314851,2,0,L|310:49,2,91.8749946928026,2|8|8,0:0|0:1|0:1,0:0:0:0:
398,42,315226,2,0,L|410:148,1,91.8749946928026,10|0,0:0|0:0,0:0:0:0:
206,183,315476,6,8,L|276:253,1,91.8749946928026,14|0,0:1|0:0,0:0:0:0:
376,255,315726,1,8,0:0:0:0:
181,293,315851,1,2,0:0:0:0:
380,345,315976,2,0,L|493:349,1,91.8749946928026,14|0,0:1|0:0,0:0:0:0:
262,292,316226,2,0,L|126:272,1,91.8749946928026,10|0,0:0|0:0,0:0:0:0:
378,242,316476,6,0,L|386:146,1,91.8749946928026,10|8,0:0|0:1,0:0:0:0:
181,112,316726,1,8,0:0:0:0:
393,62,316851,1,10,0:1:0:0:
183,45,316976,2,0,L|73:36,1,91.8749946928026,8|8,0:0|0:1,0:0:0:0:
311,136,317226,2,0,L|200:130,1,91.8749946928026,10|8,0:0|0:1,0:0:0:0:
443,242,317476,6,0,L|498:274,2,61.2499964618684,10|8|8,0:0|0:1|0:1,0:0:0:0:
254,226,317726,2,0,L|299:180,1,61.2499964618684,8|8,0:0|0:1,0:0:0:0:
365,187,317892,1,8,0:1:0:0:
184,284,317976,6,0,L|174:215,1,61.2499964618684,10|8,0:0|0:1,0:0:0:0:
243,205,318142,1,8,0:1:0:0:
175,173,318226,2,0,L|153:107,2,61.2499964618684,10|8|8,0:0|0:1|0:1,0:0:0:0:
350,55,318476,6,8,P|351:151|278:171,1,183.749989385605,14|8,0:1|0:0,0:0:0:0:
51,72,318851,2,0,L|154:47,2,91.8749946928026,2|8|8,0:0|0:1|0:1,0:0:0:0:
261,135,319226,2,0,L|272:233,1,91.8749946928026,10|0,0:0|0:0,0:0:0:0:
70,203,319476,6,8,P|47:315|116:339,1,183.749989385605,10|8,0:1|0:0,0:0:0:0:
184,357,319851,1,0,0:0:0:0:
391,292,319976,2,8,L|293:276,2,91.8749946928026,10|8|10,0:1|0:1|0:0,0:1:0:0:
66,213,320476,6,8,P|30:120|95:91,1,183.749989385605,14|8,0:1|0:0,0:0:0:0:
291,89,320851,2,0,L|190:87,1,91.8749946928026,2|8,0:0|0:1,0:0:0:0:
291,89,321101,1,8,0:1:0:0:
72,199,321226,2,0,L|184:202,1,91.8749946928026,10|0,0:0|0:0,0:0:0:0:
359,286,321476,6,0,L|461:276,1,91.8749946928026,10|0,0:1|0:0,0:0:0:0:
349,246,321726,2,0,L|457:227,1,91.8749946928026,10|0,0:0|0:0,0:0:0:0:
237,172,321976,2,8,L|337:160,1,91.8749946928026,10|8,0:1|0:1,0:1:0:0:
225,136,322226,2,0,L|339:125,1,91.8749946928026,10|0,0:0|0:0,0:0:0:0:
111,47,322476,6,0,P|60:147|112:160,1,183.749989385605,14|8,0:1|0:0,0:0:0:0:
284,217,322851,2,0,L|207:273,1,91.8749946928026,2|8,0:0|0:1,0:0:0:0:
116,272,323101,1,8,0:1:0:0:
313,317,323226,2,0,L|441:326,1,91.8749946928026,10|0,0:0|0:0,0:0:0:0:
202,259,323476,6,0,L|192:154,1,91.8749946928026,14|0,0:1|0:0,0:0:0:0:
88,170,323726,2,0,L|77:62,1,91.8749946928026,10|0,0:0|0:0,0:0:0:0:
284,30,323976,2,8,L|291:126,1,91.8749946928026,10|8,0:1|0:1,0:1:0:0:
393,149,324226,2,0,L|402:248,1,91.8749946928026,10|0,0:0|0:0,0:0:0:0:
191,303,324476,5,14,0:1:0:0:
283,279,324601,1,8,0:1:0:0:
329,209,324726,1,8,0:1:0:0:
283,279,324851,1,10,0:1:0:0:
477,147,324976,1,8,0:0:0:0:
385,137,325101,1,8,0:1:0:0:
339,52,325226,1,10,0:1:0:0:
385,137,325351,1,8,0:1:0:0:
170,43,325476,5,8,0:0:0:0:
131,129,325601,1,8,0:1:0:0:
170,43,325726,1,8,0:1:0:0:
262,97,325851,1,8,0:1:0:0:
444,182,325976,2,0,L|295:193,1,91.8749946928026,8|8,0:0|0:0,0:0:0:0:
136,227,326226,2,0,L|246:242,1,91.8749946928026,10|8,0:0|0:0,0:0:0:0:
418,318,326476,5,14,0:1:0:0:
454,250,326601,1,8,0:1:0:0:
418,318,326726,1,8,0:1:0:0:
326,332,326851,1,8,0:1:0:0:
131,267,326976,2,8,L|246:251,1,91.8749946928026,10|8,0:0|0:3,0:0:0:0:
33,201,327226,2,0,L|23:95,1,91.8749946928026,10|0,0:0|0:0,0:0:0:0:
237,64,327476,6,0,L|141:50,1,91.8749946928026,8|8,0:1|0:1,0:0:0:0:
247,115,327726,2,0,L|143:98,1,91.8749946928026,8|8,0:3|0:3,0:0:0:0:
351,172,327976,2,0,L|359:268,1,91.8749946928026,6|0,0:3|0:0,0:0:0:0:
261,253,328226,2,0,L|250:346,1,91.8749946928026,8|8,0:1|0:0,0:0:0:0:
456,268,328476,6,0,L|465:168,1,91.8749946928026,14|0,0:1|0:0,0:0:0:0:
268,150,328726,2,0,L|382:131,1,91.8749946928026,8|0,0:0|0:0,0:0:0:0:
148,75,328976,1,8,0:1:0:0:
350,56,329101,2,0,L|453:72,1,91.8749946928026,8|8,0:0|0:0,0:0:0:0:
450,135,329351,1,0,0:0:0:0:
231,250,329476,5,14,0:0:0:0:
136,253,329601,1,0,0:0:0:0:
96,173,329726,1,8,0:1:0:0:
136,253,329851,1,8,0:1:0:0:
369,309,329976,2,8,L|469:312,1,91.8749946928026,10|10,0:0|0:0,0:0:0:0:
206,366,330226,2,8,L|305:372,1,91.8749946928026,10|10,0:0|0:0,0:0:0:0:
