osu file format v14

[General]
AudioFilename: audio.mp3
AudioLeadIn: 0
PreviewTime: 121289
Countdown: 0
SampleSet: Normal
StackLeniency: 0.7
Mode: 1
LetterboxInBreaks: 0
WidescreenStoryboard: 0

[Editor]
Bookmarks: 22069
DistanceSpacing: 0.7
BeatDivisor: 4
GridSize: 8
TimelineZoom: 0.9999998

[Metadata]
Title:Beggars (Consouls Remix)
TitleUnicode:Beggars (Consouls Remix)
Artist:Krewella x Diskord
ArtistUnicode:Krewella x Diskord
Creator:radar
Version:Fapu's Muzukashii
Source:
Tags:electronic english dance music idealism faputa english drum and bass dnb edm female vocal neurofunk
BeatmapID:2330242
BeatmapSetID:1052935

[Difficulty]
HPDrainRate:6
CircleSize:2
OverallDifficulty:5
ApproachRate:10
SliderMultiplier:1.4
SliderTickRate:1

[Events]
//Background and Video events
0,0,"idealismownedmeagain.png",0,0
//Break Periods
2,165717,176101
//Storyboard Layer 0 (Background)
//Storyboard Layer 1 (Fail)
//Storyboard Layer 2 (Pass)
//Storyboard Layer 3 (Foreground)
//Storyboard Layer 4 (Overlay)
//Storyboard Sound Samples

[TimingPoints]
0,344.827586206897,4,1,0,80,1,0
49655,-100,4,1,0,90,0,1
71724,-100,4,1,0,90,0,0
77241,-100,4,1,0,90,0,1
86896,-100,4,1,0,80,0,0
88275,-100,4,1,0,90,0,1
97931,-100,4,1,0,80,0,0
122758,-100,4,1,0,90,0,1
142068,-100,4,1,0,90,0,0
143448,-100,4,1,0,90,0,1
153103,-100,4,1,0,90,0,0
154482,-100,4,1,0,90,0,1
165517,-100,4,1,0,80,0,0
165689,-100,4,1,0,45,0,0
187586,-100,4,1,0,80,0,0
187672,-100,4,1,0,45,0,0
190344,-100,4,1,0,80,0,0
190431,-100,4,1,0,45,0,0
193103,-100,4,1,0,80,0,0
198620,-100,4,1,0,90,0,1
209655,-100,4,1,0,90,0,0
210344,-100,4,1,0,90,0,1
217931,-100,4,1,0,80,0,0
220344,-100,4,1,0,70,0,0
220517,-100,4,1,0,60,0,0
220689,-100,4,1,0,50,0,0
220862,-100,4,1,0,40,0,0
221034,-100,4,1,0,30,0,0
221207,-100,4,1,0,20,0,0
221379,-100,4,1,0,10,0,0

[HitObjects]
256,192,10344,5,8,0:0:0:0:
256,192,11034,1,4,0:0:0:0:
256,192,11724,1,8,0:0:0:0:
256,192,12069,1,0,0:0:0:0:
256,192,12586,1,0,0:0:0:0:
256,192,12931,1,0,0:0:0:0:
256,192,13103,1,8,0:0:0:0:
256,192,13448,1,0,0:0:0:0:
256,192,13793,1,0,0:0:0:0:
256,192,14482,1,8,0:0:0:0:
256,192,14827,1,0,0:0:0:0:
256,192,15344,1,0,0:0:0:0:
256,192,15689,1,0,0:0:0:0:
256,192,15862,1,8,0:0:0:0:
256,192,16207,1,0,0:0:0:0:
256,192,16551,1,0,0:0:0:0:
256,192,17241,1,8,0:0:0:0:
256,192,17586,1,0,0:0:0:0:
256,192,18103,1,0,0:0:0:0:
256,192,18448,1,0,0:0:0:0:
256,192,18620,1,8,0:0:0:0:
256,192,18965,1,0,0:0:0:0:
256,192,19310,1,0,0:0:0:0:
256,192,19655,1,0,0:0:0:0:
256,192,20000,1,0,0:0:0:0:
256,192,20172,1,0,0:0:0:0:
256,192,20344,1,8,0:0:0:0:
256,192,20431,1,8,0:0:0:0:
256,192,20517,1,8,0:0:0:0:
256,192,20689,1,4,0:0:0:0:
256,192,22069,1,12,0:0:0:0:
256,192,22758,1,8,0:0:0:0:
256,192,23448,1,8,0:0:0:0:
256,192,24138,1,8,0:0:0:0:
256,192,24482,1,0,0:0:0:0:
256,192,24655,1,0,0:0:0:0:
256,192,24827,1,8,0:0:0:0:
256,192,25517,1,8,0:0:0:0:
256,192,26207,1,8,0:0:0:0:
256,192,26896,1,8,0:0:0:0:
256,192,27241,1,0,0:0:0:0:
256,192,27413,1,0,0:0:0:0:
256,192,27586,1,8,0:0:0:0:
256,192,28276,1,8,0:0:0:0:
256,192,28965,1,8,0:0:0:0:
256,192,29655,1,8,0:0:0:0:
256,192,30000,1,0,0:0:0:0:
256,192,30172,1,0,0:0:0:0:
256,192,30344,1,8,0:0:0:0:
256,192,31034,1,8,0:0:0:0:
256,192,31724,1,0,0:0:0:0:
256,192,32413,1,8,0:0:0:0:
256,192,32586,1,0,0:0:0:0:
256,192,32758,1,0,0:0:0:0:
256,192,33103,1,12,0:0:0:0:
256,192,33793,1,8,0:0:0:0:
256,192,34138,1,0,0:0:0:0:
256,192,34482,1,8,0:0:0:0:
256,192,34827,1,8,0:0:0:0:
256,192,35172,1,8,0:0:0:0:
256,192,35517,1,0,0:0:0:0:
256,192,35689,1,0,0:0:0:0:
256,192,35862,1,8,0:0:0:0:
256,192,36551,1,8,0:0:0:0:
256,192,36724,1,8,0:0:0:0:
256,192,36896,1,0,0:0:0:0:
256,192,37241,1,8,0:0:0:0:
256,192,37586,1,0,0:0:0:0:
256,192,37931,1,8,0:0:0:0:
256,192,38620,1,8,0:0:0:0:
256,192,38965,1,0,0:0:0:0:
256,192,39310,1,8,0:0:0:0:
256,192,39655,1,0,0:0:0:0:
256,192,40000,1,8,0:0:0:0:
256,192,40344,1,8,0:0:0:0:
256,192,40689,1,8,0:0:0:0:
256,192,41034,1,0,0:0:0:0:
256,192,41207,1,0,0:0:0:0:
256,192,41379,1,8,0:0:0:0:
256,192,41724,1,0,0:0:0:0:
256,192,42069,1,8,0:0:0:0:
256,192,42413,1,0,0:0:0:0:
256,192,42586,1,0,0:0:0:0:
256,192,42758,1,8,0:0:0:0:
256,192,43103,1,0,0:0:0:0:
256,192,43448,1,8,0:0:0:0:
256,192,44138,1,0,0:0:0:0:
256,192,44482,1,8,0:0:0:0:
256,192,44827,1,0,0:0:0:0:
256,192,45000,1,0,0:0:0:0:
256,192,45172,1,8,0:0:0:0:
256,192,45517,1,0,0:0:0:0:
256,192,45862,1,8,0:0:0:0:
256,192,46207,1,8,0:0:0:0:
256,192,46379,1,0,0:0:0:0:
256,192,46551,1,8,0:0:0:0:
256,192,46896,1,0,0:0:0:0:
256,192,47241,1,8,0:0:0:0:
256,192,47586,1,0,0:0:0:0:
256,192,47758,1,0,0:0:0:0:
256,192,47931,1,8,0:0:0:0:
256,192,48276,1,0,0:0:0:0:
256,192,48620,1,8,0:0:0:0:
256,192,49655,1,4,0:0:0:0:
256,192,50000,1,8,0:0:0:0:
256,192,50344,1,0,0:0:0:0:
256,192,50517,1,0,0:0:0:0:
256,192,50689,1,8,0:0:0:0:
256,192,50862,1,0,0:0:0:0:
256,192,51034,1,8,0:0:0:0:
256,192,51379,1,8,0:0:0:0:
256,192,51551,1,8,0:0:0:0:
256,192,51896,1,0,0:0:0:0:
256,192,52069,1,8,0:0:0:0:
256,192,52413,1,0,0:0:0:0:
256,192,52758,1,8,0:0:0:0:
256,192,53276,1,0,0:0:0:0:
256,192,53448,1,8,0:0:0:0:
256,192,53793,1,0,0:0:0:0:
256,192,53965,1,8,0:0:0:0:
256,192,54138,1,8,0:0:0:0:
256,192,54310,1,0,0:0:0:0:
256,192,54655,1,0,0:0:0:0:
256,192,54827,1,8,0:0:0:0:
256,192,55000,1,0,0:0:0:0:
256,192,55172,1,8,0:0:0:0:
256,192,55517,1,8,0:0:0:0:
256,192,55862,1,0,0:0:0:0:
256,192,56034,1,0,0:0:0:0:
256,192,56207,1,8,0:0:0:0:
256,192,56551,1,0,0:0:0:0:
256,192,56896,1,8,0:0:0:0:
256,192,57069,1,0,0:0:0:0:
256,192,57413,1,0,0:0:0:0:
256,192,57586,1,8,0:0:0:0:
256,192,57931,1,8,0:0:0:0:
256,192,58276,1,8,0:0:0:0:
256,192,58620,1,0,0:0:0:0:
256,192,58965,1,8,0:0:0:0:
256,192,59310,1,0,0:0:0:0:
256,192,59655,1,8,0:0:0:0:
256,192,59827,1,0,0:0:0:0:
256,192,60000,1,8,0:0:0:0:
256,192,60172,1,8,0:0:0:0:
256,192,60344,1,0,0:0:0:0:
256,192,60689,1,4,0:0:0:0:
256,192,61034,1,8,0:0:0:0:
256,192,61379,1,0,0:0:0:0:
256,192,61551,1,0,0:0:0:0:
256,192,61724,1,8,0:0:0:0:
256,192,61896,1,0,0:0:0:0:
256,192,62069,1,8,0:0:0:0:
256,192,62413,1,8,0:0:0:0:
256,192,62586,1,8,0:0:0:0:
256,192,62758,1,8,0:0:0:0:
256,192,62931,1,0,0:0:0:0:
256,192,63103,1,8,0:0:0:0:
256,192,63448,1,0,0:0:0:0:
256,192,63793,1,8,0:0:0:0:
256,192,64310,1,0,0:0:0:0:
256,192,64482,1,8,0:0:0:0:
256,192,64827,1,0,0:0:0:0:
256,192,65172,1,8,0:0:0:0:
256,192,65344,1,8,0:0:0:0:
256,192,65517,1,0,0:0:0:0:
256,192,65689,1,0,0:0:0:0:
256,192,65862,1,8,0:0:0:0:
256,192,66034,1,0,0:0:0:0:
256,192,66207,1,8,0:0:0:0:
256,192,66551,1,8,0:0:0:0:
256,192,66896,1,0,0:0:0:0:
256,192,67069,1,0,0:0:0:0:
256,192,67241,1,8,0:0:0:0:
256,192,67586,1,0,0:0:0:0:
256,192,67931,1,8,0:0:0:0:
256,192,68103,1,0,0:0:0:0:
256,192,68276,1,8,0:0:0:0:
256,192,68448,1,8,0:0:0:0:
256,192,68620,1,0,0:0:0:0:
256,192,68965,1,8,0:0:0:0:
256,192,69310,1,8,0:0:0:0:
256,192,69655,1,0,0:0:0:0:
256,192,70000,1,8,0:0:0:0:
256,192,70344,1,0,0:0:0:0:
256,192,70689,1,8,0:0:0:0:
256,192,70862,1,0,0:0:0:0:
256,192,71034,1,8,0:0:0:0:
256,192,71207,1,8,0:0:0:0:
256,192,71379,1,0,0:0:0:0:
256,192,71724,1,8,0:0:0:0:
256,192,72069,1,8,0:0:0:0:
256,192,72413,1,8,0:0:0:0:
256,192,72758,1,8,0:0:0:0:
256,192,73103,1,8,0:0:0:0:
256,192,73276,1,0,0:0:0:0:
256,192,73448,1,8,0:0:0:0:
256,192,73793,1,8,0:0:0:0:
256,192,73965,1,0,0:0:0:0:
256,192,74138,1,8,0:0:0:0:
256,192,74482,1,8,0:0:0:0:
256,192,74569,1,8,0:0:0:0:
256,192,74655,1,8,0:0:0:0:
256,192,74827,1,0,0:0:0:0:
256,192,74913,1,0,0:0:0:0:
256,192,75000,1,0,0:0:0:0:
256,192,75172,1,8,0:0:0:0:
256,192,75258,1,8,0:0:0:0:
256,192,75344,1,8,0:0:0:0:
256,192,75517,1,0,0:0:0:0:
256,192,75689,1,0,0:0:0:0:
256,192,75862,1,8,0:0:0:0:
256,192,77241,1,4,0:0:0:0:
256,192,77586,1,8,0:0:0:0:
256,192,77931,1,0,0:0:0:0:
256,192,78103,1,0,0:0:0:0:
256,192,78276,1,8,0:0:0:0:
256,192,78448,1,0,0:0:0:0:
256,192,78534,1,0,0:0:0:0:
256,192,78620,1,0,0:0:0:0:
256,192,78965,1,8,0:0:0:0:
256,192,79138,1,0,0:0:0:0:
256,192,79224,1,0,0:0:0:0:
256,192,79310,1,0,0:0:0:0:
256,192,79482,1,0,0:0:0:0:
256,192,79655,1,8,0:0:0:0:
256,192,80000,1,0,0:0:0:0:
256,192,80344,1,8,0:0:0:0:
256,192,80517,1,8,0:0:0:0:
256,192,80689,1,8,0:0:0:0:
256,192,80862,1,0,0:0:0:0:
256,192,81034,1,8,0:0:0:0:
256,192,81379,1,0,0:0:0:0:
256,192,81551,1,8,0:0:0:0:
256,192,81724,1,8,0:0:0:0:
256,192,81896,1,8,0:0:0:0:
256,192,82069,1,0,0:0:0:0:
256,192,82241,1,0,0:0:0:0:
256,192,82413,1,8,0:0:0:0:
256,192,82758,1,0,0:0:0:0:
256,192,83103,1,8,0:0:0:0:
256,192,83448,1,8,0:0:0:0:
256,192,83534,1,8,0:0:0:0:
256,192,83620,1,8,0:0:0:0:
256,192,83793,1,0,0:0:0:0:
256,192,83965,1,8,0:0:0:0:
256,192,84138,1,0,0:0:0:0:
256,192,84655,1,8,0:0:0:0:
256,192,84741,1,8,0:0:0:0:
256,192,84827,1,8,0:0:0:0:
256,192,85000,1,8,0:0:0:0:
256,192,85172,1,0,0:0:0:0:
256,192,85344,1,0,0:0:0:0:
256,192,85517,1,8,0:0:0:0:
256,192,85862,1,8,0:0:0:0:
256,192,86034,1,0,0:0:0:0:
256,192,86379,1,8,0:0:0:0:
256,192,86551,1,8,0:0:0:0:
256,192,86896,1,0,0:0:0:0:
256,192,87241,1,0,0:0:0:0:
256,192,87586,1,8,0:0:0:0:
256,192,88276,1,4,0:0:0:0:
256,192,88620,1,8,0:0:0:0:
256,192,88965,1,0,0:0:0:0:
256,192,89138,1,0,0:0:0:0:
256,192,89310,1,8,0:0:0:0:
256,192,89482,1,0,0:0:0:0:
256,192,89569,1,0,0:0:0:0:
256,192,89655,1,0,0:0:0:0:
256,192,89827,1,8,0:0:0:0:
256,192,90000,1,8,0:0:0:0:
256,192,90172,1,0,0:0:0:0:
256,192,90258,1,0,0:0:0:0:
256,192,90344,1,0,0:0:0:0:
256,192,90517,1,0,0:0:0:0:
256,192,90689,1,8,0:0:0:0:
256,192,91034,1,0,0:0:0:0:
256,192,91379,1,8,0:0:0:0:
256,192,91551,1,8,0:0:0:0:
256,192,91724,1,8,0:0:0:0:
256,192,91896,1,0,0:0:0:0:
256,192,92241,1,8,0:0:0:0:
256,192,92413,1,0,0:0:0:0:
256,192,92586,1,8,0:0:0:0:
256,192,92758,1,8,0:0:0:0:
256,192,92931,1,8,0:0:0:0:
256,192,93275,1,0,0:0:0:0:
256,192,93448,1,8,0:0:0:0:
256,192,93793,1,0,0:0:0:0:
256,192,94138,1,8,0:0:0:0:
256,192,94310,1,8,0:0:0:0:
256,192,94482,1,8,0:0:0:0:
256,192,94655,1,0,0:0:0:0:
256,192,94741,1,0,0:0:0:0:
256,192,94827,1,0,0:0:0:0:
256,192,95000,1,8,0:0:0:0:
256,192,95172,1,0,0:0:0:0:
256,192,95689,1,8,0:0:0:0:
256,192,95862,1,0,0:0:0:0:
256,192,95948,1,0,0:0:0:0:
256,192,96034,1,0,0:0:0:0:
256,192,96207,1,8,0:0:0:0:
256,192,96379,1,0,0:0:0:0:
256,192,96551,1,8,0:0:0:0:
256,192,96896,1,8,0:0:0:0:
256,192,97069,1,0,0:0:0:0:
256,192,97241,1,8,0:0:0:0:
256,192,97586,1,8,0:0:0:0:
256,192,97931,1,0,0:0:0:0:
256,192,98276,1,0,0:0:0:0:
256,192,98620,1,8,0:0:0:0:
256,192,99310,1,4,0:0:0:0:
256,192,100000,1,8,0:0:0:0:
256,192,100172,1,0,0:0:0:0:
256,192,100344,1,8,0:0:0:0:
256,192,100517,1,0,0:0:0:0:
256,192,100689,1,0,0:0:0:0:
256,192,100862,1,8,0:0:0:0:
256,192,101034,1,0,0:0:0:0:
256,192,101120,1,0,0:0:0:0:
256,192,101207,1,0,0:0:0:0:
256,192,101379,1,8,0:0:0:0:
256,192,101724,1,0,0:0:0:0:
256,192,102069,1,4,0:0:0:0:
256,192,102758,1,8,0:0:0:0:
256,192,102931,1,8,0:0:0:0:
256,192,103103,1,8,0:0:0:0:
256,192,103276,1,8,0:0:0:0:
256,192,103448,1,0,0:0:0:0:
256,192,103620,1,8,0:0:0:0:
256,192,103707,1,8,0:0:0:0:
256,192,103793,1,8,0:0:0:0:
256,192,103965,1,0,0:0:0:0:
256,192,104138,1,8,0:0:0:0:
256,192,104482,1,0,0:0:0:0:
256,192,104827,1,8,0:0:0:0:
256,192,105086,1,8,0:0:0:0:
256,192,105344,1,8,0:0:0:0:
256,192,105517,1,4,0:0:0:0:
256,192,105862,1,8,0:0:0:0:
256,192,106034,1,0,0:0:0:0:
256,192,106207,1,8,0:0:0:0:
256,192,106293,1,8,0:0:0:0:
256,192,106379,1,8,0:0:0:0:
256,192,106551,1,8,0:0:0:0:
256,192,106724,1,0,0:0:0:0:
256,192,106896,1,8,0:0:0:0:
256,192,107241,1,0,0:0:0:0:
256,192,107586,1,12,0:0:0:0:
256,192,107931,1,4,0:0:0:0:
256,192,108276,1,8,0:0:0:0:
256,192,108448,1,8,0:0:0:0:
256,192,108620,1,0,0:0:0:0:
256,192,108793,1,0,0:0:0:0:
256,192,108965,1,8,0:0:0:0:
256,192,109310,1,8,0:0:0:0:
256,192,109655,1,0,0:0:0:0:
256,192,110344,1,0,0:0:0:0:
256,192,110517,1,0,0:0:0:0:
256,192,110862,1,0,0:0:0:0:
256,192,111034,1,8,0:0:0:0:
256,192,111379,1,0,0:0:0:0:
256,192,111724,1,8,0:0:0:0:
256,192,111896,1,0,0:0:0:0:
256,192,112241,1,0,0:0:0:0:
256,192,112413,1,8,0:0:0:0:
256,192,112758,1,0,0:0:0:0:
256,192,113103,1,0,0:0:0:0:
256,192,113620,1,0,0:0:0:0:
256,192,113793,1,8,0:0:0:0:
256,192,114138,1,0,0:0:0:0:
256,192,114482,1,8,0:0:0:0:
256,192,114655,1,0,0:0:0:0:
256,192,114827,1,0,0:0:0:0:
256,192,115172,1,8,0:0:0:0:
256,192,115862,1,0,0:0:0:0:
256,192,116379,1,0,0:0:0:0:
256,192,116551,1,8,0:0:0:0:
256,192,116896,1,0,0:0:0:0:
256,192,117241,1,8,0:0:0:0:
256,192,117586,1,0,0:0:0:0:
256,192,117758,1,0,0:0:0:0:
256,192,117931,1,8,0:0:0:0:
256,192,118620,1,0,0:0:0:0:
256,192,118965,1,0,0:0:0:0:
256,192,119310,1,8,0:0:0:0:
256,192,119655,1,0,0:0:0:0:
256,192,120000,1,8,0:0:0:0:
256,192,120344,1,8,0:0:0:0:
256,192,120689,1,8,0:0:0:0:
256,192,121379,1,0,0:0:0:0:
256,192,122413,1,8,0:0:0:0:
256,192,122500,1,8,0:0:0:0:
256,192,122586,1,8,0:0:0:0:
256,192,122758,1,4,0:0:0:0:
256,192,123103,1,8,0:0:0:0:
256,192,123276,1,8,0:0:0:0:
256,192,123448,1,0,0:0:0:0:
256,192,123534,1,0,0:0:0:0:
256,192,123620,1,0,0:0:0:0:
256,192,123793,1,8,0:0:0:0:
256,192,124138,1,0,0:0:0:0:
256,192,124482,1,8,0:0:0:0:
256,192,125000,1,0,0:0:0:0:
256,192,125172,1,8,0:0:0:0:
256,192,125517,1,0,0:0:0:0:
256,192,125689,1,8,0:0:0:0:
256,192,125862,1,8,0:0:0:0:
256,192,126034,1,0,0:0:0:0:
256,192,126120,1,0,0:0:0:0:
256,192,126207,1,0,0:0:0:0:
256,192,126379,1,0,0:0:0:0:
256,192,126551,1,8,0:0:0:0:
256,192,126724,1,0,0:0:0:0:
256,192,126896,1,8,0:0:0:0:
256,192,127241,1,8,0:0:0:0:
256,192,127413,1,0,0:0:0:0:
256,192,127500,1,0,0:0:0:0:
256,192,127586,1,0,0:0:0:0:
256,192,127758,1,0,0:0:0:0:
256,192,127931,1,8,0:0:0:0:
256,192,128276,1,0,0:0:0:0:
256,192,128620,1,8,0:0:0:0:
256,192,129138,1,0,0:0:0:0:
256,192,129310,1,8,0:0:0:0:
256,192,129655,1,8,0:0:0:0:
256,192,130000,1,8,0:0:0:0:
256,192,130172,1,0,0:0:0:0:
256,192,130258,1,0,0:0:0:0:
256,192,130344,1,0,0:0:0:0:
256,192,130517,1,0,0:0:0:0:
256,192,130689,1,8,0:0:0:0:
256,192,131034,1,0,0:0:0:0:
256,192,131379,1,8,0:0:0:0:
256,192,131551,1,0,0:0:0:0:
256,192,131724,1,8,0:0:0:0:
256,192,131896,1,8,0:0:0:0:
256,192,132069,1,0,0:0:0:0:
256,192,132413,1,4,0:0:0:0:
256,192,132758,1,8,0:0:0:0:
256,192,132931,1,0,0:0:0:0:
256,192,133017,1,0,0:0:0:0:
256,192,133103,1,0,0:0:0:0:
256,192,133276,1,0,0:0:0:0:
256,192,133448,1,8,0:0:0:0:
256,192,133620,1,0,0:0:0:0:
256,192,133793,1,8,0:0:0:0:
256,192,134138,1,8,0:0:0:0:
256,192,134655,1,0,0:0:0:0:
256,192,134827,1,8,0:0:0:0:
256,192,135172,1,0,0:0:0:0:
256,192,135517,1,8,0:0:0:0:
256,192,135689,1,0,0:0:0:0:
256,192,135776,1,0,0:0:0:0:
256,192,135862,1,0,0:0:0:0:
256,192,136034,1,0,0:0:0:0:
256,192,136207,1,8,0:0:0:0:
256,192,136551,1,0,0:0:0:0:
256,192,136724,1,8,0:0:0:0:
256,192,136896,1,8,0:0:0:0:
256,192,137069,1,0,0:0:0:0:
256,192,137241,1,8,0:0:0:0:
256,192,137327,1,8,0:0:0:0:
256,192,137413,1,8,0:0:0:0:
256,192,137586,1,8,0:0:0:0:
256,192,137758,1,0,0:0:0:0:
256,192,137931,1,8,0:0:0:0:
256,192,138276,1,8,0:0:0:0:
256,192,138620,1,0,0:0:0:0:
256,192,138965,1,0,0:0:0:0:
256,192,139310,1,8,0:0:0:0:
256,192,139482,1,8,0:0:0:0:
256,192,139655,1,0,0:0:0:0:
256,192,140000,1,8,0:0:0:0:
256,192,140172,1,8,0:0:0:0:
256,192,140344,1,0,0:0:0:0:
256,192,140689,1,8,0:0:0:0:
256,192,140776,1,8,0:0:0:0:
256,192,140862,1,8,0:0:0:0:
256,192,141034,1,0,0:0:0:0:
256,192,141120,1,0,0:0:0:0:
256,192,141207,1,0,0:0:0:0:
256,192,141379,1,8,0:0:0:0:
256,192,141465,1,8,0:0:0:0:
256,192,141551,1,8,0:0:0:0:
256,192,141724,1,0,0:0:0:0:
256,192,141896,1,0,0:0:0:0:
256,192,142069,1,8,0:0:0:0:
256,192,143103,1,0,0:0:0:0:
256,192,143276,1,0,0:0:0:0:
256,192,143448,1,4,0:0:0:0:
256,192,143793,1,8,0:0:0:0:
256,192,144138,1,0,0:0:0:0:
256,192,144310,1,0,0:0:0:0:
256,192,144483,1,8,0:0:0:0:
256,192,144655,1,0,0:0:0:0:
256,192,144827,1,8,0:0:0:0:
256,192,144913,1,8,0:0:0:0:
256,192,145000,1,8,0:0:0:0:
256,192,145172,1,0,0:0:0:0:
256,192,145345,1,0,0:0:0:0:
256,192,145431,1,0,0:0:0:0:
256,192,145517,1,0,0:0:0:0:
256,192,145689,1,0,0:0:0:0:
256,192,145862,1,8,0:0:0:0:
256,192,146207,1,0,0:0:0:0:
256,192,146551,1,8,0:0:0:0:
256,192,146724,1,8,0:0:0:0:
256,192,146896,1,8,0:0:0:0:
256,192,147069,1,0,0:0:0:0:
256,192,147241,1,8,0:0:0:0:
256,192,147586,1,0,0:0:0:0:
256,192,147758,1,8,0:0:0:0:
256,192,147931,1,8,0:0:0:0:
256,192,148103,1,8,0:0:0:0:
256,192,148276,1,0,0:0:0:0:
256,192,148448,1,0,0:0:0:0:
256,192,148620,1,8,0:0:0:0:
256,192,148965,1,0,0:0:0:0:
256,192,149310,1,8,0:0:0:0:
256,192,149655,1,8,0:0:0:0:
256,192,149741,1,8,0:0:0:0:
256,192,149827,1,8,0:0:0:0:
256,192,150000,1,0,0:0:0:0:
256,192,150172,1,8,0:0:0:0:
256,192,150345,1,0,0:0:0:0:
256,192,150862,1,8,0:0:0:0:
256,192,150948,1,8,0:0:0:0:
256,192,151034,1,8,0:0:0:0:
256,192,151207,1,8,0:0:0:0:
256,192,151379,1,0,0:0:0:0:
256,192,151551,1,0,0:0:0:0:
256,192,151724,1,8,0:0:0:0:
256,192,152069,1,8,0:0:0:0:
256,192,152241,1,0,0:0:0:0:
256,192,152586,1,8,0:0:0:0:
256,192,152758,1,8,0:0:0:0:
256,192,153103,1,0,0:0:0:0:
256,192,153448,1,0,0:0:0:0:
256,192,153793,1,8,0:0:0:0:
256,192,154483,1,4,0:0:0:0:
256,192,154827,1,8,0:0:0:0:
256,192,155172,1,0,0:0:0:0:
256,192,155345,1,8,0:0:0:0:
256,192,155431,1,8,0:0:0:0:
256,192,155517,1,8,0:0:0:0:
256,192,155689,1,0,0:0:0:0:
256,192,155862,1,0,0:0:0:0:
256,192,156034,1,8,0:0:0:0:
256,192,156120,1,8,0:0:0:0:
256,192,156207,1,8,0:0:0:0:
256,192,156379,1,0,0:0:0:0:
256,192,156551,1,0,0:0:0:0:
256,192,156724,1,0,0:0:0:0:
256,192,156896,1,8,0:0:0:0:
256,192,157241,1,0,0:0:0:0:
256,192,157586,1,8,0:0:0:0:
256,192,157758,1,8,0:0:0:0:
256,192,157931,1,8,0:0:0:0:
256,192,158103,1,0,0:0:0:0:
256,192,158448,1,8,0:0:0:0:
256,192,158620,1,0,0:0:0:0:
256,192,158793,1,8,0:0:0:0:
256,192,158965,1,8,0:0:0:0:
256,192,159138,1,8,0:0:0:0:
256,192,159310,1,0,0:0:0:0:
256,192,159655,1,8,0:0:0:0:
256,192,160000,1,0,0:0:0:0:
256,192,160345,1,8,0:0:0:0:
256,192,160517,1,8,0:0:0:0:
256,192,160689,1,8,0:0:0:0:
256,192,160862,1,0,0:0:0:0:
256,192,160948,1,0,0:0:0:0:
256,192,161034,1,0,0:0:0:0:
256,192,161207,1,8,0:0:0:0:
256,192,161379,1,0,0:0:0:0:
256,192,161896,1,8,0:0:0:0:
256,192,162069,1,0,0:0:0:0:
256,192,162155,1,0,0:0:0:0:
256,192,162241,1,0,0:0:0:0:
256,192,162414,1,8,0:0:0:0:
256,192,162586,1,0,0:0:0:0:
256,192,162758,1,8,0:0:0:0:
256,192,163103,1,8,0:0:0:0:
256,192,163276,1,0,0:0:0:0:
256,192,163448,1,8,0:0:0:0:
256,192,163793,1,8,0:0:0:0:
256,192,164138,1,0,0:0:0:0:
256,192,164482,1,0,0:0:0:0:
256,192,164827,1,8,0:0:0:0:
256,192,165517,1,4,0:0:0:0:
256,192,176551,5,8,0:0:0:0:
256,192,177586,1,0,0:0:0:0:
256,192,177931,1,8,0:0:0:0:
256,192,179310,1,8,0:0:0:0:
256,192,180344,1,0,0:0:0:0:
256,192,180689,1,8,0:0:0:0:
256,192,182069,1,8,0:0:0:0:
256,192,183103,1,0,0:0:0:0:
256,192,183448,1,8,0:0:0:0:
256,192,184138,1,0,0:0:0:0:
256,192,184482,1,0,0:0:0:0:
256,192,184827,1,8,0:0:0:0:
256,192,185517,1,8,0:0:0:0:
256,192,185862,1,0,0:0:0:0:
256,192,186207,1,8,0:0:0:0:
256,192,186551,1,8,0:0:0:0:
256,192,186896,1,8,0:0:0:0:
256,192,187241,1,8,0:0:0:0:
256,192,187586,1,0,0:0:0:0:
256,192,187931,1,8,0:0:0:0:
256,192,188448,1,0,0:0:0:0:
256,192,188620,1,8,0:0:0:0:
256,192,188965,1,0,0:0:0:0:
256,192,189310,1,8,0:0:0:0:
256,192,189655,1,8,0:0:0:0:
256,192,190344,1,0,0:0:0:0:
256,192,190689,1,8,0:0:0:0:
256,192,191207,1,0,0:0:0:0:
256,192,191379,1,8,0:0:0:0:
256,192,191724,1,8,0:0:0:0:
256,192,192069,1,0,0:0:0:0:
256,192,192413,1,8,0:0:0:0:
256,192,193103,1,0,0:0:0:0:
256,192,193448,1,8,0:0:0:0:
256,192,193793,1,0,0:0:0:0:
256,192,194138,1,8,0:0:0:0:
256,192,194482,1,0,0:0:0:0:
256,192,194655,1,0,0:0:0:0:
256,192,194827,1,8,0:0:0:0:
256,192,195172,1,0,0:0:0:0:
256,192,195344,1,0,0:0:0:0:
256,192,195517,1,8,0:0:0:0:
256,192,195862,1,8,0:0:0:0:
256,192,195948,1,8,0:0:0:0:
256,192,196034,1,8,0:0:0:0:
256,192,196207,1,0,0:0:0:0:
256,192,196293,1,0,0:0:0:0:
256,192,196379,1,0,0:0:0:0:
256,192,196551,1,8,0:0:0:0:
256,192,196638,1,8,0:0:0:0:
256,192,196724,1,8,0:0:0:0:
256,192,196896,1,0,0:0:0:0:
256,192,197069,1,0,0:0:0:0:
256,192,197241,1,8,0:0:0:0:
256,192,198620,1,4,0:0:0:0:
256,192,198965,1,8,0:0:0:0:
256,192,199138,1,0,0:0:0:0:
256,192,199224,1,0,0:0:0:0:
256,192,199310,1,0,0:0:0:0:
256,192,199482,1,0,0:0:0:0:
256,192,199655,1,8,0:0:0:0:
256,192,200000,1,0,0:0:0:0:
256,192,200344,1,8,0:0:0:0:
256,192,200517,1,8,0:0:0:0:
256,192,200689,1,0,0:0:0:0:
256,192,200862,1,0,0:0:0:0:
256,192,201034,1,8,0:0:0:0:
256,192,201379,1,0,0:0:0:0:
256,192,201724,1,8,0:0:0:0:
256,192,201896,1,8,0:0:0:0:
256,192,201982,1,8,0:0:0:0:
256,192,202069,1,8,0:0:0:0:
256,192,202241,1,0,0:0:0:0:
256,192,202413,1,8,0:0:0:0:
256,192,202758,1,0,0:0:0:0:
256,192,203103,1,8,0:0:0:0:
256,192,203620,1,0,0:0:0:0:
256,192,203793,1,8,0:0:0:0:
256,192,204138,1,0,0:0:0:0:
256,192,204482,1,8,0:0:0:0:
256,192,204655,1,0,0:0:0:0:
256,192,204741,1,0,0:0:0:0:
256,192,204827,1,0,0:0:0:0:
256,192,205000,1,0,0:0:0:0:
256,192,205172,1,8,0:0:0:0:
256,192,205517,1,0,0:0:0:0:
256,192,205862,1,8,0:0:0:0:
256,192,206034,1,8,0:0:0:0:
256,192,206207,1,0,0:0:0:0:
256,192,206379,1,0,0:0:0:0:
256,192,206551,1,8,0:0:0:0:
256,192,206896,1,0,0:0:0:0:
256,192,207241,1,8,0:0:0:0:
256,192,207413,1,8,0:0:0:0:
256,192,207500,1,8,0:0:0:0:
256,192,207586,1,8,0:0:0:0:
256,192,207758,1,0,0:0:0:0:
256,192,207931,1,8,0:0:0:0:
256,192,208276,1,0,0:0:0:0:
256,192,208620,1,0,0:0:0:0:
256,192,208965,1,8,0:0:0:0:
256,192,209310,1,0,0:0:0:0:
256,192,209655,1,8,0:0:0:0:
256,192,210344,1,8,0:0:0:0:
256,192,211034,1,0,0:0:0:0:
256,192,211207,1,0,0:0:0:0:
256,192,211724,1,8,0:0:0:0:
256,192,212069,1,0,0:0:0:0:
256,192,212413,1,8,0:0:0:0:
256,192,213103,1,8,0:0:0:0:
256,192,213448,1,0,0:0:0:0:
256,192,213793,1,0,0:0:0:0:
256,192,214482,1,8,0:0:0:0:
256,192,214827,1,0,0:0:0:0:
256,192,215172,1,8,0:0:0:0:
256,192,215517,1,8,0:0:0:0:
256,192,215862,1,0,0:0:0:0:
256,192,216207,1,0,0:0:0:0:
256,192,216551,1,8,0:0:0:0:
256,192,216724,1,0,0:0:0:0:
256,192,216896,1,8,0:0:0:0:
256,192,217241,1,8,0:0:0:0:
256,192,217413,1,0,0:0:0:0:
256,192,217586,1,8,0:0:0:0:
256,192,217931,1,0,0:0:0:0:
256,192,218620,1,0,0:0:0:0:
256,192,219310,1,8,0:0:0:0:
256,192,220000,1,0,0:0:0:0:
256,192,220344,1,8,0:0:0:0:
