osu file format v14

[General]
AudioFilename: Surrender the throne.mp3
AudioLeadIn: 2000
PreviewTime: 55377
Countdown: 0
SampleSet: Soft
StackLeniency: 0.7
Mode: 0
LetterboxInBreaks: 0
WidescreenStoryboard: 0

[Editor]
Bookmarks: 9876,11255,20910,22289,33324,38841,44358,47117,49876,52618,52634,54014,60894,65032,66411,76067,77446,88480,99515,105032,107791,110549,115205,120722,126239,131239,132618,151929,154687,160205,162963,165032,165722,170377,175894,181411,186411,187791
DistanceSpacing: 1.5
BeatDivisor: 6
GridSize: 4
TimelineZoom: 2.4

[Metadata]
Title:Surrender The Throne
TitleUnicode:Surrender The Throne
Artist:Krewella
ArtistUnicode:Krewella
Creator:xDarxen
Version:Hard
Source:
Tags:Dnb Drum and Bass Drumstep CBH Come[Back]Home FCL Reform Kujinn
BeatmapID:1037973
BeatmapSetID:482317

[Difficulty]
HPDrainRate:5
CircleSize:4
OverallDifficulty:6
ApproachRate:7.5
SliderMultiplier:1.2
SliderTickRate:1

[Events]
//Background and Video events
0,0,"Boats.jpg",0,0
//Break Periods
2,33462,37954
2,132772,151058
//Storyboard Layer 0 (Background)
//Storyboard Layer 1 (Fail)
//Storyboard Layer 2 (Pass)
//Storyboard Layer 3 (Foreground)
//Storyboard Sound Samples

[TimingPoints]
159,344.827586206897,4,2,1,30,1,0
159,-125,4,2,1,30,0,0
9814,-125,4,2,2,30,0,0
11193,-100,4,2,1,30,0,0
20848,-100,4,2,2,30,0,0
22227,-100,4,2,1,50,0,0
33262,-100,4,2,2,50,0,0
38779,-100,4,2,1,30,0,0
44296,-100,4,2,1,40,0,0
49814,-100,4,2,1,40,0,0
55331,-100,4,2,1,70,0,1
76021,-100,4,2,1,50,0,1
77400,-100,4,2,1,40,0,0
86883,-166.666666666667,4,2,1,40,0,0
88348,-166.666666666667,4,2,1,5,0,0
88434,-100,4,2,1,40,0,0
99469,-100,4,2,1,50,0,0
110503,-100,4,2,1,70,0,1
132572,-100,4,2,2,70,0,0
154641,-100,4,2,1,30,0,0
160159,-100,4,2,1,30,0,0
162917,-100,4,2,1,60,0,0
165676,-100,4,2,1,70,0,1
187745,-100,4,2,1,70,0,0

[Colours]
Combo1 : 205,205,205
Combo2 : 197,125,7
Combo3 : 253,247,134
Combo4 : 187,165,113

[HitObjects]
191,145,159,6,0,P|203:192|191:237,1,96,2|0,0:0|0:0,0:0:0:0:
297,302,848,2,0,P|285:255|297:210,1,96
470,264,1538,6,0,L|354:255,1,96,2|0,0:0|0:0,0:0:0:0:
313,147,2227,2,0,L|429:138,1,96
232,199,2917,6,0,B|219:152|219:152|226:101,1,96,2|0,0:0|0:0,0:0:0:0:
119,39,3607,2,0,B|131:85|131:85|124:136,1,96
38,287,4296,6,0,P|85:275|129:288,1,96,2|0,0:0|0:0,0:0:0:0:
189,178,4986,2,0,P|141:189|97:176,1,96
278,132,5676,6,0,B|288:179|288:179|278:230,1,96,2|0,0:0|0:0,0:0:0:0:
182,304,6365,2,0,L|79:297,1,96
15,108,7055,6,0,P|4:155|18:199,1,96,2|0,0:0|0:0,0:0:0:0:
87,298,7745,2,0,L|182:304,1,96
286,150,8434,6,0,B|280:198|280:198|296:247,1,96,2|0,0:0|0:0,0:0:0:0:
404,321,9124,2,0,B|420:275|420:275|416:223,1,96
409,37,9814,5,4,0:0:0:0:
409,37,11193,6,0,L|284:29,1,120,2|0,0:0|0:0,0:0:0:0:
214,67,11883,1,0,0:0:0:0:
142,23,12227,1,0,0:0:0:0:
37,103,12572,6,0,B|31:150|31:150|44:226,1,120,2|0,0:0|0:0,0:0:0:0:
71,301,13262,1,0,0:0:0:0:
142,256,13607,1,0,0:0:0:0:
246,336,13952,6,0,L|373:328,1,120,2|0,0:0|0:0,0:0:0:0:
449,323,14641,1,0,0:0:0:0:
481,245,14986,1,0,0:0:0:0:
409,134,15331,6,0,B|361:125|361:125|283:135,1,120,2|0,0:0|0:0,0:0:0:0:
207,149,16021,1,0,0:0:0:0:
244,223,16365,1,0,0:0:0:0:
162,326,16710,6,0,L|39:317,1,120,2|0,0:0|0:0,0:0:0:0:
1,243,17400,1,0,0:0:0:0:
40,168,17745,1,0,0:0:0:0:
151,169,18090,6,0,P|94:187|28:157,1,120,2|0,0:0|0:0,0:0:0:0:
97,100,18779,1,0,0:0:0:0:
41,38,19124,1,0,0:0:0:0:
176,46,19469,6,0,B|186:98|186:98|178:172,1,120,2|0,0:0|0:0,0:0:0:0:
172,248,20159,1,0,0:0:0:0:
103,200,20503,1,0,0:0:0:0:
240,294,20848,5,4,0:0:0:0:
240,294,22227,6,0,L|364:303,1,120,4|0,1:0|0:0,0:0:0:0:
421,244,22745,1,0,1:0:0:0:
378,171,22917,2,0,L|258:162,1,120,8|0,0:3|0:0,0:0:0:0:
97,194,23607,2,0,P|91:223|96:253,1,60
124,331,23952,1,0,1:0:0:0:
124,331,24296,2,0,L|198:322,1,60,8|0,0:3|0:0,0:0:0:0:
247,268,24641,2,0,L|321:277,1,60,0|0,0:0|0:0,0:0:0:0:
404,334,24986,6,0,P|385:277|404:223,1,120,0|0,1:0|0:0,0:0:0:0:
463,163,25503,1,0,1:0:0:0:
420,90,25676,2,0,L|299:80,1,120,8|0,0:3|0:0,0:0:0:0:
172,189,26365,2,0,L|293:179,1,120
363,134,26883,1,0,1:0:0:0:
436,174,27055,2,0,L|449:252,1,60,8|0,0:3|0:0,0:0:0:0:
368,266,27400,2,0,L|355:344,1,60,0|0,0:0|0:0,0:0:0:0:
248,356,27745,6,0,L|128:343,1,120,0|0,1:0|0:0,0:0:0:0:
44,336,28262,1,0,1:0:0:0:
4,260,28434,2,0,B|-3:214|-3:214|6:139,1,120,8|0,0:3|0:0,0:0:0:0:
119,17,29124,2,0,L|191:23,1,60,0|0,0:0|0:0,0:0:0:0:
262,33,29469,1,0,1:0:0:0:
262,33,29814,2,0,P|266:70|259:102,1,60,8|0,0:3|0:0,0:0:0:0:
227,169,30159,2,0,P|223:206|230:238,1,60,0|0,0:0|0:0,0:0:0:0:
286,324,30503,6,0,P|230:306|174:326,1,120,0|0,1:0|0:0,0:0:0:0:
104,373,31021,1,0,1:0:0:0:
31,330,31193,2,0,L|24:205,1,120,8|0,0:3|0:0,0:0:0:0:
15,41,31883,1,0,0:0:0:0:
256,192,32055,12,4,33262,0:0:0:0:
58,308,38779,6,0,P|115:288|188:317,1,120,2|0,0:2|0:0,0:0:0:0:
171,303,39469,1,2,0:1:0:0:
452,79,40159,6,0,P|394:95|321:65,1,120,2|0,0:2|0:0,0:0:0:0:
337,78,40848,1,2,0:1:0:0:
53,33,41538,6,0,L|60:158,1,120,2|0,0:2|0:0,0:0:0:0:
60,153,42227,1,2,0:1:0:0:
252,55,42917,1,2,0:1:0:0:
386,224,43607,1,2,0:1:0:0:
252,55,44296,6,0,L|170:60,1,60,0|0,1:0|0:0,0:0:0:0:
176,141,44641,2,0,L|94:136,1,60,0|0,1:0|0:0,0:0:0:0:
58,76,44986,2,0,P|74:131|53:194,1,120,0|0,1:0|1:0,0:0:0:0:
4,259,45503,1,0,0:0:0:0:
82,331,45676,6,0,P|113:338|141:333,1,60,0|0,1:0|0:0,0:0:0:0:
210,287,46021,2,0,P|239:280|268:285,1,60,0|0,1:0|0:0,0:0:0:0:
326,345,46365,2,0,L|318:214,1,120,0|0,1:0|1:0,0:0:0:0:
346,144,46883,1,0,0:0:0:0:
270,75,47055,6,0,L|205:70,1,60,0|0,1:0|0:0,0:0:0:0:
184,150,47400,2,0,L|119:155,1,60,0|0,1:0|0:0,0:0:0:0:
59,101,47745,2,0,P|37:151|58:209,1,120,0|0,1:0|1:0,0:0:0:0:
123,261,48262,1,0,0:0:0:0:
218,224,48434,6,0,P|252:217|295:229,1,60,0|0,1:0|0:0,0:0:0:0:
351,260,48779,2,0,P|385:265|427:250,1,60,0|0,1:0|0:0,0:0:0:0:
480,214,49124,2,0,L|488:75,1,120,0|0,1:0|1:0,0:0:0:0:
433,28,49641,1,0,0:0:0:0:
343,90,49814,6,0,P|314:94|284:90,1,60,8|0,0:3|1:0,0:0:0:0:
207,40,50159,1,2,1:0:0:0:
146,106,50331,2,0,L|154:172,2,60,8|0|2,0:3|1:0|1:0,0:0:0:0:
69,154,50848,2,0,L|77:220,1,60,8|2,0:3|1:0,0:0:0:0:
132,316,51193,6,0,P|166:321|208:308,1,60,8|0,0:3|1:0,0:0:0:0:
260,258,51538,1,2,1:0:0:0:
324,319,51710,2,0,L|314:384,2,60,8|0|2,0:3|1:0|1:0,0:0:0:0:
396,264,52227,2,0,L|482:271,1,60,8|0,0:3|1:0,0:0:0:0:
512,176,52572,6,0,P|515:146|509:116,1,60,8|0,0:3|1:0,0:0:0:0:
435,64,52917,2,0,L|355:56,1,60,10|0,0:3|1:0,0:0:0:0:
302,6,53262,2,0,L|222:14,1,60,8|0,0:3|1:0,0:0:0:0:
179,76,53607,2,0,L|99:68,1,60,10|0,0:3|1:0,0:0:0:0:
43,120,53952,6,0,L|31:167,3,30,8|8|8|10,0:3|0:3|0:3|0:3,0:0:0:0:
70,182,54296,2,0,L|69:231,3,30,8|8|8|10,0:3|0:3|0:3|0:3,0:0:0:0:
110,241,54641,2,0,L|98:288,3,30,8|8|8|10,0:3|0:3|0:3|0:3,0:0:0:0:
131,309,54986,1,4,0:0:0:0:
322,332,55331,6,0,L|451:324,1,120,4|8,1:0|0:3,0:0:0:0:
497,252,55848,1,2,0:0:0:0:
440,182,56021,2,0,L|367:186,1,60,2|0,0:0|1:0,0:0:0:0:
334,108,56365,2,0,L|261:104,1,60,8|2,0:3|0:0,0:0:0:0:
166,50,56710,6,0,P|184:110|153:167,1,120,0|8,1:0|0:3,0:0:0:0:
86,210,57227,1,2,0:0:0:0:
86,210,57314,1,0,0:0:0:0:
86,210,57400,2,0,L|16:200,1,60,2|0,0:0|1:0,0:0:0:0:
94,305,57745,2,0,L|164:295,1,60,8|0,0:3|0:0,0:0:0:0:
203,187,58090,6,0,P|263:203|326:181,1,120,0|8,1:0|0:3,0:0:0:0:
383,124,58607,1,2,0:0:0:0:
458,171,58779,2,0,L|470:235,1,60,2|0,0:0|1:0,0:0:0:0:
382,257,59124,2,0,L|373:322,1,60,8|2,0:3|0:0,0:0:0:0:
259,345,59469,6,0,L|133:331,1,120,0|8,1:0|0:3,0:0:0:0:
86,258,59986,1,2,0:0:0:0:
13,311,60159,2,0,P|9:340|14:370,2,60,2|0|8,0:0|1:0|0:3,0:0:0:0:
86,258,60676,1,0,0:0:0:0:
140,352,60848,6,0,B|188:358|188:358|268:343,1,120,0|8,1:0|0:3,0:0:0:0:
324,282,61365,1,2,0:0:0:0:
397,333,61538,2,0,P|433:336|462:326,1,60,2|0,0:0|1:0,0:0:0:0:
500,255,61883,2,0,B|504:225|504:225|497:191,1,60,8|2,0:3|0:0,0:0:0:0:
474,78,62227,6,0,B|430:92|430:92|348:75,1,120,0|8,1:0|0:3,0:0:0:0:
275,39,62745,1,2,0:0:0:0:
275,39,62831,1,0,0:0:0:0:
275,39,62917,2,0,L|207:46,2,60,2|0|8,0:0|1:0|0:3,0:0:0:0:
357,77,63434,1,0,0:0:0:0:
292,178,63607,6,0,P|231:161|171:185,1,120,0|8,1:0|0:3,0:0:0:0:
115,243,64124,1,2,0:0:0:0:
40,193,64296,2,0,L|34:130,1,60,2|0,0:0|1:0,0:0:0:0:
117,98,64641,2,0,L|120:38,1,60,8|2,0:3|0:0,0:0:0:0:
219,105,64986,6,0,B|270:113|270:113|346:99,1,120,0|8,1:0|0:3,0:0:0:0:
402,36,65503,1,2,0:0:0:0:
471,94,65676,2,0,B|474:128|474:128|468:169,1,60,0|0,1:0|1:0,0:0:0:0:
392,188,66021,2,0,B|388:222|388:222|394:263,1,60,8|0,0:3|1:0,0:0:0:0:
454,345,66365,6,0,L|319:331,1,120,4|8,1:0|0:3,0:0:0:0:
271,268,66883,1,2,0:0:0:0:
197,320,67055,2,0,P|189:351|194:380,1,60,2|0,0:0|1:0,0:0:0:0:
105,341,67400,2,0,P|113:311|108:282,1,60,8|2,0:3|0:0,0:0:0:0:
45,180,67745,6,0,P|98:198|161:178,1,120,0|8,1:0|0:3,0:0:0:0:
221,115,68262,1,2,0:0:0:0:
221,115,68348,1,0,0:0:0:0:
221,115,68434,2,0,L|224:56,1,60,2|0,0:0|1:0,0:0:0:0:
306,92,68779,2,0,L|309:151,1,60,8|0,0:3|0:0,0:0:0:0:
252,264,69124,6,0,P|309:248|376:271,1,120,0|8,1:0|0:3,0:0:0:0:
440,315,69641,1,2,0:0:0:0:
501,249,69814,2,0,P|509:214|505:185,1,60,2|0,0:0|1:0,0:0:0:0:
451,119,70159,2,0,B|419:113|419:113|388:121,1,60,8|2,0:3|0:0,0:0:0:0:
300,196,70503,6,0,L|294:67,1,120,0|8,1:0|0:3,0:0:0:0:
223,19,71021,1,2,0:0:0:0:
148,69,71193,2,0,P|109:75|81:68,2,60,2|0|8,0:0|1:0|0:3,0:0:0:0:
223,19,71710,1,0,0:0:0:0:
284,122,71883,6,0,L|413:111,1,120,0|8,1:0|0:3,0:0:0:0:
460,41,72400,1,2,0:0:0:0:
512,113,72572,2,0,P|518:145|512:173,1,60,2|0,0:0|1:0,0:0:0:0:
476,254,72917,2,0,L|413:259,1,60,8|2,0:3|0:0,0:0:0:0:
320,332,73262,6,0,P|336:271|307:215,1,120,0|8,1:0|0:3,0:0:0:0:
233,180,73779,1,2,0:0:0:0:
233,180,73865,1,0,0:0:0:0:
233,180,73952,2,0,L|171:174,2,60,2|0|8,0:0|1:0|0:3,0:0:0:0:
313,223,74469,1,0,0:0:0:0:
234,312,74641,6,0,B|183:302|183:302|106:313,1,120,4|8,1:0|0:3,0:0:0:0:
33,351,75159,1,2,0:0:0:0:
24,261,75331,2,0,P|24:229|16:199,1,60,2|0,0:0|1:0,0:0:0:0:
97,160,75676,2,0,P|97:128|105:98,1,60,8|2,0:3|0:0,0:0:0:0:
237,22,76021,6,0,P|272:14|308:21,1,60,8|10,0:3|0:3,0:0:0:0:
362,76,76365,2,0,P|369:112|361:148,1,60,8|8,1:3|1:3,0:0:0:0:
330,217,76710,2,0,L|259:226,1,60,8|10,0:3|0:3,0:0:0:0:
209,157,77055,2,0,L|149:147,1,60,8|8,1:3|1:3,0:0:0:0:
32,100,77400,6,0,L|38:219,1,120,2|2,1:0|1:0,0:0:0:0:
119,358,78090,2,0,L|201:350,1,60,8|2,0:3|1:0,0:0:0:0:
287,216,78607,2,0,P|274:272|296:334,1,120,2|0,1:0|0:0,0:0:0:0:
370,363,79124,1,2,1:0:0:0:
493,253,79469,2,0,L|488:193,1,60,8|0,0:3|0:0,0:0:0:0:
405,173,79814,2,0,L|410:113,1,60
457,19,80159,6,0,B|405:25|405:25|325:13,1,120,2|2,1:0|1:0,0:0:0:0:
180,49,80848,2,0,P|184:80|173:112,1,60,8|2,0:3|1:0,0:0:0:0:
52,221,81365,2,0,L|176:215,1,120,2|2,1:0|1:0,0:0:0:0:
256,209,81883,1,2,1:0:0:0:
401,124,82227,2,0,L|399:61,1,60,8|0,0:3|0:0,0:0:0:0:
479,88,82572,2,0,L|480:147,1,60,0|0,0:0|0:0,0:0:0:0:
482,250,82917,6,0,B|442:262|442:262|350:252,1,120,2|2,1:0|1:0,0:0:0:0:
205,194,83607,2,0,L|204:134,1,60,8|2,0:3|1:0,0:0:0:0:
149,267,84124,2,0,P|204:286|262:266,1,120,2|0,1:0|0:0,0:0:0:0:
322,210,84641,1,2,1:0:0:0:
206,69,84986,2,0,P|176:63|147:69,1,60,8|0,0:3|0:0,0:0:0:0:
79,119,85331,2,0,P|73:148|78:177,1,60,0|0,0:0|0:0,0:0:0:0:
147,252,85676,6,0,L|270:242,1,120,2|2,1:0|1:0,0:0:0:0:
365,102,86365,2,0,L|370:178,1,60,8|2,0:3|1:0,0:0:0:0:
458,323,86883,6,0,B|395:342|395:342|351:314|351:314|294:336|294:336|228:305|163:336,1,305.999990661621,2|0,1:0|0:0,0:0:0:0:
134,352,88434,6,0,L|127:227,1,120,2|2,1:0|1:0,0:0:0:0:
177,72,89124,2,0,P|207:65|236:70,1,60,8|2,0:3|1:0,0:0:0:0:
326,220,89641,2,0,B|315:171|315:171|325:97,1,120,2|0,1:0|0:0,0:0:0:0:
337,18,90159,1,2,1:0:0:0:
481,102,90503,2,0,L|492:177,1,60,8|0,0:3|0:0,0:0:0:0:
416,202,90848,2,0,L|405:277,1,60,0|0,0:0|0:0,0:0:0:0:
435,359,91193,6,0,P|380:341|320:360,1,120,2|2,1:0|1:0,0:0:0:0:
196,248,91883,2,0,P|232:255|272:242,1,60,8|2,0:3|1:0,0:0:0:0:
361,126,92400,2,0,L|356:249,1,120,2|2,1:0|1:0,0:0:0:0:
352,331,92917,1,2,1:0:0:0:
196,248,93262,2,0,L|120:255,1,60,8|0,0:3|0:0,0:0:0:0:
91,181,93607,2,0,L|149:174,1,60
252,174,93952,6,0,B|301:183|301:183|374:170,1,120,2|2,1:0|1:0,0:0:0:0:
474,288,94641,2,0,L|411:302,1,60,8|2,0:3|1:0,0:0:0:0:
272,375,95159,2,0,P|286:327|262:254,1,120,2|0,1:0|0:0,0:0:0:0:
221,190,95676,1,2,1:0:0:0:
140,329,96021,2,0,L|206:318,1,60,8|0,0:3|0:0,0:0:0:0:
267,261,96365,2,0,L|333:272,1,60,0|0,0:0|0:0,0:0:0:0:
422,305,96710,6,0,B|405:257|405:257|410:172,1,120,2|2,1:0|1:0,0:0:0:0:
512,65,97400,2,0,L|507:140,1,60,8|2,0:3|1:0,0:0:0:0:
360,43,97917,1,2,1:0:0:0:
361,43,99469,6,0,L|280:37,1,60,0|0,1:0|0:0,0:0:0:0:
273,116,99814,2,0,L|154:123,1,120,8|0,0:3|0:0,0:0:0:0:
75,88,100331,1,0,1:0:0:0:
15,147,100503,2,0,P|11:181|21:213,1,60,8|0,0:3|0:0,0:0:0:0:
85,282,100848,6,0,L|159:287,1,60,0|0,1:0|0:0,0:0:0:0:
194,354,101193,2,0,L|324:344,1,120,8|0,0:3|0:0,0:0:0:0:
370,282,101710,1,0,1:0:0:0:
305,227,101883,2,0,L|243:232,1,60,8|0,0:3|0:0,0:0:0:0:
156,182,102227,6,0,P|149:145|160:112,1,60,0|0,1:0|0:0,0:0:0:0:
214,64,102572,2,0,B|261:51|261:51|344:61,1,120,8|0,0:3|0:0,0:0:0:0:
415,75,103090,1,0,1:0:0:0:
473,134,103262,2,0,L|472:197,1,60,8|0,0:3|0:0,0:0:0:0:
370,264,103607,6,0,L|370:205,1,60,0|0,1:0|0:0,0:0:0:0:
428,326,103952,2,0,P|372:308|311:331,1,120,8|0,0:3|0:0,0:0:0:0:
242,368,104469,1,0,1:0:0:0:
175,316,104641,2,0,L|180:254,1,60,8|0,0:3|0:0,0:0:0:0:
84,158,104986,6,0,L|88:219,1,60,0|0,1:0|0:0,0:0:0:0:
25,100,105331,2,0,B|73:111|73:111|157:97,1,120,8|0,0:3|0:0,0:0:0:0:
212,52,105848,1,0,1:0:0:0:
284,94,106021,2,0,P|290:128|286:158,1,60,8|0,0:3|0:0,0:0:0:0:
236,240,106365,6,0,P|230:274|234:304,1,60,0|0,1:0|0:0,0:0:0:0:
296,353,106710,2,0,L|424:348,1,120,8|0,0:3|0:0,0:0:0:0:
472,286,107227,1,0,1:0:0:0:
429,212,107400,2,0,P|422:178|429:148,1,60,8|0,0:3|0:0,0:0:0:0:
384,40,107745,6,0,P|349:45|320:37,1,60,8|0,0:3|1:0,0:0:0:0:
240,9,108090,1,0,1:0:0:0:
254,97,108262,2,0,L|264:176,1,60,8|0,0:3|1:0,0:0:0:0:
274,245,108607,1,0,1:0:0:0:
185,227,108779,2,0,P|150:225|122:236,1,60,8|0,0:3|1:0,0:0:0:0:
25,298,109124,6,0,B|18:268|18:268|19:227,2,60,8|8|8,0:3|0:3|0:3,0:0:0:0:
111,324,109641,1,8,0:3:0:0:
126,233,109814,2,0,B|131:202|131:202|128:161,1,60,8|8,0:3|0:3,0:0:0:0:
118,83,110159,1,4,0:0:0:0:
291,25,110503,6,0,L|413:35,1,120,4|8,1:0|0:3,0:0:0:0:
478,95,111021,1,2,0:0:0:0:
448,179,111193,2,0,P|442:216|453:251,1,60,2|0,0:0|1:0,0:0:0:0:
360,263,111538,2,0,P|366:300|355:335,1,60,8|2,0:3|0:0,0:0:0:0:
247,361,111883,6,0,B|202:366|202:366|121:352,1,120,0|8,1:0|0:3,0:0:0:0:
59,295,112400,1,2,0:0:0:0:
59,295,112486,1,0,0:0:0:0:
59,295,112572,2,0,L|53:224,1,60,2|0,0:0|1:0,0:0:0:0:
147,185,112917,2,0,L|141:256,1,60,8|0,0:3|0:0,0:0:0:0:
92,116,113262,6,0,P|147:96|205:119,1,120,0|8,1:0|0:3,0:0:0:0:
259,183,113779,1,2,0:0:0:0:
324,120,113952,2,0,L|330:40,1,60,2|0,0:0|1:0,0:0:0:0:
414,105,114296,2,0,L|420:185,1,60,8|2,0:3|0:0,0:0:0:0:
467,273,114641,6,0,P|413:252|358:272,1,120,0|8,1:0|0:3,0:0:0:0:
290,333,115159,1,2,0:0:0:0:
210,292,115331,2,0,P|203:257|210:212,2,60,2|0|8,0:0|1:0|0:3,0:0:0:0:
290,333,115848,1,0,0:0:0:0:
390,267,116021,6,0,B|399:219|399:219|396:138,1,120,0|8,1:0|0:3,0:0:0:0:
342,74,116538,1,2,0:0:0:0:
277,138,116710,2,0,L|213:130,1,60,2|0,0:0|1:0,0:0:0:0:
188,215,117055,2,0,L|124:223,1,60,8|2,0:3|0:0,0:0:0:0:
24,282,117400,6,0,P|40:228|19:159,1,120,0|8,1:0|0:3,0:0:0:0:
75,93,117917,1,2,0:0:0:0:
75,93,118003,1,0,0:0:0:0:
75,93,118090,2,0,P|68:59|78:25,2,60,2|0|8,0:0|1:0|0:3,0:0:0:0:
140,154,118607,1,0,0:0:0:0:
279,71,118779,6,0,L|147:62,1,120,0|8,1:0|0:3,0:0:0:0:
75,93,119296,1,2,0:0:0:0:
140,154,119469,2,0,P|146:190|135:228,1,60,2|0,0:0|1:0,0:0:0:0:
72,269,119814,2,0,P|66:305|77:343,1,60,8|2,0:3|0:0,0:0:0:0:
185,361,120159,6,0,B|235:367|235:367|317:357,1,120,0|8,1:0|0:3,0:0:0:0:
365,291,120676,1,2,0:0:0:0:
302,226,120848,2,0,P|298:191|305:151,1,60,0|0,1:0|1:0,0:0:0:0:
217,108,121193,2,0,P|222:150|203:208,1,90,8|0,0:3|0:0,0:0:0:0:
180,230,121538,6,0,L|52:222,1,120,4|8,1:0|0:3,0:0:0:0:
19,142,122055,1,2,0:0:0:0:
71,68,122227,2,0,P|106:64|136:71,1,60,2|0,0:0|1:0,0:0:0:0:
200,125,122572,2,0,P|234:131|265:128,1,60,8|2,0:3|0:0,0:0:0:0:
370,84,122917,6,0,P|352:140|368:197,1,120,0|8,1:0|0:3,0:0:0:0:
447,241,123434,1,2,0:0:0:0:
447,241,123521,1,0,0:0:0:0:
447,241,123607,2,0,B|453:272|453:272|447:301,1,60,2|0,0:0|1:0,0:0:0:0:
376,356,123952,2,0,B|343:361|343:361|315:354,1,60,8|0,0:3|0:0,0:0:0:0:
198,329,124296,6,0,B|212:286|212:286|201:193,1,120,0|8,1:0|0:3,0:0:0:0:
135,151,124814,1,2,0:0:0:0:
199,88,124986,2,0,P|236:82|262:87,1,60,2|0,0:0|1:0,0:0:0:0:
330,139,125331,2,0,P|335:176|329:202,1,60,8|2,0:3|0:0,0:0:0:0:
264,298,125676,6,0,L|397:288,1,120,0|8,1:0|0:3,0:0:0:0:
465,328,126193,1,2,0:0:0:0:
501,245,126365,2,0,P|506:212|496:169,2,60,2|0|8,0:0|1:0|0:3,0:0:0:0:
465,328,126883,1,0,0:0:0:0:
373,251,127055,6,0,B|326:244|326:244|247:253,1,120,0|8,1:0|0:3,0:0:0:0:
194,320,127572,1,2,0:0:0:0:
126,259,127745,2,0,L|129:196,1,60,2|0,0:0|1:0,0:0:0:0:
46,159,128090,2,0,L|49:222,1,60,8|2,0:3|0:0,0:0:0:0:
118,82,128434,6,0,B|44:73|44:73|-8:85,1,120,0|8,1:0|0:3,0:0:0:0:
46,159,128952,1,2,0:0:0:0:
46,159,129038,1,0,0:0:0:0:
46,159,129124,2,0,B|77:165|77:165|106:159,1,60,2|0,0:0|1:0,0:0:0:0:
149,242,129469,2,0,B|116:236|116:236|89:242,1,60,8|0,0:3|0:0,0:0:0:0:
216,299,129814,6,0,P|236:244|202:175,1,120,0|8,1:0|0:3,0:0:0:0:
145,131,130331,1,2,0:0:0:0:
209,68,130503,2,0,L|272:58,1,60,2|0,0:0|1:0,0:0:0:0:
344,107,130848,2,0,L|407:117,1,60,8|2,0:3|0:0,0:0:0:0:
492,196,131193,6,0,P|498:233|488:267,1,60,8|0,0:3|1:0,0:0:0:0:
406,293,131538,2,0,P|400:256|410:222,1,60,8|0,0:3|1:0,0:0:0:0:
305,203,131883,2,0,P|311:240|301:274,1,60,8|0,0:3|1:0,0:0:0:0:
247,329,132227,1,8,0:3:0:0:
247,329,132400,1,8,0:3:0:0:
161,189,132572,5,4,0:0:0:0:
256,192,151883,12,0,154641,0:0:0:0:
172,128,154986,5,0,0:0:0:0:
172,128,155331,2,0,L|112:124,1,60,2|0,0:0|0:0,0:0:0:0:
204,264,155848,2,0,L|332:256,1,120
323,256,156653,1,2,0:0:0:0:
72,336,157745,6,0,L|64:276,1,60
144,244,158090,2,0,L|152:184,1,60,2|0,0:0|0:0,0:0:0:0:
62,42,158607,2,0,B|68:99|68:99|57:162,1,120
58,161,159411,1,2,0:0:0:0:
377,329,160159,6,0,P|361:271|390:199,1,120,0|0,1:0|1:0,0:0:0:0:
497,96,160848,2,0,L|371:85,1,120,0|0,1:0|1:0,0:0:0:0:
223,151,161538,6,0,B|215:199|215:199|229:286,1,120,0|0,1:0|1:0,0:0:0:0:
278,89,162227,2,0,P|225:68|166:91,1,120,0|0,1:0|1:0,0:0:0:0:
33,195,162917,6,0,L|36:263,1,60,8|8,0:3|0:3,0:0:0:0:
121,282,163262,2,0,L|118:222,1,60,8|8,0:3|0:3,0:0:0:0:
202,190,163607,2,0,L|205:258,1,60,8|8,0:3|0:3,0:0:0:0:
288,284,163952,2,0,L|285:224,1,60,8|8,0:3|0:3,0:0:0:0:
345,127,164296,6,0,L|393:122,3,30,8|8|8|10,0:3|0:3|0:3|0:3,0:1:0:0:
397,165,164641,2,0,L|440:171,3,30,8|8|8|10,0:3|0:3|0:3|0:3,0:1:0:0:
442,215,164986,2,0,L|483:213,3,30,8|8|8|10,0:3|0:3|0:3|0:3,0:1:0:0:
507,246,165331,1,4,0:0:0:0:
357,345,165676,6,0,L|228:337,1,120,4|8,1:0|0:3,0:0:0:0:
154,373,166193,1,2,0:0:0:0:
74,331,166365,2,0,P|69:301|80:264,1,60,2|0,0:0|1:0,0:0:0:0:
127,199,166710,2,0,P|132:169|121:132,1,60,8|2,0:3|0:0,0:0:0:0:
46,49,167055,6,0,L|178:41,1,120,0|8,1:0|0:3,0:0:0:0:
247,79,167572,1,2,0:0:0:0:
247,79,167659,1,0,0:0:0:0:
247,79,167745,2,0,B|253:112|253:112|248:138,1,60,2|0,0:0|1:0,0:0:0:0:
186,203,168090,2,0,L|112:197,1,60,8|0,0:3|0:0,0:0:0:0:
26,130,168434,6,0,B|15:175|15:175|25:253,1,120,0|8,1:0|0:3,0:0:0:0:
61,330,168952,1,2,0:0:0:0:
140,288,169124,2,0,L|204:296,1,60,2|0,0:0|1:0,0:0:0:0:
252,362,169469,2,0,L|316:354,1,60,8|2,0:3|0:0,0:0:0:0:
378,229,169814,6,0,P|319:248|265:231,1,120,0|8,1:0|0:3,0:0:0:0:
205,162,170331,1,2,0:0:0:0:
139,228,170503,2,0,B|136:260|136:260|142:294,2,60,2|0|8,0:0|1:0|0:3,0:0:0:0:
205,162,171021,1,0,0:0:0:0:
303,230,171193,6,0,B|313:278|313:278|301:358,1,120,0|8,1:0|0:3,0:0:0:0:
221,310,171710,1,2,0:0:0:0:
142,354,171883,2,0,L|81:351,1,60,2|0,0:0|1:0,0:0:0:0:
14,291,172227,2,0,P|9:257|13:231,1,60,8|2,0:3|0:0,0:0:0:0:
113,133,172572,6,0,P|54:152|-3:136,1,120,0|8,1:0|0:3,0:0:0:0:
56,61,173090,1,2,0:0:0:0:
56,61,173176,1,0,0:0:0:0:
56,61,173262,2,0,P|87:47|125:43,2,60,2|0|8,0:0|1:0|0:3,0:0:0:0:
113,133,173779,1,0,0:0:0:0:
222,43,173952,6,0,P|208:96|230:159,1,120,0|8,1:0|0:3,0:0:0:0:
298,95,174469,1,2,0:0:0:0:
372,143,174641,2,0,P|381:176|378:209,1,60,2|0,0:0|1:0,0:0:0:0:
324,274,174986,2,0,P|290:279|258:272,1,60,8|2,0:3|0:0,0:0:0:0:
170,200,175331,6,0,B|178:250|178:250|168:318,1,120,0|8,1:0|0:3,0:0:0:0:
86,356,175848,1,2,0:0:0:0:
6,312,176021,2,0,B|0:280|0:280|2:236,1,60,2|0,0:0|1:0,0:0:0:0:
79,207,176365,2,0,B|85:238|85:238|82:282,1,60,8|0,0:3|0:0,0:0:0:0:
25,130,176710,6,0,B|76:115|76:115|144:124,1,120,4|8,1:0|0:3,0:0:0:0:
209,183,177227,1,2,0:0:0:0:
280,128,177400,2,0,P|312:121|341:128,1,60,2|0,0:0|1:0,0:0:0:0:
399,192,177745,2,0,P|403:223|395:251,1,60,8|2,0:3|0:0,0:0:0:0:
316,330,178090,6,0,L|179:322,1,120,0|8,1:0|0:3,0:0:0:0:
131,260,178607,1,2,0:0:0:0:
131,260,178693,1,0,0:0:0:0:
131,260,178779,2,0,P|104:254|67:259,1,60,2|0,0:0|1:0,0:0:0:0:
24,169,179124,2,0,P|50:174|87:169,1,60,8|0,0:3|0:0,0:0:0:0:
181,68,179469,6,0,L|185:187,1,120,0|8,1:0|0:3,0:0:0:0:
265,147,179986,1,2,0:0:0:0:
336,197,180159,2,0,L|405:192,1,60,2|0,0:0|1:0,0:0:0:0:
433,279,180503,2,0,L|364:274,1,60,8|2,0:3|0:0,0:0:0:0:
261,345,180848,6,0,B|270:296|270:296|256:215,1,120,0|8,1:0|0:3,0:0:0:0:
180,273,181365,1,2,0:0:0:0:
102,225,181538,2,0,P|95:197|99:166,2,60,2|0|8,0:0|1:0|0:3,0:0:0:0:
180,273,182055,1,0,0:0:0:0:
300,187,182227,6,0,B|251:178|251:178|164:186,1,120,0|8,1:0|0:3,0:0:0:0:
102,225,182745,1,2,0:0:0:0:
25,177,182917,2,0,L|28:117,1,60,2|0,0:0|1:0,0:0:0:0:
106,67,183262,2,0,L|109:127,1,60,8|2,0:3|0:0,0:0:0:0:
212,188,183607,6,0,L|216:64,1,120,0|8,1:0|0:3,0:0:0:0:
299,33,184124,1,2,0:0:0:0:
299,33,184210,1,0,0:0:0:0:
299,33,184296,2,0,P|294:65|301:93,2,60,2|0|8,0:0|1:0|0:3,0:0:0:0:
386,57,184814,1,0,0:0:0:0:
418,181,184986,6,0,P|364:165|297:190,1,120,4|8,1:0|0:3,0:0:0:0:
249,255,185503,1,2,0:0:0:0:
182,195,185676,2,0,P|150:190|117:196,1,60,2|0,0:0|1:0,0:0:0:0:
83,105,186021,2,0,P|115:110|148:103,1,60,8|2,0:3|0:0,0:0:0:0:
240,26,186365,6,0,L|317:34,1,60,8|8,0:3|0:3,0:0:0:0:
317,120,186710,2,0,L|382:139,1,60,8|8,0:3|0:3,0:0:0:0:
378,226,187055,2,0,L|320:209,1,60,8|8,0:3|0:3,0:0:0:0:
268,283,187400,2,0,L|207:276,1,60,8|8,0:3|0:3,0:0:0:0:
58,262,187745,5,4,0:1:0:0:
