osu file format v14

[General]
AudioFilename: audio.mp3
AudioLeadIn: 0
PreviewTime: 110562
Countdown: 0
SampleSet: Soft
StackLeniency: 0.7
Mode: 0
LetterboxInBreaks: 0
WidescreenStoryboard: 1

[Editor]
Bookmarks: 55045,110562,116080
DistanceSpacing: 1
BeatDivisor: 4
GridSize: 8
TimelineZoom: 1.2

[Metadata]
Title:Surrender The Throne
TitleUnicode:Surrender The Throne
Artist:Krewella
ArtistUnicode:Krewella
Creator:skytuna
Version:Hantrik's Normal
Source:
Tags:Trynna dnb drum and bass Entry Hantrik english ammunition electronic
BeatmapID:2013542
BeatmapSetID:920198

[Difficulty]
HPDrainRate:3.5
CircleSize:3.6
OverallDifficulty:4
ApproachRate:5
SliderMultiplier:1.1
SliderTickRate:1

[Events]
//Background and Video events
0,0,"fabb6fdc00ccccdfb904f11c08e6c50d.jpg",0,0
//Break Periods
//Storyboard Layer 0 (Background)
//Storyboard Layer 1 (Fail)
//Storyboard Layer 2 (Pass)
//Storyboard Layer 3 (Foreground)
//Storyboard Sound Samples

[TimingPoints]
218,344.827586206897,4,2,1,40,1,0
11252,-121.951219512195,4,2,1,40,0,0
19528,-121.951219512195,4,2,1,50,0,0
22286,-121.951219512195,4,2,1,60,0,0
49873,-121.951219512195,4,2,1,60,0,0
55390,-121.951219512195,4,2,1,70,0,1
77459,-121.951219512195,4,2,1,60,0,0
110562,-121.951219512195,4,2,1,70,0,1
132631,-121.951219512195,4,2,1,70,0,0

[Colours]
Combo1 : 228,228,228
Combo2 : 217,213,136
Combo3 : 241,145,103
Combo4 : 128,128,128

[HitObjects]
83,38,11252,6,0,L|100:146,1,90.2000013763428,2|0,0:0|0:0,0:0:0:0:
177,168,11942,2,0,L|188:268,1,90.2000013763428,0|0,0:0|0:0,0:0:0:0:
238,331,12631,2,0,P|314:387|388:338,1,180.400002752686,2|0,0:0|0:0,0:0:0:0:
390,260,13666,2,0,L|419:214,1,45.1000006881714,0|0,0:0|0:0,0:0:0:0:
437,183,14011,2,0,P|422:122|404:83,1,90.2000013763428,2|0,0:0|0:0,0:0:0:0:
321,102,14700,2,0,P|306:163|289:200,1,90.2000013763428,0|0,0:0|0:0,0:0:0:0:
236,256,15390,2,0,P|147:262|101:179,1,180.400002752686,2|0,0:0|0:0,0:0:0:0:
93,102,16424,6,0,L|104:44,1,45.1000006881714,0|0,0:0|0:0,0:0:0:0:
128,21,16769,2,0,L|226:25,1,90.2000013763428,2|0,0:0|0:0,0:0:0:0:
294,72,17459,2,0,L|392:74,1,90.2000013763428,0|0,0:0|0:0,0:0:0:0:
471,50,18149,2,0,P|472:116|507:234,1,180.400002752686,2|0,0:0|0:0,0:0:0:0:
256,192,19528,12,2,20907,0:0:0:0:
79,131,22286,6,0,P|98:186|104:228,1,90.2000013763428,4|0,1:0|0:0,0:0:0:0:
122,258,22804,1,0,1:0:0:0:
122,258,22976,2,0,P|179:251|220:255,1,90.2000013763428,10|0,0:3|0:0,0:0:0:0:
299,273,23666,2,0,P|345:220|350:188,1,90.2000013763428,0|2,0:0|1:0,0:0:0:0:
351,112,24355,2,0,P|415:112|446:122,1,90.2000013763428,8|0,0:3|0:0,0:0:0:0:
500,186,25045,6,0,P|492:241|484:287,1,90.2000013763428,0|0,1:0|0:0,0:0:0:0:
468,316,25562,1,0,1:0:0:0:
468,316,25735,2,0,L|376:322,1,90.2000013763428,10|0,0:3|0:0,0:0:0:0:
307,279,26424,2,0,L|206:278,1,90.2000013763428,0|2,0:0|0:0,0:0:0:0:
179,304,26942,1,0,1:3:0:0:
179,304,27114,2,0,L|76:307,1,90.2000013763428,8|0,0:3|0:0,0:0:0:0:
79,216,27804,6,0,L|181:215,1,90.2000013763428,2|0,1:0|0:0,0:0:0:0:
214,212,28321,1,0,1:0:0:0:
214,212,28493,2,0,P|220:151|201:112,1,90.2000013763428,10|0,0:3|0:0,0:0:0:0:
187,37,29183,2,0,L|285:29,1,90.2000013763428,0|0,0:0|1:0,0:0:0:0:
346,87,29873,2,0,L|437:84,1,90.2000013763428,8|0,0:3|0:0,0:0:0:0:
454,172,30562,6,0,P|406:174|360:185,1,90.2000013763428,0|0,1:0|0:0,0:0:0:0:
324,203,31080,1,2,1:0:0:0:
324,203,31252,2,8,P|279:213|236:215,1,90.2000013763428,8|0,0:3|0:0,0:0:0:0:
147,192,31942,1,2,0:0:0:0:
256,192,33321,12,2,36080,1:0:0:0:
256,192,38838,12,0,42976,0:0:0:0:
66,339,44355,6,0,P|126:338|173:335,1,90.2000013763428,4|0,1:0|1:0,0:0:0:0:
224,276,45045,2,0,P|270:273|314:272,1,90.2000013763428,2|0,1:0|1:0,0:0:0:0:
401,248,45735,1,0,0:0:0:0:
380,160,46080,1,2,1:0:0:0:
446,99,46424,2,0,P|468:51|465:13,1,90.2000013763428,0|2,1:0|1:0,0:0:0:0:
381,47,47114,6,0,P|305:63|276:58,1,90.2000013763428,0|0,1:3|1:3,0:0:0:0:
209,27,47804,2,0,P|139:28|103:37,1,90.2000013763428,0|0,1:3|1:3,0:0:0:0:
29,33,48493,1,0,0:0:0:0:
62,116,48838,1,0,1:3:0:0:
30,200,49183,2,0,P|29:259|19:307,1,90.2000013763428,2|2,1:0|1:0,0:0:0:0:
73,365,49873,6,0,P|49:381|14:384,2,45.1000006881714,8|0|2,0:3|0:0|0:0,0:0:0:0:
109,336,50390,1,8,0:3:0:0:
109,336,50562,2,0,P|184:321|213:328,1,90.2000013763428,0|8,0:0|0:3,0:0:0:0:
283,345,51252,2,0,P|328:347|374:331,1,90.2000013763428,8|2,0:3|0:0,0:0:0:0:
412,315,51769,2,0,P|398:271|387:219,1,90.2000013763428,8|2,0:3|0:0,0:0:0:0:
382,183,52286,1,8,0:3:0:0:
256,192,52631,12,8,54011,1:3:0:0:
62,164,55045,5,10,0:0:0:0:
69,60,55390,6,0,P|123:84|156:112,1,90.2000013763428,4|8,1:0|0:3,0:0:0:0:
221,155,56080,2,0,P|288:151|319:142,1,90.2000013763428,2|8,0:0|0:3,0:0:0:0:
383,92,56769,1,0,1:0:0:0:
387,182,57114,1,8,0:3:0:0:
492,266,57631,1,0,1:0:0:0:
492,266,57804,2,0,L|498:313,1,45.1000006881714,8|0,0:3|0:0,0:0:0:0:
506,355,58149,6,0,L|408:357,1,90.2000013763428,0|8,1:0|0:3,0:0:0:0:
335,314,58838,2,0,B|238:314,1,90.2000013763428,2|8,0:0|0:3,0:0:0:0:
169,263,59528,1,0,1:0:0:0:
147,350,59873,1,8,0:3:0:0:
86,229,60390,1,0,1:0:0:0:
86,229,60562,2,0,L|128:189,1,45.1000006881714,8|0,0:3|0:0,0:0:0:0:
157,173,60907,6,0,L|262:194,1,90.2000013763428,0|8,1:0|0:3,0:0:0:0:
329,156,61597,2,0,L|425:177,1,90.2000013763428,2|8,0:0|0:3,0:0:0:0:
506,187,62286,1,0,1:0:0:0:
498,276,62631,1,8,0:3:0:0:
370,322,63149,1,0,1:0:0:0:
370,322,63321,2,0,L|313:318,1,45.1000006881714,8|0,0:3|0:0,0:0:0:0:
292,288,63666,6,0,P|300:247|298:186,1,90.2000013763428,0|8,1:0|0:3,0:0:0:0:
319,110,64355,2,0,P|287:102|229:99,1,90.2000013763428,2|8,0:0|0:3,0:0:0:0:
140,114,65045,2,0,P|148:160|143:217,2,90.2000013763428,0|8|0,1:0|0:3|1:0,0:0:0:0:
115,75,65907,1,0,1:0:0:0:
115,75,66080,2,0,L|51:79,1,45.1000006881714,8|0,0:3|1:0,0:0:0:0:
30,99,66424,6,0,B|21:152|21:152|26:203,1,90.2000013763428,4|8,1:0|0:3,0:0:0:0:
21,278,67114,2,0,B|58:287|58:287|114:283,1,90.2000013763428,2|8,0:0|0:3,0:0:0:0:
192,246,67804,2,0,L|297:244,1,90.2000013763428,0|8,1:0|0:3,0:0:0:0:
408,293,68666,1,0,1:0:0:0:
408,293,68838,2,0,L|424:250,1,45.1000006881714,8|0,0:3|0:0,0:0:0:0:
445,211,69183,6,0,P|447:181|427:108,1,90.2000013763428,0|8,1:0|0:3,0:0:0:0:
358,72,69873,2,0,P|333:82|252:81,1,90.2000013763428,2|8,0:0|0:3,0:0:0:0:
189,44,70562,1,0,1:0:0:0:
204,132,70907,1,8,0:3:0:0:
274,247,71424,1,0,1:0:0:0:
274,247,71597,2,0,L|216:249,1,45.1000006881714,8|0,0:3|0:0,0:0:0:0:
184,238,71942,6,0,L|89:235,1,90.2000013763428,0|8,1:0|0:3,0:0:0:0:
3,227,72631,2,0,L|29:130,1,90.2000013763428,2|8,0:0|0:3,0:0:0:0:
27,49,73321,1,0,1:0:0:0:
112,76,73666,1,8,0:3:0:0:
139,208,74183,1,0,1:0:0:0:
139,208,74355,2,0,L|182:220,1,45.1000006881714,8|0,0:3|0:0,0:0:0:0:
228,220,74700,6,0,P|261:190|301:168,1,90.2000013763428,4|8,1:0|0:3,0:0:0:0:
350,92,75390,2,0,P|314:64|272:47,1,90.2000013763428,2|8,0:0|0:3,0:0:0:0:
184,26,76080,1,8,0:3:0:0:
146,107,76424,1,8,1:3:0:0:
61,75,76769,1,8,0:3:0:0:
0,142,77114,1,8,1:3:0:0:
22,229,77459,6,0,P|75:242|118:267,1,90.2000013763428,6|2,1:0|1:0,0:0:0:0:
177,314,78149,1,10,0:3:0:0:
177,314,78321,2,0,P|225:323|282:314,1,90.2000013763428,0|2,1:0|1:0,0:0:0:0:
306,298,78838,2,0,L|340:258,1,45.1000006881714,0|0,0:0|0:0,0:0:0:0:
367,231,79183,2,0,P|435:208|459:212,1,90.2000013763428,2|8,1:0|0:3,0:0:0:0:
511,88,80045,5,2,0:0:0:0:
511,88,80218,2,0,P|506:42|497:-2,1,90.2000013763428,2|2,1:0|1:0,0:0:0:0:
407,9,80907,1,10,0:3:0:0:
407,9,81080,2,0,P|365:18|315:22,1,90.2000013763428,0|2,1:0|1:0,0:0:0:0:
273,30,81597,2,0,L|207:33,1,45.1000006881714,0|2,0:0|1:0,0:0:0:0:
189,55,81942,2,0,P|152:90|103:124,1,90.2000013763428,2|8,1:0|0:3,0:0:0:0:
2,180,82804,5,2,0:0:0:0:
2,180,82976,2,0,P|11:219|12:278,1,90.2000013763428,2|2,1:0|1:0,0:0:0:0:
11,359,83666,1,10,0:3:0:0:
11,359,83838,2,0,P|63:357|104:321,1,90.2000013763428,0|2,1:0|1:0,0:0:0:0:
129,309,84355,2,0,L|179:311,1,45.1000006881714,0|0,0:0|0:0,0:0:0:0:
205,342,84700,2,0,B|303:343,1,90.2000013763428,2|8,1:0|0:3,0:0:0:0:
402,274,85562,5,2,0:0:0:0:
402,274,85735,2,0,P|396:229|376:189,1,90.2000013763428,2|2,1:0|1:0,0:0:0:0:
300,140,86424,1,10,0:3:0:0:
300,140,86597,2,0,P|253:142|212:156,1,90.2000013763428,0|0,1:0|0:0,0:0:0:0:
177,184,87114,2,0,B|165:263|73:264|43:204|43:204|67:125|17:162|42:64,1,315.7000048172
63,37,88493,6,0,P|140:31|169:37,1,90.2000013763428,6|2,1:0|1:0,0:0:0:0:
218,99,89183,1,10,0:3:0:0:
218,99,89355,2,0,P|275:95|323:73,1,90.2000013763428,0|2,1:0|1:0,0:0:0:0:
339,53,89873,2,0,L|388:60,1,45.1000006881714,0|0,0:0|1:0,0:0:0:0:
428,56,90218,2,0,L|436:157,1,90.2000013763428,2|8,1:0|0:3,0:0:0:0:
434,281,91080,5,2,0:0:0:0:
434,281,91252,2,0,P|379:294|331:291,1,90.2000013763428,2|2,1:0|1:0,0:0:0:0:
259,264,91942,1,10,0:3:0:0:
259,264,92114,2,0,P|256:310|241:360,1,90.2000013763428,0|2,1:0|1:0,0:0:0:0:
200,364,92631,2,0,L|149:359,1,45.1000006881714,0|2,0:0|1:0,0:0:0:0:
112,344,92976,2,0,P|90:304|71:253,1,90.2000013763428,2|8,1:0|0:3,0:0:0:0:
31,133,93838,5,2,1:0:0:0:
31,133,94011,2,0,P|53:93|72:42,1,90.2000013763428,2|2,1:0|1:0,0:0:0:0:
150,5,94700,1,10,0:3:0:0:
150,5,94873,2,0,P|197:22|247:21,1,90.2000013763428,0|2,1:0|1:0,0:0:0:0:
268,55,95390,2,0,L|277:100,1,45.1000006881714,0|0,0:0|1:0,0:0:0:0:
294,140,95735,2,0,B|308:207|287:184|296:241,1,90.2000013763428,2|8,1:0|3:3,0:0:0:0:
312,356,96597,5,2,0:0:0:0:
312,356,96769,2,0,P|361:364|417:346,1,90.2000013763428,2|2,1:0|1:0,0:0:0:0:
463,290,97459,1,10,0:3:0:0:
463,290,97631,2,0,P|460:240|433:195,1,90.2000013763428,0|2,0:0|0:0,0:0:0:0:
408,174,98149,1,0,0:0:0:0:
60,6,99528,5,4,1:0:0:0:
28,90,99873,1,8,0:3:0:0:
156,132,100390,1,0,1:0:0:0:
156,132,100562,2,0,P|187:103|236:80,1,90.2000013763428,8|0,0:3|1:0,0:0:0:0:
301,26,101252,1,8,0:3:0:0:
382,133,101769,1,0,1:0:0:0:
382,133,101942,2,0,P|429:120|464:83,1,90.2000013763428,8|0,0:3|1:0,0:0:0:0:
512,163,102631,5,8,0:3:0:0:
389,219,103149,1,0,1:0:0:0:
389,219,103321,2,0,P|389:278|402:317,1,90.2000013763428,8|0,0:3|1:0,0:0:0:0:
460,373,104011,1,8,0:3:0:0:
327,348,104528,1,0,1:0:0:0:
327,348,104700,2,0,P|255:322|223:323,1,90.2000013763428,8|0,0:3|1:0,0:0:0:0:
152,308,105390,5,8,0:3:0:0:
38,230,105907,1,0,1:0:0:0:
38,230,106080,2,0,P|61:190|95:164,1,90.2000013763428,8|0,0:3|1:0,0:0:0:0:
171,113,106769,1,8,0:3:0:0:
284,186,107286,1,0,1:0:0:0:
284,186,107459,1,8,0:3:0:0:
256,192,107804,12,8,109183,0:3:0:0:
500,193,110218,5,10,0:0:0:0:
436,129,110562,6,0,P|415:182|409:229,1,90.2000013763428,4|8,1:0|0:3,0:0:0:0:
330,263,111252,2,0,P|280:233|229:224,1,90.2000013763428,2|8,0:0|0:3,0:0:0:0:
163,197,111942,1,0,1:0:0:0:
172,286,112286,1,8,0:3:0:0:
42,246,112804,1,0,1:0:0:0:
42,246,112976,2,0,L|52:187,1,45.1000006881714,8|0,0:3|0:0,0:0:0:0:
37,158,113321,6,0,L|61:59,1,90.2000013763428,0|8,1:0|0:3,0:0:0:0:
136,24,114011,2,0,L|239:60,1,90.2000013763428,2|8,0:0|0:3,0:0:0:0:
310,40,114700,1,0,1:0:0:0:
295,129,115045,1,8,0:3:0:0:
380,233,115562,1,0,1:0:0:0:
380,233,115735,2,8,L|317:227,1,45.1000006881714,8|0,0:3|0:0,0:0:0:0:
290,222,116080,6,0,P|222:212|196:194,1,90.2000013763428,0|8,1:0|0:3,0:0:0:0:
120,170,116769,2,0,P|55:187|31:210,1,90.2000013763428,2|8,0:0|0:3,0:0:0:0:
19,289,117459,1,0,1:0:0:0:
103,257,117804,1,8,0:3:0:0:
20,149,118321,1,0,1:0:0:0:
20,149,118493,2,0,L|16:93,1,45.1000006881714,8|0,0:3|0:0,0:0:0:0:
49,68,118838,6,0,L|150:68,1,90.2000013763428,0|8,1:0|0:3,0:0:0:0:
219,109,119528,2,0,L|328:114,1,90.2000013763428,2|8,0:0|0:3,0:0:0:0:
397,94,120218,1,0,1:3:0:0:
364,177,120562,1,8,0:3:0:0:
338,43,121080,1,0,1:0:0:0:
338,43,121252,2,0,L|280:48,1,45.1000006881714,8|0,0:3|0:0,0:0:0:0:
248,57,121597,6,0,P|238:103|244:162,1,90.2000013763428,4|8,1:0|0:3,0:0:0:0:
167,199,122286,2,0,P|177:245|171:299,1,90.2000013763428,2|8,0:0|0:3,0:0:0:0:
146,374,122976,1,0,1:0:0:0:
229,340,123321,1,8,0:3:0:0:
342,266,123838,1,0,1:0:0:0:
342,266,124011,2,0,L|361:216,1,45.1000006881714,8|0,0:3|0:0,0:0:0:0:
375,182,124355,6,0,P|372:125|357:77,1,90.2000013763428,0|8,1:0|0:3,0:0:0:0:
314,16,125045,2,0,P|272:33|228:39,1,90.2000013763428,2|8,0:0|0:3,0:0:0:0:
138,26,125735,1,0,1:0:0:0:
180,105,126080,1,8,0:3:0:0:
88,204,126597,1,0,1:0:0:0:
88,204,126769,2,0,L|87:254,1,45.1000006881714,8|0,0:3|0:0,0:0:0:0:
91,294,127114,6,0,L|178:273,1,90.2000013763428,0|8,1:0|0:3,0:0:0:0:
244,211,127804,2,0,L|331:187,1,90.2000013763428,2|8,0:0|0:3,0:0:0:0:
402,132,128493,1,0,1:0:0:0:
407,222,128838,1,8,0:3:0:0:
494,118,129355,1,0,1:0:0:0:
494,118,129528,2,0,L|488:73,1,45.1000006881714,8|0,0:3|0:0,0:0:0:0:
477,30,129873,6,0,P|436:41|370:33,1,90.2000013763428,0|8,1:0|0:3,0:0:0:0:
298,32,130562,2,0,P|309:75|304:120,1,90.2000013763428,2|8,0:0|0:3,0:0:0:0:
268,203,131252,1,8,0:3:0:0:
180,226,131597,1,8,0:3:0:0:
99,186,131942,1,8,0:3:0:0:
65,103,132286,2,0,P|73:61|80:42,1,45.1000006881714,8|8,0:3|0:3,0:0:0:0:
92,18,132631,5,4,1:0:0:0:
