osu file format v14

[General]
AudioFilename: audio.mp3
AudioLeadIn: 0
PreviewTime: 55377
Countdown: 0
SampleSet: Soft
StackLeniency: 0.2
Mode: 0
LetterboxInBreaks: 0
WidescreenStoryboard: 1

[Editor]
DistanceSpacing: 1.5
BeatDivisor: 6
GridSize: 32
TimelineZoom: 2.799999

[Metadata]
Title:Surrender The Throne
TitleUnicode:Surrender The Throne
Artist:Krewella
ArtistUnicode:Krewella
Creator:Trynna
Version:Bariton's Expert
Source:
Tags:Net0 Bariton Sotarks dnb drum and bass drumstep
BeatmapID:1614714
BeatmapSetID:767566

[Difficulty]
HPDrainRate:6.4
CircleSize:4.3
OverallDifficulty:8.7
ApproachRate:9.2
SliderMultiplier:1.88
SliderTickRate:1

[Events]
//Background and Video events
0,0,"baritonbg.jpg",0,0
//Break Periods
//Storyboard Layer 0 (Background)
//Storyboard Layer 1 (Fail)
//Storyboard Layer 2 (Pass)
//Storyboard Layer 3 (Foreground)
//Storyboard Sound Samples

[TimingPoints]
218,344.827586206897,4,2,1,40,1,0
218,-166.666666666667,4,2,1,40,0,0
9873,-200,4,2,2,40,0,0
11252,-153.846153846154,4,2,1,40,0,0
20907,-200,4,2,2,40,0,0
22286,-100,4,2,1,50,0,0
31942,-125,4,2,1,50,0,0
33321,-333.333333333333,4,2,1,40,0,0
37976,-125,4,2,1,40,0,0
38838,-200,4,2,1,40,0,0
43493,-125,4,2,1,40,0,0
44355,-100,4,2,1,50,0,0
55045,-74.0740740740741,4,2,1,40,0,0
55304,-74.0740740740741,4,2,1,5,0,0
55390,-83.3333333333333,4,2,1,70,0,1
57804,-92.5925925925926,4,2,1,70,0,1
58149,-83.3333333333333,4,2,1,70,0,1
77459,-100,4,2,1,40,0,0
79528,-200,4,2,1,40,0,0
79873,-100,4,2,1,40,0,0
85045,-200,4,2,1,40,0,0
85390,-100,4,2,1,40,0,0
87114,-250,4,2,1,40,0,0
88493,-100,4,2,1,50,0,0
96769,-83.3333333333333,4,2,1,50,0,0
98149,-125,4,2,1,50,0,0
110218,-74.0740740740741,4,2,1,50,0,0
110476,-74.0740740740741,4,2,1,5,0,0
110562,-83.3333333333333,4,2,1,70,0,1
112976,-92.5925925925926,4,2,1,70,0,1
113321,-83.3333333333333,4,2,1,70,0,1
132631,-83.3333333333333,4,2,1,40,0,0
134011,-83.3333333333333,4,2,1,30,0,0
135390,-83.3333333333333,4,2,1,20,0,0
136769,-83.3333333333333,4,2,1,10,0,0

[Colours]
Combo1 : 128,233,116
Combo2 : 241,204,75
Combo3 : 6,185,244
Combo4 : 255,159,64
Combo5 : 255,74,74
Combo6 : 196,107,248

[HitObjects]
188,240,218,6,0,P|216:192|200:136,1,112.799996557617,2|0,0:0|0:0,0:0:0:0:
192,128,907,2,0,L|326:141,1,112.799996557617,0|0,0:0|0:0,0:0:0:0:
444,176,1597,6,0,P|460:228|420:288,1,112.799996557617,2|0,0:0|0:0,0:0:0:0:
424,288,2286,2,0,P|376:283|336:228,1,112.799996557617,0|0,0:0|0:0,0:0:0:0:
192,240,2976,6,0,B|172:188|212:188|192:128,1,112.799996557617,2|0,0:0|0:0,0:0:0:0:
184,120,3666,2,0,B|238:138|237:102|298:124,1,112.799996557617,0|0,0:0|0:0,0:0:0:0:
208,16,4355,6,0,L|92:32,1,112.799996557617,2|0,0:0|0:0,0:0:0:0:
84,24,5045,2,0,P|70:71|107:142,1,112.799996557617,0|0,0:0|0:0,0:0:0:0:
136,264,5735,6,0,P|184:280|248:240,1,112.799996557617,2|0,0:0|0:0,0:0:0:0:
288,324,6424,2,0,P|320:285|307:211,1,112.799996557617,0|0,0:0|0:0,0:0:0:0:
429,209,7114,6,0,L|293:229,1,112.799996557617,2|0,0:0|0:0,0:0:0:0:
411,106,7804,2,0,P|434:139|422:219,1,112.799996557617,0|0,0:0|0:0,0:0:0:0:
308,112,8407,1,0,0:0:0:0:
296,104,8493,6,0,L|164:120,1,112.799996557617,2|0,0:0|0:0,0:0:0:0:
32,52,9183,2,0,P|76:36|144:68,1,112.799996557617,0|0,0:0|0:0,0:0:0:0:
131,219,9873,6,0,P|63:247|127:167,1,282,2|0,0:0|0:0,0:0:0:0:
126,166,11252,6,0,L|248:152,1,122.199994406128,2|0,0:0|0:0,0:0:0:0:
231,44,11942,2,0,P|215:80|255:156,1,122.199994406128,0|0,0:0|0:0,0:0:0:0:
360,176,12459,2,0,P|360:128|288:96,1,122.199994406128,2|0,0:0|0:0,0:0:0:0:
246,151,12976,1,2,0:0:0:0:
292,264,13321,2,0,L|420:244,1,122.199994406128,0|0,0:0|0:0,0:0:0:0:
472,312,13838,5,0,0:0:0:0:
412,245,14011,2,0,P|396:192|432:132,1,122.199994406128,2|0,0:0|0:0,0:0:0:0:
304,125,14700,2,0,L|440:137,1,122.199994406128,0|0,0:0|0:0,0:0:0:0:
368,52,15218,1,0,0:0:0:0:
304,125,15390,6,0,P|256:145|188:113,1,122.199994406128,2|0,0:0|0:0,0:0:0:0:
119,38,16080,2,0,P|167:57|192:128,1,122.199994406128,0|0,0:0|0:0,0:0:0:0:
220,192,16597,1,0,0:0:0:0:
145,218,16769,6,0,P|145:166|201:115,1,122.199994406128,2|0,0:0|0:0,0:0:0:0:
208,264,17459,2,0,L|76:272,1,122.199994406128,0|0,0:0|0:0,0:0:0:0:
168,353,17976,2,0,P|212:329|200:257,1,122.199994406128,2|0,0:0|0:0,0:0:0:0:
268,192,18493,2,0,B|328:168|328:212|388:192,2,122.199994406128,2|0|0,0:0|0:0|0:0,0:0:0:0:
200,148,19355,5,0,0:0:0:0:
260,64,19528,2,0,L|388:68,1,122.199994406128,2|0,0:0|0:0,0:0:0:0:
499,193,20218,2,0,P|439:213|383:189,1,122.199994406128,2|0,0:0|0:0,0:0:0:0:
379,352,20907,6,0,B|335:324|323:272|335:224|387:192|387:192|435:224|427:276,1,282,2|0,0:0|0:0,0:0:0:0:
280,160,22200,1,0,0:0:0:0:
272,168,22286,6,0,L|172:184,1,94,4|0,0:0|0:0,0:0:0:0:
68,112,22631,1,0,0:0:0:0:
168,272,22804,1,0,1:0:0:0:
188,84,22976,1,10,0:3:0:0:
188,84,23149,1,0,0:0:0:0:
92,240,23321,2,0,P|84:288|108:332,1,94,0|2,0:0|0:0,0:0:0:0:
304,308,23666,5,0,0:0:0:0:
168,272,23838,1,0,0:0:0:0:
328,316,24011,1,2,1:0:0:0:
256,216,24183,1,0,0:0:0:0:
228,360,24355,5,8,0:3:0:0:
344,228,24528,1,2,0:0:0:0:
220,116,24700,2,0,L|120:132,1,94,0|2,0:0|0:0,0:0:0:0:
316,36,25045,6,0,P|336:80|324:128,1,94,0|0,1:0|0:0,0:0:0:0:
138,217,25390,2,0,P|118:173|130:125,1,94,0|0,0:0|1:0,0:0:0:0:
260,280,25735,1,10,0:3:0:0:
260,280,25907,1,0,0:0:0:0:
138,217,26080,1,0,0:0:0:0:
256,140,26252,1,2,0:0:0:0:
260,280,26424,6,0,L|260:376,1,94,0|0,0:0|0:0,0:0:0:0:
332,208,26769,1,2,0:0:0:0:
256,140,26942,1,0,1:3:0:0:
344,296,27114,2,0,P|388:308|436:292,1,94,8|0,0:3|0:0,0:0:0:0:
256,140,27459,2,0,L|156:156,1,94,0|0,0:0|0:0,0:0:0:0:
344,36,27804,5,2,1:0:0:0:
344,36,27976,1,0,0:0:0:0:
256,140,28149,1,0,0:0:0:0:
428,120,28321,1,0,1:0:0:0:
232,40,28493,2,0,L|136:56,1,94,10|0,0:3|0:0,0:0:0:0:
36,16,28838,1,0,0:0:0:0:
36,16,29011,1,2,0:0:0:0:
88,124,29183,5,0,0:0:0:0:
36,16,29355,1,0,0:0:0:0:
32,192,29528,2,0,L|48:304,1,94,0|0,1:0|0:0,0:0:0:0:
248,208,29873,1,8,0:3:0:0:
140,200,30045,1,2,0:0:0:0:
312,276,30218,2,0,P|340:224|328:176,1,94,0|2,0:0|0:0,0:0:0:0:
200,64,30562,6,0,L|308:84,1,94,0|0,1:0|0:0,0:0:0:0:
472,24,30907,2,0,L|364:44,1,94,0|2,0:0|1:0,0:0:0:0:
200,64,31252,2,0,P|219:131|291:73,1,188,8|0,0:3|0:0,0:0:0:0:
60,128,31855,1,0,0:0:0:0:
48,136,31942,6,0,B|12:188|36:240|60:240|84:296|44:348,1,225.6,2|0,0:0|0:0,0:0:0:0:
144,320,32689,1,2,0:0:0:0:
240,292,32919,1,0,0:0:0:0:
160,332,33149,1,0,0:0:0:0:
192,320,33235,1,0,0:0:0:0:
224,308,33321,6,0,P|248:264|136:264,2,225.599993115235,6|2|2,1:0|1:0|1:0,0:0:0:0:
128,52,37976,1,0,0:0:0:0:
192,96,38149,2,0,B|221:108|253:102|272:80|272:80|308:96,2,112.8,2|0|0,0:0|0:0|0:0,0:0:0:0:
128,52,38838,6,0,P|80:182|192:94,2,376,10|10|10,1:3|1:3|1:3,0:0:0:0:
392,272,42976,1,0,0:0:0:0:
392,272,43493,1,0,0:0:0:0:
336,216,43666,2,0,B|316:192|320:168|320:168|340:144|332:104,2,112.8,2|0|0,0:0|0:0|0:0,0:0:0:0:
408,96,44355,6,0,L|264:64,1,141,4|0,1:0|0:0,0:0:0:0:
426,83,44700,2,0,L|282:51,1,141,0|0,0:0|0:0,0:0:0:0:
444,70,45045,2,0,L|300:38,1,141,2|0,0:0|0:0,0:0:0:0:
462,57,45390,2,0,L|318:25,1,141,0|0,0:0|0:0,0:0:0:0:
170,86,45735,6,0,P|142:154|178:218,1,141,0|0,1:0|0:0,0:0:0:0:
144,89,46080,2,0,P|130:161|179:216,1,141,2|0,0:0|0:0,0:0:0:0:
119,96,46424,2,0,P|121:169|179:213,1,141,0|0,1:0|0:0,0:0:0:0:
96,108,46769,2,0,P|113:179|180:210,1,141,2|0,0:0|0:0,0:0:0:0:
360,148,47114,6,0,B|292:124|292:124|228:148,1,141,0|0,1:3|0:0,0:0:0:0:
379,165,47459,2,0,B|325:116|325:116|257:113,1,141,0|0,0:0|0:0,0:0:0:0:
389,188,47804,2,0,B|359:122|359:122|297:93,1,141,2|0,0:0|0:0,0:0:0:0:
389,213,48149,2,0,B|387:140|387:140|341:89,1,141,0|0,0:0|0:0,0:0:0:0:
320,260,48493,6,0,P|368:296|444:276,1,141,0|0,1:0|0:0,0:0:0:0:
300,240,48838,2,0,P|330:291|407:303,1,141,2|0,0:0|0:0,0:0:0:0:
289,213,49183,2,0,P|296:271|362:312,1,141,0|0,1:0|0:0,0:0:0:0:
289,183,49528,2,0,P|273:240|318:303,1,141,2|0,0:0|0:0,0:0:0:0:
360,132,49873,5,8,0:3:0:0:
200,212,50045,1,0,0:0:0:0:
48,132,50218,1,2,0:0:0:0:
264,104,50390,5,8,0:3:0:0:
204,304,50562,1,0,0:0:0:0:
136,104,50735,1,2,0:0:0:0:
336,236,50907,5,8,0:3:0:0:
72,236,51080,1,2,0:0:0:0:
328,332,51252,5,8,0:3:0:0:
200,212,51425,1,0,0:0:0:0:
76,332,51597,1,2,0:0:0:0:
312,152,51769,5,8,0:3:0:0:
83,152,51942,1,0,0:0:0:0:
200,336,52114,1,2,0:0:0:0:
196,116,52286,5,8,0:3:0:0:
200,336,52459,1,2,0:0:0:0:
284,72,52631,5,10,0:3:0:0:
108,72,52804,1,0,0:0:0:0:
312,152,52976,5,10,0:3:0:0:
83,152,53149,1,0,0:0:0:0:
352,228,53321,5,10,0:3:0:0:
54,228,53494,1,0,0:0:0:0:
376,308,53666,5,10,0:3:0:0:
35,308,53839,1,0,0:0:0:0:
352,228,54011,5,10,0:3:0:0:
387,198,54097,1,0,0:0:0:0:
396,153,54183,1,0,1:0:0:0:
376,111,54269,1,0,0:0:0:0:
334,91,54355,1,10,0:3:0:0:
289,101,54442,1,0,0:0:0:0:
260,137,54528,1,0,1:0:0:0:
259,183,54614,1,0,0:0:0:0:
238,225,54700,5,10,0:3:0:0:
199,248,54786,1,0,0:0:0:0:
152,246,54872,1,0,1:0:0:0:
115,218,54958,1,0,0:0:0:0:
99,175,55045,6,0,B|146:143|138:77|102:48|102:48|84:68|100:116,1,190.350000726128,8|0,0:0|0:0,0:0:0:0:
99,175,55390,6,0,B|167:143|187:227|259:183,1,169.199994836426,4|0,1:0|0:0,0:0:0:0:
312,128,55735,2,0,P|328:72|296:20,1,112.799996557617,8|2,0:3|0:0,0:0:0:0:
93,89,56080,1,2,0:0:0:0:
258,183,56252,2,0,L|390:191,1,112.799996557617,0|8,1:0|0:3,0:0:0:0:
476,20,56597,6,0,P|444:76|456:124,1,112.799996557617,2|0,0:0|1:0,0:0:0:0:
416,348,56942,2,0,P|448:292|436:244,1,112.799996557617,2|8,0:0|0:3,0:0:0:0:
248,80,57286,1,0,0:0:0:0:
296,327,57459,1,2,0:0:0:0:
330,288,57545,1,0,0:0:0:0:
299,245,57631,1,0,1:0:0:0:
251,264,57717,1,0,0:0:0:0:
259,315,57804,6,0,P|308:322|295:244,1,152.280003717774,8|0,0:3|0:0,0:0:0:0:
184,328,58149,6,0,B|104:296|104:364|20:324,1,169.199994836426,0|0,1:0|0:0,0:0:0:0:
68,260,58493,2,0,P|84:200|52:148,1,112.799996557617,8|2,0:3|0:0,0:0:0:0:
172,20,58838,1,2,0:0:0:0:
300,131,59011,2,0,L|424:119,1,112.799996557617,0|8,1:0|0:3,0:0:0:0:
172,20,59355,6,0,B|168:52|152:72|152:72|168:92|172:132,1,112.799996557617,2|0,0:0|1:0,0:0:0:0:
316,344,59700,2,0,B|320:312|336:292|336:292|320:272|316:232,1,112.799996557617,2|8,0:0|0:3,0:0:0:0:
72,204,60045,1,2,0:0:0:0:
72,204,60131,1,0,0:0:0:0:
72,204,60218,1,2,0:0:0:0:
188,336,60390,1,0,1:0:0:0:
171,124,60562,2,0,L|164:0,1,112.799996557617,8|0,0:3|0:0,0:0:0:0:
316,239,60907,6,0,P|384:259|452:192,1,169.199994836426,0|0,1:0|0:0,0:0:0:0:
452,180,61252,1,8,0:3:0:0:
348,64,61424,1,2,0:0:0:0:
316,239,61597,6,0,B|288:311|352:299|308:383,1,112.799996557617,2|0,0:0|1:0,0:0:0:0:
316,360,61855,1,0,0:0:0:0:
308,368,61942,1,8,0:3:0:0:
192,252,62114,1,2,0:0:0:0:
380,160,62286,5,0,1:0:0:0:
380,160,62373,1,0,0:0:0:0:
380,160,62459,1,2,0:0:0:0:
240,48,62631,1,8,0:3:0:0:
316,239,62804,1,2,0:0:0:0:
240,48,62976,6,0,P|168:32|112:76,1,112.799996557617,2|0,0:0|1:0,0:0:0:0:
140,164,63235,1,0,0:0:0:0:
140,164,63321,2,0,P|212:180|268:136,1,112.799996557617,8|0,0:3|0:0,0:0:0:0:
36,48,63666,6,0,L|56:240,1,169.199994836426,0|0,1:0|0:0,0:0:0:0:
68,292,64011,2,0,P|124:300|172:272,1,112.799996557617,8|2,0:3|0:0,0:0:0:0:
344,348,64355,1,2,0:0:0:0:
268,204,64528,2,0,L|292:80,1,112.799996557617,0|8,1:0|0:3,0:0:0:0:
484,252,64873,6,0,P|428:272|376:256,1,112.799996557617,2|0,0:0|1:0,0:0:0:0:
368,40,65218,2,0,P|424:20|476:36,1,112.799996557617,2|8,0:0|0:3,0:0:0:0:
268,204,65562,5,0,0:0:0:0:
268,204,65649,1,0,0:0:0:0:
268,204,65735,1,0,1:0:0:0:
184,56,65907,1,0,1:0:0:0:
404,156,66080,1,8,0:3:0:0:
132,164,66252,1,0,1:0:0:0:
404,156,66424,6,0,P|444:232|392:320,1,169.199994836426,4|0,1:0|0:0,0:0:0:0:
352,352,66769,2,0,L|236:336,1,112.799996557617,8|2,0:3|0:0,0:0:0:0:
64,308,67114,1,2,0:0:0:0:
200,212,67286,2,0,P|216:156|192:104,1,112.799996557617,0|8,1:0|0:3,0:0:0:0:
12,16,67631,6,0,L|128:32,1,112.799996557617,0|0,0:0|1:0,0:0:0:0:
311,196,67976,2,0,L|195:212,1,112.799996557617,2|8,0:0|0:3,0:0:0:0:
396,12,68321,1,2,0:0:0:0:
460,216,68493,1,2,0:0:0:0:
468,268,68579,1,0,0:0:0:0:
422,292,68665,1,0,1:0:0:0:
384,256,68751,1,0,0:0:0:0:
406,208,68838,6,0,B|416:196|428:176|428:124|392:101|392:101|344:124,1,169.199994836426,8|0,0:3|0:0,0:0:0:0:
311,196,69183,6,0,P|264:128|296:56,1,169.199994836426,0|0,1:0|0:0,0:0:0:0:
311,196,69528,2,0,P|256:216|204:196,1,112.799996557617,8|2,0:3|0:0,0:0:0:0:
88,96,69873,1,2,0:0:0:0:
207,198,70045,2,0,L|191:318,1,112.799996557617,0|8,1:0|0:3,0:0:0:0:
28,40,70390,6,0,P|84:16|136:32,1,112.799996557617,2|0,0:0|1:0,0:0:0:0:
192,309,70735,2,0,P|136:333|84:317,1,112.799996557617,2|8,0:0|0:3,0:0:0:0:
228,108,71080,1,2,0:0:0:0:
248,104,71166,1,0,0:0:0:0:
268,108,71252,1,2,0:0:0:0:
408,200,71424,1,0,1:0:0:0:
289,271,71597,1,8,0:3:0:0:
380,84,71769,1,0,0:0:0:0:
452,272,71942,6,0,B|372:312|372:236|288:272,1,169.199994836426,0|0,1:0|0:0,0:0:0:0:
276,284,72286,1,8,0:3:0:0:
164,176,72459,1,2,0:0:0:0:
72,352,72631,6,0,P|48:296|64:248,1,112.799996557617,2|0,0:0|1:0,0:0:0:0:
72,240,72890,1,0,0:0:0:0:
84,236,72976,1,8,0:3:0:0:
276,284,73149,1,0,0:0:0:0:
212,92,73321,5,0,1:0:0:0:
212,92,73407,1,0,0:0:0:0:
212,92,73493,1,2,0:0:0:0:
168,304,73666,1,8,0:3:0:0:
344,208,73838,1,2,0:0:0:0:
124,116,74011,6,0,P|120:60|160:12,1,112.799996557617,2|0,0:0|1:0,0:0:0:0:
268,20,74269,1,0,0:0:0:0:
268,20,74355,2,0,P|300:64|296:119,1,112.799996557617,8|0,0:3|0:0,0:0:0:0:
168,304,74700,6,0,B|248:344|248:268|332:304,1,169.199994836426,4|0,1:0|0:0,0:0:0:0:
404,336,75045,2,0,B|424:224,1,112.799996557617,8|2,0:3|0:0,0:0:0:0:
295,119,75390,1,2,0:0:0:0:
504,188,75562,2,0,P|461:143|400:140,1,112.799996557617,0|8,1:0|0:3,0:0:0:0:
216,236,75907,1,0,0:0:0:0:
336,44,76080,5,8,1:3:0:0:
296,236,76252,1,8,1:3:0:0:
176,44,76424,5,8,1:3:0:0:
216,236,76596,1,8,1:3:0:0:
336,44,76769,5,8,0:3:0:0:
180,336,76942,1,8,1:3:0:0:
176,44,77114,5,8,1:3:0:0:
332,336,77287,1,8,1:3:0:0:
256,132,77459,5,6,1:2:0:0:
256,132,77804,2,0,L|156:140,1,94,2|0,1:0|0:0,0:0:0:0:
44,80,78149,2,0,P|92:148|36:240,1,188,10|2,0:3|0:0,0:0:0:0:
188,328,78666,2,0,L|80:316,1,94,2|0,1:0|0:0,0:0:0:0:
232,228,79011,1,0,0:0:0:0:
328,320,79183,2,0,P|396:344|468:296,1,141,2|0,1:0|0:0,0:0:0:0:
454,315,79528,6,0,P|426:267|378:251,1,94,8|0,3:3|0:0,0:0:0:0:
328,320,80045,1,2,0:0:0:0:
456,188,80218,6,0,B|484:120|428:120|456:48,1,141,2|0,1:0|0:0,0:0:0:0:
464,40,80562,2,0,P|396:76|328:36,1,141,2|0,1:0|0:0,0:0:0:0:
280,8,80907,2,0,L|180:24,1,94,10|0,3:0|1:0,0:0:0:0:
104,108,81252,1,2,0:0:0:0:
184,196,81424,2,0,P|200:244|176:296,1,94,2|0,1:0|0:0,0:0:0:0:
104,108,81769,5,2,0:0:0:0:
291,175,81942,2,0,L|407:159,1,94,2|0,1:0|0:0,0:0:0:0:
414,17,82286,2,0,P|362:53|406:173,1,188,8|0,0:3|0:0,0:0:0:0:
488,232,82804,1,2,0:0:0:0:
400,328,82976,6,0,B|332:304|340:364|256:324,1,141,2|0,1:0|0:0,0:0:0:0:
252,320,83321,2,0,P|208:344|144:328,1,94,2|0,1:0|0:0,0:0:0:0:
108,164,83666,2,0,P|124:208|108:252,1,94,10|0,0:3|1:0,0:0:0:0:
44,336,84011,1,2,0:0:0:0:
108,164,84183,2,0,B|228:176|228:176|244:204|224:240,1,188,2|0,1:0|0:0,0:0:0:0:
412,96,84700,2,0,B|348:72|344:132|276:104,1,141,2|0,1:0|0:0,0:0:0:0:
264,96,85045,6,0,P|299:78|348:108,1,94,8|0,0:3|0:0,0:0:0:0:
364,176,85562,1,2,0:0:0:0:
312,344,85735,6,0,P|276:284|316:212,1,141,2|0,1:0|0:0,0:0:0:0:
364,176,86080,2,0,L|464:188,1,94,2|0,1:0|0:0,0:0:0:0:
312,344,86424,2,0,L|218:332,1,94,10|0,0:3|1:0,0:0:0:0:
124,196,86769,1,2,0:0:0:0:
32,332,86942,1,2,1:0:0:0:
128,48,88321,1,2,0:0:0:0:
271,193,88493,6,0,P|316:208|364:192,1,94,2|0,1:0|0:0,0:0:0:0:
484,64,88838,2,0,P|439:49|391:65,1,94,2|0,1:0|0:0,0:0:0:0:
424,276,89183,1,10,0:3:0:0:
320,124,89355,1,0,1:0:0:0:
468,192,89528,1,2,0:0:0:0:
344,320,89700,2,0,L|248:304,1,94,2|0,1:0|0:0,0:0:0:0:
88,336,90045,5,0,1:0:0:0:
156,240,90218,2,0,P|172:192|148:140,1,94,2|0,1:0|0:0,0:0:0:0:
16,40,90562,2,0,B|104:84|104:4|196:40,1,188,8|0,3:3|0:0,0:0:0:0:
288,112,91080,1,2,0:0:0:0:
456,36,91252,6,0,P|408:24|356:44,1,94,2|0,1:0|0:0,0:0:0:0:
372,216,91597,2,0,P|420:228|472:208,1,94,2|0,1:0|0:0,0:0:0:0:
288,112,91942,1,10,0:3:0:0:
320,288,92114,1,0,1:0:0:0:
416,148,92286,1,2,0:0:0:0:
238,222,92459,2,0,L|126:210,1,94,2|0,1:0|0:0,0:0:0:0:
28,96,92804,5,2,1:0:0:0:
145,212,92976,2,0,P|134:262|98:295,1,94,2|0,1:0|0:0,0:0:0:0:
148,96,93321,2,0,P|204:44|288:112,1,188,8|0,0:3|0:0,0:0:0:0:
380,48,93838,1,2,1:0:0:0:
380,48,93924,1,0,0:0:0:0:
380,48,94011,6,0,L|480:60,1,94,2|0,1:0|0:0,0:0:0:0:
276,184,94355,2,0,L|176:196,1,94,2|0,1:0|0:0,0:0:0:0:
432,324,94700,1,10,0:3:0:0:
400,156,94873,1,0,1:0:0:0:
328,272,95045,1,2,0:0:0:0:
469,205,95218,2,0,P|482:155|457:97,1,94,2|0,1:0|0:0,0:0:0:0:
328,272,95562,5,0,1:0:0:0:
182,195,95735,2,0,L|204:288,1,94,2|0,1:0|0:0,0:0:0:0:
244,140,96080,2,0,P|176:112|96:188,1,188,8|0,3:3|0:0,0:0:0:0:
304,44,96597,1,2,0:0:0:0:
436,224,96769,6,0,P|464:168|452:112,1,112.799996557617,2|0,1:0|0:0,0:0:0:0:
280,244,97114,2,0,L|324:376,1,112.799996557617,2|0,1:0|0:0,0:0:0:0:
456,120,97459,2,0,P|404:80|304:156,1,169.199994836426,10|0,0:3|0:0,0:0:0:0:
384,160,97804,1,0,0:0:0:0:
103,49,97976,1,2,1:0:0:0:
112,60,98062,1,0,0:0:0:0:
120,72,98149,6,0,B|172:200|56:160|100:288,1,225.6
168,320,98896,1,0,0:0:0:0:
256,268,99126,1,0,0:0:0:0:
380,336,99355,1,0,0:0:0:0:
496,212,99528,5,4,1:2:0:0:
288,352,99873,1,8,0:3:0:0:
464,304,100390,5,0,1:0:0:0:
340,260,100562,1,8,0:3:0:0:
464,24,100907,5,0,1:0:0:0:
412,192,101252,1,8,0:3:0:0:
356,76,101769,5,0,1:0:0:0:
464,304,101942,1,8,0:3:0:0:
448,104,102286,5,0,1:0:0:0:
148,212,102631,1,8,0:3:0:0:
408,212,103149,5,0,1:0:0:0:
228,128,103321,1,8,0:3:0:0:
84,340,103666,5,0,1:0:0:0:
40,128,104011,1,8,0:3:0:0:
24,248,104528,5,0,1:0:0:0:
124,40,104700,1,8,0:3:0:0:
276,256,105045,5,0,1:0:0:0:
248,156,105390,1,8,3:0:0:0:
248,156,105735,1,2,0:0:0:0:
228,328,105907,5,2,1:0:0:0:
304,92,106080,1,8,0:3:0:0:
120,288,106424,5,0,1:0:0:0:
408,208,106769,1,8,0:3:0:0:
408,208,107114,1,2,0:0:0:0:
176,200,107286,5,2,1:0:0:0:
476,296,107459,1,8,0:3:0:0:
202,106,107804,5,8,0:3:0:0:
292,296,107976,1,0,1:0:0:0:
386,112,108149,1,0,1:0:0:0:
148,300,108321,5,8,0:3:0:0:
288,184,108493,1,0,1:0:0:0:
428,300,108666,1,0,1:0:0:0:
284,68,108838,5,8,0:3:0:0:
292,296,109011,1,0,1:0:0:0:
60,204,109183,5,8,0:3:0:0:
372,136,109355,1,0,1:0:0:0:
32,200,109528,5,8,0:3:0:0:
344,268,109700,1,0,1:0:0:0:
0,196,109873,5,8,0:3:0:0:
172,372,110045,1,0,1:0:0:0:
413,175,110218,6,0,B|408:146|408:146|428:120|428:120|386:80|414:19|459:26,1,190.350000726128,8|0,0:0|0:0,0:0:0:0:
413,175,110562,6,0,L|244:193,1,169.199994836426,4|0,1:0|0:0,0:0:0:0:
171,160,110907,2,0,P|151:103|175:48,1,112.799996557617,8|2,0:3|0:0,0:0:0:0:
337,101,111252,1,2,0:0:0:0:
174,244,111424,2,0,L|50:227,1,112.799996557617,0|8,1:0|0:3,0:0:0:0:
314,359,111769,6,0,B|296:305|337:305|314:248,1,112.799996557617,2|0,0:0|1:0,0:0:0:0:
450,62,112114,2,0,B|432:116|473:116|450:173,1,112.799996557617,2|8,0:0|0:3,0:0:0:0:
223,60,112459,1,0,0:0:0:0:
121,292,112631,1,2,0:0:0:0:
167,267,112717,1,0,0:0:0:0:
160,215,112803,1,0,1:0:0:0:
108,206,112889,1,0,0:0:0:0:
83,253,112976,6,0,B|171:236|131:310|232:297,1,152.280003717774,8|0,0:3|0:0,0:0:0:0:
317,220,113321,6,0,B|398:198|398:198|478:237,1,169.199994836426,0|0,1:0|0:0,0:0:0:0:
394,304,113666,2,0,P|378:247|401:194,1,112.799996557617,8|2,0:3|0:0,0:0:0:0:
485,93,114011,1,2,0:0:0:0:
369,19,114183,2,0,L|256:38,1,112.799996557617,0|8,1:0|0:3,0:0:0:0:
71,234,114528,6,0,P|135:252|188:220,1,112.799996557617,2|0,0:0|1:0,0:0:0:0:
178,60,114873,2,0,P|114:42|61:74,1,112.799996557617,2|8,0:0|0:3,0:0:0:0:
285,284,115218,1,2,0:0:0:0:
285,284,115304,1,0,0:0:0:0:
285,284,115390,1,2,0:0:0:0:
217,147,115562,1,0,1:0:0:0:
218,363,115735,1,8,0:3:0:0:
314,180,115907,1,0,0:0:0:0:
21,241,116080,6,0,B|104:283|104:209|189:245,1,169.199994836426,0|0,1:0|0:0,0:0:0:0:
199,255,116424,1,8,0:3:0:0:
342,158,116597,1,2,0:0:0:0:
374,337,116769,5,2,0:0:0:0:
281,89,116942,1,0,1:0:0:0:
281,89,117028,1,0,0:0:0:0:
281,89,117114,1,8,0:3:0:0:
408,233,117286,1,2,0:0:0:0:
200,151,117459,5,0,1:0:0:0:
200,151,117545,1,0,0:0:0:0:
200,151,117631,1,2,0:0:0:0:
443,153,117804,1,8,0:3:0:0:
319,243,117976,1,2,0:0:0:0:
389,88,118149,6,0,P|446:70|503:96,1,112.799996557617,2|0,0:0|1:0,0:0:0:0:
497,216,118407,1,0,0:0:0:0:
497,216,118493,2,0,P|440:234|383:208,1,112.799996557617,8|0,0:3|0:0,0:0:0:0:
262,65,118838,6,0,P|188:31|112:68,1,169.199994836426,0|0,1:0|0:0,0:0:0:0:
77,138,119183,2,0,B|100:194|63:194|76:249,1,112.799996557617,8|2,0:3|0:0,0:0:0:0:
191,371,119528,1,2,0:0:0:0:
303,244,119700,2,0,L|422:260,1,112.799996557617,0|8,1:0|0:3,0:0:0:0:
342,27,120045,6,0,P|318:77|339:140,1,112.799996557617,2|0,0:0|1:0,0:0:0:0:
474,319,120390,2,0,P|498:269|477:206,1,112.799996557617,2|8,0:0|0:3,0:0:0:0:
220,285,120735,5,2,0:0:0:0:
220,285,120821,1,0,0:0:0:0:
220,285,120907,1,2,0:0:0:0:
276,203,121080,1,0,1:0:0:0:
219,106,121252,1,8,0:3:0:0:
276,357,121424,1,0,0:0:0:0:
219,106,121597,6,0,P|294:83|365:131,1,169.199994836426,0|0,1:0|0:0,0:0:0:0:
441,108,121942,2,0,L|418:237,1,112.799996557617,8|2,0:3|0:0,0:0:0:0:
392,382,122286,1,2,0:0:0:0:
276,203,122459,1,0,1:0:0:0:
476,327,122631,1,8,0:3:0:0:
251,189,122804,6,0,L|135:203,1,112.799996557617,2|0,0:0|1:0,0:0:0:0:
16,341,123149,2,0,L|132:355,1,112.799996557617,2|8,0:0|0:3,0:0:0:0:
250,189,123493,1,0,0:0:0:0:
82,40,123666,1,2,0:0:0:0:
51,84,123752,1,0,0:0:0:0:
84,125,123838,1,0,1:0:0:0:
134,108,123924,1,0,0:0:0:0:
133,55,124011,6,0,P|81:40|98:127,1,169.199994836426,8|0,0:3|0:0,0:0:0:0:
222,77,124355,6,0,B|308:58|290:132|381:119,1,169.199994836426,0|0,1:0|0:0,0:0:0:0:
461,66,124700,2,0,P|423:41|358:45,1,112.799996557617,8|2,0:3|0:0,0:0:0:0:
317,267,125045,1,2,0:0:0:0:
474,181,125218,1,0,1:0:0:0:
245,152,125390,1,8,0:3:0:0:
428,358,125562,6,0,L|405:228,1,112.799996557617,2|0,0:0|1:0,0:0:0:0:
210,132,125907,2,0,L|187:262,1,112.799996557617,2|8,0:0|0:3,0:0:0:0:
411,122,126252,1,2,0:0:0:0:
411,122,126338,1,0,0:0:0:0:
411,122,126424,1,2,0:0:0:0:
191,244,126597,1,0,1:0:0:0:
368,309,126769,1,8,0:3:0:0:
294,226,126942,1,0,0:0:0:0:
112,271,127114,6,0,P|173:321|262:281,1,169.199994836426,0|0,1:0|0:0,0:0:0:0:
294,226,127459,1,8,0:3:0:0:
173,81,127631,1,2,0:0:0:0:
252,294,127804,5,2,0:0:0:0:
373,113,127976,1,0,1:0:0:0:
373,113,128062,1,0,0:0:0:0:
373,113,128149,1,8,0:3:0:0:
351,330,128321,1,2,0:0:0:0:
276,63,128493,5,0,1:0:0:0:
276,63,128580,1,0,0:0:0:0:
276,63,128666,1,2,0:0:0:0:
416,231,128838,1,8,0:3:0:0:
511,38,129011,1,0,0:0:0:0:
274,191,129183,6,0,L|157:175,1,112.799996557617,2|0,0:0|1:0,0:0:0:0:
44,256,129442,1,0,0:0:0:0:
44,256,129528,2,0,P|108:278|159:251,1,112.799996557617,8|0,0:3|0:0,0:0:0:0:
276,63,129873,6,0,B|191:22|191:97|109:53,1,169.199994836426,0|0,1:0|0:0,0:0:0:0:
52,7,130218,2,0,L|65:128,1,112.799996557617,8|2,0:3|0:0,0:0:0:0:
147,262,130562,1,2,0:0:0:0:
272,147,130735,2,0,P|330:134|383:159,1,112.799996557617,0|8,1:0|0:3,0:0:0:0:
491,279,131080,1,2,0:0:0:0:
474,48,131252,5,8,0:3:0:0:
411,339,131424,1,2,0:0:0:0:
356,33,131597,5,8,0:3:0:0:
414,357,131769,1,2,0:0:0:0:
471,153,131942,5,8,0:3:0:0:
180,269,132114,1,2,0:0:0:0:
512,294,132286,5,8,0:3:0:0:
160,259,132459,1,8,0:3:0:0:
406,99,132631,5,4,0:0:0:0:
256,192,132718,12,0,138149,0:0:0:0:
