osu file format v14

[General]
AudioFilename: audio.mp3
AudioLeadIn: 0
PreviewTime: 98514
Countdown: 1
SampleSet: Soft
StackLeniency: 0.7
Mode: 0
LetterboxInBreaks: 0
WidescreenStoryboard: 0

[Editor]
Bookmarks: 22393,33341,44376,55406,77475,88510,99544,110579,132647,154716,165751,187820
DistanceSpacing: 2.5
BeatDivisor: 8
GridSize: 4
TimelineZoom: 1.9

[Metadata]
Title:Surrender The Throne
TitleUnicode:Surrender The Throne
Artist:Krewella
ArtistUnicode:Krewella
Creator:Command DDOS
Version:
Source:
Tags:Krewella Surrender The Throne
BeatmapID:1299391
BeatmapSetID:616086

[Difficulty]
HPDrainRate:6
CircleSize:4
OverallDifficulty:6
ApproachRate:9.4
SliderMultiplier:1.6
SliderTickRate:1

[Events]
//Background and Video events
0,0,"47086659-mermaid-wallpaper.jpg",0,0
//Break Periods
2,178713,185905
//Storyboard Layer 0 (Background)
//Storyboard Layer 1 (Fail)
//Storyboard Layer 2 (Pass)
//Storyboard Layer 3 (Foreground)
//Storyboard Sound Samples

[TimingPoints]
238.184207331971,689.655172413793,4,2,0,30,1,0
22303,-66.6666666666667,4,2,0,50,0,0
33337,-133.333333333333,4,2,0,20,0,0
44372,-66.6666666666667,4,2,0,20,0,0
55406,-50,4,2,0,60,0,0
77475,-100,4,2,0,60,0,0
88510,-66.6666666666667,4,2,0,60,0,0
99544,-50,4,2,0,60,0,0
110579,-50,4,2,0,60,0,0
132647,-200,4,2,0,60,0,0
154716,-66.6666666666667,4,2,0,60,0,0
165751,-50,4,2,0,60,0,0

[HitObjects]
72,104,234,5,0,0:0:0:0:
88,200,583,1,0,0:0:0:0:
72,104,927,1,0,0:0:0:0:
84,200,1272,1,0,0:0:0:0:
180,200,1617,5,0,0:0:0:0:
180,104,1962,1,0,0:0:0:0:
184,200,2307,1,0,0:0:0:0:
180,104,2651,1,0,0:0:0:0:
276,96,2996,5,0,0:0:0:0:
276,192,3341,1,0,0:0:0:0:
272,96,3686,1,0,0:0:0:0:
280,192,4031,1,0,0:0:0:0:
376,196,4376,5,0,0:0:0:0:
376,100,4720,1,0,0:0:0:0:
376,196,5065,1,0,0:0:0:0:
376,100,5410,1,0,0:0:0:0:
472,92,5755,6,0,P|468:172|464:184,2,80
376,96,6789,1,0,0:0:0:0:
280,112,7134,2,0,P|288:212|288:224,2,80
184,128,8169,1,0,0:0:0:0:
88,132,8514,6,0,L|84:224,2,80
180,156,9548,1,0,0:0:0:0:
180,156,9893,1,0,0:0:0:0:
88,88,11272,5,0,0:0:0:0:
200,108,11617,1,0,0:0:0:0:
408,152,11962,1,0,0:0:0:0:
312,208,12307,1,0,0:0:0:0:
64,256,12651,1,0,0:0:0:0:
172,292,12996,1,0,0:0:0:0:
172,292,13341,6,0,L|272:324,1,80
276,268,13858,1,0,0:0:0:0:
287,212,14031,2,0,P|337:222|346:238,2,40
172,132,14720,1,0,0:0:0:0:
68,88,15065,1,0,0:0:0:0:
344,120,15410,2,0,P|376:160|336:176,2,80
232,132,16445,1,0,0:0:0:0:
176,136,16617,1,0,0:0:0:0:
120,148,16789,6,0,P|104:96|132:76,1,80
228,80,17479,2,0,P|268:108|264:140,1,80
216,160,17996,1,0,0:0:0:0:
168,188,18169,1,0,0:0:0:0:
268,240,18514,2,0,P|340:252|356:240,1,80
184,308,19376,5,0,0:0:0:0:
132,316,19548,1,0,0:0:0:0:
100,208,19893,1,0,0:0:0:0:
216,116,20238,2,0,L|272:120,2,40
128,44,20927,2,0,P|92:84|120:192,1,160
216,152,21962,5,0,0:0:0:0:
272,144,22134,1,0,0:0:0:0:
356,128,22307,2,0,P|428:220|416:288,1,180.000006866455,8|8,0:0|0:0,0:0:0:0:
338,265,22996,1,12,0:0:0:0:
171,239,23341,1,0,0:0:0:0:
118,173,23514,1,0,0:0:0:0:
59,112,23686,1,0,0:0:0:0:
227,117,24031,5,8,0:0:0:0:
392,143,24376,1,12,0:0:0:0:
415,223,24548,1,0,0:0:0:0:
248,244,24893,1,0,0:0:0:0:
176,200,25065,2,0,P|190:133|229:101,1,120.000004577637,8|0,0:0|0:0,0:0:0:0:
308,127,25583,1,8,0:0:0:0:
391,124,25755,1,12,0:0:0:0:
376,206,25927,2,0,L|443:203,2,60.0000022888184
291,207,26445,6,0,P|222:208|169:233,1,120.000004577637
185,311,26962,1,8,0:0:0:0:
185,311,27134,1,12,0:0:0:0:
106,279,27307,1,0,0:0:0:0:
179,239,27479,1,0,0:0:0:0:
255,273,27651,1,0,0:0:0:0:
330,310,27824,2,0,P|376:240|374:152,1,120.000004577637,8|0,0:0|0:0,0:0:0:0:
305,169,28341,1,8,0:0:0:0:
236,119,28514,2,0,P|278:73|305:72,3,60.0000022888184,12|0|0|0,0:0|0:0|0:0|0:0,0:0:0:0:
332,133,29203,6,0,P|295:206|249:228,1,120.000004577637,0|8,0:0|0:0,0:0:0:0:
111,151,29893,1,12,0:0:0:0:
111,151,30065,1,0,0:0:0:0:
356,94,30583,2,0,P|443:75|476:100,1,120.000004577637,8|0,0:0|0:0,0:0:0:0:
413,154,31100,1,8,0:0:0:0:
350,209,31272,2,0,P|437:228|470:203,1,120.000004577637,12|0,0:0|0:0,0:0:0:0:
300,155,31962,2,0,P|215:141|164:133,1,120.000004577637
97,142,32479,1,0,0:0:0:0:
97,142,32651,2,0,P|125:224|160:274,1,120.000004577637
226,245,33341,6,0,P|309:204|325:163,4,120.000004577637
114,112,37996,5,0,0:0:0:0:
156,114,38169,1,0,0:0:0:0:
197,116,38341,1,0,0:0:0:0:
239,117,38514,1,0,0:0:0:0:
322,127,38858,2,0,L|317:271,1,120.000004577637,8|0,0:0|0:0,0:0:0:0:
486,253,40238,6,0,L|470:115,1,120.000004577637,8|0,0:0|0:0,0:0:0:0:
305,112,41617,6,0,L|312:252,1,120.000004577637,8|0,0:0|0:0,0:0:0:0:
258,72,42996,5,0,0:0:0:0:
258,72,43686,5,0,0:0:0:0:
258,72,44376,5,8,0:0:0:0:
136,187,44720,1,8,0:0:0:0:
258,72,45065,1,8,0:0:0:0:
368,198,45410,1,8,0:0:0:0:
258,72,45755,5,8,0:0:0:0:
175,218,46100,1,8,0:0:0:0:
258,72,46445,1,8,0:0:0:0:
326,225,46789,1,8,0:0:0:0:
258,72,47134,5,8,0:0:0:0:
246,239,47479,1,8,0:0:0:0:
258,72,47824,1,8,0:0:0:0:
247,239,48169,1,8,0:0:0:0:
110,141,48514,5,8,0:0:0:0:
247,239,48858,1,8,0:0:0:0:
387,146,49203,1,8,0:0:0:0:
247,239,49548,1,8,0:0:0:0:
150,101,49893,6,0,L|80:96,2,60.0000022888184,12|0|0,0:0|0:0|0:0,0:0:0:0:
150,101,50410,2,0,L|217:102,2,60.0000022888184,12|0|0,0:0|0:0|0:0,0:0:0:0:
141,184,50927,2,0,L|229:184,1,60.0000022888184,12|0,0:0|0:0,0:0:0:0:
141,184,51272,2,0,L|55:184,2,60.0000022888184,12|0|0,0:0|0:0|0:0,0:0:0:0:
137,268,51789,2,0,L|65:268,2,60.0000022888184,12|0|0,0:0|0:0|0:0,0:0:0:0:
137,268,52307,2,0,L|231:268,1,60.0000022888184,12|0,0:0|0:0,0:0:0:0:
211,185,52651,2,0,L|292:185,1,60.0000022888184,12|8,0:0|0:0,0:0:0:0:
252,102,52996,2,0,L|316:102,1,60.0000022888184,12|8,0:0|0:0,0:0:0:0:
353,28,53341,2,0,L|419:27,1,60.0000022888184,12|0,0:0|0:0,0:0:0:0:
449,102,53686,2,0,L|516:102,1,60.0000022888184,12|8,0:0|0:0,0:0:0:0:
485,170,54031,5,12,0:0:0:0:
472,203,54117,1,8,0:0:0:0:
447,228,54203,1,8,0:0:0:0:
416,246,54289,1,8,0:0:0:0:
382,259,54376,1,8,0:0:0:0:
346,251,54462,1,8,0:0:0:0:
311,240,54548,1,8,0:0:0:0:
276,230,54634,1,8,0:0:0:0:
241,238,54720,6,0,L|226:267,3,30.0000011444092,8|8|8|8,0:0|0:0|0:0|0:0,0:0:0:0:
199,287,55065,2,0,P|147:295|132:283,1,60.0000022888184,4|0,0:0|0:0,0:0:0:0:
31,303,55410,1,8,0:0:0:0:
31,78,55755,6,0,P|94:127|123:127,1,80
202,111,56100,1,0,0:0:0:0:
313,98,56272,1,0,0:0:0:0:
263,198,56445,1,0,0:0:0:0:
152,217,56617,2,0,P|116:266|120:304,1,80
227,286,56962,2,0,P|226:230|209:202,1,80,0|8,0:0|0:0,0:0:0:0:
194,99,57307,2,0,P|236:82|244:85,1,40
283,84,57479,2,0,L|304:192,1,80
370,76,57824,2,0,L|435:153,1,80
362,297,58169,6,0,P|323:293|270:274,1,80
281,168,58514,1,0,0:0:0:0:
200,245,58686,1,0,0:0:0:0:
283,170,58858,1,0,0:0:0:0:
200,245,59031,1,0,0:0:0:0:
156,209,59117,5,0,0:0:0:0:
113,172,59203,1,0,0:0:0:0:
77,65,59376,1,0,0:0:0:0:
188,67,59548,2,0,P|274:90|279:102,1,80
354,139,59893,1,0,0:0:0:0:
339,249,60065,2,0,P|364:279|376:293,1,40
268,273,60238,2,0,P|279:315|283:323,1,40
198,329,60410,2,0,P|172:283|185:246,1,80
80,82,60927,6,0,P|203:65|267:74,1,160
245,181,61445,2,0,P|339:179|348:173,1,80
300,77,61789,1,0,0:0:0:0:
412,69,61962,2,0,P|445:177|414:215,1,160
323,155,62479,2,0,P|303:202|325:254,1,80
212,288,62824,1,0,0:0:0:0:
162,261,62910,1,0,0:0:0:0:
111,236,62996,2,0,P|87:176|98:155,1,80
51,60,63341,2,0,P|35:166|51:237,1,160
261,159,64031,5,0,0:0:0:0:
372,156,64203,1,0,0:0:0:0:
397,205,64289,1,0,0:0:0:0:
409,260,64376,2,0,L|243:297,1,160
173,214,64893,2,0,L|65:237,2,80
130,109,65410,2,0,P|166:70|212:71,1,80
264,150,65755,2,0,L|328:142,1,40
275,96,65927,2,0,L|321:74,1,40
277,33,66100,2,0,P|343:18|391:26,1,80
411,115,66445,6,0,P|429:158|427:196,1,80
339,259,66789,2,0,P|369:319|411:303,1,120
390,252,67134,1,0,0:0:0:0:
295,190,67307,1,0,0:0:0:0:
184,208,67479,2,0,P|157:271|173:303,1,80
260,229,67824,2,0,P|236:151|150:105,1,160
96,190,68341,2,0,L|63:239,1,40
122,251,68514,2,0,L|125:338,1,80
203,251,68858,2,0,P|179:149|199:86,1,160
40,262,69548,6,0,P|84:179|92:176,1,80
171,150,69893,1,0,0:0:0:0:
228,245,70065,1,0,0:0:0:0:
171,147,70238,1,0,0:0:0:0:
225,244,70410,1,0,0:0:0:0:
324,297,70583,2,0,L|384:228,1,80
295,159,70927,2,0,L|353:87,1,80
234,76,71272,1,0,0:0:0:0:
158,158,71445,1,0,0:0:0:0:
158,158,71617,2,0,P|130:207|141:245,1,80
244,220,71962,6,0,P|264:303|252:328,1,80
249,182,72307,2,0,P|235:117|217:100,1,80
327,157,72651,1,0,0:0:0:0:
383,150,72738,1,0,0:0:0:0:
438,153,72824,1,0,0:0:0:0:
363,236,72996,2,0,P|310:249|273:232,1,80
227,146,73341,2,0,P|142:125|83:188,1,160
222,258,73858,2,0,P|276:262|314:248,2,80
259,100,74376,2,0,P|168:141|146:220,1,160
444,307,75065,2,0,P|427:206|371:143,1,160
233,141,75583,1,0,0:0:0:0:
356,241,75755,1,0,0:0:0:0:
201,200,75927,1,0,0:0:0:0:
82,216,76100,5,0,0:0:0:0:
239,241,76272,1,0,0:0:0:0:
93,173,76445,1,0,0:0:0:0:
251,188,76617,1,0,0:0:0:0:
102,130,76789,1,0,0:0:0:0:
262,126,76962,1,0,0:0:0:0:
114,64,77134,1,0,0:0:0:0:
273,50,77307,1,0,0:0:0:0:
65,126,77479,6,0,P|58:167|61:183,1,40
136,151,77824,2,0,L|184:159,1,40
172,237,78169,1,0,0:0:0:0:
172,316,78341,1,0,0:0:0:0:
315,245,78686,1,0,0:0:0:0:
336,168,78858,2,0,L|378:172,2,40
204,76,79548,5,0,0:0:0:0:
191,154,79720,1,0,0:0:0:0:
196,234,79893,1,0,0:0:0:0:
350,191,80238,1,0,0:0:0:0:
350,191,80583,1,0,0:0:0:0:
270,184,80755,1,0,0:0:0:0:
190,187,80927,2,0,L|137:184,1,40
264,297,81445,1,0,0:0:0:0:
339,271,81617,2,0,L|336:226,1,40
266,192,81962,1,0,0:0:0:0:
236,165,82048,1,0,0:0:0:0:
131,106,82307,5,0,0:0:0:0:
119,185,82479,1,0,0:0:0:0:
131,106,82651,1,0,0:0:0:0:
289,127,82996,2,0,L|342:137,1,40
272,191,83341,2,0,L|226:189,1,40
168,238,83686,1,0,0:0:0:0:
99,279,83858,1,0,0:0:0:0:
254,318,84203,2,0,L|222:351,2,40
275,240,84720,2,0,L|284:192,1,40
210,164,85065,6,0,L|197:203,2,40
140,122,85583,1,0,0:0:0:0:
92,186,85755,2,0,L|77:236,1,40
159,239,86100,2,0,L|204:250,1,40
206,168,86445,2,0,L|214:116,1,40
256,192,86962,12,0,88341,0:0:0:0:
93,157,88514,6,0,P|74:200|80:224,1,60.0000022888184
162,129,88858,2,0,P|160:98|134:74,1,60.0000022888184
153,197,89203,1,0,0:0:0:0:
153,197,89376,1,0,0:0:0:0:
382,263,89720,1,0,0:0:0:0:
353,145,89893,2,0,P|327:177|328:196,1,60.0000022888184
423,121,90238,2,0,P|403:88|374:81,1,60.0000022888184
270,120,90583,2,0,P|175:127|153:104,1,120.000004577637
64,335,91272,6,0,L|75:257,1,60.0000022888184
145,180,91617,2,0,L|131:265,1,60.0000022888184
249,276,91962,1,0,0:0:0:0:
249,276,92134,1,0,0:0:0:0:
486,241,92479,1,0,0:0:0:0:
369,212,92651,2,0,P|397:175|419:177,1,60.0000022888184
359,63,92996,2,0,P|336:123|324:127,1,60.0000022888184
235,168,93341,2,0,P|194:160|93:127,1,120.000004577637
227,85,93858,5,0,0:0:0:0:
227,85,94031,2,0,P|272:107|279:129,1,60.0000022888184
174,47,94376,2,0,P|213:66|219:88,1,60.0000022888184
172,190,94720,1,0,0:0:0:0:
153,247,94807,1,0,0:0:0:0:
148,306,94893,1,0,0:0:0:0:
263,273,95065,1,0,0:0:0:0:
262,152,95238,2,0,P|271:117|289:86,1,60.0000022888184
347,197,95583,1,0,0:0:0:0:
390,308,95755,2,0,P|425:245|430:181,1,120.000004577637
57,102,96789,6,0,P|62:147|65:173,1,60.0000022888184
307,168,97134,2,0,L|268:223,1,60.0000022888184
90,245,97479,1,0,0:0:0:0:
90,245,97651,1,0,0:0:0:0:
256,192,97996,12,0,98514,0:0:0:0:
301,154,98686,5,0,0:0:0:0:
420,163,98858,1,0,0:0:0:0:
179,160,99203,1,0,0:0:0:0:
179,160,99548,2,0,L|178:325,1,160
432,123,100238,1,0,0:0:0:0:
276,86,100410,2,0,L|164:95,1,80
442,297,100927,2,0,L|265:299,1,160
135,231,101445,1,0,0:0:0:0:
293,211,101617,1,0,0:0:0:0:
139,166,101789,1,0,0:0:0:0:
292,119,101962,6,0,L|405:116,1,80
502,23,102307,2,0,L|305:48,1,160
189,89,102824,1,0,0:0:0:0:
320,179,102996,1,0,0:0:0:0:
159,186,103169,2,0,L|106:249,1,80
266,266,103514,1,0,0:0:0:0:
424,285,103686,2,0,L|412:112,1,160
92,152,104376,5,0,0:0:0:0:
252,155,104548,1,0,0:0:0:0:
120,245,104720,1,0,0:0:0:0:
280,238,104893,1,0,0:0:0:0:
399,343,105065,2,0,L|378:173,1,160
63,239,105755,1,0,0:0:0:0:
84,80,105927,2,0,L|178:94,1,80
434,262,106445,2,0,L|259:252,1,160
100,181,107134,5,0,0:0:0:0:
260,184,107307,2,0,L|369:176,1,80
42,60,107824,5,0,0:0:0:0:
201,65,107996,1,0,0:0:0:0:
42,60,108169,1,0,0:0:0:0:
37,219,108341,5,0,0:0:0:0:
197,208,108514,1,0,0:0:0:0:
37,219,108686,1,0,0:0:0:0:
149,106,108858,5,0,0:0:0:0:
309,99,109031,1,0,0:0:0:0:
149,103,109203,1,0,0:0:0:0:
146,263,109376,5,0,0:0:0:0:
305,252,109548,1,0,0:0:0:0:
145,259,109720,1,0,0:0:0:0:
305,251,109893,1,0,0:0:0:0:
146,263,110065,1,0,0:0:0:0:
305,251,110238,6,0,P|373:236|379:222,1,80
363,151,110583,2,0,L|310:156,2,40
218,84,110927,2,0,P|156:63|131:73,1,80
157,202,111272,1,0,0:0:0:0:
310,249,111445,1,0,0:0:0:0:
292,90,111617,2,0,P|362:67|388:74,1,80
241,168,111962,2,0,L|163:111,2,80
110,262,112479,1,0,0:0:0:0:
268,276,112651,2,0,P|307:206|300:115,1,160
260,276,113341,5,0,0:0:0:0:
35,48,113686,1,0,0:0:0:0:
327,178,114031,1,0,0:0:0:0:
167,164,114203,1,0,0:0:0:0:
327,174,114376,1,0,0:0:0:0:
7,180,114720,2,0,P|51:145|85:145,1,80
196,246,115065,2,0,P|138:209|124:224,1,80
297,163,115410,1,0,0:0:0:0:
154,89,115583,1,0,0:0:0:0:
313,89,115755,1,0,0:0:0:0:
313,89,116100,6,0,P|241:135|206:211,1,160
368,202,116617,2,0,P|315:260|224:276,1,160
106,185,117134,2,0,P|115:132|212:70,1,160
475,229,117824,1,0,0:0:0:0:
159,174,118169,1,0,0:0:0:0:
73,39,118341,2,0,L|97:94,1,40
65,152,118514,2,0,L|79:191,1,40
136,134,118686,2,0,P|189:171|186:200,1,80
189,179,119203,1,0,0:0:0:0:
481,308,119548,6,0,P|413:279|407:282,1,80
322,147,119893,2,0,P|327:212|316:232,1,80
190,315,120238,2,0,P|203:212|180:145,1,160
193,133,120927,1,0,0:0:0:0:
352,151,121100,1,0,0:0:0:0:
193,133,121272,1,0,0:0:0:0:
193,133,121617,1,0,0:0:0:0:
446,328,121962,2,0,L|362:274,1,80
311,138,122307,2,0,L|397:200,2,80
150,130,122824,2,0,L|64:76,1,80
240,62,123169,1,0,0:0:0:0:
388,116,123341,6,0,P|296:137|277:198,1,160
142,262,123858,1,0,0:0:0:0:
302,262,124031,1,0,0:0:0:0:
143,278,124203,1,0,0:0:0:0:
299,244,124376,2,0,P|325:202|313:167,1,80
188,82,124720,2,0,L|277:119,1,80
422,123,125065,1,0,0:0:0:0:
427,283,125238,1,0,0:0:0:0:
365,135,125410,1,0,0:0:0:0:
208,171,125583,2,0,P|177:131|185:106,1,80
498,167,126100,1,0,0:0:0:0:
180,180,126445,1,0,0:0:0:0:
93,45,126617,1,0,0:0:0:0:
237,113,126789,1,0,0:0:0:0:
191,371,127134,6,0,P|319:314|335:277,2,160
150,215,127996,1,0,0:0:0:0:
80,70,128169,2,0,P|142:104|248:99,2,160
392,140,129203,1,0,0:0:0:0:
240,193,129376,1,0,0:0:0:0:
388,252,129548,1,0,0:0:0:0:
71,302,129893,2,0,P|91:245|155:148,1,160
412,335,130583,1,0,0:0:0:0:
282,241,130755,1,0,0:0:0:0:
440,223,130927,1,0,0:0:0:0:
295,153,131100,1,0,0:0:0:0:
144,104,131272,6,0,P|122:56|91:37,1,80
255,75,131617,1,0,0:0:0:0:
400,139,131789,1,0,0:0:0:0:
251,78,131962,1,0,0:0:0:0:
400,139,132134,1,0,0:0:0:0:
252,201,132307,1,0,0:0:0:0:
252,201,132479,1,0,0:0:0:0:
152,197,132651,6,0,P|193:200|224:228,2,80
300,137,134720,2,0,P|270:147|261:192,2,80
163,219,136789,5,0,0:0:0:0:
191,246,136962,5,0,0:0:0:0:
228,260,137134,1,0,0:0:0:0:
267,255,137307,1,0,0:0:0:0:
303,239,137479,2,0,P|312:212|306:198,1,40
302,122,138169,6,0,P|363:135|368:145,5,80
362,184,141789,5,0,0:0:0:0:
328,206,141962,1,0,0:0:0:0:
288,212,142134,1,0,0:0:0:0:
248,202,142307,1,0,0:0:0:0:
215,178,142479,1,0,0:0:0:0:
175,169,142651,6,0,P|157:162|153:164,1,20
117,164,142996,2,0,P|95:137|95:125,1,40
167,98,143686,6,0,L|249:100,3,80
174,242,146445,1,0,0:0:0:0:
326,288,147134,5,0,0:0:0:0:
326,247,147307,1,0,0:0:0:0:
314,208,147479,1,0,0:0:0:0:
295,172,147651,1,0,0:0:0:0:
265,143,147824,1,0,0:0:0:0:
185,149,148169,5,0,0:0:0:0:
147,136,148341,1,0,0:0:0:0:
107,130,148514,2,0,L|82:137,1,20
152,236,149203,6,0,L|220:277,3,80
294,135,151962,6,0,L|336:207,1,80
193,280,153341,6,0,L|154:204,1,80
156,208,154720,5,0,0:0:0:0:
366,92,155065,2,0,L|435:55,1,60.0000022888184
410,183,155410,2,0,L|481:182,1,60.0000022888184
392,274,155755,1,0,0:0:0:0:
278,310,155927,2,0,P|213:308|164:267,1,120.000004577637
80,52,156617,2,0,P|99:114|97:122,1,60.0000022888184
256,192,157479,12,0,160238,0:0:0:0:
117,150,160583,5,0,0:0:0:0:
356,146,160927,1,0,0:0:0:0:
155,278,161272,1,0,0:0:0:0:
356,146,161617,1,0,0:0:0:0:
127,219,161962,5,0,0:0:0:0:
356,146,162307,1,0,0:0:0:0:
116,136,162651,1,0,0:0:0:0:
356,146,162996,5,0,0:0:0:0:
238,172,163169,1,0,0:0:0:0:
335,240,163341,1,0,0:0:0:0:
420,154,163514,1,0,0:0:0:0:
322,85,163686,1,0,0:0:0:0:
221,149,163858,1,0,0:0:0:0:
311,228,164031,1,0,0:0:0:0:
406,155,164203,1,0,0:0:0:0:
322,68,164376,5,0,0:0:0:0:
277,68,164462,1,0,0:0:0:0:
232,71,164548,1,0,0:0:0:0:
192,91,164634,1,0,0:0:0:0:
163,125,164720,1,0,0:0:0:0:
157,170,164807,1,0,0:0:0:0:
167,213,164893,1,0,0:0:0:0:
189,251,164979,1,0,0:0:0:0:
226,275,165065,1,0,0:0:0:0:
270,272,165151,1,0,0:0:0:0:
314,262,165238,1,0,0:0:0:0:
356,246,165324,1,0,0:0:0:0:
388,215,165410,2,0,P|417:177|430:176,1,60.0000022888184
268,140,165755,6,0,L|160:160,1,80
52,76,166100,2,0,L|164:64,2,80
196,152,166617,1,0,0:0:0:0:
80,264,166789,2,0,P|128:296|168:304,1,80
296,240,167134,1,0,0:0:0:0:
136,216,167307,1,0,0:0:0:0:
288,172,167479,2,0,P|240:136|188:132,1,80
212,292,167824,2,0,P|248:316|312:328,2,80
324,176,168341,1,0,0:0:0:0:
440,68,168514,1,0,0:0:0:0:
280,68,168686,1,0,0:0:0:0:
124,104,168858,5,0,0:0:0:0:
268,176,169031,1,0,0:0:0:0:
116,220,169203,2,0,L|96:312,1,80
248,232,169548,2,0,L|276:328,1,80
180,176,169893,2,0,P|216:108|308:96,1,160
276,252,170410,1,0,0:0:0:0:
84,336,170583,2,0,L|116:256,1,80
212,40,170927,2,0,L|264:136,1,80
380,312,171272,6,0,L|208:248,1,160
376,192,171789,1,0,0:0:0:0:
496,80,171962,1,0,0:0:0:0:
336,68,172134,2,0,L|220:72,1,80
212,224,172479,1,0,0:0:0:0:
116,360,172651,2,0,L|224:204,1,160
364,188,173169,1,0,0:0:0:0:
496,88,173341,1,0,0:0:0:0:
336,84,173514,6,0,L|236:84,1,80
232,240,173858,1,0,0:0:0:0:
64,340,174031,2,0,L|172:184,1,160
308,168,174548,1,0,0:0:0:0:
464,116,174720,1,0,0:0:0:0:
304,112,174893,1,0,0:0:0:0:
464,108,175065,1,0,0:0:0:0:
304,112,175238,1,0,0:0:0:0:
144,120,175410,2,0,L|96:216,1,80
268,212,175755,6,0,L|152:72,1,160
104,236,176272,2,0,L|160:300,2,80
252,172,176789,2,0,L|104:64,2,160
132,280,177651,6,0,L|60:208,2,80
260,184,178169,2,0,L|400:288,1,160
59,155,186445,5,0,0:0:0:0:
457,168,186617,1,0,0:0:0:0:
98,156,186789,1,0,0:0:0:0:
418,166,186962,1,0,0:0:0:0:
138,157,187134,1,0,0:0:0:0:
378,166,187307,1,0,0:0:0:0:
178,157,187479,1,0,0:0:0:0:
337,166,187651,1,0,0:0:0:0:
256,162,187824,1,0,0:0:0:0:
