osu file format v14

[General]
AudioFilename: audio.mp3
AudioLeadIn: 0
PreviewTime: 38547
Countdown: 0
SampleSet: Normal
StackLeniency: 0.6
Mode: 0
LetterboxInBreaks: 0
EpilepsyWarning: 1
WidescreenStoryboard: 1

[Editor]
Bookmarks: 4913,14523,28937,33742,38547,46955,48156,57766,79388,88547,88997,92901,97406,98607,107015,108216,117826,120228,129838,139448,149057,153862,163472,173081,182691,187496,192300,197105,201910,209117
DistanceSpacing: 1.4
BeatDivisor: 4
GridSize: 4
TimelineZoom: 2.899999

[Metadata]
Title:Say Goodbye (Speed Up Ver.)
TitleUnicode:Say Goodbye (Speed Up Ver.)
Artist:Krewella
ArtistUnicode:Krewella
Creator:saggi
Version:walter85's Insane
Source:
Tags:LiousPL Melsoon walter85 Megapcmx Minorsonek LukerMaster -NeBu- Broly Envory ChuuritsuTv
BeatmapID:1283506
BeatmapSetID:580821

[Difficulty]
HPDrainRate:5.8
CircleSize:4
OverallDifficulty:8.1
ApproachRate:9.2
SliderMultiplier:1.7
SliderTickRate:2

[Events]
//Background and Video events
0,0,"girl.jpg",0,0
//Break Periods
2,79588,87977
2,152861,162902
//Storyboard Layer 0 (Background)
//Storyboard Layer 1 (Fail)
//Storyboard Layer 2 (Pass)
//Storyboard Layer 3 (Foreground)
Sprite,Foreground,Centre,"sb\highlight.png",208,188 C,0,117826,,18,124,255 M,0,117826,117863,208,188,229.1627,186.0761 F,2,117826,118776,1,0 S,2,117826,118776,0.9,0.18 P,0,117826,118776,A M,0,117863,117901,229.1627,186.0761,250.3255,184.1522 M,0,117901,117938,250.3255,184.1522,271.4882,182.2283 M,0,117938,117976,271.4882,182.2283,292.6509,180.3045
Sprite,Foreground,Centre,"sb\highlight.png",376,196 C,0,118126,,18,124,255 F,2,118126,118926,1,0 S,2,118126,118926,0.9,0.18 P,0,118126,118926,A
Sprite,Foreground,Centre,"sb\highlight.png",376,196 C,0,118276,,18,124,255 F,2,118276,119076,1,0 S,2,118276,119076,0.9,0.18 P,0,118276,119076,A
Sprite,Foreground,Centre,"sb\highlight.png",468,316 C,0,118427,,242,24,57 M,0,118427,118464,468,316,446.8373,314.0761 F,2,118427,119377,1,0 S,2,118427,119377,0.9,0.18 P,0,118427,119377,A M,0,118464,118502,446.8373,314.0761,425.6745,312.1522 M,0,118502,118539,425.6745,312.1522,404.5118,310.2283 M,0,118539,118577,404.5118,310.2283,383.3491,308.3044
Sprite,Foreground,Centre,"sb\highlight.png",300,324 C,0,118727,,242,24,57 F,2,118727,119527,1,0 S,2,118727,119527,0.9,0.18 P,0,118727,119527,A
Sprite,Foreground,Centre,"sb\highlight.png",300,324 C,0,118877,,242,24,57 F,2,118877,119677,1,0 S,2,118877,119677,0.9,0.18 P,0,118877,119677,A
Sprite,Foreground,Centre,"sb\highlight.png",224,124 C,0,119027,,255,192,0 F,2,119027,119827,1,0 S,2,119027,119827,0.9,0.18 P,0,119027,119827,A
Sprite,Foreground,Centre,"sb\highlight.png",156,280 C,0,119177,,255,192,0 F,2,119177,119977,1,0 S,2,119177,119977,0.9,0.18 P,0,119177,119977,A
Sprite,Foreground,Centre,"sb\highlight.png",152,80 C,0,119328,,0,202,0 F,2,119328,120128,1,0 S,2,119328,120128,0.9,0.18 P,0,119328,120128,A
Sprite,Foreground,Centre,"sb\highlight.png",220,236 C,0,119478,,0,202,0 F,2,119478,120278,1,0 S,2,119478,120278,0.9,0.18 P,0,119478,120278,A
Sprite,Foreground,Centre,"sb\highlight.png",296,72 C,0,119628,,18,124,255 F,2,119628,120428,1,0 S,2,119628,120428,0.9,0.18 P,0,119628,120428,A
Sprite,Foreground,Centre,"sb\highlight.png",321,240 C,0,119778,,18,124,255 F,2,119778,120578,1,0 S,2,119778,120578,0.9,0.18 P,0,119778,120578,A
Sprite,Foreground,Centre,"sb\highlight.png",224,124 C,0,119928,,18,124,255 F,2,119928,120728,1,0 S,2,119928,120728,0.9,0.18 P,0,119928,120728,A
Sprite,Foreground,Centre,"sb\highlight.png",393,188 C,0,120078,,18,124,255 F,2,120078,120878,1,0 S,2,120078,120878,0.9,0.18 P,0,120078,120878,A
Sprite,Foreground,Centre,"sb\highlight.png",320,340 C,0,107916,,0,202,0 F,2,107916,108716,1,0 S,2,107916,108716,0.9,0.18 P,0,107916,108716,A
Sprite,Foreground,Centre,"sb\highlight.png",320,322 C,0,107991,,0,202,0 F,2,107991,108791,1,0 S,2,107991,108791,0.9,0.18 P,0,107991,108791,A
Sprite,Foreground,Centre,"sb\highlight.png",320,305 C,0,108066,,0,202,0 F,2,108066,108866,1,0 S,2,108066,108866,0.9,0.18 P,0,108066,108866,A
Sprite,Foreground,Centre,"sb\highlight.png",320,287 C,0,108141,,0,202,0 F,2,108141,108941,1,0 S,2,108141,108941,0.9,0.18 P,0,108141,108941,A
Sprite,Foreground,Centre,"sb\highlight.png",366,156 C,0,47856,,255,192,0 F,2,47856,48656,1,0 S,2,47856,48656,0.9,0.18 P,0,47856,48656,A
Sprite,Foreground,Centre,"sb\highlight.png",385,149 C,0,47931,,255,192,0 F,2,47931,48731,1,0 S,2,47931,48731,0.9,0.18 P,0,47931,48731,A
Sprite,Foreground,Centre,"sb\highlight.png",403,137 C,0,48006,,255,192,0 F,2,48006,48806,1,0 S,2,48006,48806,0.9,0.18 P,0,48006,48806,A
Sprite,Foreground,Centre,"sb\highlight.png",419,122 C,0,48081,,255,192,0 F,2,48081,48881,1,0 S,2,48081,48881,0.9,0.18 P,0,48081,48881,A
Sprite,Foreground,Centre,"sb\highlight.png",512,76 C,0,96204,,255,192,0 F,2,96204,97004,1,0 S,2,96204,97004,0.9,0.18 P,0,96204,97004,A
Sprite,Foreground,Centre,"sb\highlight.png",496,236 C,0,96355,,255,192,0 F,2,96355,97155,1,0 S,2,96355,97155,0.9,0.18 P,0,96355,97155,A
Sprite,Foreground,Centre,"sb\highlight.png",496,236 C,0,96505,,255,192,0 F,2,96505,97305,1,0 S,2,96505,97305,0.9,0.18 P,0,96505,97305,A
Sprite,Foreground,Centre,"sb\highlight.png",360,136 C,0,96655,,0,202,0 F,2,96655,97455,1,0 S,2,96655,97455,0.9,0.18 P,0,96655,97455,A
Sprite,Foreground,Centre,"sb\highlight.png",376,296 C,0,96805,,0,202,0 F,2,96805,97605,1,0 S,2,96805,97605,0.9,0.18 P,0,96805,97605,A
Sprite,Foreground,Centre,"sb\highlight.png",376,296 C,0,96955,,0,202,0 F,2,96955,97755,1,0 S,2,96955,97755,0.9,0.18 P,0,96955,97755,A
Sprite,Foreground,Centre,"sb\highlight.png",232,228 C,0,97105,,18,124,255 F,2,97105,97905,1,0 S,2,97105,97905,0.9,0.18 P,0,97105,97905,A
Sprite,Foreground,Centre,"sb\highlight.png",216,388 C,0,97255,,18,124,255 F,2,97255,98055,1,0 S,2,97255,98055,0.9,0.18 P,0,97255,98055,A
Sprite,Foreground,Centre,"sb\highlight.png",108,192 C,0,97406,,242,24,57 F,2,97406,98206,1,0 S,2,97406,98206,0.9,0.18 P,0,97406,98206,A
Sprite,Foreground,Centre,"sb\highlight.png",333,162 C,0,147856,,18,124,255 F,2,147856,148656,1,0 S,2,147856,148656,0.9,0.18 P,0,147856,148656,A
Sprite,Foreground,Centre,"sb\highlight.png",258,309 C,0,148006,,18,124,255 F,2,148006,148806,1,0 S,2,148006,148806,0.9,0.18 P,0,148006,148806,A
Sprite,Foreground,Centre,"sb\highlight.png",405,234 C,0,148156,,18,124,255 F,2,148156,148956,1,0 S,2,148156,148956,0.9,0.18 P,0,148156,148956,A
Sprite,Foreground,Centre,"sb\highlight.png",242,208 C,0,148306,,18,124,255 F,2,148306,149106,1,0 S,2,148306,149106,0.9,0.18 P,0,148306,149106,A
Sprite,Foreground,Centre,"sb\highlight.png",376,340 C,0,148457,,242,24,57 M,0,148457,148494,376,340,401.2632,343.4675 F,2,148457,149407,1,0 S,2,148457,149407,0.9,0.18 P,0,148457,149407,A M,0,148494,148532,401.2632,343.4675,426.5263,346.935 M,0,148532,148569,426.5263,346.935,451.7872,343.5811 M,0,148569,148607,451.7872,343.5811,477.048,340.0968
Sprite,Foreground,Centre,"sb\highlight.png",264,340 C,0,148757,,242,24,57 M,0,148757,148794,264,340,238.7368,343.4675 F,2,148757,149707,1,0 S,2,148757,149707,0.9,0.18 P,0,148757,149707,A M,0,148794,148832,238.7368,343.4675,213.4737,346.935 M,0,148832,148869,213.4737,346.935,188.2128,343.5811 M,0,148869,148907,188.2128,343.5811,162.952,340.0968
Sprite,Foreground,Centre,"sb\highlight.png",336,132 C,0,171880,,242,24,57 F,2,171880,172680,1,0 S,2,171880,172680,0.9,0.18 P,0,171880,172680,A
Sprite,Foreground,Centre,"sb\highlight.png",216,212 C,0,172030,,242,24,57 F,2,172030,172830,1,0 S,2,172030,172830,0.9,0.18 P,0,172030,172830,A
Sprite,Foreground,Centre,"sb\highlight.png",344,277 C,0,172180,,242,24,57 F,2,172180,172980,1,0 S,2,172180,172980,0.9,0.18 P,0,172180,172980,A
Sprite,Foreground,Centre,"sb\highlight.png",340,136 C,0,172331,,242,24,57 F,2,172331,173131,1,0 S,2,172331,173131,0.9,0.18 P,0,172331,173131,A
Sprite,Foreground,Centre,"sb\highlight.png",240,316 C,0,172481,,255,192,0 F,2,172481,173281,1,0 S,2,172481,173281,0.9,0.18 P,0,172481,173281,A
Sprite,Foreground,Centre,"sb\highlight.png",424,288 C,0,172631,,255,192,0 F,2,172631,173431,1,0 S,2,172631,173431,0.9,0.18 P,0,172631,173431,A
Sprite,Foreground,Centre,"sb\highlight.png",276,172 C,0,172781,,255,192,0 F,2,172781,173581,1,0 S,2,172781,173581,0.9,0.18 P,0,172781,173581,A
Sprite,Foreground,Centre,"sb\highlight.png",234,289 C,0,201309,,0,202,0 M,0,201309,201346,234,289,236.96,312.1868 F,2,201309,202584,1,0 S,2,201309,202584,1,0.2 P,0,201309,202584,A M,0,201346,201384,236.96,312.1868,239.92,335.3737
Sprite,Foreground,Centre,"sb\highlight.png",340,388 C,0,201460,,0,202,0 M,0,201460,201497,340,388,342.96,364.8132 F,2,201460,202735,1,0 S,2,201460,202735,1,0.2 P,0,201460,202735,A M,0,201497,201535,342.96,364.8132,345.92,341.6263
Sprite,Foreground,Centre,"sb\highlight.png",444,289 C,0,201610,,0,202,0 M,0,201610,201647,444,289,446.96,312.1868 F,2,201610,202885,1,0 S,2,201610,202885,1,0.2 P,0,201610,202885,A M,0,201647,201685,446.96,312.1868,449.92,335.3737
Sprite,Foreground,Centre,"sb\highlight.png",550,388 C,0,201760,,0,202,0 M,0,201760,201797,550,388,552.8993,364.8055 F,2,201760,203110,1,0 S,2,201760,203110,1,0.2 P,0,201760,203110,A M,0,201797,201835,552.8993,364.8055,550,388 M,0,201835,201872,550,388,552.8993,364.8055 M,0,201872,201910,552.8993,364.8055,550,388
//Storyboard Sound Samples

[TimingPoints]
1310,300.3003003003,4,1,2,70,1,0
4913,-133.333333333333,4,2,2,70,0,0
19328,-125,4,2,2,70,0,0
28937,-153.846153846153,4,2,2,70,0,0
29838,-76.9230769230769,4,2,2,70,0,0
30138,-142.857142857143,4,2,2,70,0,0
31039,-76.9230769230769,4,2,2,70,0,0
31340,-133.333333333333,4,2,2,70,0,0
32240,-76.9230769230769,4,2,2,70,0,0
32541,-125,4,2,2,70,0,0
33442,-76.9230769230769,4,2,2,70,0,0
33742,-117.647058823529,4,2,2,70,0,0
34643,-76.9230769230769,4,2,2,70,0,0
34943,-111.111111111111,4,2,2,70,0,0
35844,-76.9230769230769,4,2,2,70,0,0
36144,-111.111111111111,4,2,2,70,0,0
38246,-111.111111111111,4,2,2,5,0,0
38547,-100,4,2,2,70,0,1
46955,-100,4,2,2,70,0,0
48156,-100,4,2,2,70,0,1
57766,-100,4,2,2,70,0,0
59868,-100,4,2,2,5,0,0
60168,-100,4,2,2,70,0,0
79388,-133.333333333333,4,2,2,70,0,0
88547,-133.333333333333,4,2,2,70,0,0
88997,-117.647058823529,4,2,2,70,0,0
93802,-111.111111111111,4,2,2,70,0,0
95003,-105.263157894737,4,2,2,70,0,0
96204,-100,4,2,2,70,0,0
98306,-100,4,2,2,5,0,0
98607,-100,4,2,2,70,0,1
107015,-100,4,2,2,70,0,0
108216,-100,4,2,2,70,0,1
117826,-100,4,2,2,70,0,0
139448,-153.846153846153,4,2,2,70,0,0
140349,-76.9230769230769,4,2,2,70,0,0
140649,-142.857142857143,4,2,2,70,0,0
141550,-76.9230769230769,4,2,2,70,0,0
141850,-133.333333333333,4,2,2,70,0,0
142751,-76.9230769230769,4,2,2,70,0,0
143051,-125,4,2,2,70,0,0
143952,-76.9230769230769,4,2,2,70,0,0
144252,-117.647058823529,4,2,2,70,0,0
145153,-76.9230769230769,4,2,2,70,0,0
145454,-111.111111111111,4,2,2,70,0,0
146355,-76.9230769230769,4,2,2,70,0,0
146655,-105.263157894737,4,2,2,70,0,0
147255,-100,4,2,2,70,0,0
147856,-90.9090909090909,4,2,2,70,0,0
148457,-83.3333333333333,4,2,2,70,0,0
149057,-133.333333333333,4,2,2,30,0,0
152661,-133.333333333333,4,2,2,5,0,0
163472,-100,4,2,2,70,0,0
173081,-90.9090909090909,4,2,2,70,0,1
201910,-100,4,2,2,70,0,0

[Colours]
Combo1 : 255,192,0
Combo2 : 0,202,0
Combo3 : 18,124,255
Combo4 : 242,24,57

[HitObjects]
164,344,4913,6,0,L|152:216,1,127.500004863739,8|0,0:3|0:0,0:0:0:0:
156,140,5364,1,4,0:3:0:0:
316,272,6114,6,0,L|328:144,1,127.500004863739,8|0,0:3|0:0,0:0:0:0:
324,68,6565,1,4,0:3:0:0:
196,112,7316,6,0,P|129:123|73:86,1,127.500004863739,8|0,0:3|0:0,0:0:0:0:
148,36,7766,1,4,0:3:0:0:
316,248,8517,6,0,P|383:259|439:222,1,127.500004863739,8|8,0:3|0:0,0:0:0:0:
364,172,8967,2,0,L|352:88,1,63.7500024318696,4|0,0:3|0:0,0:0:0:0:
124,52,9718,5,10,0:3:0:0:
124,52,10018,2,0,L|114:115,1,63.7500024318696,0|4,0:0|0:3,0:0:0:0:
216,172,10319,2,0,L|206:108,1,63.7500024318696
307,164,10619,2,0,L|297:227,1,63.7500024318696
384,324,10919,6,0,P|415:327|447:324,1,63.7500024318696,8|0,0:3|0:0,0:0:0:0:
360,227,11219,2,0,P|328:223|296:227,1,63.7500024318696,0|4,0:0|0:3,0:0:0:0:
196,284,11520,2,0,P|124:304|144:220,1,191.250007295609
244,176,12120,5,8,0:3:0:0:
244,176,12421,2,0,L|236:108,1,63.7500024318696,0|4,0:0|0:3,0:0:0:0:
140,221,12721,2,0,L|148:153,1,63.7500024318696
44,108,13021,2,0,L|52:176,1,63.7500024318696
92,296,13322,6,0,P|64:312|24:312,1,63.7500024318696,8|0,0:3|0:0,0:0:0:0:
156,352,13622,2,0,P|184:336|224:336,1,63.7500024318696,8|4,0:0|0:3,0:0:0:0:
340,352,13922,2,0,L|356:224,1,127.500004863739,0|2,0:0|0:0,0:0:0:0:
344,148,14373,1,2,0:0:0:0:
168,236,14523,5,10,0:3:0:0:
168,236,14823,2,0,L|160:160,1,63.7500024318696,0|4,0:0|0:3,0:0:0:0:
256,192,15123,2,0,L|264:116,1,63.7500024318696
356,156,15424,2,0,L|348:80,1,63.7500024318696
472,172,15724,6,0,P|468:204|440:236,1,63.7500024318696,8|0,0:3|0:0,0:0:0:0:
388,304,16024,2,0,P|369:329|365:361,1,63.7500024318696,0|4,0:0|0:3,0:0:0:0:
360,216,16325,2,0,P|308:180|240:200,1,127.500004863739
92,344,16925,6,0,B|68:284|68:284|72:220,1,127.500004863739,8|0,0:3|0:0,0:0:0:0:
132,148,17376,2,0,B|156:208|156:208|152:272,1,127.500004863739,4|0,0:3|0:0,0:0:0:0:
188,336,17826,1,0,0:0:0:0:
420,344,18126,6,0,B|444:284|444:284|440:220,1,127.500004863739,8|8,0:3|0:0,0:0:0:0:
380,148,18577,2,0,B|356:208|356:208|360:272,1,127.500004863739,4|0,0:3|0:0,0:0:0:0:
324,336,19027,1,0,0:0:0:0:
236,84,19328,5,10,0:3:0:0:
236,84,19628,2,0,L|228:152,1,68,0|4,0:0|0:3,0:0:0:0:
312,208,19928,2,0,L|320:140,1,68
416,256,20228,2,0,L|408:188,1,68
456,40,20529,6,0,P|424:48|388:48,1,68,8|0,0:3|0:0,0:0:0:0:
288,32,20829,2,0,P|254:32|221:40,1,68,0|4,0:0|0:3,0:0:0:0:
124,116,21129,2,0,P|41:102|105:52,1,204
216,124,21730,5,8,0:3:0:0:
216,124,22030,2,0,L|208:192,1,68,0|4,0:0|0:3,0:0:0:0:
136,240,22331,2,0,L|128:308,1,68
224,360,22631,2,0,L|216:292,1,68
292,196,22931,6,0,P|324:208|360:208,1,68,8|0,0:3|0:0,0:0:0:0:
472,264,23231,2,0,P|440:276|404:276,1,68,8|4,0:0|0:3,0:0:0:0:
436,144,23532,2,0,B|458:97|436:45|436:45|381:32|339:63,1,204
292,168,24132,5,10,0:3:0:0:
292,168,24433,2,0,P|276:140|272:104,1,68,0|4,0:0|0:3,0:0:0:0:
172,44,24733,2,0,P|188:72|192:108,1,68
136,172,25033,2,0,P|108:188|72:192,1,68
208,212,25334,6,0,L|200:280,1,68,8|0,0:3|0:0,0:0:0:0:
296,332,25634,2,0,L|288:264,1,68,0|4,0:0|0:3,0:0:0:0:
364,188,25934,2,0,L|372:256,1,68
452,316,26234,2,0,L|460:248,1,68
456,88,26535,6,0,P|403:48|337:61,1,136,8|0,0:3|0:0,0:0:0:0:
276,112,26985,2,0,P|211:124|158:84,1,136,4|0,0:3|0:0,0:0:0:0:
230,44,27436,1,0,0:0:0:0:
56,232,27736,6,0,P|108:192|174:205,1,136,8|8,0:3|0:0,0:0:0:0:
236,256,28186,2,0,P|300:268|353:228,1,136,4|0,0:3|0:0,0:0:0:0:
282,188,28637,1,0,0:0:0:0:
127,270,28937,6,0,L|134:324,1,55.2499974708558,6|0,0:0|0:0,0:0:0:0:
64,208,29237,1,0,0:0:0:0:
40,292,29388,1,0,0:0:0:0:
68,212,29538,2,0,L|60:152,1,55.2499974708558,2|0,0:0|0:0,0:0:0:0:
188,88,29838,6,2,B|178:122|178:122|186:160|186:160|177:194,1,110.499994941712,2|0,0:1|0:1,0:1:0:0:
116,277,30138,5,2,0:0:0:0:
184,332,30288,1,0,0:0:0:0:
240,264,30439,2,0,L|256:205,1,59.4999981842042
328,268,30739,1,2,0:0:0:0:
296,344,30889,1,0,0:0:0:0:
400,304,31039,6,2,B|410:270|410:270|402:232|402:232|411:198,1,110.499994941712,2|0,0:1|0:1,0:1:0:0:
376,72,31340,5,2,0:0:0:0:
288,84,31490,1,0,0:0:0:0:
376,72,31640,2,0,L|464:60,1,63.7500024318696
324,160,31940,1,2,0:0:0:0:
236,148,32090,1,0,0:0:0:0:
172,216,32240,6,2,B|182:250|182:250|174:288|174:288|183:322,1,110.499994941712,2|0,0:1|0:1,0:1:0:0:
268,252,32541,5,2,0:0:0:0:
308,340,32691,1,0,0:0:0:0:
348,240,32841,2,0,L|356:160,1,68
484,168,33141,1,2,0:0:0:0:
444,256,33291,1,0,0:0:0:0:
354,172,33442,6,2,B|363:136|363:136|355:98|355:98|365:64,1,110.499994941712,2|0,0:1|0:1,0:1:0:0:
256,24,33742,6,0,P|224:40|184:40,1,72.2500013780594,2|0,1:2|0:0,0:0:0:0:
76,136,34042,2,0,P|108:152|148:152,1,72.2500013780594,0|0,1:2|0:0,0:0:0:0:
240,120,34343,1,2,1:2:0:0:
204,212,34493,1,0,0:0:0:0:
308,80,34643,6,2,B|318:114|318:114|310:152|310:152|319:186,1,110.499994941712,2|0,1:0|0:1,0:1:0:0:
420,256,34943,6,0,P|452:240|492:240,1,76.4999976654053,2|0,1:2|0:0,0:0:0:0:
432,348,35243,2,0,P|394:348|359:332,1,76.4999976654053,0|0,1:2|0:0,0:0:0:0:
256,264,35544,1,2,1:2:0:0:
320,188,35694,1,0,0:0:0:0:
256,352,35844,6,2,B|221:357|221:357|184:345|184:345|149:349,1,110.499994941712,2|0,1:0|0:0,0:0:0:0:
68,236,36144,5,0,1:2:0:0:
92,120,36294,1,0,1:2:0:0:
48,252,36445,1,0,1:2:0:0:
172,172,36595,1,0,1:2:0:0:
276,284,36745,5,0,1:2:0:0:
252,132,36895,1,0,1:2:0:0:
188,296,37045,1,0,1:2:0:0:
316,200,37195,1,0,1:2:0:0:
256,192,37346,12,0,38246,0:0:0:0:
208,68,38547,6,0,P|140:112|133:212,1,170,4|8,1:2|0:0,0:0:0:0:
230,252,38997,2,0,L|224:168,1,85
304,92,39297,1,0,1:0:0:0:
328,228,39448,2,0,L|321:312,1,85,8|0,0:0|0:0,0:0:0:0:
464,220,39748,6,8,P|464:144|384:88,1,170,0|8,1:0|0:0,0:0:0:0:
280,144,40198,2,0,L|286:59,1,85
376,184,40499,1,0,1:0:0:0:
204,216,40649,2,0,L|197:131,1,85,8|0,0:0|0:0,0:0:0:0:
296,252,40949,6,0,P|228:312|152:300,1,170,0|8,1:0|0:0,0:0:0:0:
92,208,41400,1,0,0:0:0:0:
197,132,41550,2,0,P|207:173|203:215,1,85,0|0,0:0|1:0,0:0:0:0:
312,152,41850,2,0,P|301:110|305:68,1,85,8|0,0:0|0:0,0:0:0:0:
460,112,42150,6,0,L|444:312,1,170,0|8,1:0|0:0,0:0:0:0:
360,352,42601,1,0,0:0:0:0:
280,232,42751,2,0,P|320:212|368:208,1,85,0|0,0:0|1:0,0:0:0:0:
268,116,43051,2,0,P|228:136|180:140,1,85,8|0,0:0|0:0,0:0:0:0:
20,64,43352,6,0,P|92:96|112:184,1,170,4|8,1:2|0:0,0:0:0:0:
24,248,43802,2,0,L|16:160,1,85
120,284,44102,1,0,1:0:0:0:
196,192,44252,2,0,L|204:104,1,85,8|0,0:0|0:0,0:0:0:0:
312,24,44553,6,0,P|376:76|456:56,1,170,0|8,1:0|0:0,0:0:0:0:
500,156,45003,2,0,L|492:244,1,85
436,316,45303,1,0,1:0:0:0:
348,180,45454,2,0,L|356:268,1,85,8|0,0:0|0:0,0:0:0:0:
272,116,45754,6,0,P|196:148|120:104,1,170,0|8,1:0|0:0,0:0:0:0:
200,52,46204,1,0,0:0:0:0:
268,208,46355,2,0,P|272:252|260:296,1,85,0|0,0:0|1:0,0:0:0:0:
152,356,46655,2,0,P|148:312|160:268,1,85,8|0,0:0|0:0,0:0:0:0:
260,104,46955,5,0,1:2:0:0:
281,104,47556,5,0,0:0:0:0:
302,100,47856,5,0,0:0:0:0:
321,93,47931,1,0,0:0:0:0:
339,81,48006,1,0,0:0:0:0:
355,66,48081,1,0,0:0:0:0:
367,49,48156,6,0,L|384:224,1,170,4|8,1:2|0:0,0:0:0:0:
296,288,48607,2,0,L|287:200,1,85
176,312,48907,1,0,1:0:0:0:
188,204,49057,2,0,L|196:116,1,85,8|0,0:0|0:0,0:0:0:0:
324,72,49358,6,0,P|404:101|466:50,1,170,0|8,1:0|0:0,0:0:0:0:
388,16,49808,1,0,0:0:0:0:
340,172,49958,2,0,L|332:256,1,85,0|0,0:0|1:0,0:0:0:0:
448,324,50258,2,0,L|440:240,1,85,8|0,0:0|0:0,0:0:0:0:
256,312,50559,6,0,P|174:324|109:268,1,170,0|8,1:0|0:0,0:0:0:0:
136,176,51009,2,0,P|173:194|200:228,1,85
48,212,51309,1,0,1:0:0:0:
84,80,51460,2,0,P|123:67|166:71,1,85,8|0,0:0|0:0,0:0:0:0:
284,196,51760,6,0,L|300:24,1,170,0|8,1:0|0:0,0:0:0:0:
396,108,52210,1,0,0:0:0:0:
364,232,52361,2,0,P|339:263|286:285,1,85,0|0,0:0|1:0,0:0:0:0:
204,160,52661,2,0,P|229:129|282:107,1,85,8|0,0:0|0:0,0:0:0:0:
212,312,52961,5,4,1:2:0:0:
136,148,53261,1,0,1:0:0:0:
300,72,53562,1,0,1:0:0:0:
376,236,53862,1,0,1:0:0:0:
116,256,54162,5,0,1:0:0:0:
191,52,54463,1,0,1:0:0:0:
395,127,54763,1,0,1:0:0:0:
320,331,55063,1,0,1:0:0:0:
88,188,55364,6,0,L|96:104,1,85,0|0,1:0|1:0,0:0:0:0:
136,20,55664,1,0,1:0:0:0:
136,20,55814,1,0,1:0:0:0:
228,172,55964,6,0,L|236:256,1,85,0|0,1:0|1:0,0:0:0:0:
276,340,56264,1,0,1:0:0:0:
276,340,56415,1,0,1:0:0:0:
436,168,56565,5,8,0:0:0:0:
424,296,56715,1,0,1:0:0:0:
332,100,56865,5,8,0:0:0:0:
344,228,57015,1,0,1:0:0:0:
252,32,57165,5,8,0:0:0:0:
240,160,57316,1,8,0:0:0:0:
136,84,57466,1,8,0:0:0:0:
256,36,57616,1,8,0:0:0:0:
124,212,57766,5,4,1:2:0:0:
256,192,58967,12,0,59868,0:0:0:0:
352,52,60168,6,0,P|389:127|354:217,1,170,4|8,1:2|0:0,0:0:0:0:
280,276,60619,1,0,0:0:0:0:
195,142,60769,2,0,L|280:136,1,85,0|0,0:0|1:0,0:0:0:0:
200,232,61069,1,8,0:0:0:0:
108,120,61219,6,0,L|114:35,1,85,0|0,0:0|1:0,0:0:0:0:
16,132,61520,2,0,L|10:217,1,85,0|8,0:0|0:0,0:0:0:0:
64,312,61820,1,0,0:0:0:0:
256,272,61970,5,0,0:0:0:0:
148,224,62120,1,0,1:0:0:0:
256,272,62270,1,8,0:0:0:0:
204,164,62421,1,0,0:0:0:0:
228,356,62571,6,0,P|308:344|342:256,1,170,4|8,1:2|0:0,0:0:0:0:
324,160,63021,1,0,0:0:0:0:
202,207,63171,2,0,P|224:244|256:272,1,85,0|0,0:0|1:0,0:0:0:0:
372,296,63472,1,8,0:0:0:0:
452,164,63622,6,0,L|460:64,1,85,0|0,0:0|1:0,0:0:0:0:
340,16,63922,2,0,L|348:116,1,85,0|8,0:0|0:0,0:0:0:0:
296,200,64222,1,0,0:0:0:0:
108,140,64373,5,0,0:0:0:0:
224,112,64523,1,0,1:0:0:0:
108,140,64673,1,8,0:0:0:0:
202,215,64823,1,0,0:0:0:0:
60,76,64973,6,0,L|68:248,1,170,4|8,1:2|0:0,0:0:0:0:
124,340,65424,1,0,0:0:0:0:
256,280,65574,2,0,P|234:242|196:212,1,85,0|0,0:0|1:0,0:0:0:0:
212,360,65874,1,8,0:0:0:0:
344,284,66024,6,0,P|355:241|349:193,1,85,0|0,0:0|1:0,0:0:0:0:
464,124,66325,2,0,P|452:166|458:214,1,85,0|8,0:0|0:0,0:0:0:0:
484,296,66625,1,0,0:0:0:0:
340,180,66775,5,0,0:0:0:0:
364,64,66925,1,0,1:0:0:0:
340,180,67075,1,8,0:0:0:0:
436,108,67225,1,0,0:0:0:0:
236,152,67376,6,0,L|244:244,1,85,4|0,1:2|0:0,0:0:0:0:
200,320,67676,1,8,0:0:0:0:
244,136,67826,6,0,L|252:228,1,85
192,336,68126,1,0,1:0:0:0:
252,120,68276,6,0,L|260:212,1,85,8|0,0:0|0:0,0:0:0:0:
184,352,68577,2,0,L|176:260,1,85,0|0,1:0|0:0,0:0:0:0:
76,240,68877,2,0,L|84:148,1,85,8|0,0:0|0:0,0:0:0:0:
292,116,69177,5,0,0:0:0:0:
180,80,69328,1,0,1:0:0:0:
292,116,69478,1,8,0:0:0:0:
180,80,69628,1,0,0:0:0:0:
348,52,69778,6,0,P|377:128|327:194,1,170,4|8,1:2|0:0,0:0:0:0:
224,228,70228,1,0,3:0:0:0:
224,228,70303,1,0,3:0:0:0:
224,228,70379,2,0,L|232:140,1,85,0|0,3:0|1:0,0:0:0:0:
192,48,70679,1,8,0:0:0:0:
128,188,70829,6,0,P|121:232|131:277,1,85,0|0,0:0|1:0,0:0:0:0:
244,324,71129,2,0,P|251:280|241:235,1,85,0|8,0:0|0:0,0:0:0:0:
188,108,71430,2,0,L|232:116,1,42.5,0|0,3:0|3:0,0:0:0:0:
400,140,71580,5,0,3:0:0:0:
308,64,71730,1,0,1:0:0:0:
400,140,71880,1,8,0:0:0:0:
286,174,72030,1,0,0:0:0:0:
452,76,72180,6,0,L|464:264,1,170,4|8,1:2|0:0,0:0:0:0:
324,292,72631,1,0,3:0:0:0:
324,292,72706,1,0,3:0:0:0:
324,292,72781,2,0,L|330:198,1,85,0|0,3:0|1:0,0:0:0:0:
304,100,73081,1,8,0:0:0:0:
144,120,73231,6,0,P|100:120|64:100,1,85,0|0,0:0|1:0,0:0:0:0:
152,216,73532,2,0,P|196:216|232:196,1,85,0|8,0:0|0:0,0:0:0:0:
316,280,73832,2,0,L|264:272,1,42.5,0|0,3:0|3:0,0:0:0:0:
106,328,73982,5,0,3:0:0:0:
222,344,74132,1,0,1:0:0:0:
106,328,74282,1,8,0:0:0:0:
200,256,74433,1,0,0:0:0:0:
34,376,74583,6,0,P|26:292|96:241,1,170,4|8,1:2|0:0,0:0:0:0:
208,264,75033,1,0,3:0:0:0:
208,264,75108,1,0,3:0:0:0:
208,264,75183,2,0,L|200:168,1,85,0|0,3:0|1:0,0:0:0:0:
144,84,75484,1,8,0:0:0:0:
296,72,75634,6,0,P|336:68|376:44,1,85,0|0,0:0|1:0,0:0:0:0:
484,128,75934,2,0,P|444:132|404:156,1,85,0|8,0:0|0:0,0:0:0:0:
356,288,76234,2,0,L|336:240,1,42.5,0|0,3:0|3:0,0:0:0:0:
272,112,76385,5,0,3:0:0:0:
228,224,76535,1,0,1:0:0:0:
272,112,76685,1,8,0:0:0:0:
228,224,76835,1,0,0:0:0:0:
152,44,76985,6,0,L|248:32,1,85,4|0,1:2|0:0,0:0:0:0:
320,52,77285,1,8,0:0:0:0:
188,140,77436,6,0,L|92:128,1,85
20,148,77736,1,0,1:0:0:0:
152,236,77886,6,0,L|248:224,1,85,8|0,0:0|0:0,0:0:0:0:
188,332,78186,2,0,L|92:320,1,85,0|0,1:0|1:0,0:0:0:0:
280,304,78487,2,0,L|376:316,1,85,0|0,1:0|1:0,0:0:0:0:
464,360,78787,5,0,1:0:0:0:
496,168,78937,1,0,1:0:0:0:
332,212,79087,1,8,0:0:0:0:
332,212,79388,5,4,1:2:0:0:
256,328,88547,5,0,1:0:0:0:
256,244,88697,2,0,B|249:217|249:217|262:178|262:178|256:152|256:152,1,95.6250036478044,8|0,0:0|0:0,0:0:0:0:
256,108,88997,6,0,P|292:116|328:108,1,72.2500013780594,4|0,1:2|0:0,0:0:0:0:
436,16,89297,2,0,P|411:43|399:78,1,72.2500013780594,8|0,0:0|0:0,0:0:0:0:
420,184,89598,1,0,0:0:0:0:
488,240,89748,1,0,1:0:0:0:
344,228,89898,2,0,L|256:219,1,72.2500013780594,8|0,0:0|0:0,0:0:0:0:
180,332,90198,6,0,P|217:330|252:316,1,72.2500013780594,0|0,1:0|0:0,0:0:0:0:
136,252,90499,2,0,P|99:250|64:236,1,72.2500013780594,8|0,0:0|0:0,0:0:0:0:
188,156,90799,1,0,0:0:0:0:
220,236,90949,1,0,1:0:0:0:
260,96,91099,2,0,L|268:20,1,72.2500013780594,8|0,0:0|0:0,0:0:0:0:
360,144,91400,6,0,P|352:108|352:68,1,72.2500013780594,0|0,1:0|0:0,0:0:0:0:
464,124,91700,2,0,P|463:160|455:195,1,72.2500013780594,8|0,0:0|0:0,0:0:0:0:
392,280,92000,1,0,0:0:0:0:
476,308,92150,1,0,1:0:0:0:
336,348,92300,2,0,L|256:344,1,72.2500013780594,8|0,0:0|0:0,0:0:0:0:
172,264,92601,6,0,P|204:238|240:224,1,72.2500013780594,0|0,1:0|0:0,0:0:0:0:
368,228,92901,2,0,P|335:213|307:189,1,72.2500013780594,8|0,0:0|0:0,0:0:0:0:
244,84,93201,1,0,0:0:0:0:
188,152,93352,1,0,1:0:0:0:
376,144,93502,5,10,0:0:0:0:
352,32,93652,1,2,0:0:0:0:
452,156,93802,6,0,L|440:265,1,76.4999976654053,4|0,1:2|0:0,0:0:0:0:
364,312,94102,2,0,L|352:202,1,76.4999976654053,8|0,0:0|0:0,0:0:0:0:
344,120,94403,1,0,0:0:0:0:
268,172,94553,1,0,1:0:0:0:
332,32,94703,2,0,L|441:20,1,76.4999976654053,8|0,0:0|0:0,0:0:0:0:
260,92,95003,6,0,P|220:88|184:72,1,80.7499978437424,0|0,1:0|0:0,0:0:0:0:
64,168,95303,2,0,P|104:164|140:148,1,80.7499978437424,8|0,0:0|0:0,0:0:0:0:
248,204,95604,1,0,0:0:0:0:
220,296,95754,1,0,1:0:0:0:
344,220,95904,2,0,L|332:136,1,80.7499978437424,8|0,0:0|0:0,0:0:0:0:
448,20,96204,5,8,0:0:0:0:
432,180,96355,1,0,1:0:0:0:
432,180,96505,1,0,1:0:0:0:
296,80,96655,5,8,0:0:0:0:
312,240,96805,1,0,1:0:0:0:
312,240,96955,1,0,1:0:0:0:
168,172,97105,5,8,0:0:0:0:
152,332,97255,1,0,1:0:0:0:
44,136,97406,5,8,0:0:0:0:
256,192,97481,12,0,98306,0:0:0:0:
284,284,98607,6,0,P|344:228|339:145,1,170,4|8,1:2|0:0,0:0:0:0:
280,64,99057,2,0,L|192:56,1,85
80,112,99358,1,0,1:0:0:0:
171,199,99508,2,0,L|259:191,1,85,8|0,0:0|0:0,0:0:0:0:
396,284,99808,6,0,P|348:348|264:336,1,170,0|8,1:0|0:0,0:0:0:0:
188,288,100258,2,0,P|148:280|100:280,1,85
176,376,100559,1,0,1:0:0:0:
268,256,100709,2,0,P|276:216|276:168,1,85,8|0,0:0|0:0,0:0:0:0:
384,40,101009,6,0,L|396:212,1,170,0|8,1:0|0:0,0:0:0:0:
360,316,101460,1,0,0:0:0:0:
272,212,101610,2,0,P|268:172|280:128,1,85,0|0,0:0|1:0,0:0:0:0:
176,40,101910,2,0,P|180:80|168:124,1,85,8|0,0:0|0:0,0:0:0:0:
24,232,102210,6,0,P|104:212|160:272,1,170,0|8,1:0|0:0,0:0:0:0:
176,372,102661,1,0,0:0:0:0:
232,248,102811,2,0,L|220:152,1,85,0|0,0:0|1:0,0:0:0:0:
344,108,103111,2,0,L|332:204,1,85,8|0,0:0|0:0,0:0:0:0:
396,352,103412,6,0,P|462:304|460:212,1,170,4|8,1:2|0:0,0:0:0:0:
333,192,103862,2,0,L|385:264,1,85
420,140,104162,1,0,1:0:0:0:
340,52,104313,2,0,L|251:42,1,85,8|0,0:0|0:0,0:0:0:0:
104,136,104613,6,0,P|186:127|244:186,1,170,0|8,1:0|0:0,0:0:0:0:
188,292,105063,2,0,P|164:257|156:216,1,85
280,268,105364,1,0,1:0:0:0:
304,116,105514,2,0,P|327:151|336:192,1,85,8|0,0:0|0:0,0:0:0:0:
428,336,105814,6,0,L|440:160,1,170,0|8,1:0|0:0,0:0:0:0:
412,68,106264,1,0,0:0:0:0:
280,100,106415,2,0,P|236:104|192:96,1,85,0|0,0:0|1:0,0:0:0:0:
96,188,106715,2,0,P|140:184|184:192,1,85,8|0,0:0|0:0,0:0:0:0:
256,320,107015,5,0,1:0:0:0:
256,302,107616,5,0,0:0:0:0:
256,284,107916,5,0,0:0:0:0:
256,266,107991,1,0,0:0:0:0:
256,249,108066,1,0,0:0:0:0:
256,231,108141,1,0,0:0:0:0:
256,213,108216,6,0,P|174:222|128:157,1,170,4|8,0:0|0:0,0:0:0:0:
197,63,108667,2,0,L|208:148,1,85
112,76,108967,1,0,1:0:0:0:
296,12,109117,2,0,L|285:96,1,85,8|0,0:0|0:0,0:0:0:0:
348,256,109418,6,0,P|428:244|456:168,1,170,0|8,1:0|0:0,0:0:0:0:
424,72,109868,1,0,0:0:0:0:
296,116,110018,2,0,P|268:148|256:188,1,85,0|0,0:0|1:0,0:0:0:0:
116,232,110319,2,0,P|143:200|156:159,1,85,8|0,0:0|0:0,0:0:0:0:
56,24,110619,6,0,P|120:72|196:36,1,170,4|8,1:2|0:0,0:0:0:0:
276,100,111069,2,0,L|284:184,1,85
316,316,111370,1,0,1:0:0:0:
184,256,111520,2,0,L|192:172,1,85,8|0,0:0|0:0,0:0:0:0:
352,232,111820,6,0,P|429:254|486:196,1,170,0|8,1:0|0:0,0:0:0:0:
424,116,112270,1,0,0:0:0:0:
296,164,112421,2,0,P|272:196|266:248,1,85,0|0,0:0|1:0,0:0:0:0:
184,336,112721,2,0,P|177:294|152:260,1,85,8|0,0:0|0:0,0:0:0:0:
28,160,113021,6,0,P|28:80|104:44,1,170,4|8,1:2|0:0,0:0:0:0:
192,88,113472,1,0,0:0:0:0:
312,44,113622,2,0,L|400:36,1,85,0|0,0:0|1:0,0:0:0:0:
460,148,113922,2,0,L|372:140,1,85,8|0,0:0|0:0,0:0:0:0:
252,272,114222,6,0,P|324:232|404:264,1,170,0|8,1:0|0:0,0:0:0:0:
436,356,114673,1,0,0:0:0:0:
332,308,114823,2,0,L|322:219,1,85,0|0,0:0|1:0,0:0:0:0:
224,116,115123,2,0,L|214:204,1,85,8|0,0:0|0:0,0:0:0:0:
132,272,115424,5,4,1:2:0:0:
176,68,115724,1,0,1:0:0:0:
336,316,116024,1,0,1:0:0:0:
380,112,116325,1,0,1:0:0:0:
101,199,116625,5,0,1:0:0:0:
248,37,116925,1,0,1:0:0:0:
263,346,117225,1,0,1:0:0:0:
410,184,117526,1,0,1:0:0:0:
144,132,117826,6,0,L|232:124,1,85,0|0,1:0|1:0,0:0:0:0:
312,140,118126,1,0,1:0:0:0:
312,140,118276,1,0,1:0:0:0:
404,260,118427,6,0,L|316:252,1,85,0|0,1:0|1:0,0:0:0:0:
236,268,118727,1,0,1:0:0:0:
236,268,118877,1,0,1:0:0:0:
160,68,119027,5,8,0:0:0:0:
92,224,119177,1,0,1:0:0:0:
88,24,119328,5,8,0:0:0:0:
156,180,119478,1,0,1:0:0:0:
232,16,119628,5,8,0:0:0:0:
257,184,119778,1,8,0:0:0:0:
160,68,119928,1,8,0:0:0:0:
329,132,120078,1,8,0:0:0:0:
256,304,120228,6,0,P|176:272|139:193,1,170,4|8,1:2|0:0,0:0:0:0:
152,108,120679,1,0,0:0:0:0:
257,184,120829,2,0,P|300:192|340:180,1,85,0|0,0:0|1:0,0:0:0:0:
416,128,121129,1,8,0:0:0:0:
468,276,121279,6,0,L|384:264,1,85,0|0,0:0|1:0,0:0:0:0:
312,380,121580,2,0,L|396:368,1,85,0|8,0:0|0:0,0:0:0:0:
292,252,121880,1,0,0:0:0:0:
128,296,122030,5,0,0:0:0:0:
244,328,122180,1,0,1:0:0:0:
128,296,122331,1,8,0:0:0:0:
244,328,122481,1,0,0:0:0:0:
76,352,122631,6,0,P|51:275|111:217,1,170,4|8,1:2|0:0,0:0:0:0:
200,236,123081,1,0,0:0:0:0:
184,120,123231,2,0,L|172:32,1,85,0|0,0:0|1:0,0:0:0:0:
284,76,123532,1,8,0:0:0:0:
288,212,123682,6,0,P|289:258|269:298,1,85,0|0,0:0|1:0,0:0:0:0:
376,380,123982,2,0,P|375:334|395:294,1,85,0|8,0:0|0:0,0:0:0:0:
452,216,124282,1,0,0:0:0:0:
368,68,124433,5,0,0:0:0:0:
376,188,124583,1,0,1:0:0:0:
368,68,124733,1,8,0:0:0:0:
300,168,124883,1,0,0:0:0:0:
420,24,125033,6,0,L|248:40,1,170,4|8,1:2|0:0,0:0:0:0:
156,28,125484,1,0,0:0:0:0:
76,140,125634,2,0,L|64:56,1,85,0|0,0:0|1:0,0:0:0:0:
176,136,125934,1,8,0:0:0:0:
120,268,126084,6,0,P|76:272|32:260,1,85,0|0,0:0|1:0,0:0:0:0:
136,356,126385,2,0,P|177:346|219:350,1,85,0|8,0:0|0:0,0:0:0:0:
328,376,126685,1,0,0:0:0:0:
340,188,126835,5,0,0:0:0:0:
284,292,126985,1,0,1:0:0:0:
340,188,127135,1,8,0:0:0:0:
228,232,127285,1,0,0:0:0:0:
420,216,127436,6,0,P|422:170|400:128,1,85,4|0,1:2|0:0,0:0:0:0:
344,56,127736,1,8,0:0:0:0:
340,188,127886,6,0,P|338:234|360:276,1,85
416,348,128186,1,0,1:0:0:0:
256,292,128337,6,0,L|168:304,1,85,8|0,0:0|0:0,0:0:0:0:
64,208,128637,2,0,L|152:220,1,85,0|0,1:0|0:0,0:0:0:0:
256,124,128937,2,0,L|168:136,1,85,8|0,0:0|0:0,0:0:0:0:
328,68,129237,5,0,0:0:0:0:
320,186,129388,1,0,1:0:0:0:
328,68,129538,1,8,0:0:0:0:
320,186,129688,1,0,0:0:0:0:
400,36,129838,6,0,B|448:60|454:106|436:144|388:160|388:160|405:207|364:246,1,255,4|0,0:0|0:0,0:0:0:0:
304,332,130439,5,8,0:0:0:0:
244,240,130589,1,0,3:0:0:0:
244,240,130664,1,0,3:0:0:0:
244,240,130739,2,0,L|247:184,2,42.5,0|0|0,3:0|3:0|3:0,0:0:0:0:
204,40,131039,5,0,1:0:0:0:
144,132,131189,1,0,3:0:0:0:
144,132,131264,1,0,3:0:0:0:
144,132,131340,2,0,L|147:188,2,42.5,0|0|0,3:0|3:0|3:0,0:0:0:0:
60,312,131640,5,8,0:0:0:0:
148,208,131790,1,8,0:3:0:0:
236,288,131940,1,4,0:3:0:0:
324,236,132090,1,4,0:3:0:0:
416,336,132240,6,0,B|476:288|464:204|450:182|450:182|404:172|379:130,1,255,4|0,1:2|0:0,0:0:0:0:
352,28,132841,5,8,0:0:0:0:
252,56,132991,1,0,3:0:0:0:
252,56,133066,1,0,3:0:0:0:
252,56,133141,2,0,P|224:56|200:52,2,42.5,0|0|0,3:0|3:0|3:0,0:0:0:0:
60,116,133442,5,0,1:0:0:0:
160,144,133592,1,0,3:0:0:0:
160,144,133667,1,0,3:0:0:0:
160,144,133742,2,0,P|188:144|212:140,2,42.5,0|0|0,3:0|3:0|3:0,0:0:0:0:
340,72,134042,5,8,0:0:0:0:
456,140,134192,1,8,0:3:0:0:
357,208,134343,1,4,0:3:0:0:
432,276,134493,1,4,0:3:0:0:
308,348,134643,6,0,B|262:294|197:293|156:315|156:315|113:313|83:267,1,255,4|0,1:2|0:0,0:0:0:0:
148,180,135243,5,8,0:0:0:0:
136,80,135394,1,0,3:0:0:0:
136,80,135469,1,0,3:0:0:0:
136,80,135544,2,0,L|130:29,2,42.5,0|0|0,3:0|3:0|3:0,0:0:0:0:
256,224,135844,5,0,1:0:0:0:
268,124,135994,1,0,3:0:0:0:
268,124,136069,1,0,3:0:0:0:
268,124,136144,2,0,L|273:81,2,42.5,0|0|0,3:0|3:0|3:0,0:0:0:0:
364,268,136445,5,8,0:0:0:0:
484,200,136595,1,8,0:3:0:0:
384,132,136745,1,4,0:3:0:0:
460,64,136895,1,4,0:3:0:0:
332,20,137045,6,0,P|304:52|288:96,1,85,4|0,1:2|0:0,0:0:0:0:
300,184,137346,1,0,0:0:0:0:
188,56,137496,6,0,P|190:98|210:140,1,85,0|8,0:0|0:0,0:0:0:0:
281,194,137796,1,0,0:0:0:0:
111,183,137946,6,0,P|142:211|187:227,1,85
274,215,138246,2,0,P|315:204|357:209,1,85,0|0,1:0|0:0,0:0:0:0:
408,308,138547,2,0,P|366:318|324:313,1,85,0|8,0:0|0:3,0:0:0:0:
184,252,138847,5,8,0:0:0:0:
152,348,138997,1,8,0:3:0:0:
96,188,139147,1,4,0:3:0:0:
88,288,139297,1,4,0:3:0:0:
200,160,139448,6,0,L|192:96,1,55.2499974708558,4|0,0:0|0:0,0:0:0:0:
216,24,139748,1,0,0:0:0:0:
216,24,139898,1,4,0:3:0:0:
288,64,140048,2,0,L|280:128,1,55.2499974708558
360,236,140349,6,2,B|373:182|373:182|360:129,1,110.499994941712,2|0,0:1|0:1,0:1:0:0:
272,208,140649,5,8,0:3:0:0:
292,296,140799,1,0,0:0:0:0:
206,269,140949,2,0,L|145:250,1,59.4999981842042,0|4,0:0|0:3,0:0:0:0:
44,252,141249,1,0,0:0:0:0:
96,316,141400,1,0,0:0:0:0:
100,184,141550,6,2,B|86:130|86:130|100:77,1,110.499994941712,2|0,0:1|0:1,0:1:0:0:
224,52,141850,5,8,0:3:0:0:
168,132,142000,1,0,0:0:0:0:
224,52,142150,2,0,L|292:44,1,63.7500024318696,0|4,0:0|0:3,0:0:0:0:
348,140,142451,1,0,0:0:0:0:
404,60,142601,1,0,0:0:0:0:
432,180,142751,6,2,B|445:233|445:233|432:286,1,110.499994941712,2|0,0:1|0:1,0:1:0:0:
304,336,143051,6,0,P|296:297|298:268,1,68,8|0,0:3|0:0,0:0:0:0:
320,184,143352,1,8,0:0:0:0:
232,200,143502,1,4,0:3:0:0:
320,184,143652,2,0,P|328:145|326:116,1,68
216,44,143952,6,2,B|162:57|162:57|109:44,1,110.499994941712,2|0,0:1|0:1,0:1:0:0:
52,152,144252,5,8,0:3:0:0:
88,232,144403,1,0,0:0:0:0:
136,160,144553,2,0,L|208:152,1,72.2500013780594,0|4,0:0|0:3,0:0:0:0:
304,232,144853,1,0,0:0:0:0:
217,248,145003,1,0,0:0:0:0:
316,144,145153,6,2,B|370:131|370:131|423:144,1,110.499994941712,2|0,0:1|0:1,0:1:0:0:
432,276,145454,5,8,0:3:0:0:
372,204,145604,1,0,0:0:0:0:
328,284,145754,2,0,L|340:360,1,76.4999976654053,0|4,0:0|0:3,0:0:0:0:
244,312,146054,1,0,0:0:0:0:
172,368,146204,1,0,0:0:0:0:
112,236,146355,6,2,B|99:182|99:182|112:129,1,110.499994941712,2|0,0:1|0:1,0:1:0:0:
216,52,146655,6,0,P|256:60|296:52,1,80.7499978437424,8|0,0:3|0:0,0:0:0:0:
416,148,146955,2,0,P|376:140|336:148,1,80.7499978437424,0|4,0:0|0:3,0:0:0:0:
204,243,147255,5,0,0:0:0:0:
327,180,147406,1,0,0:0:0:0:
191,159,147556,1,2,0:1:0:0:
288,256,147706,1,0,0:0:0:0:
269,106,147856,5,8,0:3:0:0:
194,253,148006,1,0,0:0:0:0:
341,178,148156,1,8,0:0:0:0:
178,152,148306,1,4,0:3:0:0:
312,284,148457,6,2,B|363:291|363:291|421:283,1,101.999996887207,2|0,0:1|0:1,0:1:0:0:
200,284,148757,2,2,B|149:291|149:291|91:283,1,101.999996887207,2|0,0:1|0:1,0:1:0:0:
256,192,149057,12,0,152661,0:0:0:0:
208,80,163472,6,0,L|120:72,1,85,8|0,0:0|1:0,0:0:0:0:
44,104,163772,1,0,1:0:0:0:
256,172,163922,2,8,L|168:164,1,85,8|0,0:0|1:0,0:0:0:0:
92,196,164222,1,0,1:0:0:0:
219,256,164373,2,0,L|304:264,1,85,8|0,0:0|1:0,0:0:0:0:
436,340,164673,6,0,P|463:306|477:264,1,85,8|0,0:0|1:0,0:0:0:0:
473,184,164973,1,0,1:0:0:0:
303,263,165123,2,0,P|339:240|365:203,1,85,8|0,0:0|1:0,0:0:0:0:
386,125,165424,1,0,1:0:0:0:
252,152,165574,1,8,0:0:0:0:
238,160,165649,1,8,0:0:0:0:
225,170,165724,1,0,1:0:0:0:
214,181,165799,1,0,1:0:0:0:
203,193,165874,6,0,L|188:108,1,85,8|0,0:0|1:0,0:0:0:0:
168,28,166174,1,0,1:0:0:0:
88,160,166325,2,0,L|103:245,1,85,8|0,0:0|1:0,0:0:0:0:
123,325,166625,1,0,1:0:0:0:
268,280,166775,2,0,L|183:265,1,85,8|0,0:0|1:0,0:0:0:0:
332,348,167075,6,0,P|376:344|416:328,1,85,8|0,0:0|1:0,0:0:0:0:
468,264,167376,1,0,1:0:0:0:
288,216,167526,2,0,P|327:231|369:234,1,85,8|0,0:0|1:0,0:0:0:0:
416,164,167826,1,0,1:0:0:0:
284,136,167976,1,8,0:0:0:0:
268,138,168051,1,8,0:0:0:0:
253,144,168126,1,0,1:0:0:0:
240,153,168201,1,0,1:0:0:0:
228,164,168276,6,0,L|216:248,1,85,8|0,0:0|1:0,0:0:0:0:
228,332,168577,1,0,1:0:0:0:
120,144,168727,2,0,L|132:228,1,85,8|0,0:0|1:0,0:0:0:0:
120,312,169027,1,0,1:0:0:0:
32,200,169177,2,0,L|44:116,1,85,8|0,0:0|1:0,0:0:0:0:
192,32,169478,6,0,P|204:76|204:128,1,85,8|0,0:0|1:0,0:0:0:0:
176,196,169778,1,0,1:0:0:0:
268,340,169928,2,0,P|256:296|256:244,1,85,8|0,0:0|1:0,0:0:0:0:
284,176,170228,1,0,1:0:0:0:
396,84,170379,1,8,0:0:0:0:
380,86,170454,1,8,0:0:0:0:
364,87,170529,1,0,1:0:0:0:
348,87,170604,1,0,1:0:0:0:
332,86,170679,6,0,P|293:76|253:45,1,85,8|0,0:0|1:0,0:0:0:0:
150,115,170979,2,0,P|140:154|109:194,1,85,8|0,0:0|1:0,0:0:0:0:
179,297,171279,2,0,P|218:307|258:338,1,85,8|0,0:0|1:0,0:0:0:0:
361,268,171580,2,0,P|371:229|402:189,1,85,8|0,0:0|1:0,0:0:0:0:
272,76,171880,5,8,0:0:0:0:
152,156,172030,1,8,0:0:0:0:
280,221,172180,1,8,0:0:0:0:
276,80,172331,1,8,0:0:0:0:
176,260,172481,5,8,0:0:0:0:
360,232,172631,1,8,0:0:0:0:
212,116,172781,1,8,0:0:0:0:
312,336,173081,6,0,P|405:337|467:265,1,187.000005706787,4|8,1:2|0:0,0:0:0:0:
360,232,173532,2,0,P|310:221|265:232,1,93.5000028533936
180,296,173832,1,0,1:0:0:0:
232,160,173982,2,0,P|277:143|328:143,1,93.5000028533936,8|0,0:0|0:0,0:0:0:0:
476,48,174282,6,0,P|389:72|305:29,1,187.000005706787,0|8,1:0|0:0,0:0:0:0:
204,48,174733,1,0,0:0:0:0:
120,148,174883,2,0,L|108:244,1,93.5000028533936,0|0,0:0|1:0,0:0:0:0:
216,344,175183,2,0,L|204:248,1,93.5000028533936,8|0,0:0|0:0,0:0:0:0:
308,104,175484,6,0,P|392:132|406:220,1,187.000005706787,0|8,1:0|0:0,0:0:0:0:
315,281,175934,2,0,L|327:185,1,93.5000028533936
412,312,176234,1,0,1:0:0:0:
496,224,176385,2,0,L|484:128,1,93.5000028533936,8|0,0:0|0:0,0:0:0:0:
356,36,176685,6,0,P|261:47|209:118,1,187.000005706787,0|8,1:0|0:0,0:0:0:0:
224,220,177135,2,0,L|216:320,1,93.5000028533936
324,208,177436,1,0,1:0:0:0:
209,116,177586,2,0,L|109:108,1,93.5000028533936,8|0,0:0|0:0,0:0:0:0:
56,281,177886,6,0,P|144:257|215:312,1,187.000005706787,4|8,1:2|0:0,0:0:0:0:
124,360,178337,2,0,L|144:258,1,93.5000028533936
124,140,178637,1,0,1:0:0:0:
56,281,178787,2,0,L|36:179,1,93.5000028533936,8|0,0:0|0:0,0:0:0:0:
128,48,179087,6,0,P|204:96|201:189,1,187.000005706787,0|8,1:0|0:0,0:0:0:0:
152,276,179538,1,0,0:0:0:0:
280,244,179688,2,0,P|328:236|372:240,1,93.5000028533936,0|0,0:0|1:0,0:0:0:0:
436,128,179988,2,0,P|388:136|344:132,1,93.5000028533936,8|0,0:0|0:0,0:0:0:0:
472,36,180288,6,0,L|488:224,1,187.000005706787,0|8,1:0|0:0,0:0:0:0:
384,304,180739,2,0,L|392:210,1,93.5000028533936
344,120,181039,1,0,1:0:0:0:
284,256,181189,2,0,L|292:350,1,93.5000028533936,8|0,0:0|0:0,0:0:0:0:
156,220,181490,6,0,P|160:132|240:88,1,187.000005706787,0|8,1:0|0:0,0:0:0:0:
344,120,181940,2,0,P|392:128|436:120,1,93.5000028533936
508,68,182240,1,0,1:0:0:0:
488,216,182391,2,0,P|440:208|396:216,1,93.5000028533936,8|0,0:0|0:0,0:0:0:0:
296,324,182691,6,0,P|208:336|160:256,1,187.000005706787,4|8,1:2|0:0,0:0:0:0:
192,164,183141,2,0,L|184:64,1,93.5000028533936
296,140,183442,1,0,1:0:0:0:
243,260,183592,2,0,L|235:360,1,93.5000028533936,8|0,0:0|0:0,0:0:0:0:
396,308,183892,6,0,L|379:103,1,187.000005706787,0|8,1:0|0:0,0:0:0:0:
396,20,184343,1,0,0:0:0:0:
272,60,184493,2,0,P|258:99|262:160,1,93.5000028533936,0|0,0:0|1:0,0:0:0:0:
152,240,184793,2,0,P|166:201|162:140,1,93.5000028533936,8|0,0:0|0:0,0:0:0:0:
125,30,185093,6,0,P|54:88|44:179,1,187.000005706787,0|8,1:0|0:0,0:0:0:0:
84,276,185544,2,0,L|76:372,1,93.5000028533936
184,316,185844,1,0,1:0:0:0:
137,186,185994,2,0,L|41:178,1,93.5000028533936,8|0,0:0|0:0,0:0:0:0:
188,76,186294,6,0,P|260:128|344:96,1,187.000005706787,0|8,1:0|0:0,0:0:0:0:
416,24,186745,2,0,L|428:120,1,93.5000028533936
476,216,187045,1,0,1:0:0:0:
332,188,187195,2,0,L|344:92,1,93.5000028533936,8|0,0:0|0:0,0:0:0:0:
388,276,187496,6,0,P|323:340|236:322,1,187.000005706787,4|8,1:2|0:0,0:0:0:0:
148,272,187946,2,0,P|101:260|52:269,1,93.5000028533936
96,376,188246,1,0,1:0:0:0:
236,322,188397,2,0,P|248:275|239:226,1,93.5000028533936,8|0,0:0|0:0,0:0:0:0:
168,80,188697,6,0,P|244:128|328:96,1,187.000005706787,0|8,1:0|0:0,0:0:0:0:
388,16,189147,1,0,0:0:0:0:
492,96,189297,2,0,L|484:192,1,93.5000028533936,0|0,0:0|1:0,0:0:0:0:
364,264,189598,2,0,L|372:168,1,93.5000028533936,8|0,0:0|0:0,0:0:0:0:
254,30,189898,6,0,L|269:217,1,187.000005706787,0|8,1:0|0:0,0:0:0:0:
204,296,190349,2,0,P|176:261|167:213,1,93.5000028533936
184,112,190649,1,0,1:0:0:0:
269,216,190799,2,0,P|293:255|334:278,1,93.5000028533936,8|0,0:0|0:0,0:0:0:0:
508,216,191099,6,0,P|440:156|356:188,1,187.000005706787,0|8,1:0|0:0,0:0:0:0:
268,132,191550,2,0,L|168:140,1,93.5000028533936
76,112,191850,1,0,1:0:0:0:
116,248,192000,2,0,L|216:256,1,93.5000028533936,8|0,0:0|0:0,0:0:0:0:
352,348,192300,6,0,P|300:276|328:188,1,187.000005706787,4|8,1:2|0:0,0:0:0:0:
408,124,192751,2,0,P|373:97|322:85,1,93.5000028533936
224,108,193051,1,0,1:0:0:0:
192,272,193201,2,0,P|219:237|231:186,1,93.5000028533936,8|0,0:0|0:0,0:0:0:0:
80,76,193502,6,0,L|92:264,1,187.000005706787,0|8,1:0|0:0,0:0:0:0:
76,364,193952,1,0,0:0:0:0:
208,316,194102,2,0,P|256:308|300:312,1,93.5000028533936,0|0,0:0|1:0,0:0:0:0:
376,192,194403,2,0,P|328:200|284:196,1,93.5000028533936,8|0,0:0|0:0,0:0:0:0:
172,56,194703,6,0,P|244:112|332:84,1,187.000005706787,0|8,1:0|0:0,0:0:0:0:
412,24,195153,2,0,L|404:128,1,93.5000028533936
424,228,195454,1,0,1:0:0:0:
300,192,195604,2,0,L|206:184,1,93.5000028533936,8|0,0:0|0:0,0:0:0:0:
48,236,195904,6,0,P|88:316|176:312,1,187.000005706787,0|8,1:0|0:0,0:0:0:0:
272,280,196355,2,0,L|365:272,1,93.5000028533936
284,364,196655,1,0,1:0:0:0:
220,196,196805,2,0,L|313:203,1,93.5000028533936,8|0,0:0|0:0,0:0:0:0:
476,136,197105,6,0,P|436:56|340:56,1,187.000005706787,4|8,1:2|0:0,0:0:0:0:
248,80,197556,2,0,P|200:84|152:72,1,93.5000028533936
68,20,197856,1,0,1:0:0:0:
48,168,198006,2,0,P|93:178|139:174,1,93.5000028533936,8|0,0:0|0:0,0:0:0:0:
264,60,198306,6,0,L|252:248,1,187.000005706787,0|8,1:0|0:0,0:0:0:0:
264,348,198757,1,0,0:0:0:0:
136,288,198907,2,0,P|92:280|40:292,1,93.5000028533936,0|0,0:0|1:0,0:0:0:0:
120,172,199207,2,0,P|164:180|216:168,1,93.5000028533936,8|0,0:0|0:0,0:0:0:0:
380,92,199508,6,0,P|460:128|463:220,1,187.000005706787,0|8,1:0|0:0,0:0:0:0:
376,268,199958,2,0,L|392:176,1,93.5000028533936
304,96,200258,1,0,1:0:0:0:
280,244,200409,2,0,L|295:336,1,93.5000028533936,8|0,0:0|0:0,0:0:0:0:
216,168,200709,6,0,P|128:165|91:248,1,187.000005706787,0|8,1:0|0:0,0:0:0:0:
124,344,201159,1,0,0:0:0:0:
170,233,201309,6,0,L|176:280,1,46.7500014266968,0|0,3:2|3:2,3:2:0:0:
276,332,201460,2,0,L|282:285,1,46.7500014266968,0|0,1:2|3:2,3:2:0:0:
380,233,201610,2,0,L|386:280,1,46.7500014266968,8|0,3:2|3:2,3:2:0:0:
486,332,201760,2,0,L|489:308,4,23.3750007133484,8|0|0|0|0,3:2|3:2|3:2|3:2|3:2,3:2:0:0:
