osu file format v14

[General]
AudioFilename: audio.mp3
AudioLeadIn: 0
PreviewTime: 38547
Countdown: 0
SampleSet: Normal
StackLeniency: 0.3
Mode: 0
LetterboxInBreaks: 0
EpilepsyWarning: 1
WidescreenStoryboard: 1

[Editor]
Bookmarks: 28937,33742,34042,34343,34643,34943,35243,35544,35844,37346,37646,57766,58967,60018,67376,67976,149057,163472,173081,201309,201460,201610
DistanceSpacing: 1.4
BeatDivisor: 4
GridSize: 16
TimelineZoom: 2.899999

[Metadata]
Title:Say Goodbye (Speed Up Ver.)
TitleUnicode:Say Goodbye (Speed Up Ver.)
Artist:Krewella
ArtistUnicode:Krewella
Creator:saggi
Version:The End
Source:
Tags:LiousPL Melsoon walter85 Megapcmx Minorsonek LukerMaster -NeBu- Broly Envory ChuuritsuTv
BeatmapID:1431483
BeatmapSetID:580821

[Difficulty]
HPDrainRate:6
CircleSize:4.5
OverallDifficulty:9
ApproachRate:9.6
SliderMultiplier:1.4
SliderTickRate:2

[Events]
//Background and Video events
0,0,"girl.jpg",0,0
//Break Periods
2,28987,33233
2,79588,88038
2,149257,162963
//Storyboard Layer 0 (Background)
//Storyboard Layer 1 (Fail)
//Storyboard Layer 2 (Pass)
//Storyboard Layer 3 (Foreground)
Sprite,Foreground,Centre,"sb\highlight.png",421,223 C,0,47856,,242,24,57 F,2,47856,48656,1,0 S,2,47856,48656,0.9,0.18 P,0,47856,48656,A
Sprite,Foreground,Centre,"sb\highlight.png",400,243 C,0,47931,,242,24,57 F,2,47931,48731,1,0 S,2,47931,48731,0.9,0.18 P,0,47931,48731,A
Sprite,Foreground,Centre,"sb\highlight.png",371,250 C,0,48006,,242,24,57 F,2,48006,48806,1,0 S,2,48006,48806,0.9,0.18 P,0,48006,48806,A
Sprite,Foreground,Centre,"sb\highlight.png",344,237 C,0,48081,,242,24,57 F,2,48081,48881,1,0 S,2,48081,48881,0.9,0.18 P,0,48081,48881,A
Sprite,Foreground,Centre,"sb\highlight.png",464,344 C,0,96204,,18,124,255 F,2,96204,97004,1,0 S,2,96204,97004,0.9,0.18 P,0,96204,97004,A
Sprite,Foreground,Centre,"sb\highlight.png",464,344 C,0,96279,,18,124,255 F,2,96279,97079,1,0 S,2,96279,97079,0.9,0.18 P,0,96279,97079,A
Sprite,Foreground,Centre,"sb\highlight.png",464,344 C,0,96355,,18,124,255 F,2,96355,97155,1,0 S,2,96355,97155,0.9,0.18 P,0,96355,97155,A
Sprite,Foreground,Centre,"sb\highlight.png",256,200 C,0,96505,,18,124,255 F,2,96505,97305,1,0 S,2,96505,97305,0.9,0.18 P,0,96505,97305,A
Sprite,Foreground,Centre,"sb\highlight.png",336,376 C,0,96655,,18,124,255 F,2,96655,97455,1,0 S,2,96655,97455,0.9,0.18 P,0,96655,97455,A
Sprite,Foreground,Centre,"sb\highlight.png",368,120 C,0,96805,,18,124,255 F,2,96805,97605,1,0 S,2,96805,97605,0.9,0.18 P,0,96805,97605,A
Sprite,Foreground,Centre,"sb\highlight.png",186,366 C,0,96955,,18,124,255 F,2,96955,97755,1,0 S,2,96955,97755,0.9,0.18 P,0,96955,97755,A
Sprite,Foreground,Centre,"sb\highlight.png",352,238 C,0,97105,,242,24,57 F,2,97105,97905,1,0 S,2,97105,97905,0.9,0.18 P,0,97105,97905,A
Sprite,Foreground,Centre,"sb\highlight.png",352,238 C,0,97180,,242,24,57 F,2,97180,97980,1,0 S,2,97180,97980,0.9,0.18 P,0,97180,97980,A
Sprite,Foreground,Centre,"sb\highlight.png",352,238 C,0,97255,,242,24,57 F,2,97255,98055,1,0 S,2,97255,98055,0.9,0.18 P,0,97255,98055,A
Sprite,Foreground,Centre,"sb\highlight.png",210,169 C,0,97406,,242,24,57 M,0,97406,97443,210,169,185.6413,169.4591 F,2,97406,98356,1,0 S,2,97406,98356,0.9,0.18 P,0,97406,98356,A M,0,97443,97481,185.6413,169.4591,162.3116,176.2729 M,0,97481,97518,162.3116,176.2729,141.7947,189.309 M,0,97518,97556,141.7947,189.309,125.7099,207.5418
Sprite,Foreground,Centre,"sb\highlight.png",203,255 C,0,97706,,242,24,57 F,2,97706,98506,1,0 S,2,97706,98506,0.9,0.18 P,0,97706,98506,A
Sprite,Foreground,Centre,"sb\highlight.png",272,216 C,0,97856,,242,24,57 F,2,97856,98656,1,0 S,2,97856,98656,0.9,0.18 P,0,97856,98656,A
Sprite,Foreground,Centre,"sb\highlight.png",332,150 C,0,98006,,242,24,57 M,0,98006,98043,332,150,347.9951,168.3016 F,2,98006,98956,1,0 S,2,98006,98956,0.9,0.18 P,0,98006,98956,A M,0,98043,98081,347.9951,168.3016,357.36,190.6407 M,0,98081,98118,357.36,190.6407,358.7318,214.8247 M,0,98118,98156,358.7318,214.8247,351.9528,238.08
Sprite,Foreground,Centre,"sb\highlight.png",272,296 C,0,98306,,242,24,57 M,0,98306,98343,272,296,292.3068,309.7071 F,2,98306,99256,1,0 S,2,98306,99256,0.9,0.18 P,0,98306,99256,A M,0,98343,98381,292.3068,309.7071,312,323 M,0,98381,98418,312,323,292.3068,309.7071 M,0,98418,98456,292.3068,309.7071,272,296
Sprite,Foreground,Centre,"sb\highlight.png",448,104 C,0,147856,,18,124,255 M,0,147856,147893,448,104,457.9041,120.5067 F,2,147856,148806,1,0 S,2,147856,148806,0.9,0.18 P,0,147856,148806,A M,0,147893,147931,457.9041,120.5067,467.8081,137.0135 M,0,147931,147968,467.8081,137.0135,477.7121,153.5202 M,0,147968,148006,477.7121,153.5202,487.6162,170.027
Sprite,Foreground,Centre,"sb\highlight.png",304,264 C,0,148156,,18,124,255 F,2,148156,148956,1,0 S,2,148156,148956,0.9,0.18 P,0,148156,148956,A
Sprite,Foreground,Centre,"sb\highlight.png",278,261 C,0,148231,,18,124,255 F,2,148231,149031,1,0 S,2,148231,149031,0.9,0.18 P,0,148231,149031,A
Sprite,Foreground,Centre,"sb\highlight.png",252,248 C,0,148306,,18,124,255 F,2,148306,149106,1,0 S,2,148306,149106,0.9,0.18 P,0,148306,149106,A
Sprite,Foreground,Centre,"sb\highlight.png",224,136 C,0,148457,,242,24,57 M,0,148457,148494,224,136,239.0317,123.9746 F,2,148457,149407,1,0 S,2,148457,149407,0.9,0.18 P,0,148457,149407,A M,0,148494,148532,239.0317,123.9746,254.0634,111.9492 M,0,148532,148569,254.0634,111.9492,269.0952,99.92386 M,0,148569,148607,269.0952,99.92386,284.1269,87.89848
Sprite,Foreground,Centre,"sb\highlight.png",368,216 C,0,148757,,242,24,57 F,2,148757,149557,1,0 S,2,148757,149557,0.9,0.18 P,0,148757,149557,A
Sprite,Foreground,Centre,"sb\highlight.png",368,216 C,0,148832,,242,24,57 F,2,148832,149632,1,0 S,2,148832,149632,0.9,0.18 P,0,148832,149632,A
Sprite,Foreground,Centre,"sb\highlight.png",368,216 C,0,148907,,242,24,57 F,2,148907,149707,1,0 S,2,148907,149707,0.9,0.18 P,0,148907,149707,A
Sprite,Foreground,Centre,"sb\highlight.png",368,216 C,0,148982,,242,24,57 F,2,148982,149782,1,0 S,2,148982,149782,0.9,0.18 P,0,148982,149782,A
Sprite,Foreground,Centre,"sb\highlight.png",368,216 C,0,149057,,242,24,57 F,2,149057,149857,1,0 S,2,149057,149857,0.9,0.18 P,0,149057,149857,A
Sprite,Foreground,Centre,"sb\highlight.png",192,312 C,0,171880,,255,192,0 F,2,171880,172680,1,0 S,2,171880,172680,0.9,0.18 P,0,171880,172680,A
Sprite,Foreground,Centre,"sb\highlight.png",192,312 C,0,172030,,255,192,0 M,0,172030,172067,192,312,205.6118,298.3882 F,2,172030,172905,1,0 S,2,172030,172905,0.9,0.18 P,0,172030,172905,A M,0,172067,172105,205.6118,298.3882,219.2236,284.7764
Sprite,Foreground,Centre,"sb\highlight.png",336,168 C,0,172180,,255,192,0 F,2,172180,172980,1,0 S,2,172180,172980,0.9,0.18 P,0,172180,172980,A
Sprite,Foreground,Centre,"sb\highlight.png",160,120 C,0,172331,,255,192,0 F,2,172331,173131,1,0 S,2,172331,173131,0.9,0.18 P,0,172331,173131,A
Sprite,Foreground,Centre,"sb\highlight.png",326,376 C,0,172481,,255,192,0 F,2,172481,173281,1,0 S,2,172481,173281,0.9,0.18 P,0,172481,173281,A
Sprite,Foreground,Centre,"sb\highlight.png",160,120 C,0,172631,,0,202,0 F,2,172631,173431,1,0 S,2,172631,173431,0.9,0.18 P,0,172631,173431,A
Sprite,Foreground,Centre,"sb\highlight.png",326,376 C,0,172781,,0,202,0 F,2,172781,173581,1,0 S,2,172781,173581,0.9,0.18 P,0,172781,173581,A
Sprite,Foreground,Centre,"sb\highlight.png",160,120 C,0,172931,,0,202,0 F,2,172931,173731,1,0 S,2,172931,173731,0.9,0.18 P,0,172931,173731,A
Sprite,Foreground,Centre,"sb\highlight.png",176,392 C,0,201309,,242,24,57 M,0,201309,201346,176,392,150.5338,385.6335 F,2,201309,202584,1,0 S,2,201309,202584,1,0.2 P,0,201309,202584,A M,0,201346,201384,150.5338,385.6335,125.0675,379.2669
Sprite,Foreground,Centre,"sb\highlight.png",240,312 C,0,201460,,242,24,57 M,0,201460,201497,240,312,213.8297,314.0446 F,2,201460,202735,1,0 S,2,201460,202735,1,0.2 P,0,201460,202735,A M,0,201497,201535,213.8297,314.0446,187.6595,316.0891
Sprite,Foreground,Centre,"sb\highlight.png",128,300 C,0,201610,,255,192,0 F,2,201610,202810,1,0 S,2,201610,202810,1,0.2 P,0,201610,202810,A
Sprite,Foreground,Centre,"sb\highlight.png",99,269 C,0,201685,,255,192,0 F,2,201685,202885,1,0 S,2,201685,202885,1,0.2 P,0,201685,202885,A
Sprite,Foreground,Centre,"sb\highlight.png",95,227 C,0,201760,,255,192,0 F,2,201760,202960,1,0 S,2,201760,202960,1,0.2 P,0,201760,202960,A
Sprite,Foreground,Centre,"sb\highlight.png",120,193 C,0,201835,,255,192,0 F,2,201835,203035,1,0 S,2,201835,203035,1,0.2 P,0,201835,203035,A
Sprite,Foreground,Centre,"sb\highlight.png",176,264 C,0,37346,,242,24,57 F,2,37346,38146,1,0 S,2,37346,38146,0.9,0.18 P,0,37346,38146,A
Sprite,Foreground,Centre,"sb\highlight.png",352,360 C,0,37496,,242,24,57 F,2,37496,38296,1,0 S,2,37496,38296,0.9,0.18 P,0,37496,38296,A
Sprite,Foreground,Centre,"sb\highlight.png",352,360 C,0,37646,,242,24,57 M,0,37646,37683,352,360,360.6595,340.8685 F,2,37646,38596,1,0 S,2,37646,38596,0.9,0.18 P,0,37646,38596,A M,0,37683,37721,360.6595,340.8685,369.319,321.7371 M,0,37721,37758,369.319,321.7371,377.9785,302.6056 M,0,37758,37796,377.9785,302.6056,386.638,283.4741
Sprite,Foreground,Centre,"sb\highlight.png",400,136 C,0,37946,,242,24,57 F,2,37946,38746,1,0 S,2,37946,38746,0.9,0.18 P,0,37946,38746,A
Sprite,Foreground,Centre,"sb\highlight.png",400,136 C,0,38096,,242,24,57 M,0,38096,38133,400,136,387.0223,134.2819 F,2,38096,39196,1,0 S,2,38096,39196,0.9,0.18 P,0,38096,39196,A M,0,38133,38171,387.0223,134.2819,373.9347,133.811 M,0,38171,38208,373.9347,133.811,360.9657,135.5727 M,0,38208,38246,360.9657,135.5727,348.2442,138.638 M,0,38246,38283,348.2442,138.638,336.2,143.7537 M,0,38283,38321,336.2,143.7537,324.7802,150.1247 M,0,38321,38358,324.7802,150.1247,314.5111,158.232 M,0,38358,38396,314.5111,158.232,305.2319,167.436
Sprite,Foreground,Centre,"sb\highlight.png",326,270 C,0,107916,,255,192,0 F,2,107916,108716,1,0 S,2,107916,108716,0.9,0.18 P,0,107916,108716,A
Sprite,Foreground,Centre,"sb\highlight.png",311,245 C,0,107991,,255,192,0 F,2,107991,108791,1,0 S,2,107991,108791,0.9,0.18 P,0,107991,108791,A
Sprite,Foreground,Centre,"sb\highlight.png",283,240 C,0,108066,,255,192,0 F,2,108066,108866,1,0 S,2,108066,108866,0.9,0.18 P,0,108066,108866,A
Sprite,Foreground,Centre,"sb\highlight.png",257,250 C,0,108141,,255,192,0 F,2,108141,108941,1,0 S,2,108141,108941,0.9,0.18 P,0,108141,108941,A
Sprite,Foreground,Centre,"sb\highlight.png",480,88 C,0,117826,,0,202,0 F,2,117826,118626,1,0 S,2,117826,118626,0.9,0.18 P,0,117826,118626,A
Sprite,Foreground,Centre,"sb\highlight.png",368,327 C,0,117976,,0,202,0 F,2,117976,118776,1,0 S,2,117976,118776,0.9,0.18 P,0,117976,118776,A
Sprite,Foreground,Centre,"sb\highlight.png",272,72 C,0,118126,,0,202,0 F,2,118126,118926,1,0 S,2,118126,118926,0.9,0.18 P,0,118126,118926,A
Sprite,Foreground,Centre,"sb\highlight.png",496,216 C,0,118276,,0,202,0 F,2,118276,119076,1,0 S,2,118276,119076,0.9,0.18 P,0,118276,119076,A
Sprite,Foreground,Centre,"sb\highlight.png",234,236 C,0,118427,,0,202,0 F,2,118427,119227,1,0 S,2,118427,119227,0.9,0.18 P,0,118427,119227,A
Sprite,Foreground,Centre,"sb\highlight.png",375,80 C,0,118577,,0,202,0 F,2,118577,119377,1,0 S,2,118577,119377,0.9,0.18 P,0,118577,119377,A
Sprite,Foreground,Centre,"sb\highlight.png",160,120 C,0,118877,,18,124,255 F,2,118877,119677,1,0 S,2,118877,119677,0.9,0.18 P,0,118877,119677,A
Sprite,Foreground,Centre,"sb\highlight.png",480,184 C,0,119027,,18,124,255 F,2,119027,119827,1,0 S,2,119027,119827,0.9,0.18 P,0,119027,119827,A
Sprite,Foreground,Centre,"sb\highlight.png",400,296 C,0,119628,,242,24,57 F,2,119628,120428,1,0 S,2,119628,120428,0.9,0.18 P,0,119628,120428,A
Sprite,Foreground,Centre,"sb\highlight.png",288,376 C,0,120078,,242,24,57 F,2,120078,120878,1,0 S,2,120078,120878,0.9,0.18 P,0,120078,120878,A
Sprite,Foreground,Centre,"sb\highlight.png",240,88 C,0,119928,,242,24,57 F,2,119928,120728,1,0 S,2,119928,120728,0.9,0.18 P,0,119928,120728,A
Sprite,Foreground,Centre,"sb\highlight.png",400,296 C,0,119778,,242,24,57 M,0,119778,119815,400,296,406.791,268.836 F,2,119778,120653,1,0 S,2,119778,120653,0.9,0.18 P,0,119778,120653,A M,0,119815,119853,406.791,268.836,413.582,241.672
Sprite,Foreground,Centre,"sb\highlight.png",273,174 C,0,119478,,242,24,57 F,2,119478,120278,1,0 S,2,119478,120278,0.9,0.18 P,0,119478,120278,A
Sprite,Foreground,Centre,"sb\highlight.png",273,174 C,0,119328,,242,24,57 F,2,119328,120128,1,0 S,2,119328,120128,0.9,0.18 P,0,119328,120128,A
Sprite,Foreground,Centre,"sb\highlight.png",480,184 C,0,119177,,18,124,255 F,2,119177,119977,1,0 S,2,119177,119977,0.9,0.18 P,0,119177,119977,A
Sprite,Foreground,Centre,"sb\highlight.png",296,362 C,0,118727,,18,124,255 F,2,118727,119527,1,0 S,2,118727,119527,0.9,0.18 P,0,118727,119527,A
//Storyboard Sound Samples

[TimingPoints]
1310,300.3003003003,4,1,1,70,1,0
28937,-83.3333333333333,4,1,1,70,0,0
29838,-66.6666666666667,4,1,1,70,0,0
30138,-83.3333333333333,4,1,1,70,0,0
37946,-133.333333333333,4,1,1,70,0,0
38547,-54.054054054054,4,1,1,70,0,1
38647,-68.9655172413792,4,1,1,70,0,1
38847,-68.9655172413792,4,1,1,70,0,1
40273,-68.9655172413792,4,1,1,5,0,1
40349,-68.9655172413792,4,1,1,70,0,1
41174,-68.9655172413792,4,1,1,5,0,1
41249,-68.9655172413792,4,1,1,70,0,1
41775,-68.9655172413792,4,1,1,5,0,1
41850,-68.9655172413792,4,1,1,70,0,1
42376,-68.9655172413792,4,1,1,5,0,1
42451,-68.9655172413792,4,1,1,70,0,1
44478,-68.9655172413792,4,1,1,5,0,1
44553,-68.9655172413792,4,1,1,70,0,1
48156,-54.054054054054,4,1,1,70,0,1
48457,-64.5161290322581,4,1,1,70,0,1
49282,-64.5161290322581,4,1,1,5,0,1
49358,-64.5161290322581,4,1,1,70,0,1
51685,-64.5161290322581,4,1,1,5,0,1
51760,-64.5161290322581,4,1,1,70,0,1
52961,-64.5161290322581,4,1,1,60,0,1
55364,-64.5161290322581,4,1,1,70,0,1
56565,-64.5161290322581,4,1,1,80,0,1
57766,-64.5161290322581,4,1,1,50,0,1
58066,-68.9655172413792,4,1,1,70,0,0
60168,-57.1428571428571,4,1,1,70,0,0
60319,-68.9655172413793,4,1,1,70,0,0
61595,-68.9655172413793,4,1,1,5,0,0
61670,-68.9655172413793,4,1,1,70,0,0
63997,-68.9655172413793,4,1,1,5,0,0
64072,-68.9655172413793,4,1,1,70,0,0
66400,-68.9655172413793,4,1,1,5,0,0
66475,-68.9655172413793,4,1,1,70,0,0
67376,-74.0740740740741,4,1,1,70,0,0
69778,-68.9655172413793,4,1,1,70,0,0
71204,-68.9655172413793,4,1,1,5,0,0
71279,-68.9655172413793,4,1,1,70,0,0
73607,-68.9655172413793,4,1,1,5,0,0
73682,-68.9655172413793,4,1,1,70,0,0
76009,-68.9655172413793,4,1,1,5,0,0
76084,-68.9655172413793,4,1,1,70,0,0
76985,-74.0740740740741,4,1,1,70,0,0
79388,-90.9090909090909,4,1,1,70,0,0
88997,-71.4285714285714,4,1,1,70,0,0
98607,-55.5555555555556,4,1,1,70,0,1
98907,-62.5,4,1,1,70,0,1
99733,-62.5,4,1,1,5,0,1
99808,-62.5,4,1,1,70,0,1
101234,-62.5,4,1,1,5,0,1
101309,-62.5,4,1,1,70,0,1
101835,-62.5,4,1,1,6,0,1
101910,-62.5,4,1,1,70,0,1
102436,-62.5,4,1,1,5,0,1
102511,-62.5,4,1,1,70,0,1
104538,-62.5,4,1,1,5,0,1
104613,-62.5,4,1,1,70,0,1
108216,-55.5555555555556,4,1,1,70,0,1
108517,-62.5,4,1,1,70,0,1
109343,-62.5,4,1,1,5,0,1
109418,-62.5,4,1,1,70,0,1
111745,-62.5,4,1,1,5,0,1
111820,-62.5,4,1,1,70,0,1
112045,-62.5,4,1,1,5,0,1
112120,-62.5,4,1,1,70,0,1
113021,-62.5,4,1,1,60,0,1
115424,-62.5,4,1,1,65,0,1
117826,-62.5,4,1,1,75,0,1
119027,-62.5,4,1,1,85,0,1
120228,-58.8235294117647,4,1,1,70,0,0
121655,-58.8235294117647,4,1,1,5,0,0
121730,-58.8235294117647,4,1,1,70,0,0
124057,-58.8235294117647,4,1,1,5,0,0
124132,-58.8235294117647,4,1,1,70,0,0
126460,-58.8235294117647,4,1,1,5,0,0
126535,-58.8235294117647,4,1,1,70,0,0
129838,-66.6666666666667,4,1,1,70,0,0
131039,-83.3333333333333,4,1,1,70,0,0
132240,-66.6666666666667,4,1,1,70,0,0
132841,-83.3333333333333,4,1,1,70,0,0
134643,-66.6666666666667,4,1,1,70,0,0
135243,-83.3333333333333,4,1,1,70,0,0
137045,-95.2380952380951,4,1,1,70,0,0
139448,-90.9090909090909,4,1,1,70,0,0
173081,-66.6666666666667,4,1,1,70,0,1
187721,-66.6666666666667,4,1,1,5,0,1
187796,-66.6666666666667,4,1,1,70,0,1
188922,-66.6666666666667,4,1,1,5,0,1
188997,-66.6666666666667,4,1,1,70,0,1
189222,-66.6666666666667,4,1,1,5,0,1
189297,-66.6666666666667,4,1,1,70,0,1
192526,-66.6666666666667,4,1,1,5,0,1
192601,-66.6666666666667,4,1,1,70,0,1
197105,-66.6666666666667,4,1,1,70,0,0
197331,-66.6666666666667,4,1,1,5,0,0
197406,-66.6666666666667,4,1,1,70,0,0

[HitObjects]
256,192,8517,12,8,9718,0:0:0:0:
192,112,10018,6,0,L|160:176,1,70,0|0,0:0|0:0,0:0:0:0:
112,256,10319,2,0,P|80:224|80:128,1,140,0|0,0:0|0:0,0:0:0:0:
283,208,10919,6,0,P|347:224|379:240,1,70,2|0,0:0|0:0,0:0:0:0:
397,313,11219,1,2,0:0:0:0:
266,288,11370,1,0,0:0:0:0:
443,228,11520,2,0,P|416:161|347:132,1,140,0|0,0:0|0:0,0:0:0:0:
266,288,12120,1,2,0:0:0:0:
223,49,12421,6,0,L|191:113,2,70,0|0|0,0:0|0:0|0:0,0:0:0:0:
357,132,13021,1,0,0:0:0:0:
224,232,13322,2,0,L|272:296,1,70,0|0,0:0|0:0,0:0:0:0:
352,224,13622,1,2,0:0:0:0:
336,336,13772,1,0,0:0:0:0:
192,342,13922,2,0,B|194:303|176:278|176:278|224:246|224:246|224:214,1,140,0|0,0:0|0:0,0:0:0:0:
76,133,14523,5,2,0:0:0:0:
76,133,14823,2,0,L|160:112,2,70,0|0|0,0:0|0:0|0:0,0:0:0:0:
96,32,15424,1,0,0:0:0:0:
208,64,15724,6,0,L|240:128,1,70,2|0,0:0|0:0,0:0:0:0:
203,186,16024,2,0,L|251:106,1,70,0|2,0:0|0:0,0:0:0:0:
304,48,16325,1,0,0:0:0:0:
322,216,16625,1,0,0:0:0:0:
464,32,16925,6,0,B|438:77|438:77|454:127|454:127|448:176,1,140,2|0,0:0|0:0,0:0:0:0:
387,288,17376,2,0,P|342:293|348:199,1,140,2|0,0:0|0:0,0:0:0:0:
240,320,17826,1,0,0:0:0:0:
158,191,18126,6,0,B|168:250|168:250|123:302|163:371,1,140,2|0,0:0|0:0,0:0:0:0:
82,221,18577,2,0,P|98:125|162:109,1,140,2|0,0:0|0:0,0:0:0:0:
32,80,19027,1,0,0:0:0:0:
304,48,19328,5,2,0:0:0:0:
272,160,19628,1,0,0:0:0:0:
239,73,19778,2,0,L|319:41,2,70,0|0|0,0:0|0:0|0:0,0:0:0:0:
272,160,20228,1,0,0:0:0:0:
384,144,20529,6,0,L|400:224,1,70,2|0,0:0|0:0,0:0:0:0:
318,274,20829,1,2,0:0:0:0:
272,160,20979,1,2,0:0:0:0:
208,256,21129,2,0,P|221:338|287:375,1,140,0|0,0:0|0:0,0:0:0:0:
128,336,21730,1,2,0:0:0:0:
82,221,22030,6,0,L|50:157,2,70,0|2|0,0:0|0:0|0:0,0:0:0:0:
144,128,22631,2,0,L|160:48,1,70,0|0,0:0|0:0,0:0:0:0:
255,80,22931,1,2,0:0:0:0:
48,64,23231,1,0,0:0:0:0:
144,128,23382,1,2,0:0:0:0:
255,80,23532,2,0,P|272:176|234:227,1,140,0|0,0:0|0:0,0:0:0:0:
368,128,24132,5,2,0:0:0:0:
352,288,24433,1,0,0:0:0:0:
448,224,24583,2,0,L|432:320,1,70,0|0,0:0|0:0,0:0:0:0:
352,288,25033,1,0,0:0:0:0:
208,304,25334,6,0,L|128:288,1,70,2|0,0:0|0:0,0:0:0:0:
80,208,25634,1,0,0:0:0:0:
48,288,25784,2,0,L|48:368,2,70,0|0|0,0:0|0:0|0:0,0:0:0:0:
80,208,26234,1,0,0:0:0:0:
128,137,26535,6,0,P|51:122|0:176,1,140,2|0,0:0|0:0,0:0:0:0:
210,172,26985,2,0,P|211:93|149:52,1,140,2|0,0:0|0:0,0:0:0:0:
222,257,27436,2,0,P|269:234|279:161,1,70,0|0,0:0|0:0,0:0:0:0:
371,173,27736,6,0,P|448:158|499:212,1,140,2|0,0:0|0:0,0:0:0:0:
289,208,28186,2,0,P|287:129|349:88,1,140,2|0,0:0|0:0,0:0:0:0:
277,293,28637,2,0,P|230:270|220:197,1,70,0|0,0:0|0:0,0:0:0:0:
295,314,33742,5,8,0:0:0:0:
151,267,34042,1,8,0:0:0:0:
151,116,34343,1,8,0:0:0:0:
295,69,34643,1,8,0:0:0:0:
384,192,34943,5,8,0:0:0:0:
151,267,35243,1,8,0:0:0:0:
295,69,35544,1,8,0:0:0:0:
304,304,35844,1,8,0:0:0:0:
144,112,36144,5,8,0:0:0:0:
256,192,36294,1,8,0:0:0:0:
384,192,36445,1,8,0:0:0:0:
288,64,36595,1,8,0:0:0:0:
160,272,36745,1,8,0:0:0:0:
144,112,36895,1,8,0:0:0:0:
304,304,37045,1,8,0:0:0:0:
384,192,37195,1,8,0:0:0:0:
97,202,37346,5,0,0:0:0:0:
97,202,37496,1,0,0:0:0:0:
256,192,37646,1,0,0:0:0:0:
256,192,37796,1,0,0:0:0:0:
48,80,37946,1,0,0:0:0:0:
144,128,38096,2,0,P|168:58|124:6,1,131.25000500679,0|0,0:0|0:0,0:0:0:0:
48,80,38547,6,0,B|122:74|143:126|143:126|226:65|336:103,1,258.999999011993,12|2,0:0|0:0,0:0:0:0:
400,224,38997,1,0,0:0:0:0:
240,176,39147,1,0,0:0:0:0:
272,288,39297,1,8,0:0:0:0:
400,128,39448,6,0,P|461:152|485:222,1,101.500003097534,2|0,0:0|0:0,0:0:0:0:
272,288,39748,2,0,P|190:286|144:240,1,101.500003097534,8|0,0:0|0:0,0:0:0:0:
62,183,40048,2,0,B|126:167|126:167|173:200|250:171,1,152.250004646301,2|0,0:0|0:0,0:0:0:0:
240,176,40349,1,0,0:0:0:0:
176,32,40499,1,8,0:0:0:0:
112,256,40649,1,2,0:0:0:0:
48,80,40799,1,0,0:0:0:0:
240,176,40949,6,0,P|304:208|288:128,1,152.250004646301,8|0,0:0|0:0,0:0:0:0:
299,123,41249,1,2,0:0:0:0:
384,256,41400,1,0,0:0:0:0:
450,72,41550,2,0,B|479:135|446:190|446:190|466:232,1,152.250004646301,0|0,0:0|0:0,0:0:0:0:
480,240,41850,1,2,0:0:0:0:
299,123,42000,1,0,0:0:0:0:
304,304,42150,6,0,B|253:320|253:320|201:299|144:320,1,152.250004646301,8|0,0:0|0:0,0:0:0:0:
128,330,42451,1,2,0:0:0:0:
368,352,42601,1,0,0:0:0:0:
240,176,42751,1,0,0:0:0:0:
128,330,42901,1,8,0:0:0:0:
64,128,43051,1,2,0:0:0:0:
240,176,43201,1,0,0:0:0:0:
31,257,43352,6,0,B|115:242|156:190|156:190|189:174|219:173,1,203.000006195069,12|2,0:0|0:0,0:0:0:0:
304,304,43802,1,0,0:0:0:0:
400,112,43952,1,0,0:0:0:0:
240,176,44102,1,8,0:0:0:0:
481,239,44252,6,0,B|465:175|465:175|497:127|481:79,1,152.250004646301,2|0,0:0|0:0,0:0:0:0:
464,61,44553,1,8,0:0:0:0:
320,208,44703,1,0,0:0:0:0:
272,32,44853,1,2,0:0:0:0:
400,112,45003,1,0,0:0:0:0:
192,96,45153,1,0,0:0:0:0:
304,304,45303,1,8,0:0:0:0:
400,112,45454,1,2,0:0:0:0:
208,256,45604,1,0,0:0:0:0:
481,239,45754,6,0,B|437:251|437:251|395:333|291:300,1,203.000006195069,8|2,0:0|0:0,0:0:0:0:
240,176,46204,1,0,0:0:0:0:
208,256,46355,2,0,B|156:296|160:352,1,101.500003097534,0|8,0:0|0:0,0:0:0:0:
152,183,46655,1,2,0:0:0:0:
152,183,46805,1,0,0:0:0:0:
481,239,46955,1,8,0:0:0:0:
336,64,47856,5,0,0:0:0:0:
306,68,47931,1,0,0:0:0:0:
282,86,48006,1,0,0:0:0:0:
270,114,48081,1,0,0:0:0:0:
273,144,48156,2,0,B|212:142|176:107|176:107|107:107|67:146|67:146|16:144,1,258.999999011993,12|2,0:0|0:0,0:0:0:0:
144,32,48607,1,0,0:0:0:0:
96,240,48757,1,0,0:0:0:0:
272,144,48907,1,8,0:0:0:0:
33,144,49057,6,0,P|120:136|193:196,1,162.750001241684,2|0,0:0|0:0,0:0:0:0:
196,206,49358,1,8,0:0:0:0:
336,64,49508,1,0,0:0:0:0:
368,272,49658,1,2,0:0:0:0:
272,144,49808,1,0,0:0:0:0:
448,128,49958,2,0,P|389:136|337:218,1,108.500000827789,0|8,0:0|0:0,0:0:0:0:
279,335,50258,2,0,L|391:255,1,108.500000827789,2|0,0:0|0:0,0:0:0:0:
196,206,50559,6,0,B|124:197|124:197|74:235|74:235|22:212|24:157,1,217.000001655579,12|2,0:0|0:0,0:0:0:0:
192,128,51009,1,0,0:0:0:0:
176,320,51159,1,0,0:0:0:0:
96,96,51309,1,8,0:0:0:0:
25,313,51460,6,0,P|60:232|4:163,1,162.750001241684,2|0,0:0|0:0,0:0:0:0:
24,174,51760,2,0,B|22:212|74:235|74:235|124:197|124:197,1,108.500000827789,8|0,0:0|0:0,0:0:0:0:
192,128,52060,1,2,0:0:0:0:
96,96,52210,1,0,0:0:0:0:
192,208,52361,1,0,0:0:0:0:
248,71,52511,1,8,0:0:0:0:
272,144,52661,1,2,0:0:0:0:
192,128,52811,1,0,0:0:0:0:
347,78,52961,5,12,0:0:0:0:
442,210,53261,1,8,0:0:0:0:
347,342,53562,1,8,0:0:0:0:
192,291,53862,1,8,0:0:0:0:
192,128,54162,1,8,0:0:0:0:
347,342,54463,5,8,0:0:0:0:
352,80,54763,1,8,0:0:0:0:
192,291,55063,1,8,0:0:0:0:
448,208,55364,5,8,0:0:0:0:
256,224,55514,1,8,0:0:0:0:
416,288,55664,5,8,0:0:0:0:
176,208,55814,1,8,0:0:0:0:
352,352,55964,5,8,0:0:0:0:
224,144,56114,1,8,0:0:0:0:
272,384,56264,5,8,0:0:0:0:
304,151,56415,1,8,0:0:0:0:
192,368,56565,5,2,0:0:0:0:
224,112,56715,1,8,0:0:0:0:
112,336,56865,5,2,0:0:0:0:
144,96,57015,1,8,0:0:0:0:
32,304,57165,5,2,0:0:0:0:
64,80,57316,1,2,0:0:0:0:
112,336,57466,1,2,0:0:0:0:
64,112,57616,1,2,0:0:0:0:
144,128,57766,1,6,0:0:0:0:
256,192,58967,12,0,60018,0:0:0:0:
80,144,60168,6,0,B|208:112|288:160|288:160|368:128,1,245.000002336502,12|2,0:0|0:0,0:0:0:0:
208,48,60619,1,0,0:0:0:0:
192,240,60769,1,0,0:0:0:0:
351,125,60919,1,8,0:0:0:0:
176,224,61069,1,2,0:0:0:0:
352,320,61219,1,0,0:0:0:0:
134,299,61370,6,0,B|120:257|80:252|80:252|48:210|76:134,1,152.250004646301,8|0,0:0|0:0,0:0:0:0:
80,144,61670,1,2,0:0:0:0:
48,336,61820,1,0,0:0:0:0:
224,160,61970,1,0,0:0:0:0:
224,336,62120,1,8,0:0:0:0:
80,144,62270,1,2,0:0:0:0:
192,240,62421,1,0,0:0:0:0:
224,32,62571,6,0,B|257:97|224:160|224:160|273:182|280:252,1,203.000006195069,12|2,0:0|0:0,0:0:0:0:
128,304,63021,1,0,0:0:0:0:
352,144,63171,1,0,0:0:0:0:
319,315,63322,1,8,0:0:0:0:
192,240,63472,1,2,0:0:0:0:
432,256,63622,1,0,0:0:0:0:
256,368,63772,6,0,B|215:317|256:256|256:256|208:240,1,152.250004646301,8|0,0:0|0:0,0:0:0:0:
192,240,64072,1,2,0:0:0:0:
400,352,64222,1,0,0:0:0:0:
448,112,64373,1,0,0:0:0:0:
319,315,64523,1,8,0:0:0:0:
432,256,64673,1,2,0:0:0:0:
224,160,64823,1,0,0:0:0:0:
145,333,64973,6,0,B|195:242|195:242|113:211|142:82,1,203.000006195069,12|2,0:0|0:0,0:0:0:0:
272,64,65424,1,0,0:0:0:0:
48,144,65574,1,0,0:0:0:0:
224,160,65724,1,8,0:0:0:0:
144,16,65874,1,2,0:0:0:0:
64,240,66024,1,0,0:0:0:0:
224,160,66174,6,0,P|326:148|379:79,1,152.250004646301,8|0,0:0|0:0,0:0:0:0:
372,90,66475,1,2,0:0:0:0:
352,240,66625,1,0,0:0:0:0:
272,64,66775,1,0,0:0:0:0:
224,256,66925,1,8,0:0:0:0:
432,240,67075,1,2,0:0:0:0:
144,208,67225,1,0,0:0:0:0:
177,329,67376,6,0,P|258:326|202:257,1,189.000000720978,12|2,0:0|0:0,0:0:0:0:
32,256,67826,1,0,0:0:0:0:
144,208,67976,2,0,P|172:132|87:156,1,189.000000720978,0|2,0:0|0:0,0:0:0:0:
32,256,68427,1,0,0:0:0:0:
93,136,68577,5,8,0:0:0:0:
64,336,68727,1,0,0:0:0:0:
224,256,68877,1,2,0:0:0:0:
32,256,69027,1,0,0:0:0:0:
176,336,69177,1,0,0:0:0:0:
288,176,69328,1,8,0:0:0:0:
144,208,69478,1,2,0:0:0:0:
304,320,69628,1,0,0:0:0:0:
368,96,69778,6,0,B|345:150|288:176|288:176|345:214|329:274,1,203.000006195069,12|2,0:0|0:0,0:0:0:0:
144,208,70228,1,0,0:0:0:0:
304,320,70379,1,0,0:0:0:0:
416,192,70529,1,8,0:0:0:0:
240,256,70679,1,2,0:0:0:0:
432,352,70829,1,0,0:0:0:0:
416,192,70979,6,0,B|432:130|473:109|473:109|432:48,1,152.250004646301,8|0,0:0|0:0,0:0:0:0:
432,32,71279,1,2,0:0:0:0:
263,85,71430,1,0,0:0:0:0:
496,192,71580,1,0,0:0:0:0:
432,32,71730,1,8,0:0:0:0:
320,224,71880,1,2,0:0:0:0:
496,192,72030,1,0,0:0:0:0:
263,85,72180,6,0,B|220:131|240:208|240:208|176:256,1,203.000006195069,12|2,0:0|0:0,0:0:0:0:
90,117,72631,1,0,0:0:0:0:
80,288,72781,1,0,0:0:0:0:
320,224,72931,1,8,0:0:0:0:
144,176,73081,1,2,0:0:0:0:
224,352,73231,1,0,0:0:0:0:
80,288,73382,6,0,P|48:208|96:112,1,152.250004646301,8|0,0:0|0:0,0:0:0:0:
90,117,73682,1,2,0:0:0:0:
176,256,73832,1,0,0:0:0:0:
320,144,73982,1,0,0:0:0:0:
90,117,74132,1,8,0:0:0:0:
176,256,74282,1,2,0:0:0:0:
176,32,74433,1,0,0:0:0:0:
320,144,74583,6,0,B|384:176|416:272|416:272|464:224,1,203.000006195069,12|2,0:0|0:0,0:0:0:0:
416,112,75033,1,0,0:0:0:0:
256,276,75183,1,0,0:0:0:0:
480,320,75334,1,8,0:0:0:0:
443,134,75484,1,2,0:0:0:0:
352,352,75634,1,0,0:0:0:0:
241,178,75784,6,0,P|241:98|305:66,1,152.250004646301,8|0,0:0|0:0,0:0:0:0:
336,64,76084,1,2,0:0:0:0:
144,176,76234,1,0,0:0:0:0:
320,144,76385,1,0,0:0:0:0:
169,293,76535,1,8,0:0:0:0:
160,64,76685,1,2,0:0:0:0:
330,228,76835,1,0,0:0:0:0:
91,238,76985,6,0,P|59:174|147:190,1,189.000000720978,12|2,0:0|0:0,0:0:0:0:
169,293,77436,1,0,0:0:0:0:
91,238,77586,2,0,P|59:174|150:153,1,189.000000720978,0|2,0:0|0:0,0:0:0:0:
169,293,78036,1,0,0:0:0:0:
240,112,78186,5,8,0:0:0:0:
368,256,78337,1,8,0:0:0:0:
240,112,78487,1,8,0:0:0:0:
288,336,78637,1,8,0:0:0:0:
352,142,78787,1,8,0:0:0:0:
169,293,78937,1,8,0:0:0:0:
368,256,79087,1,2,0:0:0:0:
144,176,79237,1,0,0:0:0:0:
288,336,79388,1,4,0:0:0:0:
320,112,88547,5,8,0:0:0:0:
290,258,88697,1,2,0:0:0:0:
177,111,88997,6,0,B|159:135|128:151|128:151|107:226,1,97.9999970092774,12|0,0:0|0:0,0:0:0:0:
194,280,89297,2,0,P|108:321|19:256,1,195.999994018555,2|0,0:0|0:0,0:0:0:0:
112,208,89748,1,8,0:0:0:0:
224,192,89898,2,0,P|272:224|294:280,1,97.9999970092774,2|0,0:0|0:0,0:0:0:0:
384,336,90198,5,8,0:0:0:0:
320,112,90499,1,2,0:0:0:0:
464,240,90799,1,8,0:0:0:0:
384,336,90949,1,0,0:0:0:0:
363,225,91099,2,0,P|391:163|461:143,1,97.9999970092774,2|0,0:0|0:0,0:0:0:0:
320,112,91400,6,0,B|281:60|187:83,1,97.9999970092774,8|0,0:0|0:0,0:0:0:0:
101,144,91700,2,0,P|69:55|140:65,1,195.999994018555,2|0,0:0|0:0,0:0:0:0:
240,176,92150,1,8,0:0:0:0:
111,223,92300,2,0,L|9:284,1,97.9999970092774,2|0,0:0|0:0,0:0:0:0:
128,336,92601,5,8,0:0:0:0:
176,128,92901,1,2,0:0:0:0:
299,305,93201,1,0,0:0:0:0:
363,225,93352,1,0,0:0:0:0:
256,208,93502,2,0,P|205:243|199:306,1,97.9999970092774,0|0,0:0|0:0,0:0:0:0:
299,305,93802,6,0,B|400:320|400:320|485:282|446:168,1,195.999994018555,12|2,0:0|0:0,0:0:0:0:
416,96,94252,1,0,0:0:0:0:
363,225,94403,1,0,0:0:0:0:
288,128,94553,1,8,0:0:0:0:
492,157,94703,2,0,L|412:93,1,97.9999970092774,2|0,0:0|0:0,0:0:0:0:
111,51,95003,6,0,L|223:19,1,97.9999970092774,8|0,0:0|0:0,0:0:0:0:
288,128,95303,2,0,L|192:112,1,97.9999970092774,2|0,0:0|0:0,0:0:0:0:
64,128,95604,1,0,0:0:0:0:
224,208,95754,1,8,0:0:0:0:
32,256,95904,2,0,L|160:224,1,97.9999970092774,2|0,0:0|0:0,0:0:0:0:
304,304,96204,5,2,0:0:0:0:
112,320,96355,1,8,0:0:0:0:
192,112,96505,1,8,0:0:0:0:
208,368,96655,1,2,0:0:0:0:
363,225,96805,1,8,0:0:0:0:
128,224,96955,1,8,0:0:0:0:
304,304,97105,1,2,0:0:0:0:
192,112,97255,1,8,0:0:0:0:
208,368,97406,1,2,0:0:0:0:
256,192,97481,12,0,98457,0:0:0:0:
490,237,98607,6,0,B|426:205|426:205|365:229|365:229|334:182|252:147|218:157,1,251.999992309571,12|2,0:0|0:0,0:0:0:0:
144,240,99057,1,0,0:0:0:0:
384,128,99207,1,0,0:0:0:0:
272,272,99358,1,8,0:0:0:0:
208,48,99508,6,0,B|176:112|176:112|192:160|160:224,1,168,2|0,0:0|0:0,0:0:0:0:
144,240,99808,1,8,0:0:0:0:
64,64,99958,1,0,0:0:0:0:
272,160,100108,1,2,0:0:0:0:
64,160,100258,1,0,0:0:0:0:
160,336,100409,1,0,0:0:0:0:
272,160,100559,1,8,0:0:0:0:
64,272,100709,1,2,0:0:0:0:
272,272,100859,1,0,0:0:0:0:
160,336,101009,6,0,P|167:254|260:271,1,168,12|0,0:0|0:0,0:0:0:0:
272,272,101309,1,0,0:0:0:0:
432,128,101460,1,0,0:0:0:0:
272,160,101610,2,0,B|320:208|320:208|384:224|384:224|416:272,1,168,0|0,0:0|0:0,0:0:0:0:
416,288,101910,1,2,0:0:0:0:
272,272,102060,1,8,0:0:0:0:
352,112,102210,6,0,P|288:64|192:112,1,168,4|0,0:0|0:0,0:0:0:0:
192,112,102511,1,0,0:0:0:0:
272,272,102661,1,2,0:0:0:0:
464,208,102811,1,0,0:0:0:0:
272,160,102961,1,8,0:0:0:0:
352,352,103111,1,2,0:0:0:0:
352,112,103261,1,0,0:0:0:0:
433,327,103412,6,0,B|383:265|342:261|298:286|269:325|269:325|272:272,1,224,12|2,0:0|0:0,0:0:0:0:
272,160,103862,1,0,0:0:0:0:
144,320,104012,1,0,0:0:0:0:
352,192,104162,1,8,0:0:0:0:
104,151,104313,6,0,P|152:199|152:295,1,168,2|0,0:0|0:0,0:0:0:0:
144,320,104613,1,8,0:0:0:0:
240,144,104763,1,0,0:0:0:0:
48,256,104913,1,2,0:0:0:0:
272,304,105063,1,0,0:0:0:0:
256,48,105213,1,0,0:0:0:0:
112,144,105364,1,8,0:0:0:0:
352,192,105514,1,2,0:0:0:0:
240,144,105664,1,0,0:0:0:0:
272,304,105814,6,0,L|352:192,1,112,12|0,0:0|0:0,0:0:0:0:
416,96,106114,1,2,0:0:0:0:
416,96,106264,1,0,0:0:0:0:
483,341,106415,2,0,L|448:207,1,112,8|2,0:0|0:0,0:0:0:0:
416,96,106715,1,2,0:0:0:0:
416,96,106865,1,0,0:0:0:0:
375,349,107015,5,12,0:0:0:0:
160,64,107916,5,0,0:0:0:0:
141,91,107991,1,0,0:0:0:0:
142,124,108066,1,0,0:0:0:0:
162,150,108141,1,0,0:0:0:0:
194,159,108216,6,0,B|195:229|112:272|112:272|155:327|235:320,1,251.999992309571,12|2,0:0|0:0,0:0:0:0:
320,208,108667,1,0,0:0:0:0:
80,176,108817,1,0,0:0:0:0:
240,320,108967,1,8,0:0:0:0:
272,128,109117,6,0,P|336:112|412:202,1,168,2|0,0:0|0:0,0:0:0:0:
412,204,109418,1,8,0:0:0:0:
432,48,109568,1,0,0:0:0:0:
320,208,109718,1,2,0:0:0:0:
496,144,109868,1,0,0:0:0:0:
256,48,110018,2,0,P|195:94|192:160,1,112,0|8,0:0|0:0,0:0:0:0:
248,294,110319,2,0,L|328:198,1,112,2|0,0:0|0:0,0:0:0:0:
176,224,110619,6,0,B|115:205|48:224|48:224|48:160|96:144,1,224,12|2,0:0|0:0,0:0:0:0:
272,128,111069,1,0,0:0:0:0:
112,304,111219,1,0,0:0:0:0:
116,133,111370,1,8,0:0:0:0:
248,294,111520,6,0,B|328:294|376:326|376:326|424:294,1,168,2|0,0:0|0:0,0:0:0:0:
432,288,111820,2,0,P|416:224|483:269,1,168,8|0,0:0|0:0,0:0:0:0:
501,265,112120,1,2,0:0:0:0:
320,208,112270,1,0,0:0:0:0:
496,352,112421,1,0,0:0:0:0:
480,128,112571,1,8,0:0:0:0:
248,294,112721,1,2,0:0:0:0:
501,265,112871,1,0,0:0:0:0:
320,208,113021,6,0,L|192:192,1,112,12|0,0:0|0:0,0:0:0:0:
0,288,113322,2,0,L|144:256,1,112,2|0,0:0|0:0,0:0:0:0:
320,128,113622,2,0,L|192:112,1,112,0|8,0:0|0:0,0:0:0:0:
0,208,113923,2,0,L|144:176,1,112,2|0,0:0|0:0,0:0:0:0:
320,48,114222,2,0,L|192:32,1,112,8|0,0:0|0:0,0:0:0:0:
0,128,114523,2,0,L|144:96,1,112,2|0,0:0|0:0,0:0:0:0:
320,48,114823,1,0,0:0:0:0:
0,288,115123,1,2,0:0:0:0:
215,305,115424,5,12,0:0:0:0:
208,114,115724,1,8,0:0:0:0:
405,298,116024,1,8,0:0:0:0:
398,108,116325,1,8,0:0:0:0:
208,320,116625,5,8,0:0:0:0:
194,101,116925,1,8,0:0:0:0:
419,313,117225,1,8,0:0:0:0:
416,96,117526,1,8,0:0:0:0:
198,333,117826,5,8,0:0:0:0:
181,90,117976,1,8,0:0:0:0:
430,328,118126,1,8,0:0:0:0:
428,84,118276,1,8,0:0:0:0:
187,343,118427,5,8,0:0:0:0:
169,78,118577,1,8,0:0:0:0:
439,339,118727,1,8,0:0:0:0:
438,73,118877,1,8,0:0:0:0:
128,208,119027,5,2,0:0:0:0:
464,208,119177,1,8,0:0:0:0:
288,32,119328,5,2,0:0:0:0:
288,352,119478,1,8,0:0:0:0:
288,32,119628,5,2,0:0:0:0:
464,208,119778,1,0,0:0:0:0:
128,208,119928,1,2,0:0:0:0:
288,352,120078,1,2,0:0:0:0:
339,126,120228,6,0,B|214:144|182:208|182:208|86:208,1,238.00000453949,12|2,0:0|0:0,0:0:0:0:
32,96,120679,1,0,0:0:0:0:
272,240,120829,1,0,0:0:0:0:
240,48,120979,1,8,0:0:0:0:
160,304,121129,1,2,0:0:0:0:
400,208,121279,1,0,0:0:0:0:
144,96,121430,6,0,P|240:160|272:224,1,178.500003404617,8|0,0:0|0:0,0:0:0:0:
272,240,121730,1,2,0:0:0:0:
368,96,121880,1,0,0:0:0:0:
128,208,122030,1,0,0:0:0:0:
258,338,122180,1,8,0:0:0:0:
268,144,122331,1,2,0:0:0:0:
160,304,122481,1,0,0:0:0:0:
336,288,122631,6,0,B|400:288|464:336|464:336|496:288|464:240,1,238.00000453949,12|2,0:0|0:0,0:0:0:0:
384,64,123081,1,0,0:0:0:0:
272,240,123231,1,0,0:0:0:0:
464,224,123382,1,8,0:0:0:0:
256,64,123532,1,2,0:0:0:0:
336,288,123682,1,0,0:0:0:0:
384,64,123832,6,0,P|333:130|256:48,1,178.500003404617,8|0,0:0|0:0,0:0:0:0:
256,64,124132,1,2,0:0:0:0:
272,240,124282,1,0,0:0:0:0:
448,144,124433,1,0,0:0:0:0:
176,160,124583,1,8,0:0:0:0:
384,64,124733,1,2,0:0:0:0:
336,288,124883,1,0,0:0:0:0:
256,64,125033,6,0,P|129:57|48:155,1,238.00000453949,12|2,0:0|0:0,0:0:0:0:
128,288,125484,1,0,0:0:0:0:
176,160,125634,1,0,0:0:0:0:
16,208,125784,1,8,0:0:0:0:
272,240,125934,1,2,0:0:0:0:
64,352,126084,1,0,0:0:0:0:
176,160,126234,6,0,P|271:151|260:253,1,178.500003404617,8|0,0:0|0:0,0:0:0:0:
272,240,126535,1,2,0:0:0:0:
400,144,126685,1,0,0:0:0:0:
192,240,126835,1,0,0:0:0:0:
368,352,126985,1,8,0:0:0:0:
400,144,127135,1,2,0:0:0:0:
256,336,127285,1,0,0:0:0:0:
448,304,127436,6,0,P|464:176|432:144,1,119.000002269745,12|0,0:0|0:0,0:0:0:0:
400,144,127736,1,2,0:0:0:0:
374,253,127886,2,0,P|390:125|358:93,1,119.000002269745,0|0,0:0|0:0,0:0:0:0:
326,93,128186,1,8,0:0:0:0:
300,202,128337,2,0,P|316:74|284:42,1,119.000002269745,2|0,0:0|0:0,0:0:0:0:
252,42,128637,5,8,0:0:0:0:
176,160,128787,1,0,0:0:0:0:
400,144,128937,1,2,0:0:0:0:
144,64,129087,1,0,0:0:0:0:
192,240,129237,1,0,0:0:0:0:
252,42,129388,5,8,0:0:0:0:
48,160,129538,1,2,0:0:0:0:
252,42,129688,1,0,0:0:0:0:
192,240,129838,6,0,B|240:304|288:320|288:320|360:248|478:317,1,315.000012016297,12|0,0:0|0:0,0:0:0:0:
300,202,130439,2,0,L|399:161,2,105.000004005432,2|0|0,0:0|0:0|0:0,0:0:0:0:
192,240,130889,1,0,0:0:0:0:
192,240,131039,6,0,B|176:192|176:192|208:160|208:160|164:125|169:66,1,167.999994873047,8|0,0:0|0:0,0:0:0:0:
256,80,131490,1,0,0:0:0:0:
256,80,131640,1,2,0:0:0:0:
80,144,131790,1,0,0:0:0:0:
160,64,131940,1,0,0:0:0:0:
192,240,132090,1,0,0:0:0:0:
80,144,132240,6,0,B|64:208|64:208|96:256|64:304|64:304|131:302|186:346|186:346|224:320,1,315.000012016297,12|0,0:0|0:0,0:0:0:0:
382,306,132841,2,0,L|286:322,2,83.9999974365235,2|0|0,0:0|0:0|0:0,0:0:0:0:
368,176,133291,1,0,0:0:0:0:
368,176,133442,2,0,B|336:128|336:128|368:96|355:50|304:32,1,167.999994873047,8|0,0:0|0:0,0:0:0:0:
448,112,133892,5,0,0:0:0:0:
448,112,134042,1,0,0:0:0:0:
288,224,134192,1,0,0:0:0:0:
480,208,134343,1,8,0:0:0:0:
320,32,134493,1,0,0:0:0:0:
288,224,134643,6,0,B|256:288|304:320|304:320|256:352|183:292|96:352,1,315.000012016297,12|0,0:0|0:0,0:0:0:0:
165,160,135243,2,0,L|197:256,2,83.9999974365235,2|0|0,0:0|0:0|0:0,0:0:0:0:
80,144,135694,1,0,0:0:0:0:
80,144,135844,2,0,P|144:64|208:80,1,167.999994873047,8|0,0:0|0:0,0:0:0:0:
256,144,136294,1,0,0:0:0:0:
256,144,136445,5,2,0:0:0:0:
352,256,136595,1,0,0:0:0:0:
320,32,136745,1,0,0:0:0:0:
449,156,136895,1,0,0:0:0:0:
353,143,137045,6,0,B|449:111|449:111|449:175,1,146.999995513916,12|0,0:0|0:0,0:0:0:0:
352,256,137496,1,0,0:0:0:0:
448,269,137646,2,0,B|352:301|352:301|352:237,1,146.999995513916,2|0,0:0|0:0,0:0:0:0:
353,143,138096,1,0,0:0:0:0:
191,239,138246,5,8,0:0:0:0:
288,352,138397,1,0,0:0:0:0:
256,144,138547,1,0,0:0:0:0:
192,336,138697,1,0,0:0:0:0:
352,256,138847,1,2,0:0:0:0:
112,288,138997,1,0,0:0:0:0:
288,352,139147,1,0,0:0:0:0:
191,239,139297,1,0,0:0:0:0:
51,336,139448,6,0,L|131:272,1,77.0000023498536,12|0,0:0|0:0,0:0:0:0:
124,159,139748,2,0,L|44:223,1,77.0000023498536,0|8,0:0|0:0,0:0:0:0:
192,240,140048,1,0,0:0:0:0:
224,144,140198,1,0,0:0:0:0:
95,87,140349,2,0,L|127:167,1,77.0000023498536,0|0,0:0|0:0,0:0:0:0:
224,144,140649,6,0,L|288:96,1,77.0000023498536,2|0,0:0|0:0,0:0:0:0:
384,48,140949,1,0,0:0:0:0:
256,16,141099,1,2,0:0:0:0:
373,124,141249,2,0,L|389:12,1,77.0000023498536,0|0,0:0|0:0,0:0:0:0:
462,178,141550,2,0,L|382:226,1,77.0000023498536,0|0,0:0|0:0,0:0:0:0:
304,208,141850,5,8,0:0:0:0:
352,320,142000,1,0,0:0:0:0:
464,288,142150,1,0,0:0:0:0:
352,320,142300,1,8,0:0:0:0:
304,208,142451,2,0,L|224:272,1,77.0000023498536,0|0,0:0|0:0,0:0:0:0:
277,338,142751,2,0,L|405:306,1,77.0000023498536,0|0,0:0|0:0,0:0:0:0:
194,327,143051,5,8,0:0:0:0:
64,256,143201,1,0,0:0:0:0:
96,352,143352,1,0,0:0:0:0:
64,256,143502,1,8,0:0:0:0:
80,160,143652,2,0,L|128:80,1,77.0000023498536,0|0,0:0|0:0,0:0:0:0:
194,75,143952,2,0,L|66:107,1,77.0000023498536,0|0,0:0|0:0,0:0:0:0:
176,176,144252,5,2,0:0:0:0:
272,144,144403,1,0,0:0:0:0:
288,48,144553,1,0,0:0:0:0:
368,112,144703,1,8,0:0:0:0:
272,144,144853,2,0,L|304:240,1,77.0000023498536,0|0,0:0|0:0,0:0:0:0:
443,127,145153,2,0,L|363:111,1,77.0000023498536,0|0,0:0|0:0,0:0:0:0:
400,224,145454,5,2,0:0:0:0:
336,320,145604,1,0,0:0:0:0:
448,320,145754,1,0,0:0:0:0:
296,217,145904,1,2,0:0:0:0:
336,320,146054,1,8,0:0:0:0:
496,208,146204,1,0,0:0:0:0:
448,320,146355,1,8,0:0:0:0:
240,304,146505,1,0,0:0:0:0:
400,224,146655,5,8,0:0:0:0:
336,320,146805,1,8,0:0:0:0:
224,160,146955,1,8,0:0:0:0:
240,304,147105,1,0,0:0:0:0:
496,208,147255,1,8,0:0:0:0:
336,320,147406,1,0,0:0:0:0:
368,112,147556,1,8,0:0:0:0:
448,320,147706,1,0,0:0:0:0:
176,240,147856,6,0,L|48:224,1,77.0000023498536,8|0,0:0|0:0,0:0:0:0:
299,77,148156,2,0,L|395:125,1,77.0000023498536,0|8,0:0|0:0,0:0:0:0:
144,320,148457,1,0,0:0:0:0:
352,16,148757,1,8,0:0:0:0:
352,16,149057,5,4,0:0:0:0:
192,112,163472,5,6,0:0:0:0:
283,117,163622,2,0,P|240:32|208:16,1,77.0000023498536,8|8,0:0|0:0,0:0:0:0:
163,204,163922,1,2,0:0:0:0:
240,256,164072,1,8,0:0:0:0:
304,192,164222,1,8,0:0:0:0:
163,204,164373,2,0,P|108:174|96:112,1,77.0000023498536,2|8,0:0|0:0,0:0:0:0:
240,256,164673,2,0,P|295:286|307:348,1,77.0000023498536,2|8,0:0|0:0,0:0:0:0:
128,288,164973,1,8,0:0:0:0:
224,352,165123,1,2,0:0:0:0:
304,192,165273,1,8,0:0:0:0:
304,192,165424,1,8,0:0:0:0:
369,327,165574,1,2,0:0:0:0:
350,325,165649,1,2,0:0:0:0:
331,319,165724,1,8,0:0:0:0:
315,309,165799,1,8,0:0:0:0:
298,295,165874,6,0,P|353:283|386:249,1,77.0000023498536,12|8,0:0|0:0,0:0:0:0:
416,144,166174,1,8,0:0:0:0:
304,192,166325,2,0,L|304:112,2,77.0000023498536,8|8|8,0:0|0:0|0:0,0:0:0:0:
225,71,166775,2,0,P|260:31|306:30,1,77.0000023498536,2|8,0:0|0:0,0:0:0:0:
217,151,167075,1,2,0:0:0:0:
144,32,167225,1,8,0:0:0:0:
112,144,167376,2,0,L|96:224,1,77.0000023498536,8|2,0:0|0:0,0:0:0:0:
176,288,167676,5,8,0:0:0:0:
16,224,167826,1,8,0:0:0:0:
106,309,167976,1,2,0:0:0:0:
125,312,168051,1,2,0:0:0:0:
144,309,168126,1,8,0:0:0:0:
161,300,168201,1,8,0:0:0:0:
176,288,168276,5,6,0:0:0:0:
208,144,168427,1,8,0:0:0:0:
256,336,168577,1,8,0:0:0:0:
304,192,168727,1,2,0:0:0:0:
192,272,168877,1,8,0:0:0:0:
288,96,169027,1,8,0:0:0:0:
384,272,169177,2,0,L|416:192,1,77.0000023498536,2|8,0:0|0:0,0:0:0:0:
384,32,169478,5,2,0:0:0:0:
304,192,169628,1,8,0:0:0:0:
464,112,169778,1,8,0:0:0:0:
480,240,169928,1,2,0:0:0:0:
304,192,170078,1,8,0:0:0:0:
288,96,170228,1,8,0:0:0:0:
480,240,170379,1,2,0:0:0:0:
470,256,170454,1,2,0:0:0:0:
460,273,170529,1,8,0:0:0:0:
450,289,170604,1,0,0:0:0:0:
440,306,170679,5,6,0:0:0:0:
304,192,170829,1,8,0:0:0:0:
432,320,170979,5,2,0:0:0:0:
199,259,171129,1,8,0:0:0:0:
416,336,171279,5,2,0:0:0:0:
160,352,171430,1,8,0:0:0:0:
401,348,171580,5,2,0:0:0:0:
368,128,171730,1,8,0:0:0:0:
272,352,171880,1,6,0:0:0:0:
160,112,172030,1,2,0:0:0:0:
329,266,172180,1,2,0:0:0:0:
448,64,172331,1,2,0:0:0:0:
128,192,172481,5,2,0:0:0:0:
416,224,172631,1,2,0:0:0:0:
128,192,172781,5,2,0:0:0:0:
416,224,172931,1,0,0:0:0:0:
128,288,173081,6,0,P|48:240|68:118,1,210.000008010865,12|2,0:0|0:0,0:0:0:0:
240,64,173532,1,0,0:0:0:0:
128,192,173682,1,0,0:0:0:0:
82,36,173832,1,8,0:0:0:0:
224,160,173982,2,0,P|295:146|329:93,1,105.000004005432,2|0,0:0|0:0,0:0:0:0:
416,32,174282,6,0,B|448:96|448:96|386:159|421:227,1,210.000008010865,12|2,0:0|0:0,0:0:0:0:
480,352,174733,1,0,0:0:0:0:
320,272,174883,1,0,0:0:0:0:
503,184,175033,1,8,0:0:0:0:
336,368,175183,2,0,P|257:338|225:263,1,105.000004005432,2|0,0:0|0:0,0:0:0:0:
134,219,175484,6,0,B|208:264|274:231|274:231|322:248|326:299,1,210.000008010865,12|2,0:0|0:0,0:0:0:0:
144,320,175934,1,0,0:0:0:0:
208,144,176084,1,0,0:0:0:0:
256,320,176234,1,8,0:0:0:0:
122,124,176385,2,0,P|151:63|216:51,1,105.000004005432,2|0,0:0|0:0,0:0:0:0:
403,115,176685,6,0,B|339:105|297:156|297:156|197:142,1,210.000008010865,12|2,0:0|0:0,0:0:0:0:
64,32,177135,1,0,0:0:0:0:
128,224,177285,1,0,0:0:0:0:
256,64,177436,1,8,0:0:0:0:
16,160,177586,1,2,0:0:0:0:
224,240,177736,1,0,0:0:0:0:
183,50,177886,6,0,B|84:104|147:203|147:203|105:246,1,210.000008010865,12|2,0:0|0:0,0:0:0:0:
16,160,178337,1,0,0:0:0:0:
74,322,178487,1,0,0:0:0:0:
224,240,178637,1,8,0:0:0:0:
13,237,178787,2,0,L|78:327,1,105.000004005432,2|0,0:0|0:0,0:0:0:0:
255,368,179087,6,0,B|303:288|223:240|223:240|303:192,1,210.000008010865,12|2,0:0|0:0,0:0:0:0:
416,128,179538,1,0,0:0:0:0:
352,320,179688,1,0,0:0:0:0:
320,112,179838,1,8,0:0:0:0:
448,288,179988,1,2,0:0:0:0:
224,240,180138,1,0,0:0:0:0:
464,208,180288,6,0,P|496:97|416:32,1,210.000008010865,12|2,0:0|0:0,0:0:0:0:
346,247,180739,1,0,0:0:0:0:
240,64,180889,1,0,0:0:0:0:
224,240,181039,1,8,0:0:0:0:
416,128,181189,1,2,0:0:0:0:
240,64,181340,1,0,0:0:0:0:
346,247,181490,6,0,B|304:256|304:256|274:330|204:336|164:306|148:255,1,210.000008010865,12|2,0:0|0:0,0:0:0:0:
115,62,181940,1,0,0:0:0:0:
64,288,182090,1,0,0:0:0:0:
208,80,182240,1,8,0:0:0:0:
176,288,182391,1,2,0:0:0:0:
16,96,182541,1,0,0:0:0:0:
256,160,182691,6,0,B|325:89|272:16|272:16|336:32,1,210.000008010865,12|2,0:0|0:0,0:0:0:0:
416,160,183141,1,0,0:0:0:0:
208,80,183291,1,0,0:0:0:0:
304,240,183442,1,8,0:0:0:0:
320,28,183592,2,0,L|304:156,1,105.000004005432,2|0,0:0|0:0,0:0:0:0:
317,344,183892,2,0,L|303:239,1,105.000004005432,8|0,0:0|0:0,0:0:0:0:
121,198,184192,6,0,P|233:262|315:231,2,210.000008010865,2|0|0,0:0|0:0|0:0,0:0:0:0:
208,80,184943,1,0,0:0:0:0:
121,303,185093,2,0,L|121:191,1,105.000004005432,12|0,0:0|0:0,0:0:0:0:
64,80,185394,1,2,0:0:0:0:
224,160,185544,1,0,0:0:0:0:
24,220,185694,1,0,0:0:0:0:
208,80,185844,1,2,0:0:0:0:
214,242,185994,1,2,0:0:0:0:
64,80,186144,1,0,0:0:0:0:
224,160,186294,6,0,B|352:112|352:112|395:148|448:144,1,210.000008010865,12|2,0:0|0:0,0:0:0:0:
409,269,186745,1,0,0:0:0:0:
424,47,186895,1,0,0:0:0:0:
496,224,187045,1,8,0:0:0:0:
304,224,187195,1,2,0:0:0:0:
496,224,187346,1,0,0:0:0:0:
347,113,187496,6,0,P|271:138|300:218,1,157.500006008148,12|0,0:0|0:0,0:0:0:0:
304,224,187796,2,0,P|224:272|112:256,1,210.000008010865,2|0,0:0|0:0,0:0:0:0:
96,128,188246,1,8,0:0:0:0:
83,357,188397,2,0,L|115:245,1,105.000004005432,2|0,0:0|0:0,0:0:0:0:
210,139,188697,2,0,P|114:91|107:142,1,157.500006008148,8|0,0:0|0:0,0:0:0:0:
96,128,188997,6,0,P|32:128|80:45,1,157.500006008148,2|0,0:0|0:0,0:0:0:0:
64,32,189297,1,0,0:0:0:0:
120,219,189448,1,0,0:0:0:0:
288,64,189598,1,2,0:0:0:0:
96,128,189748,1,0,0:0:0:0:
272,224,189898,6,0,P|332:112|268:59,1,210.000008010865,12|2,0:0|0:0,0:0:0:0:
408,256,190349,1,0,0:0:0:0:
240,144,190499,1,0,0:0:0:0:
434,134,190649,1,8,0:0:0:0:
275,254,190799,1,2,0:0:0:0:
334,59,190949,1,0,0:0:0:0:
408,256,191099,6,0,L|296:336,1,105.000004005432,8|0,0:0|0:0,0:0:0:0:
144,272,191400,2,0,L|272:256,1,105.000004005432,2|0,0:0|0:0,0:0:0:0:
224,352,191700,1,0,0:0:0:0:
176,128,191850,1,8,0:0:0:0:
96,368,192000,1,2,0:0:0:0:
32,176,192150,1,0,0:0:0:0:
144,272,192300,6,0,P|205:205|182:137,1,157.500006008148,12|0,0:0|0:0,0:0:0:0:
176,128,192601,2,0,B|96:80|96:80|218:120|333:67,1,315.000012016297,2|8,0:0|0:0,0:0:0:0:
400,234,193201,2,0,L|300:150,1,105.000004005432,2|0,0:0|0:0,0:0:0:0:
268,367,193502,2,0,L|300:255,1,105.000004005432,8|0,0:0|0:0,0:0:0:0:
176,128,193802,6,0,P|208:181|192:240,1,105.000004005432,2|0,0:0|0:0,0:0:0:0:
64,320,194102,1,0,0:0:0:0:
128,192,194252,1,0,0:0:0:0:
176,336,194403,1,0,0:0:0:0:
32,224,194553,1,0,0:0:0:0:
208,224,194703,6,0,P|304:160|305:95,1,157.500006008148,12|0,0:0|0:0,0:0:0:0:
304,96,195003,1,2,0:0:0:0:
352,288,195153,1,0,0:0:0:0:
208,128,195303,1,0,0:0:0:0:
400,128,195454,1,8,0:0:0:0:
256,304,195604,1,2,0:0:0:0:
304,96,195754,1,0,0:0:0:0:
352,288,195904,6,0,P|413:215|408:153,1,157.500006008148,8|0,0:0|0:0,0:0:0:0:
400,128,196204,1,2,0:0:0:0:
304,192,196355,1,0,0:0:0:0:
247,20,196505,1,0,0:0:0:0:
378,39,196655,1,8,0:0:0:0:
209,127,196805,1,2,0:0:0:0:
400,128,196955,1,0,0:0:0:0:
160,48,197105,6,0,P|128:160|180:213,1,157.500006008148,12|0,0:0|0:0,0:0:0:0:
160,208,197406,2,0,B|80:240|80:240|128:320|208:304,1,210.000008010865,2|0,0:0|0:0,0:0:0:0:
304,192,197856,1,8,0:0:0:0:
252,350,198006,2,0,B|344:309|285:187|285:187|364:206,1,210.000008010865,2|8,0:0|0:0,0:0:0:0:
416,320,198457,1,0,0:0:0:0:
361,37,198607,6,0,L|377:165,1,105.000004005432,2|0,0:0|0:0,0:0:0:0:
416,320,198907,1,0,0:0:0:0:
416,320,199057,1,0,0:0:0:0:
480,128,199207,1,0,0:0:0:0:
480,128,199358,1,0,0:0:0:0:
288,112,199508,6,0,B|196:139|146:70|146:70|96:96,1,210.000008010865,10|2,0:0|0:0,0:0:0:0:
64,224,199958,1,0,0:0:0:0:
80,16,200108,1,0,0:0:0:0:
176,192,200258,1,8,0:0:0:0:
233,27,200409,1,2,0:0:0:0:
80,112,200559,1,0,0:0:0:0:
263,250,200709,6,0,L|167:186,1,105.000004005432,8|0,0:0|0:0,0:0:0:0:
144,304,201009,1,2,0:0:0:0:
144,304,201159,1,0,0:0:0:0:
309,273,201309,6,0,L|245:241,1,52.5000020027161,0|0,0:0|0:0,0:0:0:0:
175,139,201460,2,0,L|175:219,1,52.5000020027161,0|0,0:0|0:0,0:0:0:0:
240,240,201610,1,0,0:0:0:0:
255,224,201685,1,0,0:0:0:0:
266,205,201760,1,0,0:0:0:0:
271,183,201835,1,0,0:0:0:0:
270,162,201910,1,4,0:0:0:0:
