osu file format v14

[General]
AudioFilename: audio.mp3
AudioLeadIn: 0
PreviewTime: 38547
Countdown: 0
SampleSet: Normal
StackLeniency: 0.2
Mode: 0
LetterboxInBreaks: 0
EpilepsyWarning: 1
WidescreenStoryboard: 1

[Editor]
Bookmarks: 28937,33742,34042,34343,34643,34943,35243,35544,35844,37346,37646,57766,58967,60018,67376,67976,120228,129838,149057,163472,173081,201309,201460,201610
DistanceSpacing: 0.5
BeatDivisor: 2
GridSize: 16
TimelineZoom: 2.899999

[Metadata]
Title:Say Goodbye (Speed Up Ver.)
TitleUnicode:Say Goodbye (Speed Up Ver.)
Artist:Krewella
ArtistUnicode:Krewella
Creator:saggi
Version:Rewritten Ending
Source:
Tags:LiousPL Melsoon walter85 Megapcmx Minorsonek LukerMaster -NeBu- Broly Envory ChuuritsuTv
BeatmapID:2058812
BeatmapSetID:580821

[Difficulty]
HPDrainRate:4.2
CircleSize:4
OverallDifficulty:9.5
ApproachRate:9.9
SliderMultiplier:2.4
SliderTickRate:2

[Events]
//Background and Video events
0,0,"girl.jpg",0,0
//Break Periods
2,29137,33277
2,79588,88082
2,149257,163007
//Storyboard Layer 0 (Background)
//Storyboard Layer 1 (Fail)
//Storyboard Layer 2 (Pass)
//Storyboard Layer 3 (Foreground)
Sprite,Foreground,Centre,"sb\highlight.png",421,223 C,0,47856,,242,24,57 F,2,47856,48656,1,0 S,2,47856,48656,0.9,0.18 P,0,47856,48656,A
Sprite,Foreground,Centre,"sb\highlight.png",400,243 C,0,47931,,242,24,57 F,2,47931,48731,1,0 S,2,47931,48731,0.9,0.18 P,0,47931,48731,A
Sprite,Foreground,Centre,"sb\highlight.png",371,250 C,0,48006,,242,24,57 F,2,48006,48806,1,0 S,2,48006,48806,0.9,0.18 P,0,48006,48806,A
Sprite,Foreground,Centre,"sb\highlight.png",344,237 C,0,48081,,242,24,57 F,2,48081,48881,1,0 S,2,48081,48881,0.9,0.18 P,0,48081,48881,A
Sprite,Foreground,Centre,"sb\highlight.png",464,344 C,0,96204,,18,124,255 F,2,96204,97004,1,0 S,2,96204,97004,0.9,0.18 P,0,96204,97004,A
Sprite,Foreground,Centre,"sb\highlight.png",464,344 C,0,96279,,18,124,255 F,2,96279,97079,1,0 S,2,96279,97079,0.9,0.18 P,0,96279,97079,A
Sprite,Foreground,Centre,"sb\highlight.png",464,344 C,0,96355,,18,124,255 F,2,96355,97155,1,0 S,2,96355,97155,0.9,0.18 P,0,96355,97155,A
Sprite,Foreground,Centre,"sb\highlight.png",256,200 C,0,96505,,18,124,255 F,2,96505,97305,1,0 S,2,96505,97305,0.9,0.18 P,0,96505,97305,A
Sprite,Foreground,Centre,"sb\highlight.png",336,376 C,0,96655,,18,124,255 F,2,96655,97455,1,0 S,2,96655,97455,0.9,0.18 P,0,96655,97455,A
Sprite,Foreground,Centre,"sb\highlight.png",368,120 C,0,96805,,18,124,255 F,2,96805,97605,1,0 S,2,96805,97605,0.9,0.18 P,0,96805,97605,A
Sprite,Foreground,Centre,"sb\highlight.png",186,366 C,0,96955,,18,124,255 F,2,96955,97755,1,0 S,2,96955,97755,0.9,0.18 P,0,96955,97755,A
Sprite,Foreground,Centre,"sb\highlight.png",352,238 C,0,97105,,242,24,57 F,2,97105,97905,1,0 S,2,97105,97905,0.9,0.18 P,0,97105,97905,A
Sprite,Foreground,Centre,"sb\highlight.png",352,238 C,0,97180,,242,24,57 F,2,97180,97980,1,0 S,2,97180,97980,0.9,0.18 P,0,97180,97980,A
Sprite,Foreground,Centre,"sb\highlight.png",352,238 C,0,97255,,242,24,57 F,2,97255,98055,1,0 S,2,97255,98055,0.9,0.18 P,0,97255,98055,A
Sprite,Foreground,Centre,"sb\highlight.png",210,169 C,0,97406,,242,24,57 M,0,97406,97443,210,169,185.6413,169.4591 F,2,97406,98356,1,0 S,2,97406,98356,0.9,0.18 P,0,97406,98356,A M,0,97443,97481,185.6413,169.4591,162.3116,176.2729 M,0,97481,97518,162.3116,176.2729,141.7947,189.309 M,0,97518,97556,141.7947,189.309,125.7099,207.5418
Sprite,Foreground,Centre,"sb\highlight.png",203,255 C,0,97706,,242,24,57 F,2,97706,98506,1,0 S,2,97706,98506,0.9,0.18 P,0,97706,98506,A
Sprite,Foreground,Centre,"sb\highlight.png",272,216 C,0,97856,,242,24,57 F,2,97856,98656,1,0 S,2,97856,98656,0.9,0.18 P,0,97856,98656,A
Sprite,Foreground,Centre,"sb\highlight.png",332,150 C,0,98006,,242,24,57 M,0,98006,98043,332,150,347.9951,168.3016 F,2,98006,98956,1,0 S,2,98006,98956,0.9,0.18 P,0,98006,98956,A M,0,98043,98081,347.9951,168.3016,357.36,190.6407 M,0,98081,98118,357.36,190.6407,358.7318,214.8247 M,0,98118,98156,358.7318,214.8247,351.9528,238.08
Sprite,Foreground,Centre,"sb\highlight.png",272,296 C,0,98306,,242,24,57 M,0,98306,98343,272,296,292.3068,309.7071 F,2,98306,99256,1,0 S,2,98306,99256,0.9,0.18 P,0,98306,99256,A M,0,98343,98381,292.3068,309.7071,312,323 M,0,98381,98418,312,323,292.3068,309.7071 M,0,98418,98456,292.3068,309.7071,272,296
Sprite,Foreground,Centre,"sb\highlight.png",448,104 C,0,147856,,18,124,255 M,0,147856,147893,448,104,457.9041,120.5067 F,2,147856,148806,1,0 S,2,147856,148806,0.9,0.18 P,0,147856,148806,A M,0,147893,147931,457.9041,120.5067,467.8081,137.0135 M,0,147931,147968,467.8081,137.0135,477.7121,153.5202 M,0,147968,148006,477.7121,153.5202,487.6162,170.027
Sprite,Foreground,Centre,"sb\highlight.png",304,264 C,0,148156,,18,124,255 F,2,148156,148956,1,0 S,2,148156,148956,0.9,0.18 P,0,148156,148956,A
Sprite,Foreground,Centre,"sb\highlight.png",278,261 C,0,148231,,18,124,255 F,2,148231,149031,1,0 S,2,148231,149031,0.9,0.18 P,0,148231,149031,A
Sprite,Foreground,Centre,"sb\highlight.png",252,248 C,0,148306,,18,124,255 F,2,148306,149106,1,0 S,2,148306,149106,0.9,0.18 P,0,148306,149106,A
Sprite,Foreground,Centre,"sb\highlight.png",224,136 C,0,148457,,242,24,57 M,0,148457,148494,224,136,239.0317,123.9746 F,2,148457,149407,1,0 S,2,148457,149407,0.9,0.18 P,0,148457,149407,A M,0,148494,148532,239.0317,123.9746,254.0634,111.9492 M,0,148532,148569,254.0634,111.9492,269.0952,99.92386 M,0,148569,148607,269.0952,99.92386,284.1269,87.89848
Sprite,Foreground,Centre,"sb\highlight.png",368,216 C,0,148757,,242,24,57 F,2,148757,149557,1,0 S,2,148757,149557,0.9,0.18 P,0,148757,149557,A
Sprite,Foreground,Centre,"sb\highlight.png",368,216 C,0,148832,,242,24,57 F,2,148832,149632,1,0 S,2,148832,149632,0.9,0.18 P,0,148832,149632,A
Sprite,Foreground,Centre,"sb\highlight.png",368,216 C,0,148907,,242,24,57 F,2,148907,149707,1,0 S,2,148907,149707,0.9,0.18 P,0,148907,149707,A
Sprite,Foreground,Centre,"sb\highlight.png",368,216 C,0,148982,,242,24,57 F,2,148982,149782,1,0 S,2,148982,149782,0.9,0.18 P,0,148982,149782,A
Sprite,Foreground,Centre,"sb\highlight.png",368,216 C,0,149057,,242,24,57 F,2,149057,149857,1,0 S,2,149057,149857,0.9,0.18 P,0,149057,149857,A
Sprite,Foreground,Centre,"sb\highlight.png",192,312 C,0,171880,,255,192,0 F,2,171880,172680,1,0 S,2,171880,172680,0.9,0.18 P,0,171880,172680,A
Sprite,Foreground,Centre,"sb\highlight.png",192,312 C,0,172030,,255,192,0 M,0,172030,172067,192,312,205.6118,298.3882 F,2,172030,172905,1,0 S,2,172030,172905,0.9,0.18 P,0,172030,172905,A M,0,172067,172105,205.6118,298.3882,219.2236,284.7764
Sprite,Foreground,Centre,"sb\highlight.png",336,168 C,0,172180,,255,192,0 F,2,172180,172980,1,0 S,2,172180,172980,0.9,0.18 P,0,172180,172980,A
Sprite,Foreground,Centre,"sb\highlight.png",160,120 C,0,172331,,255,192,0 F,2,172331,173131,1,0 S,2,172331,173131,0.9,0.18 P,0,172331,173131,A
Sprite,Foreground,Centre,"sb\highlight.png",326,376 C,0,172481,,255,192,0 F,2,172481,173281,1,0 S,2,172481,173281,0.9,0.18 P,0,172481,173281,A
Sprite,Foreground,Centre,"sb\highlight.png",160,120 C,0,172631,,0,202,0 F,2,172631,173431,1,0 S,2,172631,173431,0.9,0.18 P,0,172631,173431,A
Sprite,Foreground,Centre,"sb\highlight.png",326,376 C,0,172781,,0,202,0 F,2,172781,173581,1,0 S,2,172781,173581,0.9,0.18 P,0,172781,173581,A
Sprite,Foreground,Centre,"sb\highlight.png",160,120 C,0,172931,,0,202,0 F,2,172931,173731,1,0 S,2,172931,173731,0.9,0.18 P,0,172931,173731,A
Sprite,Foreground,Centre,"sb\highlight.png",176,392 C,0,201309,,242,24,57 M,0,201309,201346,176,392,150.5338,385.6335 F,2,201309,202584,1,0 S,2,201309,202584,1,0.2 P,0,201309,202584,A M,0,201346,201384,150.5338,385.6335,125.0675,379.2669
Sprite,Foreground,Centre,"sb\highlight.png",240,312 C,0,201460,,242,24,57 M,0,201460,201497,240,312,213.8297,314.0446 F,2,201460,202735,1,0 S,2,201460,202735,1,0.2 P,0,201460,202735,A M,0,201497,201535,213.8297,314.0446,187.6595,316.0891
Sprite,Foreground,Centre,"sb\highlight.png",128,300 C,0,201610,,255,192,0 F,2,201610,202810,1,0 S,2,201610,202810,1,0.2 P,0,201610,202810,A
Sprite,Foreground,Centre,"sb\highlight.png",99,269 C,0,201685,,255,192,0 F,2,201685,202885,1,0 S,2,201685,202885,1,0.2 P,0,201685,202885,A
Sprite,Foreground,Centre,"sb\highlight.png",95,227 C,0,201760,,255,192,0 F,2,201760,202960,1,0 S,2,201760,202960,1,0.2 P,0,201760,202960,A
Sprite,Foreground,Centre,"sb\highlight.png",120,193 C,0,201835,,255,192,0 F,2,201835,203035,1,0 S,2,201835,203035,1,0.2 P,0,201835,203035,A
Sprite,Foreground,Centre,"sb\highlight.png",176,264 C,0,37346,,242,24,57 F,2,37346,38146,1,0 S,2,37346,38146,0.9,0.18 P,0,37346,38146,A
Sprite,Foreground,Centre,"sb\highlight.png",352,360 C,0,37496,,242,24,57 F,2,37496,38296,1,0 S,2,37496,38296,0.9,0.18 P,0,37496,38296,A
Sprite,Foreground,Centre,"sb\highlight.png",352,360 C,0,37646,,242,24,57 M,0,37646,37683,352,360,360.6595,340.8685 F,2,37646,38596,1,0 S,2,37646,38596,0.9,0.18 P,0,37646,38596,A M,0,37683,37721,360.6595,340.8685,369.319,321.7371 M,0,37721,37758,369.319,321.7371,377.9785,302.6056 M,0,37758,37796,377.9785,302.6056,386.638,283.4741
Sprite,Foreground,Centre,"sb\highlight.png",400,136 C,0,37946,,242,24,57 F,2,37946,38746,1,0 S,2,37946,38746,0.9,0.18 P,0,37946,38746,A
Sprite,Foreground,Centre,"sb\highlight.png",400,136 C,0,38096,,242,24,57 M,0,38096,38133,400,136,387.0223,134.2819 F,2,38096,39196,1,0 S,2,38096,39196,0.9,0.18 P,0,38096,39196,A M,0,38133,38171,387.0223,134.2819,373.9347,133.811 M,0,38171,38208,373.9347,133.811,360.9657,135.5727 M,0,38208,38246,360.9657,135.5727,348.2442,138.638 M,0,38246,38283,348.2442,138.638,336.2,143.7537 M,0,38283,38321,336.2,143.7537,324.7802,150.1247 M,0,38321,38358,324.7802,150.1247,314.5111,158.232 M,0,38358,38396,314.5111,158.232,305.2319,167.436
Sprite,Foreground,Centre,"sb\highlight.png",326,270 C,0,107916,,255,192,0 F,2,107916,108716,1,0 S,2,107916,108716,0.9,0.18 P,0,107916,108716,A
Sprite,Foreground,Centre,"sb\highlight.png",311,245 C,0,107991,,255,192,0 F,2,107991,108791,1,0 S,2,107991,108791,0.9,0.18 P,0,107991,108791,A
Sprite,Foreground,Centre,"sb\highlight.png",283,240 C,0,108066,,255,192,0 F,2,108066,108866,1,0 S,2,108066,108866,0.9,0.18 P,0,108066,108866,A
Sprite,Foreground,Centre,"sb\highlight.png",257,250 C,0,108141,,255,192,0 F,2,108141,108941,1,0 S,2,108141,108941,0.9,0.18 P,0,108141,108941,A
Sprite,Foreground,Centre,"sb\highlight.png",480,88 C,0,117826,,0,202,0 F,2,117826,118626,1,0 S,2,117826,118626,0.9,0.18 P,0,117826,118626,A
Sprite,Foreground,Centre,"sb\highlight.png",368,327 C,0,117976,,0,202,0 F,2,117976,118776,1,0 S,2,117976,118776,0.9,0.18 P,0,117976,118776,A
Sprite,Foreground,Centre,"sb\highlight.png",272,72 C,0,118126,,0,202,0 F,2,118126,118926,1,0 S,2,118126,118926,0.9,0.18 P,0,118126,118926,A
Sprite,Foreground,Centre,"sb\highlight.png",496,216 C,0,118276,,0,202,0 F,2,118276,119076,1,0 S,2,118276,119076,0.9,0.18 P,0,118276,119076,A
Sprite,Foreground,Centre,"sb\highlight.png",234,236 C,0,118427,,0,202,0 F,2,118427,119227,1,0 S,2,118427,119227,0.9,0.18 P,0,118427,119227,A
Sprite,Foreground,Centre,"sb\highlight.png",375,80 C,0,118577,,0,202,0 F,2,118577,119377,1,0 S,2,118577,119377,0.9,0.18 P,0,118577,119377,A
Sprite,Foreground,Centre,"sb\highlight.png",160,120 C,0,118877,,18,124,255 F,2,118877,119677,1,0 S,2,118877,119677,0.9,0.18 P,0,118877,119677,A
Sprite,Foreground,Centre,"sb\highlight.png",480,184 C,0,119027,,18,124,255 F,2,119027,119827,1,0 S,2,119027,119827,0.9,0.18 P,0,119027,119827,A
Sprite,Foreground,Centre,"sb\highlight.png",400,296 C,0,119628,,242,24,57 F,2,119628,120428,1,0 S,2,119628,120428,0.9,0.18 P,0,119628,120428,A
Sprite,Foreground,Centre,"sb\highlight.png",288,376 C,0,120078,,242,24,57 F,2,120078,120878,1,0 S,2,120078,120878,0.9,0.18 P,0,120078,120878,A
Sprite,Foreground,Centre,"sb\highlight.png",240,88 C,0,119928,,242,24,57 F,2,119928,120728,1,0 S,2,119928,120728,0.9,0.18 P,0,119928,120728,A
Sprite,Foreground,Centre,"sb\highlight.png",400,296 C,0,119778,,242,24,57 M,0,119778,119815,400,296,406.791,268.836 F,2,119778,120653,1,0 S,2,119778,120653,0.9,0.18 P,0,119778,120653,A M,0,119815,119853,406.791,268.836,413.582,241.672
Sprite,Foreground,Centre,"sb\highlight.png",273,174 C,0,119478,,242,24,57 F,2,119478,120278,1,0 S,2,119478,120278,0.9,0.18 P,0,119478,120278,A
Sprite,Foreground,Centre,"sb\highlight.png",273,174 C,0,119328,,242,24,57 F,2,119328,120128,1,0 S,2,119328,120128,0.9,0.18 P,0,119328,120128,A
Sprite,Foreground,Centre,"sb\highlight.png",480,184 C,0,119177,,18,124,255 F,2,119177,119977,1,0 S,2,119177,119977,0.9,0.18 P,0,119177,119977,A
Sprite,Foreground,Centre,"sb\highlight.png",296,362 C,0,118727,,18,124,255 F,2,118727,119527,1,0 S,2,118727,119527,0.9,0.18 P,0,118727,119527,A
//Storyboard Sound Samples

[TimingPoints]
1310,300.3003003003,4,1,1,40,1,0
8817,-100,4,1,1,40,0,0
16925,-111.111111111111,4,1,1,40,0,0
26535,-125,4,1,1,40,0,0
38096,-333.333333333333,4,1,1,40,0,0
38472,-333.333333333333,4,1,1,5,0,0
38547,-66.6666666666667,4,1,1,70,0,1
45754,-83.3333333333333,4,1,1,70,0,1
46955,-83.3333333333333,4,1,1,70,0,0
48156,-66.6666666666667,4,1,1,70,0,1
49583,-66.6666666666667,4,1,1,5,0,1
49658,-66.6666666666667,4,1,1,70,0,1
58967,-166.666666666667,4,1,1,70,0,0
59117,-142.857142857143,4,1,1,70,0,0
59267,-125,4,1,1,70,0,0
59418,-111.111111111111,4,1,1,70,0,0
59568,-100,4,1,1,70,0,0
59718,-90.9090909090909,4,1,1,70,0,0
59868,-83.3333333333333,4,1,1,70,0,0
60018,-76.9230769230769,4,1,1,70,0,0
60168,-71.4285714285714,4,1,1,70,0,1
60394,-71.4285714285714,4,1,1,5,0,1
60469,-71.4285714285714,4,1,1,70,0,1
62796,-71.4285714285714,4,1,1,5,0,1
62871,-71.4285714285714,4,1,1,70,0,1
65198,-71.4285714285714,4,1,1,5,0,1
65273,-71.4285714285714,4,1,1,70,0,1
67376,-76.9230769230769,4,1,1,70,0,1
69778,-71.4285714285714,4,1,1,70,0,1
70003,-71.4285714285714,4,1,1,5,0,1
70078,-71.4285714285714,4,1,1,70,0,1
72406,-71.4285714285714,4,1,1,5,0,1
72481,-71.4285714285714,4,1,1,70,0,1
74808,-71.4285714285714,4,1,1,5,0,1
74883,-71.4285714285714,4,1,1,70,0,1
76985,-76.9230769230769,4,1,1,70,0,1
79388,-76.9230769230769,4,1,1,40,0,0
88697,-166.666666666667,4,1,1,40,0,0
88922,-166.666666666667,4,1,1,5,0,0
88997,-90.9090909090909,4,1,1,55,0,0
96204,-90.9090909090909,4,1,1,55,0,0
98532,-90.9090909090909,4,1,1,5,0,0
98607,-62.5,4,1,1,70,0,1
102436,-62.5,4,1,1,5,0,1
102511,-62.5,4,1,1,70,0,1
107015,-62.5,4,1,1,40,0,0
108216,-62.5,4,1,1,70,0,1
115424,-71.4285714285714,4,1,1,70,0,1
120228,-71.4285714285714,4,1,1,70,0,1
120454,-71.4285714285714,4,1,1,5,0,1
120529,-71.4285714285714,4,1,1,70,0,1
122856,-71.4285714285714,4,1,1,5,0,1
122931,-71.4285714285714,4,1,1,70,0,1
125258,-71.4285714285714,4,1,1,5,0,1
125334,-71.4285714285714,4,1,1,70,0,1
127436,-83.3333333333333,4,1,1,70,0,1
129838,-90.9090909090909,4,1,1,40,0,0
130364,-90.9090909090909,4,1,1,5,0,0
130439,-90.9090909090909,4,1,1,40,0,0
131565,-90.9090909090909,4,1,1,5,0,0
131640,-90.9090909090909,4,1,1,40,0,0
132766,-90.9090909090909,4,1,1,5,0,0
132841,-90.9090909090909,4,1,1,40,0,0
133967,-90.9090909090909,4,1,1,5,0,0
134042,-90.9090909090909,4,1,1,40,0,0
135168,-90.9090909090909,4,1,1,5,0,0
135243,-90.9090909090909,4,1,1,40,0,0
136370,-90.9090909090909,4,1,1,5,0,0
136445,-90.9090909090909,4,1,1,40,0,0
139448,-90.9090909090909,4,1,1,35,0,0
140649,-90.9090909090909,4,1,1,40,0,0
141850,-90.9090909090909,4,1,1,45,0,0
143051,-90.9090909090909,4,1,1,50,0,0
144252,-90.9090909090909,4,1,1,55,0,0
145454,-90.9090909090909,4,1,1,60,0,0
146655,-90.9090909090909,4,1,1,65,0,0
147856,-90.9090909090909,4,1,1,70,0,0
148682,-90.9090909090909,4,1,1,5,0,0
148757,-90.9090909090909,4,1,1,40,0,0
148982,-90.9090909090909,4,1,1,5,0,0
149057,-90.9090909090909,4,1,1,70,0,0
171880,-90.9090909090909,4,1,1,75,0,0
173081,-58.8235294117647,4,1,1,80,0,1
174207,-58.8235294117647,4,1,1,5,0,1
174282,-58.8235294117647,4,1,1,80,0,1
176610,-58.8235294117647,4,1,1,5,0,1
176685,-58.8235294117647,4,1,1,80,0,1
180514,-58.8235294117647,4,1,1,5,0,1
180589,-58.8235294117647,4,1,1,80,0,1
182916,-58.8235294117647,4,1,1,5,0,1
182991,-58.8235294117647,4,1,1,80,0,1
183817,-58.8235294117647,4,1,1,5,0,1
183892,-58.8235294117647,4,1,1,80,0,1
187721,-58.8235294117647,4,1,1,5,0,1
187796,-58.8235294117647,4,1,1,80,0,1
193427,-58.8235294117647,4,1,1,5,0,1
193502,-58.8235294117647,4,1,1,80,0,1
201460,-58.8235294117647,4,1,1,44,0,0
201610,-71.4285714285714,4,1,1,44,0,0
201760,-90.9090909090909,4,1,1,44,0,0

[HitObjects]
256,192,8817,12,8,9718,0:0:0:0:
157,121,10018,5,0,0:0:0:0:
162,136,10168,1,0,0:0:0:0:
166,156,10319,1,2,0:0:0:0:
185,271,10619,1,0,0:0:0:0:
333,99,10919,6,0,P|333:197|418:144,1,240,2|2,0:0|0:0,0:0:0:0:
241,27,11370,2,0,L|291:285,1,240,0|0,0:0|0:0,0:0:0:0:
286,262,11820,1,0,0:0:0:0:
244,344,11970,1,0,0:0:0:0:
157,121,12120,5,2,0:0:0:0:
333,99,12571,1,0,0:0:0:0:
147,153,13021,1,0,0:0:0:0:
390,170,13322,6,0,P|318:191|258:147,1,120
237,93,13622,1,2,0:0:0:0:
165,288,13772,2,0,L|168:159,1,120,0|0,0:0|0:0,0:0:0:0:
173,23,14072,1,0,0:0:0:0:
237,93,14222,1,0,0:0:0:0:
147,153,14373,1,0,0:0:0:0:
331,318,14523,5,2,0:0:0:0:
398,233,14973,1,0,0:0:0:0:
465,148,15424,1,0,0:0:0:0:
359,127,15724,6,0,L|380:264,1,120,2|0,0:0|0:0,0:0:0:0:
465,148,16024,1,0,0:0:0:0:
349,39,16174,2,0,L|328:176,1,120,2|0,0:0|0:0,0:0:0:0:
243,60,16474,1,0,0:0:0:0:
465,148,16625,2,0,B|402:163|402:163|393:153|393:153|316:170,1,120,0|0,0:0|0:0,0:0:0:0:
205,198,16925,6,0,B|153:190|102:209|103:262|103:262|156:248|152:210,1,215.999993408203,2|0,0:0|0:0,0:0:0:0:
223,105,17376,2,0,B|190:75|190:75|181:18|181:18|202:35,1,107.999996704102,2|0,0:0|0:0,0:0:0:0:
185,21,17676,1,0,0:0:0:0:
267,174,17826,2,0,P|198:186|161:158,1,107.999996704102,0|0,0:0|0:0,0:0:0:0:
308,67,18126,6,0,B|316:131|316:131|299:158|299:158|333:305,1,215.999993408203,2|0,0:0|0:0,0:0:0:0:
413,310,18577,2,0,B|352:290|352:290|372:263|372:263|411:274,1,107.999996704102,2|0,0:0|0:0,0:0:0:0:
456,243,18877,1,0,0:0:0:0:
331,379,19027,2,0,P|320:297|348:238,1,107.999996704102,0|0,0:0|0:0,0:0:0:0:
493,100,19328,6,0,B|430:109|430:109|398:131|398:131|359:61|262:63,1,215.999993408203,2|0,0:0|0:0,0:0:0:0:
216,56,19778,1,0,0:0:0:0:
186,147,19928,2,0,L|171:28,1,107.999996704102,0|0,0:0|0:0,0:0:0:0:
293,278,20228,2,0,L|308:159,1,107.999996704102,0|0,0:0|0:0,0:0:0:0:
162,237,20529,5,2,0:0:0:0:
137,328,20829,1,2,0:0:0:0:
134,151,20979,1,2,0:0:0:0:
162,237,21129,2,0,P|162:149|248:49,1,215.999993408203,0|0,0:0|0:0,0:0:0:0:
239,53,21580,1,0,0:0:0:0:
339,308,21730,6,0,P|351:241|335:188,1,107.999996704102,2|0,0:0|0:0,0:0:0:0:
267,80,22030,1,0,0:0:0:0:
359,110,22180,1,2,0:0:0:0:
456,47,22331,2,0,L|469:155,1,107.999996704102,0|0,0:0|0:0,0:0:0:0:
454,251,22631,2,0,L|441:143,1,107.999996704102,0|0,0:0|0:0,0:0:0:0:
365,72,22931,5,2,0:0:0:0:
205,202,23231,1,0,0:0:0:0:
283,135,23382,1,2,0:0:0:0:
346,40,23532,2,0,P|279:16|221:33,1,107.999996704102,0|0,0:0|0:0,0:0:0:0:
182,103,23832,1,0,0:0:0:0:
182,103,23982,1,0,0:0:0:0:
300,244,24132,6,0,L|57:204,1,215.999993408203,2|0,0:0|0:0,0:0:0:0:
184,308,24583,1,0,0:0:0:0:
315,150,24733,2,0,P|365:175|391:224,1,107.999996704102,0|0,0:0|0:0,0:0:0:0:
285,335,25033,2,0,P|235:310|209:261,1,107.999996704102
300,244,25334,5,2,0:0:0:0:
244,81,25634,1,0,0:0:0:0:
341,135,25784,1,0,0:0:0:0:
410,229,25934,2,0,L|425:350,1,107.999996704102,0|0,0:0|0:0,0:0:0:0:
384,39,26234,2,0,L|369:160,1,107.999996704102,0|0,0:0|0:0,0:0:0:0:
276,265,26535,6,0,B|243:218|136:212|136:212|162:263|162:263,1,192,2|0,0:0|0:0,0:0:0:0:
121,119,26985,2,0,P|139:194|121:252,1,96,2|0,0:0|0:0,0:0:0:0:
50,176,27285,1,0,0:0:0:0:
88,38,27436,2,0,P|144:33|192:64,1,96,0|0,0:0|0:0,0:0:0:0:
290,84,27736,6,0,B|271:169|271:169|292:195|292:195|268:294,1,192,2|0,0:0|0:0,0:0:0:0:
209,345,28186,2,0,P|261:291|316:287,1,96,2|0,0:0|0:0,0:0:0:0:
295,374,28487,1,0,0:0:0:0:
389,195,28637,2,0,L|377:323,1,96,0|0,0:0|0:0,0:0:0:0:
290,84,28937,1,6,0:0:0:0:
125,233,33742,5,8,0:0:0:0:
43,151,34042,1,8,0:0:0:0:
125,70,34343,1,8,0:0:0:0:
206,151,34643,1,8,0:0:0:0:
349,366,34943,5,8,0:0:0:0:
234,251,35243,1,8,0:0:0:0:
350,136,35544,1,8,0:0:0:0:
465,251,35844,1,8,0:0:0:0:
215,272,36144,5,8,0:0:0:0:
79,136,36294,1,8,0:0:0:0:
215,0,36445,1,8,0:0:0:0:
350,136,36595,1,8,0:0:0:0:
76,273,36745,5,8,0:0:0:0:
221,128,36895,1,8,0:0:0:0:
352,293,37045,1,8,0:0:0:0:
79,136,37195,1,8,0:0:0:0:
356,6,37346,5,0,0:0:0:0:
364,33,37496,1,0,0:0:0:0:
373,60,37646,1,0,0:0:0:0:
382,87,37796,1,0,0:0:0:0:
391,114,37946,1,0,0:0:0:0:
402,144,38096,2,0,L|431:241,1,89.9999972534181,0|0,0:0|0:0,0:0:0:0:
437,262,38547,6,0,B|345:243|258:301|258:301|240:259|240:259|154:248|113:304,1,360.000013732911,12|2,0:0|0:0,0:0:0:0:
55,360,38922,1,0,0:0:0:0:
55,360,38997,2,0,P|105:278|96:160,1,180.000006866455,0|0,0:0|0:0,0:0:0:0:
35,14,39297,1,8,0:0:0:0:
196,160,39448,2,0,P|121:108|30:144,1,180.000006866455,2|0,0:0|0:0,0:0:0:0:
260,253,39748,2,0,B|224:163|224:163|263:44,1,180.000006866455,8|0,0:0|0:0,0:0:0:0:
391,21,40048,5,2,0:0:0:0:
196,160,40198,1,0,0:0:0:0:
444,146,40349,1,0,0:0:0:0:
186,80,40499,1,8,0:0:0:0:
421,253,40649,1,2,0:0:0:0:
223,9,40799,1,0,0:0:0:0:
222,323,40949,6,0,P|234:230|152:340,1,360.000013732911,8|2,0:0|0:0,0:0:0:0:
263,205,41400,1,0,0:0:0:0:
113,75,41550,2,0,B|226:92|259:210,2,180.000006866455,0|8|2,0:0|0:0|0:0,0:0:0:0:
70,266,42000,1,0,0:0:0:0:
321,48,42150,6,0,P|257:150|293:258,1,180.000006866455,8|0,0:0|0:0,0:0:0:0:
357,353,42451,1,2,0:0:0:0:
170,250,42601,1,0,0:0:0:0:
432,178,42751,2,0,B|342:184|342:184|329:202|329:202|202:206,1,180.000006866455,0|8,0:0|0:0,0:0:0:0:
123,90,43051,2,0,P|158:126|172:171,1,90.0000034332277,2|0,0:0|0:0,0:0:0:0:
218,322,43201,2,0,P|183:286|169:241,1,90.0000034332277,0|0,0:0|0:0,0:0:0:0:
417,39,43352,6,0,B|317:97|313:198|313:198|290:94|197:55,1,360.000013732911,12|2,0:0|0:0,0:0:0:0:
123,90,43727,1,0,0:0:0:0:
123,90,43802,2,0,P|91:187|9:162,1,180.000006866455,0|0,0:0|0:0,0:0:0:0:
197,15,44102,1,8,0:0:0:0:
250,282,44252,2,0,L|215:90,1,180.000006866455,2|0,0:0|0:0,0:0:0:0:
347,25,44553,5,8,0:0:0:0:
196,214,44703,1,0,0:0:0:0:
231,14,44853,1,2,0:0:0:0:
409,268,45003,1,0,0:0:0:0:
285,103,45153,1,0,0:0:0:0:
190,314,45303,1,8,0:0:0:0:
381,137,45454,1,2,0:0:0:0:
123,72,45604,1,0,0:0:0:0:
280,352,45754,6,0,P|273:267|196:215,1,143.999995605469,8|0,0:0|0:0,0:0:0:0:
121,186,46054,1,2,0:0:0:0:
121,186,46204,1,0,0:0:0:0:
258,24,46355,2,0,L|278:193,1,143.999995605469,0|8,0:0|0:0,0:0:0:0:
287,258,46655,1,2,0:0:0:0:
287,258,46805,1,0,0:0:0:0:
398,52,46955,1,8,0:0:0:0:
116,44,47856,5,0,0:0:0:0:
134,66,47931,1,0,0:0:0:0:
177,63,48006,1,0,0:0:0:0:
208,111,48081,1,0,0:0:0:0:
278,97,48156,6,0,B|314:197|425:223|425:223|339:207|303:251|330:300|388:279|373:244,1,360.000013732911,12|2,0:0|0:0,0:0:0:0:
454,190,48532,1,0,0:0:0:0:
454,190,48607,2,0,L|372:377,1,180.000006866455,0|0,0:0|0:0,0:0:0:0:
241,226,48907,1,8,0:0:0:0:
454,303,49057,1,2,0:0:0:0:
183,384,49207,1,0,0:0:0:0:
350,214,49358,6,0,P|299:140|139:192,1,270.000010299683,8|0,0:0|0:0,0:0:0:0:
124,251,49658,2,0,B|129:218|151:199|151:199|145:178|145:178|182:148|198:46,1,180.000006866455,2|0,0:0|0:0,0:0:0:0:
314,12,49958,1,0,0:0:0:0:
64,132,50108,1,8,0:0:0:0:
321,195,50258,1,2,0:0:0:0:
98,12,50409,1,0,0:0:0:0:
204,315,50559,6,0,P|219:220|122:149,1,180.000006866455,12|0,0:0|0:0,0:0:0:0:
109,345,50859,1,2,0:0:0:0:
342,245,51009,1,0,0:0:0:0:
156,138,51159,1,0,0:0:0:0:
317,369,51309,1,8,0:0:0:0:
367,109,51460,2,0,L|389:307,1,180.000006866455,2|0,0:0|0:0,0:0:0:0:
185,183,51760,6,0,L|207:-15,1,180.000006866455,8|0,0:0|0:0,0:0:0:0:
450,130,52060,2,0,P|365:195|293:154,1,180.000006866455,2|0,0:0|0:0,0:0:0:0:
124,42,52361,1,0,0:0:0:0:
367,109,52511,1,8,0:0:0:0:
96,171,52661,1,2,0:0:0:0:
381,77,52811,1,0,0:0:0:0:
31,95,52961,5,12,0:0:0:0:
206,132,53261,1,8,0:0:0:0:
277,297,53562,1,8,0:0:0:0:
181,238,53862,1,8,0:0:0:0:
481,95,54162,5,8,0:0:0:0:
306,132,54462,1,8,0:0:0:0:
235,297,54763,1,8,0:0:0:0:
331,238,55063,1,8,0:0:0:0:
31,95,55364,5,8,0:0:0:0:
235,297,55514,1,8,0:0:0:0:
306,132,55664,1,8,0:0:0:0:
181,238,55814,1,8,0:0:0:0:
481,95,55964,5,8,0:0:0:0:
277,297,56114,1,8,0:0:0:0:
206,132,56264,1,8,0:0:0:0:
331,238,56414,1,8,0:0:0:0:
256,32,56565,5,2,0:0:0:0:
165,356,56715,1,8,0:0:0:0:
256,32,56865,5,2,0:0:0:0:
347,356,57015,1,8,0:0:0:0:
96,192,57165,1,2,0:0:0:0:
416,192,57316,1,2,0:0:0:0:
256,128,57466,1,2,0:0:0:0:
256,128,57616,1,2,0:0:0:0:
256,352,57766,1,6,0:0:0:0:
256,192,57841,12,0,58892,0:0:0:0:
80,74,58967,6,0,L|119:47,1,35.9999989013672,0|0,0:0|0:0,0:0:0:0:
165,126,59117,2,0,L|208:121,1,41.9999987182618,0|0,0:0|0:0,0:0:0:0:
223,207,59267,2,0,L|276:217,1,48,0|0,0:0|0:0,0:0:0:0:
246,303,59418,2,0,L|301:338,1,53.9999983520508,0|0,0:0|0:0,0:0:0:0:
406,249,59568,6,0,L|336:272,1,60
127,214,59718,2,0,L|194:232,1,66.0000020141602,0|0,0:0|0:0,0:0:0:0:
371,105,59868,2,0,L|296:127,1,71.9999978027344,0|0,0:0|0:0,0:0:0:0:
104,43,60018,2,0,L|192:74,1,77.9999964294435,0|0,0:0|0:0,0:0:0:0:
393,133,60168,6,0,B|301:147|241:215|241:215|194:193|148:204,1,251.999992309571,12|0,0:0|0:0,0:0:0:0:
127,214,60469,2,0,L|158:389,1,167.999994873047,2|0,0:0|0:0,0:0:0:0:
319,323,60769,1,0,0:0:0:0:
36,274,60919,1,8,0:0:0:0:
301,125,61069,1,2,0:0:0:0:
127,214,61219,1,0,0:0:0:0:
405,293,61370,6,0,L|225:265,1,167.999994873047,8|0,0:0|0:0,0:0:0:0:
35,125,61670,2,0,L|215:97,1,167.999994873047,2|0,0:0|0:0,0:0:0:0:
396,319,61970,2,0,P|369:269|373:228,1,83.9999974365235,0|0,0:0|0:0,0:0:0:0:
365,62,62120,2,0,P|392:112|388:153,1,83.9999974365235,8|0,0:0|0:0,0:0:0:0:
302,179,62270,1,2,0:0:0:0:
302,179,62421,1,0,0:0:0:0:
177,359,62571,6,0,B|208:257|208:257|179:183|179:183|216:52,1,251.999992309571,12|0,0:0|0:0,0:0:0:0:
207,90,62871,2,0,L|25:140,1,167.999994873047,2|0,0:0|0:0,0:0:0:0:
97,279,63171,1,0,0:0:0:0:
151,16,63322,1,8,0:0:0:0:
261,270,63472,1,2,0:0:0:0:
118,19,63622,1,0,0:0:0:0:
379,80,63772,6,0,L|179:103,1,167.999994873047,8|0,0:0|0:0,0:0:0:0:
97,279,64072,2,0,L|297:302,1,167.999994873047,2|0,0:0|0:0,0:0:0:0:
447,160,64373,2,0,P|407:192|393:223,1,83.9999974365235,0|0,0:0|0:0,0:0:0:0:
296,381,64523,2,0,P|336:349|350:318,1,83.9999974365235,8|0,0:0|0:0,0:0:0:0:
303,237,64673,1,2,0:0:0:0:
303,237,64823,1,0,0:0:0:0:
68,182,64973,6,0,B|123:166|173:188|173:188|189:183|206:192|206:192|256:185|312:121,1,251.999992309571,12|0,0:0|0:0,0:0:0:0:
319,100,65273,2,0,P|310:193|382:268,1,167.999994873047,2|0,0:0|0:0,0:0:0:0:
497,331,65574,1,0,0:0:0:0:
197,224,65724,1,8,0:0:0:0:
413,154,65874,1,2,0:0:0:0:
202,362,66024,1,0,0:0:0:0:
458,233,66174,6,0,P|502:164|459:76,1,167.999994873047,8|0,0:0|0:0,0:0:0:0:
246,133,66475,2,0,L|438:157,1,167.999994873047,2|0,0:0|0:0,0:0:0:0:
408,328,66775,2,0,P|375:300|333:288,1,83.9999974365235,0|0,0:0|0:0,0:0:0:0:
120,304,66925,2,0,P|153:276|195:264,1,83.9999974365235,8|0,0:0|0:0,0:0:0:0:
259,340,67075,1,2,0:0:0:0:
259,340,67225,1,0,0:0:0:0:
268,69,67376,6,0,B|223:143|214:183|214:183|179:83|84:57,1,311.999985717774,12|2,0:0|0:0,0:0:0:0:
87,58,67826,1,0,0:0:0:0:
305,211,67976,2,0,P|242:214|282:241,1,155.999992858887,0|8,0:0|0:0,0:0:0:0:
382,172,68276,1,2,0:0:0:0:
284,370,68427,1,0,0:0:0:0:
189,114,68577,5,8,0:0:0:0:
374,259,68727,1,0,0:0:0:0:
148,180,68877,1,2,0:0:0:0:
382,172,69027,1,0,0:0:0:0:
169,261,69177,2,0,P|120:261|90:239,1,77.9999964294435,0|0,0:0|0:0,0:0:0:0:
359,93,69328,2,0,P|408:93|438:115,1,77.9999964294435,8|0,0:0|0:0,0:0:0:0:
270,298,69478,2,0,P|274:244|252:199,1,77.9999964294435,2|0,0:0|0:0,0:0:0:0:
243,62,69628,2,0,P|233:99|239:137,1,77.9999964294435,0|0,0:0|0:0,0:0:0:0:
352,337,69778,6,0,B|261:327|183:363|183:363|163:308|103:267,1,251.999992309571,12|0,0:0|0:0,0:0:0:0:
112,281,70078,2,0,P|120:187|48:106,1,167.999994873047,2|0,0:0|0:0,0:0:0:0:
19,334,70379,1,0,0:0:0:0:
264,143,70529,1,8,0:0:0:0:
25,220,70679,1,2,0:0:0:0:
336,300,70829,1,0,0:0:0:0:
120,144,70979,6,0,P|134:58|208:4,1,167.999994873047,8|0,0:0|0:0,0:0:0:0:
419,150,71279,2,0,P|337:173|250:129,1,167.999994873047,2|0,0:0|0:0,0:0:0:0:
421,27,71580,2,0,L|441:141,1,83.9999974365235
421,253,71730,2,0,L|435:335,1,83.9999974365235,8|0,0:0|0:0,0:0:0:0:
263,142,71880,1,2,0:0:0:0:
303,304,72030,1,0,0:0:0:0:
115,361,72180,6,0,B|141:281|141:281|127:254|127:254|147:212|147:212|134:173|134:173|164:85,1,251.999992309571,12|0,0:0|0:0,0:0:0:0:
163,96,72481,2,0,L|339:124,1,167.999994873047,2|0,0:0|0:0,0:0:0:0:
303,304,72781,1,0,0:0:0:0:
213,8,72931,1,8,0:0:0:0:
186,260,73081,1,2,0:0:0:0:
242,4,73231,1,0,0:0:0:0:
332,336,73382,6,0,L|311:140,1,167.999994873047,8|0,0:0|0:0,0:0:0:0:
163,96,73682,2,0,L|142:292,1,167.999994873047,2|0,0:0|0:0,0:0:0:0:
413,279,73982,2,0,P|367:244|304:239,1,83.9999974365235,0|0,0:0|0:0,0:0:0:0:
68,313,74132,2,0,P|114:348|177:353,1,83.9999974365235,8|0,0:0|0:0,0:0:0:0:
332,336,74282,1,2,0:0:0:0:
145,263,74433,1,0,0:0:0:0:
405,130,74583,6,0,B|285:160|285:160|141:123,1,251.999992309571,12|0,0:0|0:0,0:0:0:0:
129,111,74883,2,0,P|167:205|143:264,1,167.999994873047,2|0,0:0|0:0,0:0:0:0:
20,73,75183,1,0,0:0:0:0:
297,78,75334,1,8,0:0:0:0:
75,190,75484,1,2,0:0:0:0:
310,108,75634,1,0,0:0:0:0:
16,267,75784,6,0,P|69:287|163:223,1,167.999994873047,8|0,0:0|0:0,0:0:0:0:
202,2,76084,2,0,L|227:185,1,167.999994873047,2|0,0:0|0:0,0:0:0:0:
249,361,76385,2,0,P|258:304|269:271,1,83.9999974365235,0|0,0:0|0:0,0:0:0:0:
356,193,76535,2,0,P|347:136|336:103,1,83.9999974365235,8|0,0:0|0:0,0:0:0:0:
220,16,76685,1,2,0:0:0:0:
371,99,76835,1,0,0:0:0:0:
193,176,76985,6,0,P|234:150|133:156,1,311.999985717774,12|2,0:0|0:0,0:0:0:0:
117,128,77436,1,0,0:0:0:0:
215,330,77586,2,0,B|243:300|250:259|250:259|247:301|264:344,1,155.999992858887,0|8,0:0|0:0,0:0:0:0:
273,252,77886,1,2,0:0:0:0:
181,205,78036,1,0,0:0:0:0:
428,198,78186,5,8,0:0:0:0:
115,338,78337,1,8,0:0:0:0:
327,183,78487,1,8,0:0:0:0:
78,147,78637,1,8,0:0:0:0:
354,281,78787,5,8,0:0:0:0:
44,268,78937,1,8,0:0:0:0:
392,111,79087,1,2,0:0:0:0:
409,129,79388,1,4,0:0:0:0:
152,106,88547,5,8,0:0:0:0:
175,247,88697,2,0,L|167:112,1,107.999996704102,2|0,0:0|0:0,0:0:0:0:
152,106,88997,6,0,P|230:130|300:117,1,132.00000402832,12|0,0:0|0:0,0:0:0:0:
406,31,89297,2,0,L|391:178,1,132.00000402832,2|0,0:0|0:0,0:0:0:0:
371,335,89598,1,0,0:0:0:0:
319,225,89748,1,8,0:0:0:0:
268,355,89898,2,0,P|283:260|270:195,1,132.00000402832,2|0,0:0|0:0,0:0:0:0:
152,106,90198,6,0,P|230:130|300:117,1,132.00000402832,8|0,0:0|0:0,0:0:0:0:
95,33,90499,2,0,P|57:103|88:179,1,132.00000402832,2|0,0:0|0:0,0:0:0:0:
169,247,90799,1,8,0:0:0:0:
152,106,90949,1,0,0:0:0:0:
141,267,91099,1,2,0:0:0:0:
230,172,91249,1,0,0:0:0:0:
59,208,91400,6,0,P|44:289|83:353,1,132.00000402832,8|0,0:0|0:0,0:0:0:0:
256,310,91700,2,0,P|271:229|232:165,1,132.00000402832,2|0,0:0|0:0,0:0:0:0:
152,106,92000,1,0,0:0:0:0:
320,105,92150,1,8,0:0:0:0:
230,172,92300,1,2,0:0:0:0:
386,187,92451,1,0,0:0:0:0:
244,259,92601,6,0,P|177:245|141:168,1,132.00000402832,8|0,0:0|0:0,0:0:0:0:
201,23,92901,2,0,P|241:84|231:153,1,132.00000402832,2|0,0:0|0:0,0:0:0:0:
140,258,93201,1,0,0:0:0:0:
152,106,93352,1,0,0:0:0:0:
106,241,93502,1,0,0:0:0:0:
230,172,93652,1,0,0:0:0:0:
63,155,93802,6,0,P|15:212|25:292,1,132.00000402832,12|0,0:0|0:0,0:0:0:0:
182,364,94102,2,0,P|240:301|230:221,1,132.00000402832,2|0,0:0|0:0,0:0:0:0:
152,106,94403,1,0,0:0:0:0:
307,205,94553,1,8,0:0:0:0:
207,31,94703,1,2,0:0:0:0:
299,237,94853,1,0,0:0:0:0:
291,7,95003,5,8,0:0:0:0:
236,117,95153,1,0,0:0:0:0:
118,26,95303,1,2,0:0:0:0:
190,181,95454,1,0,0:0:0:0:
320,93,95604,5,0,0:0:0:0:
182,264,95754,1,8,0:0:0:0:
152,106,95904,1,2,0:0:0:0:
216,339,96054,1,0,0:0:0:0:
339,215,96204,5,2,0:0:0:0:
190,181,96355,1,8,0:0:0:0:
135,333,96505,1,8,0:0:0:0:
423,234,96655,5,2,0:0:0:0:
198,97,96805,1,8,0:0:0:0:
58,356,96955,1,8,0:0:0:0:
479,297,97105,5,2,0:0:0:0:
262,42,97255,1,8,0:0:0:0:
0,299,97406,1,2,0:0:0:0:
256,192,97481,12,0,98532,0:0:0:0:
158,308,98607,6,0,B|211:182|107:48|107:48|166:83|227:54,1,384,12|2,0:0|0:0,0:0:0:0:
314,32,98982,1,0,0:0:0:0:
314,32,99057,2,0,L|287:201,1,96,0|0,0:0|0:0,0:0:0:0:
305,334,99207,2,0,L|278:165,1,96,0|0,0:0|0:0,0:0:0:0:
262,130,99358,1,8,0:0:0:0:
418,254,99508,1,2,0:0:0:0:
158,308,99658,1,0,0:0:0:0:
369,145,99808,6,0,P|329:45|217:25,1,192,8|0,0:0|0:0,0:0:0:0:
66,80,100108,1,2,0:0:0:0:
262,130,100258,1,0,0:0:0:0:
27,238,100409,1,0,0:0:0:0:
235,116,100559,1,8,0:0:0:0:
131,355,100709,1,2,0:0:0:0:
90,66,100859,1,0,0:0:0:0:
216,301,101009,6,0,P|206:214|275:121,1,192,12|0,0:0|0:0,0:0:0:0:
389,70,101309,1,0,0:0:0:0:
221,129,101460,1,0,0:0:0:0:
498,194,101610,2,0,L|401:208,1,96,0|0,0:0|0:0,0:0:0:0:
310,231,101760,2,0,L|407:245,1,96,8|0,0:0|0:0,0:0:0:0:
503,287,101910,2,0,P|393:277|318:353,1,192,2|8,0:0|0:0,0:0:0:0:
166,374,102210,6,0,B|182:250|182:250|158:227|158:227|186:67,1,288,4|0,0:0|0:0,0:0:0:0:
180,99,102511,2,0,B|259:38|259:38|148:23,1,192,0|2,0:0|0:0,0:0:0:0:
36,112,102811,1,0,0:0:0:0:
306,161,102961,1,8,0:0:0:0:
17,242,103111,1,2,0:0:0:0:
359,292,103261,1,0,0:0:0:0:
2,379,103412,6,0,B|31:255|104:201|104:201|146:202|146:202|164:128|255:77,1,384,12|2,0:0|0:0,0:0:0:0:
337,37,103787,1,0,0:0:0:0:
337,37,103862,2,0,P|313:97|316:126,1,96,0|0,0:0|0:0,0:0:0:0:
359,292,104012,2,0,P|383:232|380:203,1,96,0|0,0:0|0:0,0:0:0:0:
290,130,104162,1,8,0:0:0:0:
480,254,104313,1,2,0:0:0:0:
208,266,104463,1,0,0:0:0:0:
493,213,104613,6,0,P|369:183|301:88,1,192,8|0,0:0|0:0,0:0:0:0:
312,12,104913,1,2,0:0:0:0:
228,289,105063,1,0,0:0:0:0:
337,25,105213,1,0,0:0:0:0:
157,170,105364,1,8,0:0:0:0:
422,216,105514,1,2,0:0:0:0:
156,359,105664,1,0,0:0:0:0:
253,175,105814,5,12,0:0:0:0:
365,355,105964,1,0,0:0:0:0:
199,245,106114,1,2,0:0:0:0:
401,128,106264,1,0,0:0:0:0:
283,338,106415,5,8,0:0:0:0:
167,167,106565,1,2,0:0:0:0:
341,274,106715,1,2,0:0:0:0:
160,366,106865,1,0,0:0:0:0:
291,158,107015,1,12,0:0:0:0:
0,31,107916,5,0,0:0:0:0:
17,54,107991,1,0,0:0:0:0:
64,46,108066,1,0,0:0:0:0:
103,100,108141,1,0,0:0:0:0:
167,40,108216,6,0,B|281:54|281:54|310:112|310:112|518:140,1,384,12|2,0:0|0:0,0:0:0:0:
489,242,108592,1,0,0:0:0:0:
489,242,108667,2,0,L|364:225,1,96,0|0,0:0|0:0,0:0:0:0:
198,198,108817,2,0,L|323:215,1,96,0|0,0:0|0:0,0:0:0:0:
402,322,108967,1,8,0:0:0:0:
249,107,109117,1,2,0:0:0:0:
186,358,109267,1,0,0:0:0:0:
336,163,109418,6,0,P|341:60|239:3,1,192,8|0,0:0|0:0,0:0:0:0:
55,40,109718,1,2,0:0:0:0:
249,107,109868,1,0,0:0:0:0:
24,171,110018,1,0,0:0:0:0:
222,22,110168,1,8,0:0:0:0:
157,277,110319,1,2,0:0:0:0:
80,55,110469,1,0,0:0:0:0:
209,375,110619,6,0,P|202:275|265:181,1,192,12|0,0:0|0:0,0:0:0:0:
423,183,110919,1,2,0:0:0:0:
140,168,111069,1,0,0:0:0:0:
401,285,111219,1,0,0:0:0:0:
163,87,111370,1,8,0:0:0:0:
452,97,111520,1,2,0:0:0:0:
221,151,111670,1,0,0:0:0:0:
485,293,111820,6,0,P|379:323|306:375,1,192,8|0,0:0|0:0,0:0:0:0:
75,226,112120,2,0,P|181:256|254:308,1,192,2|0,0:0|0:0,0:0:0:0:
397,361,112421,1,0,0:0:0:0:
281,93,112571,1,8,0:0:0:0:
200,305,112721,1,2,0:0:0:0:
297,56,112871,1,0,0:0:0:0:
369,234,113021,5,12,0:0:0:0:
241,182,113171,1,0,0:0:0:0:
418,152,113322,1,2,0:0:0:0:
253,215,113472,1,0,0:0:0:0:
457,234,113622,5,0,0:0:0:0:
228,140,113772,1,8,0:0:0:0:
418,312,113922,1,2,0:0:0:0:
264,252,114072,1,0,0:0:0:0:
501,160,114222,5,8,0:0:0:0:
219,113,114373,1,0,0:0:0:0:
457,234,114523,1,2,0:0:0:0:
226,332,114673,1,0,0:0:0:0:
416,157,114823,5,0,0:0:0:0:
136,146,114973,1,8,0:0:0:0:
372,236,115123,1,2,0:0:0:0:
226,332,115273,1,0,0:0:0:0:
200,72,115424,6,0,P|236:144|204:226,1,167.999994873047,12|0,0:0|0:0,0:0:0:0:
216,373,115724,2,0,P|180:301|212:219,1,167.999994873047,8|0,0:0|0:0,0:0:0:0:
469,100,116024,2,0,L|277:127,1,167.999994873047,8|0,0:0|0:0,0:0:0:0:
136,146,116325,2,0,L|328:119,1,167.999994873047,8|0,0:0|0:0,0:0:0:0:
392,355,116625,6,0,L|200:328,1,167.999994873047,8|0,0:0|0:0,0:0:0:0:
59,309,116926,2,0,L|251:336,1,167.999994873047,8|0,0:0|0:0,0:0:0:0:
397,242,117225,2,0,P|329:204|303:111,1,167.999994873047,8|0,0:0|0:0,0:0:0:0:
206,2,117526,2,0,P|274:40|300:133,1,167.999994873047,8|0,0:0|0:0,0:0:0:0:
225,332,117826,5,8,0:0:0:0:
196,109,117976,1,8,0:0:0:0:
363,282,118126,1,8,0:0:0:0:
104,129,118276,1,8,0:0:0:0:
403,138,118427,5,8,0:0:0:0:
15,147,118577,1,8,0:0:0:0:
439,228,118727,1,8,0:0:0:0:
39,280,118877,1,8,0:0:0:0:
379,40,119027,5,2,0:0:0:0:
35,62,119177,1,8,0:0:0:0:
403,138,119327,1,2,0:0:0:0:
76,359,119478,1,8,0:0:0:0:
465,69,119628,5,2,0:0:0:0:
102,174,119778,1,0,0:0:0:0:
489,152,119928,1,2,0:0:0:0:
80,150,120078,1,2,0:0:0:0:
431,239,120228,6,0,P|367:222|301:364,1,251.999992309571,12|0,0:0|0:0,0:0:0:0:
299,361,120529,2,0,P|324:251|312:164,1,167.999994873047,2|0,0:0|0:0,0:0:0:0:
256,27,120829,1,0,0:0:0:0:
297,180,120979,1,8,0:0:0:0:
334,5,121129,1,2,0:0:0:0:
278,202,121279,1,0,0:0:0:0:
401,54,121430,6,0,P|376:133|403:230,1,167.999994873047,8|0,0:0|0:0,0:0:0:0:
485,325,121730,2,0,L|316:292,1,167.999994873047,2|0,0:0|0:0,0:0:0:0:
146,237,122030,1,0,0:0:0:0:
146,237,122180,1,8,0:0:0:0:
291,314,122331,1,2,0:0:0:0:
291,314,122481,1,0,0:0:0:0:
192,73,122631,6,0,L|159:343,1,251.999992309571,12|0,0:0|0:0,0:0:0:0:
161,323,122931,2,0,P|194:229|260:188,1,167.999994873047,2|0,0:0|0:0,0:0:0:0:
394,213,123231,1,0,0:0:0:0:
137,149,123382,1,8,0:0:0:0:
312,287,123532,1,2,0:0:0:0:
225,59,123682,1,0,0:0:0:0:
194,344,123832,6,0,P|187:231|164:162,1,167.999994873047,8|0,0:0|0:0,0:0:0:0:
148,14,124132,2,0,P|155:127|178:196,1,167.999994873047,2|0,0:0|0:0,0:0:0:0:
310,158,124433,1,0,0:0:0:0:
310,158,124583,1,8,0:0:0:0:
137,149,124733,1,2,0:0:0:0:
137,149,124883,1,0,0:0:0:0:
314,304,125033,6,0,B|348:167|348:167|377:159|377:159|410:26,1,251.999992309571,12|0,0:0|0:0,0:0:0:0:
396,80,125334,2,0,B|447:83|486:110|486:110|493:161|454:215,1,167.999994873047,2|0,0:0|0:0,0:0:0:0:
422,268,125634,1,0,0:0:0:0:
283,110,125784,1,8,0:0:0:0:
459,172,125934,1,2,0:0:0:0:
251,222,126084,1,0,0:0:0:0:
465,80,126234,6,0,L|271:102,1,167.999994873047,8|0,0:0|0:0,0:0:0:0:
85,204,126535,2,0,L|279:226,1,167.999994873047,2|0,0:0|0:0,0:0:0:0:
402,291,126835,1,0,0:0:0:0:
402,291,126985,1,8,0:0:0:0:
225,351,127135,1,2,0:0:0:0:
225,351,127285,1,0,0:0:0:0:
224,94,127436,6,0,B|268:161|268:161|240:264,1,143.999995605469,12|0,0:0|0:0,0:0:0:0:
177,272,127736,1,2,0:0:0:0:
159,63,127886,2,0,B|237:79|237:79|290:171,1,143.999995605469,0|0,0:0|0:0,0:0:0:0:
251,222,128186,1,8,0:0:0:0:
92,87,128337,2,0,B|159:42|159:42|262:70,1,143.999995605469,2|0,0:0|0:0,0:0:0:0:
269,134,128637,5,8,0:0:0:0:
62,192,128787,1,0,0:0:0:0:
346,197,128937,1,2,0:0:0:0:
92,87,129087,1,0,0:0:0:0:
330,67,129237,5,0,0:0:0:0:
269,134,129388,1,8,0:0:0:0:
249,223,129538,1,2,0:0:0:0:
295,305,129688,1,0,0:0:0:0:
380,336,129838,6,0,B|266:293|185:341|185:341|190:271|135:201|23:234|14:308|31:356,1,462.000014099122,12|0,0:0|0:0,0:0:0:0:
25,321,130439,2,0,B|136:209|96:47|96:47|101:118|69:188,1,396.000012084961,2|0,0:0|0:0,0:0:0:0:
331,115,131039,2,0,B|238:204|100:149|100:149|233:237|140:363,1,462.000014099122,8|0,0:0|0:0,0:0:0:0:
161,329,131640,1,2,0:0:0:0:
234,274,131790,1,0,0:0:0:0:
326,277,131940,1,0,0:0:0:0:
394,338,132090,1,0,0:0:0:0:
472,290,132240,6,0,B|428:225|459:128|459:128|403:137|403:137|397:44|451:9|451:9|397:44|326:37,1,462.000014099122,12|0,0:0|0:0,0:0:0:0:
363,37,132841,2,0,B|283:71|266:147|266:147|248:72|248:72|188:156|71:143,1,396.000012084961,2|0,0:0|0:0,0:0:0:0:
125,28,133442,2,0,B|188:127|123:252|123:252|174:227|236:236|236:236|200:286|200:286|221:320|224:385,1,462.000014099122,8|0,0:0|0:0,0:0:0:0:
217,331,134042,1,0,0:0:0:0:
302,296,134192,1,0,0:0:0:0:
344,213,134343,1,8,0:0:0:0:
345,120,134493,1,0,0:0:0:0:
430,86,134643,6,0,B|308:81|308:81|299:76|299:76|290:82|290:82|188:76|188:76|237:117|237:117|165:111|165:111|157:115|157:115|148:110|148:110|58:100,1,462.000014099122,12|0,0:0|0:0,0:0:0:0:
87,103,135243,2,0,P|161:187|6:151,1,396.000012084961,2|0,0:0|0:0,0:0:0:0:
79,182,135844,2,0,B|153:217|197:374|197:374|222:289|260:254|260:254|311:258|311:258|340:221|380:206,1,462.000014099122,8|0,0:0|0:0,0:0:0:0:
340,228,136445,1,2,0:0:0:0:
432,219,136595,1,0,0:0:0:0:
487,145,136745,1,0,0:0:0:0:
480,52,136895,1,0,0:0:0:0:
224,114,137045,6,0,L|495:146,1,264.000008056641,12|0,0:0|0:0,0:0:0:0:
224,114,137496,1,0,0:0:0:0:
229,205,137646,2,0,L|494:142,1,264.000008056641,2|0,0:0|0:0,0:0:0:0:
229,205,138096,1,0,0:0:0:0:
265,289,138246,5,8,0:0:0:0:
172,277,138397,1,0,0:0:0:0:
90,320,138547,1,0,0:0:0:0:
167,370,138697,1,0,0:0:0:0:
162,91,138847,5,2,0:0:0:0:
93,233,138997,1,0,0:0:0:0:
162,91,139147,1,0,0:0:0:0:
93,233,139297,1,0,0:0:0:0:
282,234,139448,5,12,0:0:0:0:
194,205,139598,1,0,0:0:0:0:
194,113,139748,1,0,0:0:0:0:
282,84,139898,1,8,0:0:0:0:
336,159,140048,1,0,0:0:0:0:
282,234,140198,1,0,0:0:0:0:
194,113,140349,2,0,L|140:285,1,132.00000402832,0|0,0:0|0:0,0:0:0:0:
336,309,140649,5,2,0:0:0:0:
424,280,140799,1,0,0:0:0:0:
424,188,140949,1,0,0:0:0:0:
336,159,141099,1,2,0:0:0:0:
282,234,141249,1,0,0:0:0:0:
336,309,141399,1,0,0:0:0:0:
424,188,141550,2,0,L|478:360,1,132.00000402832,0|0,0:0|0:0,0:0:0:0:
194,355,141850,5,8,0:0:0:0:
282,326,142000,1,0,0:0:0:0:
282,234,142150,1,0,0:0:0:0:
194,205,142300,1,8,0:0:0:0:
140,280,142450,1,0,0:0:0:0:
194,355,142600,1,0,0:0:0:0:
282,234,142751,2,0,L|336:406,1,132.00000402832,0|0,0:0|0:0,0:0:0:0:
140,130,143051,5,8,0:0:0:0:
52,159,143201,1,0,0:0:0:0:
52,251,143351,1,0,0:0:0:0:
140,280,143501,1,8,0:0:0:0:
194,205,143651,1,0,0:0:0:0:
140,130,143801,1,0,0:0:0:0:
52,251,143952,2,0,L|-2:79,1,132.00000402832,0|0,0:0|0:0,0:0:0:0:
194,55,144252,5,2,0:0:0:0:
282,84,144402,1,0,0:0:0:0:
282,176,144552,1,0,0:0:0:0:
194,205,144702,1,8,0:0:0:0:
140,130,144852,1,0,0:0:0:0:
194,55,145002,1,0,0:0:0:0:
282,176,145153,2,0,L|336:4,1,132.00000402832,0|0,0:0|0:0,0:0:0:0:
282,326,145454,5,2,0:0:0:0:
194,297,145604,1,0,0:0:0:0:
194,205,145754,1,0,0:0:0:0:
282,176,145904,1,2,0:0:0:0:
336,251,146054,1,8,0:0:0:0:
282,326,146204,1,0,0:0:0:0:
194,205,146355,2,0,L|140:377,1,132.00000402832,8|0,0:0|0:0,0:0:0:0:
387,178,146655,5,8,0:0:0:0:
336,251,146805,1,8,0:0:0:0:
281,55,146955,1,8,0:0:0:0:
299,171,147105,1,0,0:0:0:0:
385,6,147255,5,8,0:0:0:0:
387,178,147406,1,0,0:0:0:0:
281,55,147556,1,8,0:0:0:0:
420,261,147706,1,0,0:0:0:0:
363,88,147856,5,8,0:0:0:0:
246,332,148006,1,0,0:0:0:0:
387,178,148156,1,0,0:0:0:0:
111,153,148306,1,8,0:0:0:0:
420,261,148457,6,0,P|294:303|262:358,1,198.000006042481,0|0,0:0|0:0,0:0:0:0:
246,332,148757,2,0,P|261:218|169:170,1,198.000006042481,8|0,0:0|0:0,0:0:0:0:
111,153,149057,1,4,0:0:0:0:
213,27,163472,5,6,0:0:0:0:
116,221,163622,1,8,0:0:0:0:
202,145,163772,1,8,0:0:0:0:
397,236,163922,5,2,0:0:0:0:
98,117,164072,1,8,0:0:0:0:
216,252,164222,1,8,0:0:0:0:
302,92,164373,5,2,0:0:0:0:
362,336,164523,1,8,0:0:0:0:
302,92,164673,1,2,0:0:0:0:
362,336,164823,1,8,0:0:0:0:
216,252,164973,5,8,0:0:0:0:
382,209,165123,1,2,0:0:0:0:
206,278,165273,1,8,0:0:0:0:
402,227,165424,1,8,0:0:0:0:
191,369,165574,5,2,0:0:0:0:
148,352,165649,1,2,0:0:0:0:
119,316,165724,1,8,0:0:0:0:
112,271,165799,1,8,0:0:0:0:
128,228,165874,1,12,0:0:0:0:
181,86,166024,1,8,0:0:0:0:
43,4,166174,1,8,0:0:0:0:
334,132,166325,5,8,0:0:0:0:
181,86,166475,1,8,0:0:0:0:
25,140,166625,1,8,0:0:0:0:
299,219,166775,5,2,0:0:0:0:
248,18,166925,1,8,0:0:0:0:
299,219,167075,1,2,0:0:0:0:
248,18,167225,1,8,0:0:0:0:
201,263,167376,5,8,0:0:0:0:
319,110,167526,1,2,0:0:0:0:
229,294,167676,1,8,0:0:0:0:
304,83,167826,1,8,0:0:0:0:
391,338,167976,1,2,0:0:0:0:
360,304,168051,1,2,0:0:0:0:
318,283,168126,1,8,0:0:0:0:
272,280,168201,1,8,0:0:0:0:
229,294,168276,5,6,0:0:0:0:
97,193,168427,1,8,0:0:0:0:
197,318,168577,1,8,0:0:0:0:
107,159,168727,1,2,0:0:0:0:
169,338,168877,5,8,0:0:0:0:
116,124,169027,1,8,0:0:0:0:
65,328,169177,1,2,0:0:0:0:
125,90,169328,1,8,0:0:0:0:
234,243,169478,5,2,0:0:0:0:
132,56,169628,1,8,0:0:0:0:
120,252,169778,1,8,0:0:0:0:
137,20,169928,1,2,0:0:0:0:
315,140,170078,1,8,0:0:0:0:
34,172,170228,1,8,0:0:0:0:
268,265,170379,1,2,0:0:0:0:
320,270,170454,1,2,0:0:0:0:
368,251,170529,1,8,0:0:0:0:
403,212,170604,1,0,0:0:0:0:
417,161,170679,5,6,0:0:0:0:
463,368,170829,1,8,0:0:0:0:
350,50,170979,1,2,0:0:0:0:
293,311,171129,1,8,0:0:0:0:
215,13,171279,5,2,0:0:0:0:
305,339,171430,1,8,0:0:0:0:
273,89,171580,1,2,0:0:0:0:
177,360,171730,1,8,0:0:0:0:
421,178,171881,5,6,0:0:0:0:
116,277,172031,1,2,0:0:0:0:
305,18,172181,1,2,0:0:0:0:
305,339,172331,1,2,0:0:0:0:
116,79,172481,1,2,0:0:0:0:
460,344,172631,1,2,0:0:0:0:
84,308,172781,1,2,0:0:0:0:
305,18,172931,1,2,0:0:0:0:
305,339,173081,6,0,B|210:353|201:275|85:307|85:307|115:258|96:232|96:232|39:208|25:107,1,408.000007781983,12|2,0:0|0:0,0:0:0:0:
146,133,173457,1,0,0:0:0:0:
146,133,173532,2,0,P|109:222|67:237,1,102.000001945496,0|0,0:0|0:0,0:0:0:0:
85,47,173682,2,0,P|171:28|242:94,1,102.000001945496,0|0,0:0|0:0,0:0:0:0:
290,63,173832,1,8,0:0:0:0:
206,332,173982,2,0,B|200:264|200:264|195:253|195:253|197:244|197:244|194:192|194:192|197:179|197:179|191:168|191:168|178:12,1,306.000005836487,2|0,0:0|0:0,0:0:0:0:
180,31,174282,6,0,P|276:89|366:40,1,204.000003890991,12|0,0:0|0:0,0:0:0:0:
412,0,174508,1,0,0:0:0:0:
412,0,174583,2,0,P|435:50|412:113,1,102.000001945496,2|0,0:0|0:0,0:0:0:0:
381,250,174733,2,0,P|358:200|381:137,1,102.000001945496,0|0,0:0|0:0,0:0:0:0:
469,52,174883,1,0,0:0:0:0:
160,345,175033,1,8,0:0:0:0:
500,320,175183,1,2,0:0:0:0:
225,117,175334,1,0,0:0:0:0:
478,214,175484,6,0,B|429:216|413:253|361:245|361:245|361:270|382:294|382:294|272:318|272:318|254:330|254:330|234:327|234:327|133:351,1,408.000007781983,12|2,0:0|0:0,0:0:0:0:
91,269,175859,1,0,0:0:0:0:
91,269,175934,2,0,P|146:239|206:256,1,102.000001945496,0|0,0:0|0:0,0:0:0:0:
20,338,176084,2,0,P|-5:247|26:194,1,102.000001945496,0|0,0:0|0:0,0:0:0:0:
55,160,176234,1,8,0:0:0:0:
167,309,176385,2,0,B|186:239|146:201|146:201|166:189|168:170|168:170|142:111|142:111|149:-5,1,306.000005836487,2|0,0:0|0:0,0:0:0:0:
148,26,176685,6,0,P|225:75|205:-7,1,204.000003890991,12|0,0:0|0:0,0:0:0:0:
55,160,176910,1,0,0:0:0:0:
55,160,176985,2,0,B|107:153|148:174|148:174|164:172|164:172|177:186|177:186|196:182|196:182|225:203|275:195,1,204.000003890991,2|0,0:0|0:0,0:0:0:0:
491,283,177285,1,0,0:0:0:0:
246,99,177436,1,8,0:0:0:0:
373,370,177586,1,2,0:0:0:0:
271,67,177736,1,0,0:0:0:0:
484,257,177886,6,0,B|387:238|328:279|328:279|293:311|293:311|268:293|268:293|198:389|83:306,1,408.000007781983,12|2,0:0|0:0,0:0:0:0:
177,241,178261,1,0,0:0:0:0:
177,241,178337,2,0,P|202:302|187:375,1,102.000001945496,0|0,0:0|0:0,0:0:0:0:
124,84,178487,2,0,P|100:130|117:195,1,102.000001945496,0|0,0:0|0:0,0:0:0:0:
185,144,178637,1,8,0:0:0:0:
2,281,178787,1,2,0:0:0:0:
276,221,178937,1,0,0:0:0:0:
8,73,179087,6,0,B|64:95|64:95|99:72|99:72|130:75|130:75|163:52|230:63,1,204.000003890991,12|0,0:0|0:0,0:0:0:0:
452,225,179388,2,0,B|362:213|362:213|343:193|343:193|317:205|317:205|232:191,1,204.000003890991,2|0,0:0|0:0,0:0:0:0:
272,21,179688,1,0,0:0:0:0:
343,319,179838,1,8,0:0:0:0:
342,88,179988,1,2,0:0:0:0:
367,350,180138,1,0,0:0:0:0:
418,150,180288,6,0,P|304:174|286:9,1,306.000005836487,12|0,0:0|0:0,0:0:0:0:
272,21,180589,2,0,B|220:17|187:33|187:33|172:26|172:26|159:37|159:37|115:28|69:51,1,204.000003890991,2|0,0:0|0:0,0:0:0:0:
31,284,180889,1,0,0:0:0:0:
140,69,181039,1,8,0:0:0:0:
249,363,181189,1,2,0:0:0:0:
230,122,181340,1,0,0:0:0:0:
93,366,181490,6,0,B|115:343|146:339|146:339|170:355|170:355|192:344|200:324|244:332|244:332|271:308|315:308,1,204.000003890991,12|0,0:0|0:0,0:0:0:0:
379,286,181715,1,0,0:0:0:0:
379,286,181790,2,0,B|355:284|355:284|401:390,1,102.000001945496,2|0,0:0|0:0,0:0:0:0:
472,159,181940,2,0,B|492:149|492:149|466:267,1,102.000001945496
506,344,182090,1,0,0:0:0:0:
208,142,182240,1,8,0:0:0:0:
499,243,182391,1,2,0:0:0:0:
245,344,182541,1,0,0:0:0:0:
274,61,182691,6,0,B|277:90|265:115|265:115|241:127|229:151|229:151|236:174|225:199|225:199|178:266|26:288,1,306.000005836487,12|0,0:0|0:0,0:0:0:0:
99,274,182991,2,0,P|214:252|244:325,1,204.000003890991,2|0,0:0|0:0,0:0:0:0:
18,325,183291,2,0,P|73:369|136:362,1,102.000001945496,0|0,0:0|0:0,0:0:0:0:
177,228,183442,2,0,P|122:184|59:191,1,102.000001945496,8|0,0:0|0:0,0:0:0:0:
253,343,183592,2,0,B|282:295|282:295|274:272|274:272|289:259|297:234|297:234|289:210|300:186|300:186|321:173|340:175|340:175|374:147|363:66,1,306.000005836487,2|0,0:0|0:0,0:0:0:0:
365,92,183892,6,0,B|427:183|427:183|448:63,1,204.000003890991,8|0,0:0|0:0,0:0:0:0:
209,86,184192,2,0,B|96:23|97:156|-17:57|-20:55,1,204.000003890991,2|0,0:0|0:0,0:0:0:0:
253,343,184493,1,0,0:0:0:0:
114,36,184643,1,0,0:0:0:0:
76,362,184793,1,2,0:0:0:0:
135,25,184943,1,0,0:0:0:0:
219,327,185093,6,0,B|302:344|362:291|362:291|416:294|458:325|458:325|419:286|398:238|418:177,1,408.000007781983,12|2,0:0|0:0,0:0:0:0:
424,84,185469,1,0,0:0:0:0:
424,84,185544,2,0,P|423:178|446:237,1,102.000001945496,0|0,0:0|0:0,0:0:0:0:
304,229,185694,2,0,P|305:135|282:76,1,102.000001945496,0|0,0:0|0:0,0:0:0:0:
265,40,185844,1,2,0:0:0:0:
510,136,185994,1,2,0:0:0:0:
210,236,186144,1,0,0:0:0:0:
494,258,186294,6,0,P|394:213|279:242,1,204.000003890991,12|0,0:0|0:0,0:0:0:0:
19,206,186595,2,0,P|119:251|234:222,1,204.000003890991,2|0,0:0|0:0,0:0:0:0:
265,40,186895,2,0,P|260:95|235:142,1,102.000001945496,0|0,0:0|0:0,0:0:0:0:
183,332,187045,2,0,P|188:277|213:230,1,102.000001945496,8|0,0:0|0:0,0:0:0:0:
303,228,187195,2,0,P|226:144|132:177,1,204.000003890991,2|0,0:0|0:0,0:0:0:0:
344,343,187496,6,0,B|330:308|341:277|341:277|300:197|300:197|323:131|295:39,1,306.000005836487,12|0,0:0|0:0,0:0:0:0:
298,50,187796,2,0,B|357:52|397:89|397:89|441:50|511:56,1,204.000003890991,2|0,0:0|0:0,0:0:0:0:
466,255,188096,1,0,0:0:0:0:
208,130,188246,1,8,0:0:0:0:
485,156,188397,2,0,P|412:255|419:373,1,204.000003890991,2|0,0:0|0:0,0:0:0:0:
210,340,188697,5,8,0:0:0:0:
466,255,188847,1,0,0:0:0:0:
166,130,188997,1,2,0:0:0:0:
379,300,189147,1,0,0:0:0:0:
134,270,189297,2,0,L|96:26,1,204.000003890991,0|0,0:0|0:0,0:0:0:0:
352,25,189598,2,0,L|314:269,1,204.000003890991,0|0,0:0|0:0,0:0:0:0:
49,333,189898,5,12,0:0:0:0:
231,154,190048,1,0,0:0:0:0:
401,349,190198,1,2,0:0:0:0:
62,177,190349,1,0,0:0:0:0:
387,180,190499,1,0,0:0:0:0:
231,380,190649,1,8,0:0:0:0:
208,119,190799,1,2,0:0:0:0:
449,44,190949,1,0,0:0:0:0:
401,349,191099,5,8,0:0:0:0:
326,86,191249,1,0,0:0:0:0:
236,328,191400,1,2,0:0:0:0:
203,6,191550,1,0,0:0:0:0:
32,255,191700,1,0,0:0:0:0:
362,188,191850,1,8,0:0:0:0:
43,127,192000,2,0,L|86:355,1,204.000003890991,2|0,0:0|0:0,0:0:0:0:
383,287,192300,6,0,B|399:250|399:250|408:233|442:213|442:213|368:236|368:236|318:215|318:215|111:253,1,408.000007781983,12|2,0:0|0:0,0:0:0:0:
215,321,192676,1,0,0:0:0:0:
215,321,192751,2,0,P|244:256|218:177,1,102.000001945496,0|0,0:0|0:0,0:0:0:0:
244,43,192901,2,0,P|215:108|241:187,1,102.000001945496,0|0,0:0|0:0,0:0:0:0:
271,210,193051,1,8,0:0:0:0:
159,22,193201,6,0,P|227:129|331:10,1,306.000005836487,2|0,0:0|0:0,0:0:0:0:
336,37,193502,2,0,B|372:89|369:137|369:137|417:153|465:211,1,204.000003890991,8|0,0:0|0:0,0:0:0:0:
466,346,193802,2,0,B|376:283|376:283|362:283|362:283|355:269|355:269|289:225,1,204.000003890991,2|0,0:0|0:0,0:0:0:0:
157,360,194102,1,0,0:0:0:0:
273,68,194252,1,0,0:0:0:0:
314,367,194403,1,2,0:0:0:0:
244,43,194553,1,0,0:0:0:0:
403,249,194703,6,0,P|303:297|276:390,1,204.000003890991,12|0,0:0|0:0,0:0:0:0:
361,72,195003,1,2,0:0:0:0:
314,367,195153,1,0,0:0:0:0:
152,82,195303,1,0,0:0:0:0:
299,261,195454,1,8,0:0:0:0:
306,0,195604,1,2,0:0:0:0:
190,280,195754,1,0,0:0:0:0:
466,173,195904,5,8,0:0:0:0:
95,81,196054,1,0,0:0:0:0:
363,172,196204,1,2,0:0:0:0:
86,299,196355,1,0,0:0:0:0:
416,79,196505,1,0,0:0:0:0:
29,167,196655,1,8,0:0:0:0:
414,262,196805,1,2,0:0:0:0:
133,204,196955,1,0,0:0:0:0:
352,14,197105,6,0,B|289:87|350:177|442:171|442:171|449:205|442:222|442:222|461:235|469:263|469:263|434:298|427:352,1,408.000007781983,12|2,0:0|0:0,0:0:0:0:
346,364,197481,1,0,0:0:0:0:
346,364,197556,2,0,P|394:328|450:324,1,102.000001945496,0|0,0:0|0:0,0:0:0:0:
307,257,197706,2,0,P|259:221|203:217,1,102.000001945496,0|0,0:0|0:0,0:0:0:0:
117,214,197856,1,8,0:0:0:0:
223,321,198006,2,0,B|226:255|210:218|210:218|217:182|217:182|198:149|205:76,1,204.000003890991,2|0,0:0|0:0,0:0:0:0:
77,18,198306,5,8,0:0:0:0:
365,71,198457,1,0,0:0:0:0:
21,156,198607,1,2,0:0:0:0:
358,41,198757,1,0,0:0:0:0:
94,294,198907,1,0,0:0:0:0:
352,14,199057,1,0,0:0:0:0:
245,301,199207,1,2,0:0:0:0:
127,33,199358,1,0,0:0:0:0:
314,184,199508,6,0,L|253:404,1,204.000003890991,8|0,0:0|0:0,0:0:0:0:
96,329,199808,1,2,0:0:0:0:
477,252,199958,1,0,0:0:0:0:
94,165,200108,1,0,0:0:0:0:
424,346,200258,1,8,0:0:0:0:
161,247,200409,1,2,0:0:0:0:
452,146,200559,1,0,0:0:0:0:
190,156,200709,5,8,0:0:0:0:
339,384,200859,1,0,0:0:0:0:
373,22,201009,1,2,0:0:0:0:
253,262,201159,1,0,0:0:0:0:
195,0,201309,1,0,0:0:0:0:
335,295,201460,6,0,P|335:232|298:181,1,102.000001945496,2|0,0:0|0:0,0:0:0:0:
215,151,201610,2,0,P|234:212|235:253,1,83.9999974365235,2|0,0:0|0:0,0:0:0:0:
123,108,201760,2,0,P|109:156|117:197,1,66.0000020141602,2|0,0:0|0:0,0:0:0:0:
