osu file format v14

[General]
AudioFilename: audio.mp3
AudioLeadIn: 0
PreviewTime: 38547
Countdown: 0
SampleSet: Normal
StackLeniency: 0.6
Mode: 0
LetterboxInBreaks: 0
EpilepsyWarning: 1
WidescreenStoryboard: 1

[Editor]
Bookmarks: 4913,6114,7316,8517,19328,20228,21730,22931,33742,36144,37346,38096,46955,47856,48156,52961,55364,57766,58967,60168,61970,62571,69177,69778,76985,78186,79388,88997,96204,97406,98607,103412,104613,105814,107916,115424,117826,119027,120228,129237,129838,137045,137646,144252,144703,145454,145904,146655,147105,147856,149057,150258,163472,165574,165649,165724,167976,168051,168126,170379,170454,170529,174282,200709,201309,201460
DistanceSpacing: 0.3
BeatDivisor: 4
GridSize: 4
TimelineZoom: 2.899999

[Metadata]
Title:Say Goodbye (Speed Up Ver.)
TitleUnicode:Say Goodbye (Speed Up Ver.)
Artist:Krewella
ArtistUnicode:Krewella
Creator:saggi
Version:NeBu's Farewell
Source:
Tags:LiousPL Melsoon walter85 Megapcmx Minorsonek LukerMaster -NeBu- Broly Envory ChuuritsuTv
BeatmapID:1431482
BeatmapSetID:580821

[Difficulty]
HPDrainRate:5
CircleSize:4
OverallDifficulty:9.5
ApproachRate:9.7
SliderMultiplier:2.6
SliderTickRate:1

[Events]
//Background and Video events
0,0,"girl.jpg",0,0
//Break Periods
2,79587,86100
2,151460,161069
//Storyboard Layer 0 (Background)
//Storyboard Layer 1 (Fail)
//Storyboard Layer 2 (Pass)
//Storyboard Layer 3 (Foreground)
Sprite,Foreground,Centre,"sb\highlight.png",421,223 C,0,47856,,242,24,57 F,2,47856,48656,1,0 S,2,47856,48656,0.9,0.18 P,0,47856,48656,A
Sprite,Foreground,Centre,"sb\highlight.png",400,243 C,0,47931,,242,24,57 F,2,47931,48731,1,0 S,2,47931,48731,0.9,0.18 P,0,47931,48731,A
Sprite,Foreground,Centre,"sb\highlight.png",371,250 C,0,48006,,242,24,57 F,2,48006,48806,1,0 S,2,48006,48806,0.9,0.18 P,0,48006,48806,A
Sprite,Foreground,Centre,"sb\highlight.png",344,237 C,0,48081,,242,24,57 F,2,48081,48881,1,0 S,2,48081,48881,0.9,0.18 P,0,48081,48881,A
Sprite,Foreground,Centre,"sb\highlight.png",464,344 C,0,96204,,18,124,255 F,2,96204,97004,1,0 S,2,96204,97004,0.9,0.18 P,0,96204,97004,A
Sprite,Foreground,Centre,"sb\highlight.png",464,344 C,0,96279,,18,124,255 F,2,96279,97079,1,0 S,2,96279,97079,0.9,0.18 P,0,96279,97079,A
Sprite,Foreground,Centre,"sb\highlight.png",464,344 C,0,96355,,18,124,255 F,2,96355,97155,1,0 S,2,96355,97155,0.9,0.18 P,0,96355,97155,A
Sprite,Foreground,Centre,"sb\highlight.png",256,200 C,0,96505,,18,124,255 F,2,96505,97305,1,0 S,2,96505,97305,0.9,0.18 P,0,96505,97305,A
Sprite,Foreground,Centre,"sb\highlight.png",336,376 C,0,96655,,18,124,255 F,2,96655,97455,1,0 S,2,96655,97455,0.9,0.18 P,0,96655,97455,A
Sprite,Foreground,Centre,"sb\highlight.png",368,120 C,0,96805,,18,124,255 F,2,96805,97605,1,0 S,2,96805,97605,0.9,0.18 P,0,96805,97605,A
Sprite,Foreground,Centre,"sb\highlight.png",186,366 C,0,96955,,18,124,255 F,2,96955,97755,1,0 S,2,96955,97755,0.9,0.18 P,0,96955,97755,A
Sprite,Foreground,Centre,"sb\highlight.png",352,238 C,0,97105,,242,24,57 F,2,97105,97905,1,0 S,2,97105,97905,0.9,0.18 P,0,97105,97905,A
Sprite,Foreground,Centre,"sb\highlight.png",352,238 C,0,97180,,242,24,57 F,2,97180,97980,1,0 S,2,97180,97980,0.9,0.18 P,0,97180,97980,A
Sprite,Foreground,Centre,"sb\highlight.png",352,238 C,0,97255,,242,24,57 F,2,97255,98055,1,0 S,2,97255,98055,0.9,0.18 P,0,97255,98055,A
Sprite,Foreground,Centre,"sb\highlight.png",210,169 C,0,97406,,242,24,57 M,0,97406,97443,210,169,185.6413,169.4591 F,2,97406,98356,1,0 S,2,97406,98356,0.9,0.18 P,0,97406,98356,A M,0,97443,97481,185.6413,169.4591,162.3116,176.2729 M,0,97481,97518,162.3116,176.2729,141.7947,189.309 M,0,97518,97556,141.7947,189.309,125.7099,207.5418
Sprite,Foreground,Centre,"sb\highlight.png",203,255 C,0,97706,,242,24,57 F,2,97706,98506,1,0 S,2,97706,98506,0.9,0.18 P,0,97706,98506,A
Sprite,Foreground,Centre,"sb\highlight.png",272,216 C,0,97856,,242,24,57 F,2,97856,98656,1,0 S,2,97856,98656,0.9,0.18 P,0,97856,98656,A
Sprite,Foreground,Centre,"sb\highlight.png",332,150 C,0,98006,,242,24,57 M,0,98006,98043,332,150,347.9951,168.3016 F,2,98006,98956,1,0 S,2,98006,98956,0.9,0.18 P,0,98006,98956,A M,0,98043,98081,347.9951,168.3016,357.36,190.6407 M,0,98081,98118,357.36,190.6407,358.7318,214.8247 M,0,98118,98156,358.7318,214.8247,351.9528,238.08
Sprite,Foreground,Centre,"sb\highlight.png",272,296 C,0,98306,,242,24,57 M,0,98306,98343,272,296,292.3068,309.7071 F,2,98306,99256,1,0 S,2,98306,99256,0.9,0.18 P,0,98306,99256,A M,0,98343,98381,292.3068,309.7071,312,323 M,0,98381,98418,312,323,292.3068,309.7071 M,0,98418,98456,292.3068,309.7071,272,296
Sprite,Foreground,Centre,"sb\highlight.png",448,104 C,0,147856,,18,124,255 M,0,147856,147893,448,104,457.9041,120.5067 F,2,147856,148806,1,0 S,2,147856,148806,0.9,0.18 P,0,147856,148806,A M,0,147893,147931,457.9041,120.5067,467.8081,137.0135 M,0,147931,147968,467.8081,137.0135,477.7121,153.5202 M,0,147968,148006,477.7121,153.5202,487.6162,170.027
Sprite,Foreground,Centre,"sb\highlight.png",304,264 C,0,148156,,18,124,255 F,2,148156,148956,1,0 S,2,148156,148956,0.9,0.18 P,0,148156,148956,A
Sprite,Foreground,Centre,"sb\highlight.png",278,261 C,0,148231,,18,124,255 F,2,148231,149031,1,0 S,2,148231,149031,0.9,0.18 P,0,148231,149031,A
Sprite,Foreground,Centre,"sb\highlight.png",252,248 C,0,148306,,18,124,255 F,2,148306,149106,1,0 S,2,148306,149106,0.9,0.18 P,0,148306,149106,A
Sprite,Foreground,Centre,"sb\highlight.png",224,136 C,0,148457,,242,24,57 M,0,148457,148494,224,136,239.0317,123.9746 F,2,148457,149407,1,0 S,2,148457,149407,0.9,0.18 P,0,148457,149407,A M,0,148494,148532,239.0317,123.9746,254.0634,111.9492 M,0,148532,148569,254.0634,111.9492,269.0952,99.92386 M,0,148569,148607,269.0952,99.92386,284.1269,87.89848
Sprite,Foreground,Centre,"sb\highlight.png",368,216 C,0,148757,,242,24,57 F,2,148757,149557,1,0 S,2,148757,149557,0.9,0.18 P,0,148757,149557,A
Sprite,Foreground,Centre,"sb\highlight.png",368,216 C,0,148832,,242,24,57 F,2,148832,149632,1,0 S,2,148832,149632,0.9,0.18 P,0,148832,149632,A
Sprite,Foreground,Centre,"sb\highlight.png",368,216 C,0,148907,,242,24,57 F,2,148907,149707,1,0 S,2,148907,149707,0.9,0.18 P,0,148907,149707,A
Sprite,Foreground,Centre,"sb\highlight.png",368,216 C,0,148982,,242,24,57 F,2,148982,149782,1,0 S,2,148982,149782,0.9,0.18 P,0,148982,149782,A
Sprite,Foreground,Centre,"sb\highlight.png",368,216 C,0,149057,,242,24,57 F,2,149057,149857,1,0 S,2,149057,149857,0.9,0.18 P,0,149057,149857,A
Sprite,Foreground,Centre,"sb\highlight.png",192,312 C,0,171880,,255,192,0 F,2,171880,172680,1,0 S,2,171880,172680,0.9,0.18 P,0,171880,172680,A
Sprite,Foreground,Centre,"sb\highlight.png",192,312 C,0,172030,,255,192,0 M,0,172030,172067,192,312,205.6118,298.3882 F,2,172030,172905,1,0 S,2,172030,172905,0.9,0.18 P,0,172030,172905,A M,0,172067,172105,205.6118,298.3882,219.2236,284.7764
Sprite,Foreground,Centre,"sb\highlight.png",336,168 C,0,172180,,255,192,0 F,2,172180,172980,1,0 S,2,172180,172980,0.9,0.18 P,0,172180,172980,A
Sprite,Foreground,Centre,"sb\highlight.png",160,120 C,0,172331,,255,192,0 F,2,172331,173131,1,0 S,2,172331,173131,0.9,0.18 P,0,172331,173131,A
Sprite,Foreground,Centre,"sb\highlight.png",326,376 C,0,172481,,255,192,0 F,2,172481,173281,1,0 S,2,172481,173281,0.9,0.18 P,0,172481,173281,A
Sprite,Foreground,Centre,"sb\highlight.png",160,120 C,0,172631,,0,202,0 F,2,172631,173431,1,0 S,2,172631,173431,0.9,0.18 P,0,172631,173431,A
Sprite,Foreground,Centre,"sb\highlight.png",326,376 C,0,172781,,0,202,0 F,2,172781,173581,1,0 S,2,172781,173581,0.9,0.18 P,0,172781,173581,A
Sprite,Foreground,Centre,"sb\highlight.png",160,120 C,0,172931,,0,202,0 F,2,172931,173731,1,0 S,2,172931,173731,0.9,0.18 P,0,172931,173731,A
Sprite,Foreground,Centre,"sb\highlight.png",176,392 C,0,201309,,242,24,57 M,0,201309,201346,176,392,150.5338,385.6335 F,2,201309,202584,1,0 S,2,201309,202584,1,0.2 P,0,201309,202584,A M,0,201346,201384,150.5338,385.6335,125.0675,379.2669
Sprite,Foreground,Centre,"sb\highlight.png",240,312 C,0,201460,,242,24,57 M,0,201460,201497,240,312,213.8297,314.0446 F,2,201460,202735,1,0 S,2,201460,202735,1,0.2 P,0,201460,202735,A M,0,201497,201535,213.8297,314.0446,187.6595,316.0891
Sprite,Foreground,Centre,"sb\highlight.png",128,300 C,0,201610,,255,192,0 F,2,201610,202810,1,0 S,2,201610,202810,1,0.2 P,0,201610,202810,A
Sprite,Foreground,Centre,"sb\highlight.png",99,269 C,0,201685,,255,192,0 F,2,201685,202885,1,0 S,2,201685,202885,1,0.2 P,0,201685,202885,A
Sprite,Foreground,Centre,"sb\highlight.png",95,227 C,0,201760,,255,192,0 F,2,201760,202960,1,0 S,2,201760,202960,1,0.2 P,0,201760,202960,A
Sprite,Foreground,Centre,"sb\highlight.png",120,193 C,0,201835,,255,192,0 F,2,201835,203035,1,0 S,2,201835,203035,1,0.2 P,0,201835,203035,A
Sprite,Foreground,Centre,"sb\highlight.png",176,264 C,0,37346,,242,24,57 F,2,37346,38146,1,0 S,2,37346,38146,0.9,0.18 P,0,37346,38146,A
Sprite,Foreground,Centre,"sb\highlight.png",352,360 C,0,37496,,242,24,57 F,2,37496,38296,1,0 S,2,37496,38296,0.9,0.18 P,0,37496,38296,A
Sprite,Foreground,Centre,"sb\highlight.png",352,360 C,0,37646,,242,24,57 M,0,37646,37683,352,360,360.6595,340.8685 F,2,37646,38596,1,0 S,2,37646,38596,0.9,0.18 P,0,37646,38596,A M,0,37683,37721,360.6595,340.8685,369.319,321.7371 M,0,37721,37758,369.319,321.7371,377.9785,302.6056 M,0,37758,37796,377.9785,302.6056,386.638,283.4741
Sprite,Foreground,Centre,"sb\highlight.png",400,136 C,0,37946,,242,24,57 F,2,37946,38746,1,0 S,2,37946,38746,0.9,0.18 P,0,37946,38746,A
Sprite,Foreground,Centre,"sb\highlight.png",400,136 C,0,38096,,242,24,57 M,0,38096,38133,400,136,387.0223,134.2819 F,2,38096,39196,1,0 S,2,38096,39196,0.9,0.18 P,0,38096,39196,A M,0,38133,38171,387.0223,134.2819,373.9347,133.811 M,0,38171,38208,373.9347,133.811,360.9657,135.5727 M,0,38208,38246,360.9657,135.5727,348.2442,138.638 M,0,38246,38283,348.2442,138.638,336.2,143.7537 M,0,38283,38321,336.2,143.7537,324.7802,150.1247 M,0,38321,38358,324.7802,150.1247,314.5111,158.232 M,0,38358,38396,314.5111,158.232,305.2319,167.436
Sprite,Foreground,Centre,"sb\highlight.png",326,270 C,0,107916,,255,192,0 F,2,107916,108716,1,0 S,2,107916,108716,0.9,0.18 P,0,107916,108716,A
Sprite,Foreground,Centre,"sb\highlight.png",311,245 C,0,107991,,255,192,0 F,2,107991,108791,1,0 S,2,107991,108791,0.9,0.18 P,0,107991,108791,A
Sprite,Foreground,Centre,"sb\highlight.png",283,240 C,0,108066,,255,192,0 F,2,108066,108866,1,0 S,2,108066,108866,0.9,0.18 P,0,108066,108866,A
Sprite,Foreground,Centre,"sb\highlight.png",257,250 C,0,108141,,255,192,0 F,2,108141,108941,1,0 S,2,108141,108941,0.9,0.18 P,0,108141,108941,A
Sprite,Foreground,Centre,"sb\highlight.png",480,88 C,0,117826,,0,202,0 F,2,117826,118626,1,0 S,2,117826,118626,0.9,0.18 P,0,117826,118626,A
Sprite,Foreground,Centre,"sb\highlight.png",368,327 C,0,117976,,0,202,0 F,2,117976,118776,1,0 S,2,117976,118776,0.9,0.18 P,0,117976,118776,A
Sprite,Foreground,Centre,"sb\highlight.png",272,72 C,0,118126,,0,202,0 F,2,118126,118926,1,0 S,2,118126,118926,0.9,0.18 P,0,118126,118926,A
Sprite,Foreground,Centre,"sb\highlight.png",496,216 C,0,118276,,0,202,0 F,2,118276,119076,1,0 S,2,118276,119076,0.9,0.18 P,0,118276,119076,A
Sprite,Foreground,Centre,"sb\highlight.png",234,236 C,0,118427,,0,202,0 F,2,118427,119227,1,0 S,2,118427,119227,0.9,0.18 P,0,118427,119227,A
Sprite,Foreground,Centre,"sb\highlight.png",375,80 C,0,118577,,0,202,0 F,2,118577,119377,1,0 S,2,118577,119377,0.9,0.18 P,0,118577,119377,A
Sprite,Foreground,Centre,"sb\highlight.png",160,120 C,0,118877,,18,124,255 F,2,118877,119677,1,0 S,2,118877,119677,0.9,0.18 P,0,118877,119677,A
Sprite,Foreground,Centre,"sb\highlight.png",480,184 C,0,119027,,18,124,255 F,2,119027,119827,1,0 S,2,119027,119827,0.9,0.18 P,0,119027,119827,A
Sprite,Foreground,Centre,"sb\highlight.png",400,296 C,0,119628,,242,24,57 F,2,119628,120428,1,0 S,2,119628,120428,0.9,0.18 P,0,119628,120428,A
Sprite,Foreground,Centre,"sb\highlight.png",288,376 C,0,120078,,242,24,57 F,2,120078,120878,1,0 S,2,120078,120878,0.9,0.18 P,0,120078,120878,A
Sprite,Foreground,Centre,"sb\highlight.png",240,88 C,0,119928,,242,24,57 F,2,119928,120728,1,0 S,2,119928,120728,0.9,0.18 P,0,119928,120728,A
Sprite,Foreground,Centre,"sb\highlight.png",400,296 C,0,119778,,242,24,57 M,0,119778,119815,400,296,406.791,268.836 F,2,119778,120653,1,0 S,2,119778,120653,0.9,0.18 P,0,119778,120653,A M,0,119815,119853,406.791,268.836,413.582,241.672
Sprite,Foreground,Centre,"sb\highlight.png",273,174 C,0,119478,,242,24,57 F,2,119478,120278,1,0 S,2,119478,120278,0.9,0.18 P,0,119478,120278,A
Sprite,Foreground,Centre,"sb\highlight.png",273,174 C,0,119328,,242,24,57 F,2,119328,120128,1,0 S,2,119328,120128,0.9,0.18 P,0,119328,120128,A
Sprite,Foreground,Centre,"sb\highlight.png",480,184 C,0,119177,,18,124,255 F,2,119177,119977,1,0 S,2,119177,119977,0.9,0.18 P,0,119177,119977,A
Sprite,Foreground,Centre,"sb\highlight.png",296,362 C,0,118727,,18,124,255 F,2,118727,119527,1,0 S,2,118727,119527,0.9,0.18 P,0,118727,119527,A
//Storyboard Sound Samples

[TimingPoints]
1310,300.3003003003,4,1,1,5,1,0
8517,-100,4,1,1,20,0,0
10018,-133.333333333333,4,1,1,40,0,0
10243,-133.333333333333,4,1,1,5,0,0
10319,-80,4,1,1,40,0,0
10544,-133.333333333333,4,1,1,5,0,0
10619,-57.1428571428571,4,1,1,40,0,0
10919,-133.333333333333,4,1,1,40,0,0
11370,-80,4,1,1,40,0,0
11820,-57.1428571428571,4,1,1,40,0,0
12120,-133.333333333333,4,1,1,40,0,0
12496,-133.333333333333,4,1,1,5,0,0
12571,-80,4,1,1,40,0,0
12946,-66.6666666666667,4,1,1,5,0,0
13021,-50,4,1,1,40,0,0
13922,-66.6666666666667,4,1,1,40,0,0
14147,-66.6666666666667,4,1,1,5,0,0
14222,-133.333333333333,4,1,1,40,0,0
14448,-133.333333333333,4,1,1,5,0,0
14523,-100,4,1,1,40,0,0
14748,-100,4,1,1,5,0,0
14823,-100,4,1,1,40,0,0
15048,-100,4,1,1,5,0,0
15123,-100,4,1,1,40,0,0
15349,-100,4,1,1,5,0,0
15424,-100,4,1,1,40,0,0
16925,-200,4,1,1,40,0,0
17300,-200,4,1,1,5,0,0
17376,-66.6666666666667,4,1,1,40,0,0
17676,-66.6666666666667,4,1,1,5,0,0
17826,-66.6666666666667,4,1,1,40,0,0
17976,-66.6666666666667,4,1,1,5,0,0
18126,-100,4,1,1,40,0,0
20754,-100,4,1,1,5,0,0
20829,-66.6666666666667,4,1,1,40,0,0
21054,-66.6666666666667,4,1,1,5,0,0
21129,-80,4,1,1,40,0,0
22180,-133.333333333333,4,1,1,40,0,0
22631,-100,4,1,1,40,0,0
23532,-111.111111111111,4,1,1,40,0,0
24433,-100,4,1,1,40,0,0
24658,-100,4,1,1,5,0,0
24733,-80,4,1,1,40,0,0
24958,-80,4,1,1,5,0,0
25033,-80,4,1,1,40,0,0
25258,-80,4,1,1,5,0,0
25334,-80,4,1,1,30,0,0
26535,-100,4,1,1,40,0,0
28637,-66.6666666666667,4,1,1,25,0,0
28862,-66.6666666666667,4,1,1,5,0,0
28937,-100,4,1,1,15,0,0
29538,-200,4,1,1,25,0,0
29838,-66.6666666666667,4,1,1,35,0,0
30138,-100,4,1,1,25,0,0
31039,-66.6666666666667,4,1,1,45,0,0
31340,-100,4,1,1,35,0,0
32240,-66.6666666666667,4,1,1,55,0,0
32541,-100,4,1,1,45,0,0
33442,-50,4,1,1,65,0,0
33667,-50,4,1,1,5,0,0
33742,-100,4,1,1,65,0,0
37346,-100,4,1,1,10,0,0
38096,-66.6666666666667,4,1,1,5,0,0
38096,-66.6666666666667,4,1,1,20,0,0
38472,-66.6666666666667,4,1,1,5,0,0
38547,-80,4,1,1,75,0,1
38772,-80,4,1,1,5,0,1
38847,-80,4,1,1,75,0,1
39973,-80,4,1,1,5,0,1
40048,-80,4,1,1,75,0,1
43577,-80,4,1,1,5,0,1
43652,-80,4,1,1,75,0,1
44778,-80,4,1,1,5,0,1
44853,-80,4,1,1,75,0,1
46955,-100,4,1,1,70,0,0
48156,-100,4,1,1,70,0,0
49282,-100,4,1,1,5,0,0
49358,-100,4,1,1,70,0,0
50784,-100,4,1,1,5,0,0
50859,-100,4,1,1,70,0,0
51685,-100,4,1,1,5,0,0
51760,-100,4,1,1,70,0,0
57766,-133.333333333333,4,1,1,25,0,0
58892,-200,4,1,1,5,0,0
58967,-100,4,1,1,10,0,0
59267,-100,4,1,1,20,0,0
59568,-100,4,1,1,30,0,0
59868,-100,4,1,1,50,0,0
60394,-100,4,1,1,5,0,0
60469,-100,4,1,1,65,0,0
62796,-100,4,1,1,5,0,0
62871,-100,4,1,1,65,0,0
63847,-100,4,1,1,5,0,0
63922,-100,4,1,1,65,0,0
65198,-100,4,1,1,5,0,0
65273,-100,4,1,1,65,0,0
65949,-100,4,1,1,5,0,0
66024,-100,4,1,1,65,0,0
70003,-100,4,1,1,5,0,0
70078,-100,4,1,1,65,0,0
71054,-100,4,1,1,5,0,0
71129,-100,4,1,1,65,0,0
72406,-100,4,1,1,5,0,0
72481,-100,4,1,1,65,0,0
89823,-100,4,1,1,5,0,0
89898,-100,4,1,1,60,0,0
91325,-100,4,1,1,5,0,0
91400,-100,4,1,1,60,0,0
93727,-100,4,1,1,5,0,0
93802,-100,4,1,1,60,0,0
95228,-100,4,1,1,5,0,0
95303,-100,4,1,1,60,0,0
96129,-100,4,1,1,5,0,0
96204,-100,4,1,1,70,0,0
97406,-200,4,1,1,50,0,0
98306,-200,4,1,1,5,0,0
98607,-66.6666666666667,4,1,1,80,0,1
98832,-66.6666666666667,4,1,1,5,0,1
98907,-66.6666666666667,4,1,1,80,0,1
103036,-66.6666666666667,4,1,1,5,0,1
103111,-66.6666666666667,4,1,1,80,0,1
103337,-66.6666666666667,4,1,1,5,0,1
103412,-66.6666666666667,4,1,1,80,0,1
107015,-100,4,1,1,60,0,0
107916,-100,4,1,1,10,0,0
107991,-100,4,1,1,20,0,0
108066,-100,4,1,1,30,0,0
108141,-100,4,1,1,45,0,0
108216,-80,4,1,1,75,0,0
108442,-80,4,1,1,5,0,0
108517,-80,4,1,1,75,0,0
109643,-80,4,1,1,5,0,0
109718,-80,4,1,1,75,0,0
110844,-80,4,1,1,5,0,0
110919,-80,4,1,1,75,0,0
112045,-80,4,1,1,5,0,0
112120,-80,4,1,1,75,0,0
114147,-80,4,1,1,5,0,0
114222,-80,4,1,1,75,0,0
120228,-133.333333333333,4,1,1,75,0,0
120454,-133.333333333333,4,1,1,5,0,0
120529,-80,4,1,1,75,0,0
121505,-80,4,1,1,5,0,0
121580,-80,4,1,1,75,0,0
122856,-80,4,1,1,5,0,0
122931,-80,4,1,1,75,0,0
123907,-80,4,1,1,5,0,0
123982,-80,4,1,1,75,0,0
125258,-80,4,1,1,5,0,0
125334,-80,4,1,1,75,0,0
126309,-80,4,1,1,5,0,0
126385,-80,4,1,1,75,0,0
128862,-80,4,1,1,5,0,0
128937,-80,4,1,1,75,0,0
129838,-200,4,1,1,70,0,0
130364,-200,4,1,1,5,0,0
130439,-80,4,1,1,70,0,0
131565,-80,4,1,1,5,0,0
131640,-100,4,1,1,70,0,0
132240,-200,4,1,1,70,0,0
132766,-200,4,1,1,5,0,0
132841,-80,4,1,1,70,0,0
134042,-100,4,1,1,70,0,0
134643,-200,4,1,1,70,0,0
135243,-80,4,1,1,70,0,0
136370,-80,4,1,1,5,0,0
136445,-100,4,1,1,70,0,0
137571,-100,4,1,1,5,0,0
137646,-100,4,1,1,70,0,0
138171,-100,4,1,1,5,0,0
138246,-133.333333333333,4,1,1,65,0,0
138847,-200,4,1,1,60,0,0
139448,-133.333333333333,4,1,1,55,0,0
142225,-133.333333333333,4,1,1,5,0,0
142300,-133.333333333333,4,1,1,45,0,0
142676,-133.333333333333,4,1,1,5,0,0
142751,-133.333333333333,4,1,1,35,0,0
148982,-133.333333333333,4,1,1,5,0,0
149057,-200,4,1,1,5,0,0
163472,-80,4,1,1,80,0,0
173081,-57.1428571428571,4,1,1,85,0,1
173306,-57.1428571428571,4,1,1,5,0,1
173382,-57.1428571428571,4,1,1,85,0,1
174207,-57.1428571428571,4,1,1,5,0,1
174282,-57.1428571428571,4,1,1,85,0,1
175709,-57.1428571428571,4,1,1,5,0,1
175784,-57.1428571428571,4,1,1,85,0,1
176309,-57.1428571428571,4,1,1,5,0,1
176385,-57.1428571428571,4,1,1,85,0,1
178111,-57.1428571428571,4,1,1,5,0,1
178186,-57.1428571428571,4,1,1,85,0,1
180514,-57.1428571428571,4,1,1,5,0,1
180589,-57.1428571428571,4,1,1,85,0,1
182916,-57.1428571428571,4,1,1,5,0,1
182991,-57.1428571428571,4,1,1,85,0,1
184117,-57.1428571428571,4,1,1,5,0,1
184192,-57.1428571428571,4,1,1,85,0,1
186219,-57.1428571428571,4,1,1,5,0,1
186294,-57.1428571428571,4,1,1,85,0,1
187721,-57.1428571428571,4,1,1,5,0,1
187796,-57.1428571428571,4,1,1,85,0,1
188322,-57.1428571428571,4,1,1,5,0,1
188397,-57.1428571428571,4,1,1,85,0,1
192526,-57.1428571428571,4,1,1,5,0,1
192601,-57.1428571428571,4,1,1,85,0,1
193427,-57.1428571428571,4,1,1,5,0,1
193502,-57.1428571428571,4,1,1,85,0,1
197105,-50,4,1,1,85,0,1
197331,-50,4,1,1,5,0,1
197406,-50,4,1,1,85,0,1
198231,-50,4,1,1,5,0,1
198306,-50,4,1,1,85,0,1
199733,-50,4,1,1,5,0,1
199808,-50,4,1,1,85,0,1
200108,-66.6666666666667,4,1,1,85,0,1
201910,-100,4,1,1,50,0,0

[Colours]
Combo1 : 255,192,0
Combo2 : 159,120,47
Combo3 : 88,99,129
Combo4 : 49,49,49

[HitObjects]
160,56,4913,5,0,0:0:0:0:
184,336,5364,1,0,0:0:0:0:
160,56,6114,5,0,0:0:0:0:
184,336,6565,1,0,0:0:0:0:
160,56,7316,5,0,0:0:0:0:
184,336,7766,1,0,0:0:0:0:
160,56,8517,5,0,0:0:0:0:
184,336,8667,2,0,L|324:344,1,130,0|0,0:0|0:0,0:0:0:0:
413,274,8967,2,0,B|379:205|449:110|449:110|380:139|318:124|294:138|259:98|252:59|279:5|336:2|371:37|389:67|376:105|305:169|332:252,1,650,0|8,0:0|0:0,0:0:0:0:
228,284,10018,6,0,P|155:293|134:232,1,146.250005578995,0|0,0:0|0:0,0:0:0:0:
263,303,10319,6,0,P|141:317|106:216,1,243.75,0|0,0:0|0:0,0:0:0:0:
133,235,10619,6,0,P|65:259|125:195,1,227.500002169609,0|0,0:0|0:0,0:0:0:0:
187,130,10919,6,0,B|223:146|254:139|254:139|276:155|276:155|304:146|304:146|335:163|374:153,1,195.00000743866,2|2,0:0|0:0,0:0:0:0:
319,27,11370,6,4,B|269:31|244:64|244:64|204:47|162:51|162:51|123:73|107:105|107:105|64:104|11:143,1,325,0|0,0:0|0:0,0:0:0:0:
117,193,11820,6,0,P|159:234|150:131,1,227.500002169609,0|0,0:0|0:0,0:0:0:0:
51,314,12120,6,0,L|297:329,1,243.750009298325,2|0,0:0|0:0,0:0:0:0:
332,343,12571,6,4,B|3:377|3:377|76:347,1,406.25,0|0,0:0|0:0,0:0:0:0:
73,348,13021,6,4,B|117:160|117:160|101:199|52:212,1,260,0|0,0:0|0:0,0:0:0:0:
0,277,13322,5,0,0:0:0:0:
177,107,13472,1,0,0:0:0:0:
0,277,13622,1,2,0:0:0:0:
99,0,13772,1,0,0:0:0:0:
160,273,13922,6,0,B|205:251|211:208|211:208|246:229|285:220|285:220|308:149|395:147,1,292.50001115799,0|0,0:0|0:0,0:0:0:0:
442,84,14222,6,0,P|403:69|396:154,1,146.250005578995,0|0,0:0|0:0,0:0:0:0:
344,84,14523,6,0,P|261:60|204:140,1,195,2|0,0:0|0:0,0:0:0:0:
282,134,14823,2,0,P|240:70|136:102,1,195,0|0,0:0|0:0,0:0:0:0:
204,138,15123,2,0,P|206:60|106:30,1,195,0|0,0:0|0:0,0:0:0:0:
52,192,15424,1,0,0:0:0:0:
0,0,15574,1,0,0:0:0:0:
52,192,15724,6,0,B|115:191|164:289|179:329|108:343|86:333|65:308|52:267|86:246|142:241|203:250|246:299,2,390,2|2|0,0:0|0:0|0:0,0:0:0:0:
232,284,16925,6,0,L|244:116,1,162.5,2|0,0:0|0:0,0:0:0:0:
280,72,17376,6,0,B|304:360|304:360|317:306|376:286,1,390.00001487732,2|0,0:0|0:0,0:0:0:0:
412,293,17826,2,0,P|352:333|356:245,1,195.00000743866,0|0,0:0|0:0,0:0:0:0:
273,199,18126,6,0,L|141:187,1,130,2|0,0:0|0:0,0:0:0:0:
256,384,18427,1,0,0:0:0:0:
72,228,18577,2,0,P|64:160|224:176,1,260,2|0,0:0|0:0,0:0:0:0:
273,199,19027,2,0,P|320:218|298:172,1,130,0|0,0:0|0:0,0:0:0:0:
227,268,19328,6,0,B|265:308|306:312|334:298|368:293|398:262|398:224|403:197|403:197|435:218|468:215|468:215|477:259|448:299,2,390,2|0|0,0:0|0:0|0:0,0:0:0:0:
192,197,20529,6,0,P|136:197|156:300,1,195,2|0,0:0|0:0,0:0:0:0:
211,173,20829,6,0,P|124:173|155:331,1,292.50001115799,2|0,0:0|0:0,0:0:0:0:
167,248,21129,6,0,B|123:204|103:163|130:69|222:45|284:104|288:138|292:175|292:175|324:124|394:105|394:105|408:172|375:225|375:225|396:289,1,650,0|2,0:0|0:0,0:0:0:0:
211,173,22180,6,0,B|196:27|196:27|90:152,1,292.50001115799,2|0,0:0|0:0,0:0:0:0:
272,28,22931,6,0,L|285:160,1,130,2|0,0:0|0:0,0:0:0:0:
310,377,23231,1,0,0:0:0:0:
272,28,23382,1,2,0:0:0:0:
310,377,23532,2,0,B|260:358|234:301|234:301|166:284|110:313|110:313|145:248|121:188|121:188|71:168|42:109,1,467.999985717774,0|2,0:0|0:0,0:0:0:0:
212,68,24433,6,0,L|408:56,1,195,0|0,0:0|0:0,0:0:0:0:
364,113,24733,6,0,L|120:77,1,243.75,0|0,0:0|0:0,0:0:0:0:
174,26,25033,6,0,P|182:122|54:106,1,243.75,0|0,0:0|0:0,0:0:0:0:
122,77,25334,6,0,B|69:242|179:196|131:375|131:375|186:293|297:259,2,487.5,2|0|0,0:0|0:0|0:0,0:0:0:0:
420,4,26535,6,0,B|477:196|477:196|411:378,1,390,2|2,0:0|0:0,0:0:0:0:
92,4,27736,6,0,B|35:196|35:196|101:378,1,390,2|2,0:0|0:0,0:0:0:0:
253,210,28637,2,0,B|171:139|182:61|229:-9|326:42|314:103,1,292.50001115799
344,224,28937,5,6,0:0:0:0:
356,240,29087,1,0,0:0:0:0:
372,248,29237,1,0,0:0:0:0:
392,252,29388,1,0,0:0:0:0:
382,156,29538,6,0,P|322:148|290:168,1,97.5,0|0,0:0|0:0,0:0:0:0:
280,136,29838,6,0,P|204:132|252:212,1,195.00000743866,0|0,0:0|0:0,0:0:0:0:
296,284,30138,5,0,0:0:0:0:
248,304,30288,1,0,0:0:0:0:
196,296,30439,1,0,0:0:0:0:
156,260,30589,1,0,0:0:0:0:
96,100,30739,1,0,0:0:0:0:
44,284,30889,1,0,0:0:0:0:
96,100,31039,2,0,P|87:51|177:82,1,195.00000743866,0|0,0:0|0:0,0:0:0:0:
216,172,31340,5,0,0:0:0:0:
280,216,31490,1,0,0:0:0:0:
356,196,31640,1,0,0:0:0:0:
388,124,31790,1,0,0:0:0:0:
432,324,31940,1,0,0:0:0:0:
388,124,32090,1,0,0:0:0:0:
432,324,32240,2,0,B|396:339|355:328|355:328|338:338|338:338|318:330|318:330|283:347|232:336,1,195.00000743866,0|0,0:0|0:0,0:0:0:0:
116,284,32541,5,0,0:0:0:0:
52,188,32691,1,0,0:0:0:0:
92,76,32841,1,0,0:0:0:0:
208,56,32991,1,0,0:0:0:0:
168,168,33141,1,0,0:0:0:0:
92,76,33291,1,0,0:0:0:0:
208,56,33442,6,0,B|268:38|341:120|366:155|301:187|277:183|250:164|227:128|254:99|307:80|368:72|423:109,1,390,0|0,0:0|0:0,0:0:0:0:
433,125,33742,5,8,0:0:0:0:
502,307,34042,1,8,0:0:0:0:
323,378,34343,1,8,0:0:0:0:
252,194,34643,1,8,0:0:0:0:
502,307,34943,5,8,0:0:0:0:
239,298,35243,1,8,0:0:0:0:
368,89,35544,1,8,0:0:0:0:
502,307,35844,1,8,0:0:0:0:
502,307,36144,5,8,0:0:0:0:
368,89,36294,1,8,0:0:0:0:
239,298,36445,1,8,0:0:0:0:
502,307,36595,1,8,0:0:0:0:
252,194,36745,5,8,0:0:0:0:
323,378,36895,1,8,0:0:0:0:
502,307,37045,1,8,0:0:0:0:
433,125,37195,1,8,0:0:0:0:
252,194,37346,6,0,L|180:204,1,65,0|0,0:0|0:0,0:0:0:0:
196,169,37496,2,0,L|126:147,1,65,0|0,0:0|0:0,0:0:0:0:
203,82,37646,2,0,L|275:72,1,65
259,107,37796,2,0,L|328:128,1,65,0|0,0:0|0:0,0:0:0:0:
116,129,37946,2,0,L|108:65,1,65,0|0,0:0|0:0,0:0:0:0:
409,9,38096,6,0,B|397:369|397:369|370:303|305:288,1,487.50001859665,0|0,0:0|0:0,0:0:0:0:
200,188,38547,6,0,B|160:128|216:60|216:60|167:92|104:83,1,243.75,12|0,0:0|0:0,0:0:0:0:
92,60,38847,1,2,0:0:0:0:
40,280,38997,1,0,0:0:0:0:
264,134,39147,1,0,0:0:0:0:
0,200,39297,1,8,0:0:0:0:
184,376,39448,2,0,L|205:298,1,81.25,2|0,0:0|0:0,0:0:0:0:
92,60,39598,2,0,L|112:143,1,81.25,0|0,0:0|0:0,0:0:0:0:
205,297,39748,6,0,B|339:251|306:345|448:293,1,243.75,8|0,0:0|0:0,0:0:0:0:
456,260,40048,1,2,0:0:0:0:
280,148,40198,1,0,0:0:0:0:
508,172,40349,1,0,0:0:0:0:
232,48,40499,1,8,0:0:0:0:
361,328,40649,2,0,L|373:244,1,81.25,2|0,0:0|0:0,0:0:0:0:
224,70,40799,2,0,L|236:154,1,81.25,0|0,0:0|0:0,0:0:0:0:
452,229,40949,6,0,P|404:173|318:187,1,162.5
112,296,41249,1,2,0:0:0:0:
257,384,41400,1,0,0:0:0:0:
372,247,41550,2,0,B|383:165|383:165|331:99|331:99,1,162.5,0|8,0:0|0:0,0:0:0:0:
167,118,41850,1,2,0:0:0:0:
369,271,42000,1,0,0:0:0:0:
220,40,42150,5,8,0:0:0:0:
184,324,42300,1,0,0:0:0:0:
341,103,42451,1,2,0:0:0:0:
78,246,42601,1,0,0:0:0:0:
431,222,42751,5,0,0:0:0:0:
90,96,42901,1,8,0:0:0:0:
431,222,43051,1,2,0:0:0:0:
90,96,43201,1,0,0:0:0:0:
448,200,43352,6,0,B|435:132|468:56|468:56|430:82|372:84,1,243.75,12|0,0:0|0:0,0:0:0:0:
353,59,43652,2,0,L|261:51,1,81.25,2|0,0:0|0:0,0:0:0:0:
72,112,43802,2,0,L|160:104,1,81.25,0|0,0:0|0:0,0:0:0:0:
468,57,43952,5,0,0:0:0:0:
116,140,44102,1,8,0:0:0:0:
431,208,44252,1,2,0:0:0:0:
104,268,44403,1,0,0:0:0:0:
454,93,44553,2,0,B|447:169|447:169|467:212|467:212|441:254|441:254|436:336,1,243.75,8|0,0:0|0:0,0:0:0:0:
456,344,44853,2,0,L|288:352,1,162.5,2|0,0:0|0:0,0:0:0:0:
120,176,45153,5,0,0:0:0:0:
224,380,45303,1,8,0:0:0:0:
312,84,45454,2,0,L|392:76,1,81.25,2|0,0:0|0:0,0:0:0:0:
188,311,45604,2,0,L|101:303,1,81.25,0|0,0:0|0:0,0:0:0:0:
332,64,45754,5,8,0:0:0:0:
374,326,45904,1,0,0:0:0:0:
142,122,46054,1,2,0:0:0:0:
413,242,46204,1,0,0:0:0:0:
107,303,46355,2,0,P|60:239|72:160,1,162.5,0|8,0:0|0:0,0:0:0:0:
413,242,46655,2,0,P|460:306|448:385,1,162.5,0|8,0:0|0:0,0:0:0:0:
209,60,46955,5,8,0:0:0:0:
209,60,47856,1,0,0:0:0:0:
273,55,47931,1,0,0:0:0:0:
338,50,48006,1,0,0:0:0:0:
403,45,48081,1,0,0:0:0:0:
468,41,48156,5,12,0:0:0:0:
368,304,48306,1,0,0:0:0:0:
209,60,48457,1,2,0:0:0:0:
416,228,48607,1,0,0:0:0:0:
173,322,48757,1,0,0:0:0:0:
288,84,48907,1,8,0:0:0:0:
495,330,49057,2,0,B|362:353|362:353|295:326,1,195,2|0,0:0|0:0,0:0:0:0:
240,280,49358,6,0,P|185:244|110:268,1,130,8|0,0:0|0:0,0:0:0:0:
306,330,49658,2,0,P|368:341|420:305,1,130,2|0,0:0|0:0,0:0:0:0:
476,68,49958,5,0,0:0:0:0:
272,196,50108,1,8,0:0:0:0:
496,304,50258,1,2,0:0:0:0:
392,48,50409,1,0,0:0:0:0:
195,208,50559,2,0,B|211:352|211:352|197:327|162:322,1,195,12|0,0:0|0:0,0:0:0:0:
99,302,50859,6,0,B|67:293|36:305|36:305|56:273|45:241,1,130,2|0,0:0|0:0,0:0:0:0:
160,40,51159,1,0,0:0:0:0:
240,280,51309,1,8,0:0:0:0:
144,28,51460,2,0,L|344:20,1,195,2|0,0:0|0:0,0:0:0:0:
376,40,51760,5,8,0:0:0:0:
448,212,51910,1,0,0:0:0:0:
216,132,52060,1,2,0:0:0:0:
416,32,52210,1,0,0:0:0:0:
428,228,52361,2,0,L|440:360,1,130,0|8,0:0|0:0,0:0:0:0:
72,357,52661,2,0,L|84:228,1,130,2|0,0:0|0:0,0:0:0:0:
71,8,52961,5,12,0:0:0:0:
109,301,53261,1,8,0:0:0:0:
171,20,53562,1,8,0:0:0:0:
211,295,53862,1,8,0:0:0:0:
340,22,54162,5,8,0:0:0:0:
300,297,54463,1,8,0:0:0:0:
440,10,54763,1,8,0:0:0:0:
402,303,55063,1,8,0:0:0:0:
440,10,55364,5,8,0:0:0:0:
402,303,55514,1,8,0:0:0:0:
340,22,55664,1,8,0:0:0:0:
300,297,55814,1,8,0:0:0:0:
171,20,55964,5,8,0:0:0:0:
211,295,56114,1,8,0:0:0:0:
71,8,56264,1,8,0:0:0:0:
109,301,56415,1,8,0:0:0:0:
304,52,56565,5,2,0:0:0:0:
304,52,56715,1,8,0:0:0:0:
354,300,56865,1,2,0:0:0:0:
354,300,57015,1,8,0:0:0:0:
220,20,57165,1,2,0:0:0:0:
96,352,57316,1,2,0:0:0:0:
278,133,57466,2,0,L|358:125,3,65,2|0|2|0,0:0|0:0|0:0|0:0,0:0:0:0:
278,133,57766,6,0,B|235:224|148:218|148:218|89:182|93:72|125:21|190:25|239:63|252:133|204:172|127:181|91:124|49:64|49:64|31:111|39:172,1,731.250027894975,6|0,0:0|0:0,0:0:0:0:
32,188,58967,6,0,L|40:260,1,65,0|0,0:0|0:0,0:0:0:0:
93,383,59117,2,0,L|100:318,1,65,0|0,0:0|0:0,0:0:0:0:
141,73,59267,2,0,L|149:145,1,65
208,333,59418,2,0,L|215:268,1,65,0|0,0:0|0:0,0:0:0:0:
287,18,59568,2,0,L|295:90,1,65
327,283,59718,2,0,L|334:218,1,65,0|0,0:0|0:0,0:0:0:0:
445,14,59868,1,0,0:0:0:0:
493,51,59943,1,0,0:0:0:0:
494,115,60018,1,0,0:0:0:0:
444,153,60093,1,0,0:0:0:0:
383,138,60168,6,0,P|308:130|244:223,1,195,12|0,0:0|0:0,0:0:0:0:
210,289,60469,2,0,B|181:287|170:311|170:311|180:266|149:213,1,130,2|0,0:0|0:0,0:0:0:0:
88,44,60769,1,0,0:0:0:0:
55,289,60919,1,8,0:0:0:0:
168,72,61069,2,0,L|248:64,1,65,2|0,0:0|0:0,0:0:0:0:
304,32,61219,2,0,B|369:21|369:21|432:45,1,130,0|8,0:0|0:0,0:0:0:0:
484,260,61520,1,0,0:0:0:0:
361,102,61670,1,2,0:0:0:0:
328,344,61820,1,0,0:0:0:0:
274,148,61970,6,0,L|210:144,1,65,0|0,0:0|0:0,0:0:0:0:
46,200,62120,2,0,L|110:196,1,65,8|0,0:0|0:0,0:0:0:0:
190,284,62270,2,0,L|186:220,1,65,2|0,0:0|0:0,0:0:0:0:
138,56,62421,2,0,L|134:120,1,65,0|0,0:0|0:0,0:0:0:0:
190,284,62571,6,0,B|291:314|275:244|383:279,1,195,12|0,0:0|0:0,0:0:0:0:
409,262,62871,6,0,P|427:200|393:142,1,130,2|0,0:0|0:0,0:0:0:0:
160,64,63171,1,0,0:0:0:0:
217,302,63322,1,2,0:0:0:0:
412,120,63472,1,8,0:0:0:0:
192,48,63622,2,0,B|136:58|81:31|81:31|106:69|100:113,1,195,0|0,0:0|0:0,0:0:0:0:
72,136,63922,2,0,L|64:272,1,130,0|2,0:0|0:0,0:0:0:0:
124,356,64222,1,0,0:0:0:0:
304,204,64373,5,0,0:0:0:0:
64,266,64523,1,8,0:0:0:0:
327,301,64673,2,0,L|407:309,1,65,2|0,0:0|0:0,0:0:0:0:
225,134,64823,2,0,L|153:146,1,65,0|0,0:0|0:0,0:0:0:0:
464,280,64973,6,0,L|472:84,1,195,12|0,0:0|0:0,0:0:0:0:
452,53,65273,2,0,L|316:61,1,130,2|0,0:0|0:0,0:0:0:0:
80,40,65574,1,0,0:0:0:0:
391,99,65724,1,8,0:0:0:0:
80,40,65874,2,0,B|64:108|64:108,1,65,2|0,0:0|0:0,0:0:0:0:
36,128,66024,6,0,L|44:272,1,130,0|8,0:0|0:0,0:0:0:0:
476,128,66325,2,0,L|468:272,1,130,0|2,0:0|0:0,0:0:0:0:
344,372,66625,1,0,0:0:0:0:
288,112,66775,1,0,0:0:0:0:
452,272,66925,1,8,0:0:0:0:
216,294,67075,2,0,L|200:230,1,65,2|0,0:0|0:0,0:0:0:0:
325,37,67225,2,0,L|313:105,1,65,0|0,0:0|0:0,0:0:0:0:
266,361,67376,5,12,0:0:0:0:
212,116,67526,1,0,0:0:0:0:
120,380,67676,1,2,0:0:0:0:
248,140,67826,1,0,0:0:0:0:
20,268,67976,5,0,0:0:0:0:
292,344,68126,1,8,0:0:0:0:
96,120,68276,1,2,0:0:0:0:
139,376,68427,1,0,0:0:0:0:
215,65,68577,2,0,P|277:63|327:113,1,130,8|0,0:0|0:0,0:0:0:0:
292,344,68877,2,0,P|230:346|180:296,1,130,2|0,0:0|0:0,0:0:0:0:
189,91,69177,6,0,L|205:18,1,65,0|0,0:0|0:0,0:0:0:0:
271,77,69328,2,0,L|333:36,1,65,8|0,0:0|0:0,0:0:0:0:
342,128,69478,2,0,L|415:144,1,65,2|0,0:0|0:0,0:0:0:0:
356,210,69628,2,0,L|396:272,1,65,0|0,0:0|0:0,0:0:0:0:
309,284,69778,6,0,B|161:300|161:300|184:288|193:268,1,195,12|0,0:0|0:0,0:0:0:0:
128,232,70078,2,0,P|80:240|100:312,1,130,2|0,0:0|0:0,0:0:0:0:
252,369,70379,1,0,0:0:0:0:
180,76,70529,1,8,0:0:0:0:
252,369,70679,1,2,0:0:0:0:
279,28,70829,2,0,B|355:22|355:22|366:27|366:27|376:21|376:21|433:17|433:17|466:60,1,195
472,76,71129,5,0,0:0:0:0:
449,166,71279,2,0,L|465:302,1,130,2|0,0:0|0:0,0:0:0:0:
367,192,71580,6,0,L|359:127,1,65,0|0,0:0|0:0,0:0:0:0:
276,291,71730,2,0,L|268:356,1,65,8|0,0:0|0:0,0:0:0:0:
216,84,71880,1,2,0:0:0:0:
168,384,72030,1,0,0:0:0:0:
200,64,72180,6,0,B|132:80|76:44|76:44|103:73|100:112,1,195,12|0,0:0|0:0,0:0:0:0:
70,128,72481,2,0,L|50:260,1,130,2|0,0:0|0:0,0:0:0:0:
168,384,72781,1,0,0:0:0:0:
100,104,72931,1,8,0:0:0:0:
280,268,73081,1,2,0:0:0:0:
164,40,73231,6,0,B|296:28|296:28|372:48,1,195
380,72,73532,2,0,L|392:144,1,65,0|0,0:0|0:0,0:0:0:0:
284,345,73682,2,0,L|294:280,1,65,2|0,0:0|0:0,0:0:0:0:
404,99,73832,2,0,L|416:171,1,65,0|0,0:0|0:0,0:0:0:0:
312,368,73982,1,0,0:0:0:0:
262,111,74132,1,8,0:0:0:0:
397,314,74282,1,2,0:0:0:0:
179,167,74433,1,0,0:0:0:0:
429,22,74583,6,0,P|477:66|433:177,1,195,12|0,0:0|0:0,0:0:0:0:
400,192,74883,1,2,0:0:0:0:
252,112,75033,1,0,0:0:0:0:
376,332,75183,2,0,L|240:344,1,130,0|8,0:0|0:0,0:0:0:0:
107,280,75484,2,0,L|172:292,1,65,2|0,0:0|0:0,0:0:0:0:
246,343,75634,2,0,L|266:211,1,130,0|8,0:0|0:0,0:0:0:0:
148,56,75934,1,0,0:0:0:0:
265,214,76084,2,0,P|328:227|384:191,1,130,2|0,0:0|0:0,0:0:0:0:
411,104,76385,6,0,L|399:41,1,65,0|0,0:0|0:0,0:0:0:0:
192,131,76535,2,0,L|180:194,1,65,8|0,0:0|0:0,0:0:0:0:
430,78,76685,2,0,L|418:15,1,65,2|0,0:0|0:0,0:0:0:0:
169,147,76835,2,0,L|157:210,1,65,0|0,0:0|0:0,0:0:0:0:
328,3,76985,6,0,L|193:2,1,130,12|0,0:0|0:0,0:0:0:0:
0,0,77285,1,2,0:0:0:0:
0,0,77436,1,0,0:0:0:0:
26,211,77586,6,0,L|161:210,1,130,0|8,0:0|0:0,0:0:0:0:
354,208,77886,1,2,0:0:0:0:
354,208,78036,1,0,0:0:0:0:
109,70,78186,5,8,0:0:0:0:
272,350,78337,1,8,0:0:0:0:
272,70,78487,1,8,0:0:0:0:
109,350,78637,1,8,0:0:0:0:
354,208,78787,1,8,0:0:0:0:
28,208,78937,1,8,0:0:0:0:
398,275,79087,2,0,P|425:171|297:151,1,260,2|4,0:0|0:0,0:0:0:0:
256,192,86595,12,8,88547,0:0:0:0:
328,108,88697,5,2,0:0:0:0:
176,84,88997,6,0,P|108:80|63:124,1,130,12|0,0:0|0:0,0:0:0:0:
289,180,89297,2,0,P|357:184|402:140,1,130,2|0,0:0|0:0,0:0:0:0:
154,109,89598,2,0,B|126:229|126:229|150:301,1,195,0|0,0:0|0:0,0:0:0:0:
207,352,89898,2,0,L|343:360,1,130,2|0,0:0|0:0,0:0:0:0:
328,108,90198,6,0,B|301:221|301:221|342:377,2,260,8|2|8,0:0|0:0|0:0,0:0:0:0:
424,288,90949,1,0,0:0:0:0:
253,339,91099,2,0,L|202:135,1,195,2|0,0:0|0:0,0:0:0:0:
147,91,91400,6,0,L|7:79,1,130,8|0,0:0|0:0,0:0:0:0:
336,32,91700,2,0,L|476:20,1,130,2|0,0:0|0:0,0:0:0:0:
360,204,92000,1,0,0:0:0:0:
232,20,92150,1,8,0:0:0:0:
188,252,92300,1,2,0:0:0:0:
248,36,92451,1,0,0:0:0:0:
380,219,92601,6,0,L|392:351,1,130,8|0,0:0|0:0,0:0:0:0:
132,219,92901,2,0,L|120:348,1,130,2|0,0:0|0:0,0:0:0:0:
260,140,93201,1,0,0:0:0:0:
200,380,93352,1,0,0:0:0:0:
236,116,93502,2,0,B|160:96|120:128|120:128|131:90|100:56,1,195,0|0,0:0|0:0,0:0:0:0:
47,111,93802,6,0,L|32:240,1,130,12|0,0:0|0:0,0:0:0:0:
187,50,94102,1,2,0:0:0:0:
187,50,94252,1,0,0:0:0:0:
239,201,94403,2,0,L|303:212,2,65,0|0|8,0:0|0:0|0:0,0:0:0:0:
136,117,94703,1,2,0:0:0:0:
164,352,94853,1,0,0:0:0:0:
272,60,95003,6,0,P|336:48|396:152,1,195,8|0,0:0|0:0,0:0:0:0:
378,179,95303,2,0,L|386:315,1,130,2|0,0:0|0:0,0:0:0:0:
184,368,95604,5,0,0:0:0:0:
296,144,95754,1,8,0:0:0:0:
417,382,95904,2,0,P|460:328|377:233,1,195,2|0,0:0|0:0,0:0:0:0:
372,252,96204,5,2,0:0:0:0:
144,108,96355,1,8,0:0:0:0:
210,356,96505,1,8,0:0:0:0:
316,16,96655,5,2,0:0:0:0:
128,248,96805,1,8,0:0:0:0:
408,124,96955,1,8,0:0:0:0:
96,28,97105,5,2,0:0:0:0:
312,304,97255,1,8,0:0:0:0:
72,0,97406,2,0,L|36:392,1,390,2|0,0:0|0:0,0:0:0:0:
460,60,98607,6,0,B|411:75|366:54|366:54|316:78|316:78|269:48|269:48|218:60|163:42,1,292.50001115799,12|0,0:0|0:0,0:0:0:0:
160,24,98907,1,2,0:0:0:0:
252,300,99057,1,0,0:0:0:0:
366,54,99207,1,0,0:0:0:0:
88,76,99358,1,8,0:0:0:0:
252,300,99508,2,0,L|356:308,1,97.50000371933,2|0,0:0|0:0,0:0:0:0:
174,83,99658,2,0,L|66:95,1,97.50000371933,0|0,0:0|0:0,0:0:0:0:
41,328,99808,5,8,0:0:0:0:
1,64,99958,1,0,0:0:0:0:
148,346,100108,1,2,0:0:0:0:
140,9,100258,1,0,0:0:0:0:
471,328,100409,5,0,0:0:0:0:
511,64,100559,1,8,0:0:0:0:
364,346,100709,1,2,0:0:0:0:
372,9,100859,1,0,0:0:0:0:
281,271,101009,6,0,B|171:315|211:231|85:279,1,195.00000743866,12|0,0:0|0:0,0:0:0:0:
231,113,101309,2,0,B|341:69|301:153|427:105,1,195.00000743866,0|0,0:0|0:0,0:0:0:0:
188,240,101610,1,0,0:0:0:0:
92,12,101760,1,8,0:0:0:0:
42,364,101910,2,0,L|58:256,1,97.50000371933,2|0,0:0|0:0,0:0:0:0:
92,12,102060,2,0,L|77:108,1,97.50000371933,8|0,0:0|0:0,0:0:0:0:
136,312,102210,5,4,0:0:0:0:
176,75,102361,1,0,0:0:0:0:
225,350,102511,1,0,0:0:0:0:
265,113,102661,1,2,0:0:0:0:
320,352,102811,2,0,B|386:322|464:360|464:360|429:284|465:212,1,292.50001115799
494,192,103111,2,0,B|464:126|502:48|502:48|426:83|354:47,1,292.50001115799,2|0,0:0|0:0,0:0:0:0:
340,28,103412,6,0,L|144:24,1,195.00000743866,12|0,0:0|0:0,0:0:0:0:
145,359,103712,2,0,L|340:356,1,195.00000743866,2|0,0:0|0:0,0:0:0:0:
92,256,104012,1,0,0:0:0:0:
428,136,104162,1,8,0:0:0:0:
96,81,104313,2,0,L|-4:69,1,97.50000371933,2|0,0:0|0:0,0:0:0:0:
416,156,104463,2,0,L|516:144,1,97.50000371933,0|0,0:0|0:0,0:0:0:0:
332,70,104613,6,0,P|252:71|335:183,1,292.50001115799,8|0,0:0|0:0,0:0:0:0:
367,207,104913,2,0,L|171:227,1,195.00000743866,2|0,0:0|0:0,0:0:0:0:
4,248,105213,1,0,0:0:0:0:
332,320,105364,1,8,0:0:0:0:
25,273,105514,1,2,0:0:0:0:
449,192,105664,1,0,0:0:0:0:
194,348,105814,6,0,B|181:280|181:280|209:236|209:236|191:161,1,195.00000743866,12|0,0:0|0:0,0:0:0:0:
68,28,106114,1,2,0:0:0:0:
32,240,106264,1,0,0:0:0:0:
232,52,106415,2,0,B|327:35|327:35|432:68,1,195.00000743866,8|2,0:0|0:0,0:0:0:0:
420,319,106715,2,0,B|327:349|327:349|232:332,1,195.00000743866,2|0,0:0|0:0,0:0:0:0:
144,84,107015,1,12,0:0:0:0:
144,84,107916,1,0,0:0:0:0:
201,46,107991,1,0,0:0:0:0:
270,59,108066,1,0,0:0:0:0:
310,116,108141,1,0,0:0:0:0:
301,185,108216,6,0,P|251:78|366:76,1,243.75,12|0,0:0|0:0,0:0:0:0:
384,72,108517,2,0,B|405:180|405:180|380:240,1,162.5,2|0,0:0|0:0,0:0:0:0:
236,344,108817,1,0,0:0:0:0:
192,124,108967,1,8,0:0:0:0:
314,362,109117,2,0,L|150:370,1,162.5,2|0,0:0|0:0,0:0:0:0:
135,66,109418,6,0,P|215:46|243:186,1,243.75,8|0,0:0|0:0,0:0:0:0:
221,150,109718,2,0,P|281:142|241:213,1,162.5,2|0,0:0|0:0,0:0:0:0:
128,274,110018,1,0,0:0:0:0:
68,140,110168,1,8,0:0:0:0:
202,80,110319,1,2,0:0:0:0:
261,214,110469,1,0,0:0:0:0:
68,140,110619,6,0,B|109:82|113:3|113:3|142:44|200:46,1,243.75,12|0,0:0|0:0,0:0:0:0:
271,22,110919,2,0,B|379:10|379:10|351:22|340:60,1,162.5,2|0,0:0|0:0,0:0:0:0:
240,292,111219,1,0,0:0:0:0:
412,80,111370,1,8,0:0:0:0:
396,364,111520,1,2,0:0:0:0:
284,95,111670,1,0,0:0:0:0:
187,348,111820,6,0,B|-3:362|-3:362|37:318,1,243.75,8|0,0:0|0:0,0:0:0:0:
66,311,112120,2,0,P|59:347|34:287,1,162.5,2|0,0:0|0:0,0:0:0:0:
140,64,112421,5,0,0:0:0:0:
187,348,112571,1,8,0:0:0:0:
273,18,112721,1,2,0:0:0:0:
320,302,112871,1,0,0:0:0:0:
132,92,113021,5,12,0:0:0:0:
344,280,113171,1,0,0:0:0:0:
104,192,113322,1,2,0:0:0:0:
360,248,113472,1,0,0:0:0:0:
101,377,113622,2,0,L|85:213,1,162.5,0|8,0:0|0:0,0:0:0:0:
391,139,113922,2,0,P|453:230|321:226,1,243.75,2|0,0:0|0:0,0:0:0:0:
284,282,114222,6,0,P|293:319|357:268,1,162.5,8|0,0:0|0:0,0:0:0:0:
244,100,114523,1,2,0:0:0:0:
208,352,114673,1,0,0:0:0:0:
276,80,114823,2,0,L|456:68,1,162.5,0|8,0:0|0:0,0:0:0:0:
194,330,115123,2,0,L|14:318,1,162.5,2|0,0:0|0:0,0:0:0:0:
276,80,115424,5,12,0:0:0:0:
194,330,115724,1,8,0:0:0:0:
438,69,116024,1,8,0:0:0:0:
31,319,116325,1,8,0:0:0:0:
276,80,116625,5,8,0:0:0:0:
194,330,116925,1,8,0:0:0:0:
148,32,117225,1,8,0:0:0:0:
324,348,117526,1,8,0:0:0:0:
416,24,117826,5,8,0:0:0:0:
304,260,117976,1,8,0:0:0:0:
208,8,118126,1,8,0:0:0:0:
432,160,118276,1,8,0:0:0:0:
167,166,118427,1,8,0:0:0:0:
312,16,118577,1,8,0:0:0:0:
229,300,118727,1,8,0:0:0:0:
97,47,118877,1,8,0:0:0:0:
416,110,119027,5,2,0:0:0:0:
416,110,119177,1,8,0:0:0:0:
209,106,119328,5,2,0:0:0:0:
209,106,119478,1,8,0:0:0:0:
337,231,119628,2,0,L|351:147,1,81.25,2|0,0:0|0:0,0:0:0:0:
329,136,119778,1,0,0:0:0:0:
176,16,119928,1,2,0:0:0:0:
224,308,120078,1,2,0:0:0:0:
361,61,120228,6,0,P|283:70|249:133,1,146.250005578995,12|0,0:0|0:0,0:0:0:0:
284,103,120529,6,0,P|192:107|184:179,1,162.5,2|0,0:0|0:0,0:0:0:0:
250,299,120829,2,0,B|330:319|330:319|410:295,2,162.5,0|8|2,0:0|0:0|0:0,0:0:0:0:
190,240,121279,2,0,B|131:241|99:184|99:184|138:310,1,243.75,0|0,0:0|0:0,0:0:0:0:
111,337,121580,1,0,0:0:0:0:
61,181,121730,2,0,L|77:93,1,81.25,2|0,0:0|0:0,0:0:0:0:
172,0,121880,2,0,L|186:79,1,81.25,0|0,0:0|0:0,0:0:0:0:
256,375,122030,5,0,0:0:0:0:
186,79,122180,1,8,0:0:0:0:
305,236,122331,2,0,L|393:240,3,81.25,2|0|0|0,0:0|0:0|0:0|0:0,0:0:0:0:
416,216,122631,6,0,B|444:36|444:36|426:69|388:80,1,243.75,12|0,0:0|0:0,0:0:0:0:
360,52,122931,2,0,P|285:34|220:88,1,162.5,2|0,0:0|0:0,0:0:0:0:
140,288,123231,5,0,0:0:0:0:
68,28,123382,1,8,0:0:0:0:
140,288,123532,1,2,0:0:0:0:
52,36,123682,6,0,B|66:115|66:115|27:187|27:187|61:220|57:273,1,243.75,0|0,0:0|0:0,0:0:0:0:
43,303,123982,2,0,L|215:319,1,162.5,0|2,0:0|0:0,0:0:0:0:
158,42,124282,2,0,L|319:26,1,162.5,0|0,0:0|0:0,0:0:0:0:
431,138,124583,6,0,L|415:222,1,81.25,8|0,0:0|0:0,0:0:0:0:
267,257,124733,2,0,L|251:177,1,81.25,2|0,0:0|0:0,0:0:0:0:
271,96,124883,2,0,L|355:112,1,81.25,0|0,0:0|0:0,0:0:0:0:
362,281,125033,2,0,P|291:348|170:281,1,243.75
142,309,125334,2,0,B|64:278|64:278|46:193,1,162.5,2|0,0:0|0:0,0:0:0:0:
128,16,125634,5,0,0:0:0:0:
212,368,125784,1,8,0:0:0:0:
76,88,125934,1,2,0:0:0:0:
308,186,126084,6,0,P|396:210|416:82,1,243.75,0|0,0:0|0:0,0:0:0:0:
390,115,126385,2,0,L|382:279,1,162.5,0|2,0:0|0:0,0:0:0:0:
432,380,126685,1,0,0:0:0:0:
304,100,126835,1,0,0:0:0:0:
304,100,126985,1,8,0:0:0:0:
260,295,127135,2,0,L|176:303,3,81.25,2|0|0|0,0:0|0:0|0:0|0:0,0:0:0:0:
152,288,127436,6,0,L|136:120,1,162.5,12|0,0:0|0:0,0:0:0:0:
260,296,127736,1,2,0:0:0:0:
200,376,127886,1,0,0:0:0:0:
152,288,128036,6,0,L|136:120,1,162.5,0|8,0:0|0:0,0:0:0:0:
260,296,128337,1,2,0:0:0:0:
200,376,128487,1,0,0:0:0:0:
152,288,128637,6,0,L|129:43,1,243.75,8|0,0:0|0:0,0:0:0:0:
161,61,128937,2,0,B|239:44|239:44|329:81,1,162.5,2|0,0:0|0:0,0:0:0:0:
389,178,129237,5,0,0:0:0:0:
325,230,129388,1,8,0:0:0:0:
249,206,129538,1,2,0:0:0:0:
229,126,129688,1,0,0:0:0:0:
249,206,129838,6,0,P|169:181|198:49,1,227.5,12|0,0:0|0:0,0:0:0:0:
296,21,130439,6,0,L|376:13,1,81.25,2|0,0:0|0:0,0:0:0:0:
337,47,130589,2,0,L|412:73,1,81.25,0|0,0:0|0:0,0:0:0:0:
364,88,130739,2,0,L|421:144,1,81.25,0|0,0:0|0:0,0:0:0:0:
373,139,130889,2,0,B|394:219|394:219|358:291,1,162.5,0|8,0:0|0:0,0:0:0:0:
277,202,131189,2,0,B|228:179|180:192|180:192|195:233|200:285|200:285|208:290|208:290|200:285|200:285|192:332|177:369|177:369|137:340|73:348,1,406.25
64,332,131640,6,0,L|-8:336,1,65,2|0,0:0|0:0,0:0:0:0:
78,294,131790,2,0,L|6:298,1,65,0|0,0:0|0:0,0:0:0:0:
138,151,131940,2,0,L|210:155,1,65,0|0,0:0|0:0,0:0:0:0:
124,113,132090,2,0,L|196:117,1,65,0|0,0:0|0:0,0:0:0:0:
82,216,132240,6,0,B|33:187|33:187|13:71|13:71|50:29,1,227.5,12|0,0:0|0:0,0:0:0:0:
82,216,132841,6,0,L|92:308,1,81.25,2|0,0:0|0:0,0:0:0:0:
156,128,132991,2,0,L|164:47,1,81.25,0|0,0:0|0:0,0:0:0:0:
220,248,133141,2,0,L|230:340,1,81.25,0|0,0:0|0:0,0:0:0:0:
315,26,133291,2,0,P|398:21|446:78,1,162.5,0|8,0:0|0:0,0:0:0:0:
482,148,133592,2,0,B|503:350|503:350|383:325,1,325,0|0,0:0|0:0,0:0:0:0:
299,225,134042,6,0,P|265:218|231:233,1,65,0|0,0:0|0:0,0:0:0:0:
306,344,134192,2,0,P|340:351|374:336,1,65,0|0,0:0|0:0,0:0:0:0:
219,205,134343,2,0,P|196:203|163:231,1,65,8|0,0:0|0:0,0:0:0:0:
397,345,134493,2,0,P|420:347|455:317,1,65
428,216,134643,6,0,B|410:145|410:145|430:111|430:111|404:32,1,195,12|0,0:0|0:0,0:0:0:0:
256,48,135243,6,0,L|168:40,1,81.25,2|0,0:0|0:0,0:0:0:0:
137,108,135394,2,0,L|57:116,1,81.25
79,200,135544,2,0,L|0:217,1,81.25
205,223,135694,2,0,L|221:391,1,162.5,0|8,0:0|0:0,0:0:0:0:
314,365,135994,2,0,B|338:37|338:37|344:87|399:101,1,406.25,0|0,0:0|0:0,0:0:0:0:
416,26,136445,6,0,L|494:24,1,65,2|0,0:0|0:0,0:0:0:0:
248,74,136595,2,0,L|183:72,1,65,0|0,0:0|0:0,0:0:0:0:
403,165,136745,2,0,L|398:243,3,65,0|0|0|0,0:0|0:0|0:0|0:0,0:0:0:0:
422,149,137045,6,0,B|443:280|372:237|406:369|406:369|242:315|296:391|150:356,1,455,12|0,2:0|2:0,2:0:0:0:
98,311,137646,2,0,B|16:284|16:284|-5:206|2:115|92:66|167:58|250:113,1,455,2|0,2:0|2:0,2:0:0:0:
250,120,138246,6,0,L|306:112,1,48.750001859665,8|0,0:0|0:0,0:0:0:0:
272,139,138397,2,0,L|326:155,1,48.750001859665,0|0,0:0|0:0,0:0:0:0:
277,165,138547,2,0,L|319:202,1,48.750001859665,0|0,0:0|0:0,0:0:0:0:
274,192,138697,2,0,L|296:244,1,48.750001859665,0|0,0:0|0:0,0:0:0:0:
332,280,138847,5,2,0:0:0:0:
416,248,138997,1,0,0:0:0:0:
440,336,139147,1,0,0:0:0:0:
472,344,139297,1,0,0:0:0:0:
332,380,139448,6,0,L|136:372,1,195.00000743866,12|0,0:0|0:0,0:0:0:0:
124,356,139898,1,8,0:0:0:0:
76,284,140048,2,0,B|63:139|63:139|74:167|115:173,1,195.00000743866,0|0,0:0|0:0,0:0:0:0:
212,180,140649,5,2,0:0:0:0:
236,196,140799,1,0,0:0:0:0:
264,196,140949,1,0,0:0:0:0:
288,180,141099,1,2,0:0:0:0:
340,204,141249,2,0,L|440:216,2,97.50000371933,0|0|0,0:0|0:0|0:0,0:0:0:0:
236,88,141850,6,0,P|268:28|301:130,1,243.750009298325,8|0,0:0|0:0,0:0:0:0:
349,118,142300,2,0,P|414:98|365:193,1,243.750009298325,8|0,0:0|0:0,0:0:0:0:
354,223,142751,1,0,0:0:0:0:
477,281,143051,6,0,P|348:328|360:218,2,292.50001115799,8|8|0,0:0|0:0|0:0,0:0:0:0:
232,124,144252,5,2,0:0:0:0:
192,372,144703,1,8,0:0:0:0:
205,90,145454,5,2,0:0:0:0:
192,372,145904,1,2,0:0:0:0:
180,62,146655,5,8,0:0:0:0:
192,372,147105,1,0,0:0:0:0:
372,29,147856,6,0,P|411:54|426:109,1,97.50000371933,8|0,0:0|0:0,0:0:0:0:
244,198,148156,1,0,0:0:0:0:
222,186,148231,1,0,0:0:0:0:
200,175,148306,1,8,0:0:0:0:
160,64,148457,2,0,P|192:28|241:19,1,97.50000371933,0|8,0:0|0:0,0:0:0:0:
303,146,148757,2,0,P|311:242|277:271,1,146.250005578995,8|0,0:0|0:0,0:0:0:0:
260,260,149057,6,0,B|205:260|156:287|132:352|132:352|91:282|111:206|111:206|54:168|54:168|70:109|44:37,1,520,4|0,0:0|0:0,0:0:0:0:
256,192,162270,12,0,163171,0:0:0:0:
108,88,163472,5,6,0:0:0:0:
444,192,163622,1,8,0:0:0:0:
444,192,163772,1,8,0:0:0:0:
52,332,163922,5,2,0:0:0:0:
461,202,164072,1,8,0:0:0:0:
461,202,164222,1,8,0:0:0:0:
43,31,164373,5,2,0:0:0:0:
72,356,164523,1,8,0:0:0:0:
192,96,164673,5,2,0:0:0:0:
348,260,164823,1,8,0:0:0:0:
60,172,164973,1,8,0:0:0:0:
348,260,165123,1,2,0:0:0:0:
168,19,165273,1,8,0:0:0:0:
216,384,165424,1,8,0:0:0:0:
304,64,165574,1,2,0:0:0:0:
328,60,165649,1,2,0:0:0:0:
352,56,165724,1,8,0:0:0:0:
37,169,165874,5,12,0:0:0:0:
405,315,166024,1,8,0:0:0:0:
405,315,166174,1,8,0:0:0:0:
37,169,166325,5,8,0:0:0:0:
445,27,166475,1,8,0:0:0:0:
445,27,166625,1,8,0:0:0:0:
312,380,166775,5,2,0:0:0:0:
216,0,166925,1,8,0:0:0:0:
161,178,167075,6,0,L|-11:198,1,162.5,2|8,0:0|0:0,0:0:0:0:
351,178,167376,2,0,L|523:198,1,162.5,8|2,0:0|0:0,0:0:0:0:
256,220,167676,2,0,L|256:384,1,162.5,8|8,0:0|0:0,0:0:0:0:
256,48,167976,1,2,0:0:0:0:
256,24,168051,1,2,0:0:0:0:
256,0,168126,1,8,0:0:0:0:
334,304,168276,5,6,0:0:0:0:
408,28,168427,1,8,0:0:0:0:
438,384,168577,1,8,0:0:0:0:
178,80,168727,5,2,0:0:0:0:
104,356,168877,1,8,0:0:0:0:
74,0,169027,1,8,0:0:0:0:
342,187,169177,5,2,0:0:0:0:
26,318,169328,1,8,0:0:0:0:
302,116,169478,6,0,P|366:108|422:192,1,162.5,2|8,0:0|0:0,0:0:0:0:
210,268,169778,2,0,P|146:276|90:192,1,162.5,8|2,0:0|0:0,0:0:0:0:
447,205,170078,2,0,L|463:373,1,162.5,8|8,0:0|0:0,0:0:0:0:
169,199,170379,1,2,0:0:0:0:
173,175,170454,1,2,0:0:0:0:
177,151,170529,1,8,0:0:0:0:
370,28,170679,5,6,0:0:0:0:
141,355,170829,1,8,0:0:0:0:
141,28,170979,1,2,0:0:0:0:
370,355,171129,1,8,0:0:0:0:
390,0,171279,5,2,0:0:0:0:
121,383,171430,1,8,0:0:0:0:
121,0,171580,1,2,0:0:0:0:
390,383,171730,1,8,0:0:0:0:
128,240,171880,6,0,L|144:160,1,81.25,6|0,0:0|0:0,0:0:0:0:
170,153,172030,1,2,0:0:0:0:
272,96,172180,1,2,0:0:0:0:
96,56,172331,1,2,0:0:0:0:
265,305,172481,5,2,0:0:0:0:
457,192,172631,1,2,0:0:0:0:
345,0,172781,1,2,0:0:0:0:
152,110,172931,1,0,0:0:0:0:
405,351,173081,6,0,B|395:255|395:255|355:194|355:194|387:133|387:133|369:27,1,341.250003254414,12|0,0:0|0:0,0:0:0:0:
294,0,173382,2,0,L|66:12,1,227.500002169609,2|0,0:0|0:0,0:0:0:0:
56,296,173682,1,0,0:0:0:0:
252,104,173832,1,8,0:0:0:0:
2,103,173982,2,0,B|26:356|26:356|66:318|134:342,1,341.250003254414,2|0,0:0|0:0,0:0:0:0:
143,358,174282,5,12,0:0:0:0:
457,219,174433,1,0,0:0:0:0:
78,83,174583,1,2,0:0:0:0:
466,246,174733,1,0,0:0:0:0:
356,0,174883,1,0,0:0:0:0:
180,348,175033,1,8,0:0:0:0:
473,195,175183,2,0,L|345:179,1,113.750001084805,2|0,0:0|0:0,0:0:0:0:
159,324,175334,2,0,L|279:308,1,113.750001084805,0|0,0:0|0:0,0:0:0:0:
441,69,175484,6,0,B|317:96|317:96|244:54|244:54|115:89,1,341.250003254414,12|0,0:0|0:0,0:0:0:0:
36,33,175784,2,0,B|-8:154|90:144|48:257,1,227.500002169609,2|0,0:0|0:0,0:0:0:0:
322,259,176084,2,0,P|246:243|334:343,1,341.250003254414
408,312,176385,2,0,B|415:226|415:226|431:201|431:201|423:171|423:171|432:84,1,227.500002169609,2|0,0:0|0:0,0:0:0:0:
204,16,176685,5,12,0:0:0:0:
280,276,176835,1,0,0:0:0:0:
32,80,176985,1,2,0:0:0:0:
304,264,177135,1,0,0:0:0:0:
120,52,177285,5,0,0:0:0:0:
168,376,177436,1,8,0:0:0:0:
304,8,177586,2,0,L|284:124,1,113.750001084805,2|0,0:0|0:0,0:0:0:0:
145,365,177736,2,0,L|164:252,1,113.750001084805,0|0,0:0|0:0,0:0:0:0:
339,0,177886,6,0,L|279:347,1,341.250003254414,12|0,0:0|0:0,0:0:0:0:
246,344,178186,2,0,L|286:111,1,227.500002169609,2|0,0:0|0:0,0:0:0:0:
412,376,178487,1,0,0:0:0:0:
163,252,178637,1,8,0:0:0:0:
504,160,178787,1,2,0:0:0:0:
156,272,178937,1,0,0:0:0:0:
454,48,179087,6,0,B|475:159|475:159|434:272,1,227.500002169609,12|0,0:0|0:0,0:0:0:0:
58,336,179388,2,0,B|37:225|37:225|78:112,1,227.500002169609,2|0,0:0|0:0,0:0:0:0:
112,24,179688,2,0,B|223:3|223:3|336:44,1,227.500002169609,0|8,0:0|0:0,0:0:0:0:
400,348,179988,2,0,B|289:369|289:369|176:328,1,227.500002169609,2|0,0:0|0:0,0:0:0:0:
297,113,180288,6,0,B|258:77|258:77|293:12|371:-20|465:12|470:114,1,341.250003254414,12|0,0:0|0:0,0:0:0:0:
509,177,180589,2,0,B|477:317|477:317|461:272|402:263,1,227.500002169609,2|0,0:0|0:0,0:0:0:0:
136,120,180889,5,0,0:0:0:0:
320,352,181039,1,8,0:0:0:0:
280,8,181189,1,2,0:0:0:0:
320,352,181340,1,0,0:0:0:0:
156,88,181490,6,0,B|96:108|48:80|48:80|75:140|47:192,1,227.500002169609,12|0,0:0|0:0,0:0:0:0:
180,348,181790,1,2,0:0:0:0:
240,84,181940,1,0,0:0:0:0:
0,317,182090,2,0,L|240:333,1,227.500002169609,0|8,0:0|0:0,0:0:0:0:
357,236,182391,2,0,L|237:252,1,113.750001084805,2|0,0:0|0:0,0:0:0:0:
341,340,182541,2,0,L|457:356,1,113.750001084805,0|0,0:0|0:0,0:0:0:0:
454,220,182691,6,0,B|426:102|477:152|458:20|458:20|380:63|411:5|322:40,1,341.250003254414,12|0,0:0|0:0,0:0:0:0:
296,16,182991,2,0,L|52:8,1,227.500002169609,2|0,0:0|0:0,0:0:0:0:
170,307,183291,1,0,0:0:0:0:
68,8,183442,1,8,0:0:0:0:
170,307,183592,2,0,L|397:299,1,227.500002169609,2|0,0:0|0:0,0:0:0:0:
42,134,183892,6,0,B|14:318|14:318|83:353|83:353|96:273,1,341.250003254414,8|0,0:0|0:0,0:0:0:0:
118,253,184192,2,0,B|142:95|142:95|161:138|215:154,1,227.500002169609,2|0,0:0|0:0,0:0:0:0:
460,228,184493,5,0,0:0:0:0:
296,8,184643,1,0,0:0:0:0:
352,372,184793,1,0,0:0:0:0:
460,44,184943,1,0,0:0:0:0:
156,164,185093,5,12,0:0:0:0:
512,292,185243,1,0,0:0:0:0:
280,26,185394,2,0,B|222:50|176:14|176:14|156:22|156:22|115:-8|61:8,1,227.500002169609,2|0,0:0|0:0,0:0:0:0:
232,358,185694,2,0,B|290:334|336:370|336:370|356:362|356:362|397:392|446:377,1,227.500002169609,0|2,0:0|0:0,0:0:0:0:
173,45,185994,2,0,B|146:297|146:297|176:260|236:252,1,341.250003254414,2|0,0:0|0:0,0:0:0:0:
306,195,186294,2,0,B|454:159|454:159|434:247,1,227.500002169609,12|0,0:0|0:0,0:0:0:0:
388,360,186595,1,2,0:0:0:0:
291,69,186745,1,0,0:0:0:0:
388,360,186895,1,0,0:0:0:0:
291,69,187045,1,8,0:0:0:0:
257,328,187195,2,0,L|25:344,1,227.500002169609,2|0,0:0|0:0,0:0:0:0:
272,48,187496,6,0,B|378:19|378:19|344:256,1,341.250003254414,12|0,0:0|0:0,0:0:0:0:
384,221,187796,2,0,B|360:365|360:365|394:324|450:319,1,227.500002169609,2|0,0:0|0:0,0:0:0:0:
240,336,188096,2,0,B|134:365|134:365|168:128,1,341.250003254414,8|0,0:0|0:0,0:0:0:0:
128,163,188396,2,0,B|152:19|152:19|118:60|62:65,1,227.500002169609,2|0,0:0|0:0,0:0:0:0:
208,372,188697,5,8,0:0:0:0:
288,72,188847,1,0,0:0:0:0:
56,268,188997,1,2,0:0:0:0:
368,64,189147,1,0,0:0:0:0:
120,384,189297,5,0,0:0:0:0:
4,0,189448,1,0,0:0:0:0:
440,112,189598,1,0,0:0:0:0:
120,384,189748,1,0,0:0:0:0:
234,98,189898,6,0,B|362:53|318:142|470:82,1,227.500002169609,12|0,0:0|0:0,0:0:0:0:
340,328,190198,1,2,0:0:0:0:
212,72,190349,1,0,0:0:0:0:
360,344,190499,2,0,B|508:348|508:348|469:335|441:295,1,227.500002169609,0|8,0:0|0:0,0:0:0:0:
243,61,190799,1,2,0:0:0:0:
196,384,190949,1,0,0:0:0:0:
243,61,191099,5,8,0:0:0:0:
395,107,191249,1,0,0:0:0:0:
348,259,191400,1,2,0:0:0:0:
196,213,191550,1,0,0:0:0:0:
340,20,191700,5,0,0:0:0:0:
440,209,191850,1,8,0:0:0:0:
250,309,192000,1,2,0:0:0:0:
149,120,192150,1,0,0:0:0:0:
477,38,192300,6,0,B|482:148|482:148|455:206|455:206|492:259|492:259|501:388,1,341.250003254414,12|0,0:0|0:0,0:0:0:0:
472,373,192601,2,0,L|240:385,1,227.500002169609,2|0,0:0|0:0,0:0:0:0:
340,48,192901,1,0,0:0:0:0:
440,348,193051,1,8,0:0:0:0:
356,69,193201,2,0,B|274:101|217:40|217:40|159:66|159:66|102:17|31:43|31:43,1,341.250003254414,2|0,0:0|0:0,0:0:0:0:
12,58,193502,6,0,B|-41:180|46:138|-1:281,1,227.500002169609,8|0,0:0|0:0,0:0:0:0:
232,348,193802,1,2,0:0:0:0:
112,96,193952,1,0,0:0:0:0:
104,384,194102,1,0,0:0:0:0:
360,240,194252,1,0,0:0:0:0:
32,128,194403,1,0,0:0:0:0:
320,360,194553,1,0,0:0:0:0:
384,8,194703,6,0,L|144:4,1,227.500002169609,12|0,0:0|0:0,0:0:0:0:
376,256,195003,1,2,0:0:0:0:
416,0,195153,1,0,0:0:0:0:
276,33,195303,2,0,L|48:49,1,227.500002169609,0|8,0:0|0:0,0:0:0:0:
352,276,195604,1,2,0:0:0:0:
250,7,195754,1,0,0:0:0:0:
134,322,195904,5,8,0:0:0:0:
378,62,196054,1,0,0:0:0:0:
77,197,196204,1,2,0:0:0:0:
434,186,196355,1,0,0:0:0:0:
80,378,196505,5,0,0:0:0:0:
431,5,196655,1,8,0:0:0:0:
0,200,196805,1,2,0:0:0:0:
511,183,196955,1,0,0:0:0:0:
133,48,197105,6,0,B|107:365|107:365|134:339|179:338,1,390,12|0,0:0|0:0,0:0:0:0:
228,290,197406,2,0,B|312:275|312:275|356:292|356:292|388:260|388:260|478:242,1,260,2|0,0:0|0:0,0:0:0:0:
280,36,197706,1,0,0:0:0:0:
364,324,197856,1,8,0:0:0:0:
316,26,198006,2,0,B|-8:18|-8:18|44:78,1,390,2|0,0:0|0:0,0:0:0:0:
64,90,198306,6,0,L|88:350,1,260,8|0,0:0|0:0,0:0:0:0:
175,6,198607,1,2,0:0:0:0:
207,376,198757,1,0,0:0:0:0:
323,42,198907,1,0,0:0:0:0:
87,348,199057,1,0,0:0:0:0:
397,191,199207,1,0,0:0:0:0:
13,240,199358,1,0,0:0:0:0:
397,191,199508,6,0,B|468:165|492:84|492:84|476:336,1,390,10|0,0:0|0:0,0:0:0:0:
450,335,199808,2,0,B|402:355|362:333|362:333|328:359|328:359|298:331|298:331|255:348|205:326,1,260,2|0,0:0|0:0,0:0:0:0:
132,194,200108,2,0,L|120:94,1,97.50000371933
420,168,200258,2,0,L|408:264,1,97.50000371933,8|0,0:0|0:0,0:0:0:0:
96,110,200409,2,0,L|84:10,1,97.50000371933,2|0,0:0|0:0,0:0:0:0:
435,254,200559,2,0,L|423:350,1,97.50000371933,0|0,0:0|0:0,0:0:0:0:
168,32,200709,5,8,0:0:0:0:
348,318,200859,1,0,0:0:0:0:
297,20,201009,1,2,0:0:0:0:
222,349,201159,1,0,0:0:0:0:
320,43,201309,1,0,0:0:0:0:
368,37,201385,1,0,0:0:0:0:
416,31,201460,1,0,0:0:0:0:
71,295,201610,2,0,L|59:195,1,97.50000371933,0|0,0:0|0:0,0:0:0:0:
168,32,201760,1,0,0:0:0:0:
233,359,201910,5,4,0:0:0:0:
