osu file format v14

[General]
AudioFilename: audio.mp3
AudioLeadIn: 0
PreviewTime: 38547
Countdown: 0
SampleSet: Normal
StackLeniency: 0.3
Mode: 0
LetterboxInBreaks: 0
EpilepsyWarning: 1
WidescreenStoryboard: 1

[Editor]
Bookmarks: 53862,129838,173081,182691
DistanceSpacing: 1.4
BeatDivisor: 4
GridSize: 16
TimelineZoom: 2.399999

[Metadata]
Title:Say Goodbye (Speed Up Ver.)
TitleUnicode:Say Goodbye (Speed Up Ver.)
Artist:Krewella
ArtistUnicode:Krewella
Creator:saggi
Version:Minorsonek's Extra
Source:
Tags:LiousPL Melsoon walter85 Megapcmx Minorsonek LukerMaster -NeBu- Broly Envory ChuuritsuTv
BeatmapID:1284130
BeatmapSetID:580821

[Difficulty]
HPDrainRate:6
CircleSize:4
OverallDifficulty:8.5
ApproachRate:9.4
SliderMultiplier:1.8
SliderTickRate:2

[Events]
//Background and Video events
0,0,"girl.jpg",0,0
//Break Periods
2,79588,88457
2,149257,161362
//Storyboard Layer 0 (Background)
//Storyboard Layer 1 (Fail)
//Storyboard Layer 2 (Pass)
//Storyboard Layer 3 (Foreground)
//Storyboard Sound Samples

[TimingPoints]
1310,300.3003003003,4,1,1,70,1,0
4913,-66.6666666666667,4,1,1,70,0,0
9718,-100,4,1,1,70,0,0
28937,-83.3333333333333,4,1,1,70,0,0
29838,-50,4,1,1,70,0,0
30063,-50,4,1,1,5,0,0
30138,-83.3333333333333,4,1,1,70,0,0
31039,-50,4,1,1,70,0,0
31264,-50,4,1,1,5,0,0
31340,-83.3333333333333,4,1,1,70,0,0
32240,-50,4,1,1,70,0,0
32466,-50,4,1,1,5,0,0
32541,-83.3333333333333,4,1,1,70,0,0
33442,-50,4,1,1,70,0,0
33667,-50,4,1,1,5,0,0
33742,-76.9230769230769,4,1,1,70,0,0
34643,-50,4,1,1,70,0,0
34868,-50,4,1,1,5,0,0
34943,-76.9230769230769,4,1,1,70,0,0
35844,-50,4,1,1,70,0,0
36069,-50,4,1,1,5,0,0
36144,-83.3333333333333,4,1,1,70,0,0
37946,-133.333333333333,4,1,1,70,0,0
38547,-54.054054054054,4,1,1,70,0,1
40949,-68.9655172413792,4,1,1,70,0,1
46955,-133.333333333333,4,1,1,70,0,1
47856,-68.9655172413792,4,1,1,70,0,1
58066,-68.9655172413792,4,1,1,70,0,0
60168,-50,4,1,1,70,0,0
60619,-68.9655172413793,4,1,1,70,0,0
62571,-50,4,1,1,70,0,0
63021,-68.9655172413793,4,1,1,70,0,0
64973,-50,4,1,1,70,0,0
65424,-68.9655172413793,4,1,1,70,0,0
68727,-50,4,1,1,70,0,0
69778,-57.1428571428571,4,1,1,70,0,0
70228,-68.9655172413793,4,1,1,70,0,0
72180,-57.1428571428571,4,1,1,70,0,0
72631,-68.9655172413793,4,1,1,70,0,0
74583,-57.1428571428571,4,1,1,70,0,0
75033,-68.9655172413793,4,1,1,70,0,0
76985,-50,4,1,1,70,0,0
79388,-90.9090909090909,4,1,1,70,0,0
88997,-71.4285714285714,4,1,1,70,0,0
98607,-54.054054054054,4,1,1,70,0,1
101009,-68.9655172413792,4,1,1,70,0,1
103412,-62.5,4,1,1,70,0,1
107015,-133.333333333333,4,1,1,70,0,1
107916,-62.5,4,1,1,70,0,1
120228,-57.1428571428571,4,1,1,70,0,0
120679,-68.9655172413793,4,1,1,70,0,0
122631,-57.1428571428571,4,1,1,70,0,0
123081,-68.9655172413793,4,1,1,70,0,0
125033,-57.1428571428571,4,1,1,70,0,0
125484,-68.9655172413793,4,1,1,70,0,0
128787,-50,4,1,1,70,0,0
129838,-62.5,4,1,1,70,0,0
130439,-68.9655172413793,4,1,1,70,0,0
132240,-62.5,4,1,1,70,0,0
132841,-68.9655172413793,4,1,1,70,0,0
134643,-62.5,4,1,1,70,0,0
135243,-68.9655172413793,4,1,1,70,0,0
139448,-90.9090909090909,4,1,1,70,0,0
140349,-50,4,1,1,70,0,0
140574,-50,4,1,1,5,0,0
140649,-90.9090909090909,4,1,1,70,0,0
141550,-50,4,1,1,70,0,0
141775,-50,4,1,1,5,0,0
141850,-90.9090909090909,4,1,1,70,0,0
142751,-50,4,1,1,70,0,0
142976,-50,4,1,1,5,0,0
143051,-90.9090909090909,4,1,1,70,0,0
143952,-50,4,1,1,70,0,0
144177,-50,4,1,1,5,0,0
144252,-90.9090909090909,4,1,1,70,0,0
145153,-50,4,1,1,70,0,0
145379,-50,4,1,1,5,0,0
145454,-90.9090909090909,4,1,1,70,0,0
146355,-50,4,1,1,70,0,0
146580,-50,4,1,1,5,0,0
146655,-83.3333333333333,4,1,1,70,0,0
173081,-66.6666666666667,4,1,1,70,0,0

[HitObjects]
387,309,4913,54,2,B|434:349|511:266|452:239|287:150|358:462|102:286,1,405.000015449525
125,75,6114,54,2,B|78:35|1:118|60:145|225:234|154:-78|410:98,1,405.000015449525
363,161,7316,22,0,B|402:127|373:68|373:68|460:83|446:220|368:179|381:253|376:291|376:291|373:257|346:227,1,405.000015449525,2|0,0:3|2:0,0:0:0:0:
149,161,8517,22,0,B|110:127|139:68|139:68|52:83|66:220|144:179|131:253|136:291|136:291|139:257|166:227,1,405.000015449525,2|0,0:3|2:0,0:0:0:0:
391,44,9418,2,4,B|347:71|354:146|354:146|315:124,1,135.000005149842,12|0,0:0|0:0,0:0:0:0:
144,48,9718,5,0,0:0:0:0:
64,160,10018,2,0,P|64:256|112:336,1,180
256,192,10619,1,0,0:0:0:0:
448,160,10919,2,0,P|448:256|400:336,1,180
256,192,11370,1,0,0:0:0:0:
160,288,11520,1,0,0:0:0:0:
256,192,11670,1,0,0:0:0:0:
160,96,11820,2,0,L|251:58,1,90
361,41,12120,5,0,0:0:0:0:
432,192,12421,2,0,P|368:272|288:304,1,180
257,118,13021,1,0,0:0:0:0:
80,192,13322,2,0,P|144:272|224:304,1,180
257,118,13772,1,0,0:0:0:0:
256,246,13922,1,0,0:0:0:0:
257,118,14072,1,0,0:0:0:0:
256,246,14222,2,0,L|256:340,1,90
128,352,14523,5,0,0:0:0:0:
64,128,14823,2,0,P|128:64|224:32,1,180
416,80,15424,1,0,0:0:0:0:
304,192,15574,1,0,0:0:0:0:
432,288,15724,2,0,P|336:336|224:320,1,180
204,59,16325,1,0,0:0:0:0:
330,262,16625,1,0,0:0:0:0:
160,160,16925,6,0,B|96:128|0:192|32:272|64:304|160:256|112:208,2,270
352,224,18126,2,0,B|416:256|512:192|480:112|448:80|352:128|400:176,2,270
224,48,19177,1,0,0:0:0:0:
48,144,19328,5,2,0:0:0:0:
192,336,19628,2,0,P|288:320|336:240,1,180
227,234,20228,1,0,0:0:0:0:
240,32,20529,1,0,0:0:0:0:
80,48,20679,1,0,0:0:0:0:
192,112,20829,2,0,P|240:128|288:112,1,90
448,32,21129,2,0,L|448:144,1,90
432,320,21430,1,0,0:0:0:0:
304,192,21580,1,0,0:0:0:0:
96,256,21730,5,0,0:0:0:0:
16,64,22030,2,0,P|96:48|192:64,1,180
432,192,22631,1,0,0:0:0:0:
240,352,22931,1,0,0:0:0:0:
80,336,23081,1,0,0:0:0:0:
192,271,23231,2,0,P|233:256|277:265,1,90
448,352,23532,2,0,L|448:256,1,90
448,48,23832,1,0,0:0:0:0:
320,176,23982,1,0,0:0:0:0:
112,112,24132,5,0,0:0:0:0:
160,352,24433,2,0,P|128:256|160:176,1,180
288,256,25033,1,0,0:0:0:0:
438,191,25334,2,0,P|433:140|455:80,1,90
309,146,25634,2,0,P|321:96|362:47,1,90
202,64,25934,2,0,P|230:21|286:-10,1,90
110,240,26234,1,0,0:0:0:0:
96,64,26535,5,2,0:0:0:0:
128,96,26610,1,0,0:0:0:0:
160,128,26685,1,0,0:0:0:0:
256,256,26835,1,0,0:0:0:0:
368,128,26985,2,0,B|368:32|480:16|480:16|436:58|432:112,1,270
96,320,27736,5,2,0:0:0:0:
128,288,27811,1,0,0:0:0:0:
160,256,27886,1,0,0:0:0:0:
256,128,28036,1,0,0:0:0:0:
368,256,28186,2,0,B|368:352|480:368|480:368|436:326|432:272,1,270
186,41,28937,5,0,0:0:0:0:
226,227,29087,1,0,0:0:0:0:
262,18,29237,1,0,0:0:0:0:
150,250,29388,1,0,0:0:0:0:
333,54,29538,2,0,P|331:114|351:174,1,107.999996704102
404,315,29838,54,2,B|436:300|470:307|470:307|347:250|390:391|250:330,1,270,6|2,0:0|0:0,0:0:0:0:
103,151,30138,5,0,0:0:0:0:
141,333,30288,1,0,0:0:0:0:
167,105,30439,1,0,0:0:0:0:
77,379,30589,1,0,0:0:0:0:
243,108,30739,2,0,B|241:140|241:140|252:170,1,53.9999983520508
404,315,30889,2,0,B|406:283|406:283|395:253,1,53.9999983520508
352,78,31039,6,0,B|380:92|397:142|397:142|383:38|259:18,1,270,6|0,0:0|0:0,0:0:0:0:
85,203,31340,5,0,0:0:0:0:
119,36,31490,1,0,0:0:0:0:
133,272,31640,1,0,0:0:0:0:
167,105,31790,1,0,0:0:0:0:
71,314,31940,2,0,P|117:344|177:332,1,107.999996704102
383,241,32240,54,0,B|477:153|345:87|335:284|455:368,1,270,6|0,1:0|0:0,0:0:0:0:
188,237,32541,5,0,0:0:0:0:
302,106,32691,1,0,0:0:0:0:
118,182,32841,1,0,0:0:0:0:
372,161,32991,1,0,0:0:0:0:
111,96,33141,2,0,B|80:108|80:108|38:136,1,53.9999983520508
19,274,33291,2,0,B|50:286|50:286|92:314,1,53.9999983520508
283,330,33442,6,0,B|380:335|437:267|437:267|397:301|396:359,1,270,6|0,0:0|0:0,0:0:0:0:
131,248,33742,5,0,0:0:0:0:
32,61,33892,1,0,0:0:0:0:
164,230,34042,1,0,0:0:0:0:
134,21,34192,1,0,0:0:0:0:
201,224,34343,1,0,0:0:0:0:
244,17,34493,1,0,0:0:0:0:
396,120,34643,6,0,B|438:119|475:93|475:93|406:185|317:198,1,270,6|0,0:0|0:0,0:0:0:0:
130,121,34943,5,0,0:0:0:0:
31,308,35093,1,0,0:0:0:0:
163,139,35243,1,0,0:0:0:0:
133,348,35393,1,0,0:0:0:0:
200,145,35544,1,0,0:0:0:0:
243,352,35694,1,0,0:0:0:0:
426,216,35844,54,2,B|484:254|511:177|469:147|349:136|419:284|273:201,1,270,6|2,0:0|0:0,0:0:0:0:
154,90,36144,5,0,0:0:0:0:
356,292,36294,1,0,0:0:0:0:
113,191,36445,1,0,0:0:0:0:
397,192,36595,1,0,0:0:0:0:
154,292,36745,1,0,0:0:0:0:
356,90,36895,1,0,0:0:0:0:
256,333,37045,1,0,0:0:0:0:
256,49,37195,1,0,0:0:0:0:
397,249,37346,5,0,0:0:0:0:
117,88,37496,1,0,0:0:0:0:
397,249,37646,1,0,0:0:0:0:
117,88,37796,1,0,0:0:0:0:
241,339,37946,1,0,0:0:0:0:
18,256,38096,2,0,B|83:242|83:242|131:194,1,135.000005149842
117,88,38547,6,0,B|197:56|197:56|277:72,1,166.499999364853
450,182,38847,1,0,0:0:0:0:
229,188,38997,1,0,0:0:0:0:
395,46,39147,1,0,0:0:0:0:
344,266,39297,1,0,0:0:0:0:
432,336,39448,6,0,B|352:368|352:368|272:352,1,166.499999364853
95,272,39748,1,0,0:0:0:0:
88,67,39898,1,0,0:0:0:0:
176,286,40048,1,0,0:0:0:0:
33,127,40198,1,0,0:0:0:0:
257,249,40349,2,0,P|241:167|279:88,1,166.499999364853
395,46,40649,1,2,0:0:0:0:
484,214,40799,1,0,0:0:0:0:
320,304,40949,6,0,B|256:336|256:336|192:304,1,130.500003982544
224,160,41249,1,0,0:0:0:0:
288,224,41400,1,0,0:0:0:0:
144,256,41550,2,0,B|112:192|112:192|144:128,1,130.500003982544
256,144,41850,1,0,0:0:0:0:
256,240,42000,1,0,0:0:0:0:
192,80,42150,2,0,B|256:48|256:48|320:80,1,130.500003982544
288,160,42451,1,0,0:0:0:0:
224,224,42601,1,0,0:0:0:0:
368,128,42751,2,0,B|400:192|400:192|368:256,1,130.500003982544
241,336,43051,6,0,B|187:345|141:322|141:322|161:358,1,130.500003982544,2|0,0:0|0:0,0:0:0:0:
112,160,43352,5,12,0:0:0:0:
112,160,43427,1,0,0:0:0:0:
112,160,43502,1,0,0:0:0:0:
373,196,43652,1,0,0:0:0:0:
141,321,43802,1,0,0:0:0:0:
256,84,43952,1,0,0:0:0:0:
302,344,44102,1,0,0:0:0:0:
112,160,44252,2,0,P|151:97|155:40,1,130.500003982544
352,48,44553,6,0,P|384:112|464:160,1,130.500003982544
424,340,44853,2,0,P|360:361|296:340,1,130.500003982544
192,272,45153,1,0,0:0:0:0:
80,352,45303,1,0,0:0:0:0:
32,176,45454,2,0,L|16:112,2,65.250001991272
346,166,45754,5,8,0:0:0:0:
256,224,45904,1,0,0:0:0:0:
105,130,46054,1,2,0:0:0:0:
256,224,46204,1,0,0:0:0:0:
463,95,46355,1,0,0:0:0:0:
256,224,46505,1,8,0:0:0:0:
49,95,46655,2,0,B|34:148|-15:175|-15:175|17:191,1,130.500003982544
128,272,46955,6,0,B|176:288|144:336|144:336|208:320|256:320|304:320|368:336|368:336|336:288|384:272,1,371.250014162064
400,240,47856,1,0,0:0:0:0:
416,192,47931,1,0,0:0:0:0:
416,144,48006,1,0,0:0:0:0:
400,96,48081,1,0,0:0:0:0:
384,48,48156,6,0,P|320:32|253:53,1,130.500003982544
93,172,48457,1,2,0:0:0:0:
321,142,48607,1,0,0:0:0:0:
123,250,48757,2,0,P|190:295|257:283,1,130.500003982544,0|8,0:0|0:0,0:0:0:0:
400,96,49057,1,2,0:0:0:0:
337,325,49207,1,0,0:0:0:0:
223,184,49358,5,8,0:0:0:0:
81,20,49508,1,0,0:0:0:0:
123,250,49658,1,0,0:0:0:0:
201,45,49808,1,0,0:0:0:0:
329,187,49958,2,0,B|330:151|310:96|310:96|332:129|362:137,1,130.500003982544
402,334,50258,2,0,B|401:298|421:243|421:243|399:276|369:284,1,130.500003982544
123,294,50559,5,0,0:0:0:0:
48,117,50709,1,2,0:0:0:0:
123,294,50859,2,0,P|193:279|243:240,1,130.500003982544
360,47,51159,1,0,0:0:0:0:
474,199,51309,1,0,0:0:0:0:
360,47,51460,2,0,P|290:42|217:65,1,130.500003982544
142,244,51760,5,8,0:0:0:0:
60,73,51910,1,0,0:0:0:0:
157,271,52060,1,0,0:0:0:0:
46,44,52210,1,2,0:0:0:0:
213,85,52361,1,0,0:0:0:0:
241,99,52436,1,0,0:0:0:0:
270,115,52511,1,0,0:0:0:0:
387,68,52661,1,0,0:0:0:0:
416,58,52736,1,0,0:0:0:0:
448,48,52811,1,0,0:0:0:0:
256,192,52961,5,12,0:0:0:0:
256,192,53036,1,0,0:0:0:0:
256,192,53111,1,0,0:0:0:0:
448,336,53261,2,0,L|336:256,1,130.500003982544,8|0,0:0|0:0,0:0:0:0:
448,48,53562,2,0,L|336:128,1,130.500003982544,8|0,0:0|0:0,0:0:0:0:
64,48,53862,2,0,L|176:128,1,130.500003982544,8|0,0:0|0:0,0:0:0:0:
256,192,54162,5,0,0:0:0:0:
256,192,54237,1,0,0:0:0:0:
256,192,54313,1,0,0:0:0:0:
64,336,54463,2,0,L|176:256,1,130.500003982544,8|0,0:0|0:0,0:0:0:0:
256,48,54763,2,0,L|256:192,1,130.500003982544
256,352,55063,2,0,L|256:208,1,130.500003982544
371,62,55364,5,8,0:0:0:0:
206,223,55514,1,8,0:0:0:0:
313,19,55664,1,8,0:0:0:0:
241,278,55814,1,8,0:0:0:0:
414,206,55964,1,8,0:0:0:0:
184,105,56114,1,8,0:0:0:0:
414,206,56264,1,8,0:0:0:0:
184,105,56415,1,8,0:0:0:0:
313,292,56565,5,0,0:0:0:0:
356,134,56715,1,0,0:0:0:0:
140,263,56865,1,0,0:0:0:0:
184,105,57015,1,0,0:0:0:0:
313,292,57165,1,0,0:0:0:0:
371,76,57316,1,0,0:0:0:0:
299,350,57466,1,0,0:0:0:0:
126,163,57616,1,0,0:0:0:0:
256,192,57766,5,0,0:0:0:0:
256,192,57916,12,0,60018,0:0:0:0:
117,161,60168,54,0,B|85:185|72:224|72:224|83:128|159:112|159:112|216:158|285:123,1,360,4|2,1:0|0:0,0:0:0:0:
256,273,60619,1,0,0:0:0:0:
454,332,60769,2,0,B|431:312|422:276|422:276|414:312|390:332,1,130.500003982544
311,202,61069,2,0,B|334:222|343:258|343:258|351:222|375:202,1,130.500003982544
141,347,61370,2,0,L|141:203,2,130.500003982544
272,64,61970,1,0,0:0:0:0:
432,128,62120,1,0,0:0:0:0:
272,64,62270,1,0,0:0:0:0:
432,128,62421,1,0,0:0:0:0:
214,225,62571,22,0,B|190:189|214:145|214:145|130:164|155:313|226:252|201:305|212:348|212:348|213:306|247:278,1,360,0|0,0:3|0:0,0:0:0:0:
294,186,63021,1,0,0:0:0:0:
245,35,63171,2,0,B|295:54|339:37|339:37|308:69,1,130.500003982544
117,105,63472,2,0,B|67:124|23:107|23:107|54:139,1,130.500003982544
169,347,63772,2,0,L|216:216,2,130.500003982544
129,231,64222,1,0,0:0:0:0:
240,64,64373,1,0,0:0:0:0:
80,128,64523,1,0,0:0:0:0:
240,64,64673,1,0,0:0:0:0:
80,128,64824,1,0,0:0:0:0:
394,214,64973,54,0,B|423:232|448:272|448:272|517:195|452:84|316:109|308:225,1,360,2|0,0:0|0:0,0:0:0:0:
184,263,65424,1,0,0:0:0:0:
128,65,65574,2,0,B|190:93|190:93|272:65,1,130.500003982544
454,162,65874,2,0,B|392:190|392:190|310:162,1,130.500003982544
94,210,66174,2,0,L|46:338,2,130.500003982544
272,320,66775,1,0,0:0:0:0:
432,256,66925,1,0,0:0:0:0:
272,320,67075,1,0,0:0:0:0:
432,256,67226,1,0,0:0:0:0:
160,128,67376,6,0,P|134:65|210:132,1,261.000007965088
368,240,67826,2,0,P|432:320|329:314,1,261.000007965088
192,282,68276,2,0,P|99:236|128:336,1,261.000007965088
336,112,68727,2,0,B|320:111|320:111|288:95|288:95|208:79|176:31|256:-16|336:31|304:79|224:95|224:95|192:111|192:111|160:112,1,360
256,208,69177,1,0,0:0:0:0:
480,192,69328,1,0,0:0:0:0:
384,320,69478,1,0,0:0:0:0:
224,352,69628,1,0,0:0:0:0:
240,144,69778,6,0,B|208:112|208:112|208:32|80:32|80:160|160:160|160:160|192:192,1,315.000003004074
304,256,70228,1,0,0:0:0:0:
48,240,70379,2,0,B|94:291|94:291|81:368,1,130.500003982544
139,161,70679,2,0,B|93:110|93:110|106:33,1,130.500003982544
272,80,70979,2,0,L|400:32,2,130.500003982544
256,240,71430,1,0,0:0:0:0:
256,240,71580,1,0,0:0:0:0:
368,320,71730,1,0,0:0:0:0:
368,176,71880,1,0,0:0:0:0:
240,352,72030,1,0,0:0:0:0:
96,288,72180,6,0,B|96:208|96:208|48:144|96:48|96:48|160:112,1,315.000003004074
256,192,72631,1,0,0:0:0:0:
436,44,72781,2,0,P|467:103|436:172,1,130.500003982544
367,220,73081,2,0,P|338:275|367:332,1,130.500003982544
192,320,73382,2,0,L|64:384,2,130.500003982544
190,179,73832,1,0,0:0:0:0:
190,179,73982,1,0,0:0:0:0:
62,115,74132,1,0,0:0:0:0:
62,259,74282,1,0,0:0:0:0:
190,51,74433,1,0,0:0:0:0:
380,70,74583,6,0,B|332:150|380:214|380:214|412:294|348:390,1,315.000003004074
464,144,75033,1,0,0:0:0:0:
288,48,75183,2,0,B|225:24|225:24|160:48,1,130.500003982544
51,157,75484,2,0,B|27:220|27:220|51:285,1,130.500003982544
256,224,75784,2,0,P|256:160|224:96,2,130.500003982544
304,352,76234,1,0,0:0:0:0:
384,208,76385,1,0,0:0:0:0:
464,352,76535,1,0,0:0:0:0:
256,224,76685,1,0,0:0:0:0:
512,224,76835,1,0,0:0:0:0:
383,56,76985,6,0,B|351:34|292:36|204:166|358:249|507:95|204:24|156:110,1,360
150,253,77436,2,0,B|201:201|150:149|67:170|6:244|82:377|185:361|236:254,1,360
336,182,77886,2,0,B|383:152|404:96|404:96|406:183|406:183|421:205|421:205|406:223|406:223|408:352,1,360
256,288,78337,1,0,0:0:0:0:
112,272,78487,1,0,0:0:0:0:
128,128,78637,1,0,0:0:0:0:
272,144,78787,1,0,0:0:0:0:
432,288,78937,1,0,0:0:0:0:
416,64,79087,1,0,0:0:0:0:
260,338,79237,1,0,0:0:0:0:
201,59,79388,5,0,0:0:0:0:
80,176,88997,6,0,P|128:128|192:128,1,125.999996154785
323,197,89297,2,0,P|348:266|416:284,1,125.999996154785
461,145,89598,2,0,P|428:74|365:53,1,125.999996154785
238,87,89898,2,0,P|157:108|113:81,1,125.999996154785
22,16,90198,1,0,0:0:0:0:
96,160,90349,1,0,0:0:0:0:
17,301,90499,1,0,0:0:0:0:
184,279,90649,1,0,0:0:0:0:
256,256,90799,2,0,P|256:304|208:208,1,377.999988464356
304,96,91400,5,8,0:0:0:0:
320,128,91475,1,0,0:0:0:0:
336,160,91550,1,0,0:0:0:0:
432,288,91700,2,0,P|384:336|304:336,1,125.999996154785
208,272,92000,2,0,P|144:288|80:336,1,125.999996154785
33,191,92300,2,0,P|17:127|49:63,1,125.999996154785
224,80,92601,5,0,0:0:0:0:
352,64,92751,1,0,0:0:0:0:
304,176,92901,1,0,0:0:0:0:
176,222,93051,1,0,0:0:0:0:
176,304,93201,2,0,P|128:288|256:240,1,377.999988464356
384,320,93802,5,12,0:0:0:0:
400,288,93877,1,0,0:0:0:0:
416,256,93952,1,0,0:0:0:0:
432,64,94102,2,0,P|368:96|320:80,1,125.999996154785
269,182,94403,2,0,P|269:262|237:310,1,125.999996154785
142,172,94703,2,0,P|133:111|147:44,1,125.999996154785
352,48,95003,5,8,0:0:0:0:
224,128,95153,1,0,0:0:0:0:
384,224,95303,1,2,0:0:0:0:
192,288,95454,1,0,0:0:0:0:
348,149,95604,2,0,L|236:213,1,125.999996154785
38,280,95904,2,0,L|150:216,1,125.999996154785
400,208,96204,5,2,0:0:0:0:
400,208,96279,1,0,0:0:0:0:
400,208,96355,1,8,0:0:0:0:
224,176,96505,1,8,0:0:0:0:
112,48,96655,1,2,0:0:0:0:
48,192,96805,1,8,0:0:0:0:
144,320,96955,1,8,0:0:0:0:
368,288,97105,5,2,0:0:0:0:
368,288,97180,1,0,0:0:0:0:
368,288,97255,1,8,0:0:0:0:
448,80,97406,1,0,0:0:0:0:
176,224,97556,1,0,0:0:0:0:
280,53,97706,1,0,0:0:0:0:
464,288,97856,1,0,0:0:0:0:
288,256,98006,2,0,P|224:320|176:352,1,125.999996154785
96,336,98306,2,0,L|32:320,2,62.9999980773926
96,80,98607,6,0,B|176:48|176:48|256:64,1,166.499999364853
449,160,98907,1,0,0:0:0:0:
188,169,99057,1,0,0:0:0:0:
323,355,99207,1,0,0:0:0:0:
311,109,99358,1,0,0:0:0:0:
256,288,99508,6,0,B|189:333|189:333|103:332,1,166.499999364853
44,146,99808,1,0,0:0:0:0:
42,282,99958,1,0,0:0:0:0:
99,72,100108,1,0,0:0:0:0:
242,234,100258,1,0,0:0:0:0:
286,44,100409,2,0,P|365:62|354:164,1,166.499999364853
262,306,100709,2,0,P|188:291|172:210,1,166.499999364853
320,80,101009,6,0,B|256:48|256:48|192:80,1,130.500003982544
224,224,101309,1,0,0:0:0:0:
288,160,101460,1,0,0:0:0:0:
144,128,101610,2,0,B|112:192|112:192|144:256,1,130.500003982544
256,240,101910,1,0,0:0:0:0:
256,144,102060,1,0,0:0:0:0:
192,304,102210,2,0,B|256:336|256:336|320:304,1,130.500003982544
288,224,102511,1,0,0:0:0:0:
224,160,102661,1,0,0:0:0:0:
368,256,102811,2,0,B|400:192|400:192|368:128,1,130.500003982544
240,80,103111,6,0,P|192:48|112:32,1,130.500003982544,2|0,0:0|0:0,0:0:0:0:
32,176,103412,5,12,0:0:0:0:
32,176,103487,1,0,0:0:0:0:
32,176,103562,1,0,0:0:0:0:
177,299,103712,2,0,P|257:315|318:291,1,144
416,112,104012,1,0,0:0:0:0:
416,288,104162,1,0,0:0:0:0:
286,176,104313,2,0,P|214:198|126:160,1,144
48,48,104613,5,0,0:0:0:0:
218,116,104763,1,0,0:0:0:0:
80,288,104913,1,0,0:0:0:0:
208,352,105063,1,0,0:0:0:0:
352,288,105213,1,8,0:0:0:0:
112,352,105364,1,2,0:0:0:0:
272,352,105514,1,0,0:0:0:0:
384,224,105664,1,0,0:0:0:0:
400,96,105814,6,0,P|336:64|256:48,1,144,12|0,0:0|0:0,0:0:0:0:
80,96,106114,1,0,0:0:0:0:
43,192,106264,1,0,0:0:0:0:
80,96,106415,1,0,0:0:0:0:
149,252,106565,1,0,0:0:0:0:
80,96,106715,1,0,0:0:0:0:
0,311,106865,1,0,0:0:0:0:
176,144,107015,6,0,B|282:153|401:114|284:-22|142:48|220:138|304:176,1,371.250014162064
336,208,107916,1,0,0:0:0:0:
368,240,107991,1,0,0:0:0:0:
400,272,108066,1,0,0:0:0:0:
432,304,108141,1,0,0:0:0:0:
464,336,108216,6,0,P|384:352|304:336,1,144
167,190,108517,1,2,0:0:0:0:
87,351,108667,1,0,0:0:0:0:
167,190,108817,2,0,P|247:190|311:206,1,144,0|8,0:0|0:0,0:0:0:0:
465,315,109117,1,2,0:0:0:0:
460,106,109267,5,0,0:0:0:0:
301,39,109418,2,0,P|222:54|165:97,1,144
72,285,109718,2,0,P|104:221|168:189,1,144
302,285,110018,2,0,P|382:317|446:301,1,144
384,203,110319,1,2,0:0:0:0:
436,31,110469,1,0,0:0:0:0:
256,192,110619,5,12,0:0:0:0:
256,192,110694,1,0,0:0:0:0:
256,192,110769,1,0,0:0:0:0:
96,80,110919,2,0,P|64:144|87:222,1,144
249,335,111219,1,0,0:0:0:0:
64,350,111370,1,0,0:0:0:0:
187,203,111520,2,0,P|204:119|267:75,1,144
426,31,111820,5,0,0:0:0:0:
444,202,111970,1,0,0:0:0:0:
346,133,112120,1,0,0:0:0:0:
364,304,112270,1,0,0:0:0:0:
154,263,112421,2,0,P|76:280|46:342,1,144
137,349,112721,2,0,P|215:332|245:270,1,144
256,192,113021,5,0,0:0:0:0:
256,192,113096,1,0,0:0:0:0:
256,192,113171,1,0,0:0:0:0:
336,192,113322,2,0,L|480:192,1,144
176,192,113622,2,0,L|32:192,1,144
256,112,113922,2,0,B|255:-37,1,144
256,192,114222,5,0,0:0:0:0:
256,192,114297,1,0,0:0:0:0:
256,192,114372,1,2,0:0:0:0:
256,272,114523,2,0,B|255:421,1,144
384,272,114823,2,0,P|448:224|480:160,1,144
400,32,115123,2,0,P|336:80|320:160,1,144
304,368,115424,5,0,0:0:0:0:
32,144,115724,1,0,0:0:0:0:
400,32,116024,1,0,0:0:0:0:
208,368,116325,1,0,0:0:0:0:
171,47,116625,5,8,0:0:0:0:
171,47,116700,1,0,0:0:0:0:
171,47,116775,1,0,0:0:0:0:
310,160,116925,1,8,0:0:0:0:
310,160,117000,1,0,0:0:0:0:
310,160,117075,1,0,0:0:0:0:
176,282,117225,1,8,0:0:0:0:
176,282,117300,1,0,0:0:0:0:
176,282,117376,1,0,0:0:0:0:
379,330,117526,2,0,L|443:362,2,72
96,192,117826,5,8,0:0:0:0:
288,96,117976,1,8,0:0:0:0:
128,48,118126,1,8,0:0:0:0:
240,240,118276,1,8,0:0:0:0:
96,224,118427,1,8,0:0:0:0:
272,64,118577,1,8,0:0:0:0:
96,64,118727,1,8,0:0:0:0:
272,224,118877,1,8,0:0:0:0:
416,64,119027,5,0,0:0:0:0:
368,352,119177,1,0,0:0:0:0:
416,64,119328,1,0,0:0:0:0:
368,352,119478,1,0,0:0:0:0:
128,336,119628,1,0,0:0:0:0:
32,176,119778,1,0,0:0:0:0:
384,208,119928,1,0,0:0:0:0:
224,272,120078,1,0,0:0:0:0:
160,64,120228,6,0,B|320:48|272:96|496:48,1,315.000003004074
240,176,120679,1,0,0:0:0:0:
400,256,120829,2,0,P|352:304|288:320,1,130.500003982544
80,320,121129,2,0,P|128:256|192:256,1,130.500003982544
352,160,121430,2,0,L|416:32,2,130.500003982544
64,32,122030,1,0,0:0:0:0:
96,224,122180,1,0,0:0:0:0:
64,32,122331,1,0,0:0:0:0:
96,224,122481,1,0,0:0:0:0:
256,96,122631,6,0,B|400:208|304:192|496:336,1,315.000003004074
240,192,123081,1,0,0:0:0:0:
128,336,123231,2,0,P|80:288|64:208,1,130.500003982544
128,48,123532,2,0,P|80:96|64:176,1,130.500003982544
240,256,123832,2,0,L|336:352,2,130.500003982544
240,80,124282,1,0,0:0:0:0:
448,32,124433,1,0,0:0:0:0:
416,224,124583,1,0,0:0:0:0:
448,32,124734,1,0,0:0:0:0:
416,224,124884,1,0,0:0:0:0:
160,224,125033,6,0,B|80:256|48:336|48:336|144:320|224:336,1,315.000003004074
432,336,125484,1,0,0:0:0:0:
400,144,125634,2,0,P|368:80|288:48,1,130.500003982544
128,64,125934,2,0,P|64:128|80:192,1,130.500003982544
208,240,126234,2,0,L|240:368,2,130.500003982544
368,192,126835,1,0,0:0:0:0:
512,240,126985,1,0,0:0:0:0:
400,336,127135,1,0,0:0:0:0:
368,192,127285,1,0,0:0:0:0:
64,64,127436,6,0,P|128:192|64:304,1,261.000007965088
176,352,127886,2,0,P|304:288|432:320,1,261.000007965088
416,176,128337,2,0,P|272:128|208:32,1,261.000007965088
48,104,128787,2,0,B|48:128|48:128|64:160|64:160|80:240|128:272|176:192|128:112|80:144|64:224|64:224|48:256|48:256|48:280,1,360
160,352,129237,1,0,0:0:0:0:
304,256,129388,1,0,0:0:0:0:
192,272,129538,1,0,0:0:0:0:
320,176,129688,1,0,0:0:0:0:
448,240,129838,6,0,B|432:160|368:112|368:112|432:0|288:-48|256:64|256:64|176:32|80:32,1,576
48,192,130589,1,0,0:0:0:0:
96,320,130739,2,0,P|160:352|224:336,1,130.500003982544
320,208,131039,2,0,L|448:128,2,130.500003982544
256,288,131490,1,0,0:0:0:0:
192,80,131640,1,0,0:0:0:0:
192,80,131790,1,0,0:0:0:0:
128,256,131940,1,0,0:0:0:0:
128,256,132090,1,0,0:0:0:0:
288,208,132240,6,0,B|352:288|496:208|496:96|352:64|356:160|356:160|266:83|275:171|144:80,1,576
32,160,132991,1,0,0:0:0:0:
32,288,133141,2,0,P|112:288|160:336,1,130.500003982544
288,304,133442,2,0,L|416:352,2,130.500003982544
160,208,133892,1,0,0:0:0:0:
432,208,134042,1,0,0:0:0:0:
240,32,134192,1,0,0:0:0:0:
336,128,134343,1,0,0:0:0:0:
432,32,134493,1,0,0:0:0:0:
112,96,134643,6,0,B|48:144|48:240|112:288|112:288|130:215|130:215|197:261|263:209|263:209|298:224|298:224|325:204|325:204|356:217|356:217|381:199,1,576
192,141,135394,1,0,0:0:0:0:
336,64,135544,2,0,P|400:48|464:64,1,130.500003982544
400,256,135844,2,0,L|432:384,2,130.500003982544
256,304,136294,1,0,0:0:0:0:
176,192,136445,1,0,0:0:0:0:
80,288,136595,1,0,0:0:0:0:
240,128,136745,1,0,0:0:0:0:
16,352,136895,1,0,0:0:0:0:
96,128,137045,6,0,P|64:112|144:112,1,261.000007965088
416,128,137496,2,0,P|448:112|368:112,1,261.000007965088
298,249,137946,2,0,P|312:288|224:240,1,261.000007965088
256,128,138397,1,0,0:0:0:0:
48,208,138547,1,0,0:0:0:0:
112,48,138697,1,0,0:0:0:0:
160,304,138847,1,0,0:0:0:0:
335,322,138997,1,0,0:0:0:0:
416,176,139147,1,0,0:0:0:0:
160,304,139297,1,0,0:0:0:0:
228,84,139448,5,12,0:0:0:0:
265,253,139598,1,0,0:0:0:0:
297,27,139748,1,0,0:0:0:0:
207,186,139898,1,8,0:0:0:0:
381,15,140048,2,0,P|422:49|429:111,1,99.0000030212403
367,260,140349,54,0,B|461:172|329:106|319:303|439:387,1,270,6|0,1:0|0:0,0:0:0:0:
232,303,140649,5,2,0:0:0:0:
111,205,140799,1,0,0:0:0:0:
133,338,140949,1,0,0:0:0:0:
211,150,141099,1,2,0:0:0:0:
42,235,141249,2,0,P|41:175|74:139,1,99.0000030212403
195,36,141550,6,0,B|284:73|361:29|361:29|312:47|291:101,1,270,6|0,0:0|0:0,0:0:0:0:
256,226,141850,5,8,0:0:0:0:
412,256,142000,1,0,0:0:0:0:
233,153,142150,1,0,0:0:0:0:
465,202,142300,1,8,0:0:0:0:
215,289,142451,2,0,P|151:289|119:273,1,99.0000030212403
66,91,142751,54,2,B|34:76|0:83|0:83|123:26|80:167|220:106,1,270,6|2,0:0|0:0,0:0:0:0:
297,51,143051,5,0,0:0:0:0:
399,193,143201,1,0,0:0:0:0:
279,28,143352,1,0,0:0:0:0:
414,214,143502,1,0,0:0:0:0:
198,97,143652,2,0,P|219:144|198:209,1,99.0000030212403
107,334,143952,54,2,B|49:372|22:295|64:265|184:254|114:402|260:319,1,270,6|2,0:0|0:0,0:0:0:0:
460,268,144252,5,2,0:0:0:0:
316,92,144403,1,0,0:0:0:0:
476,108,144553,1,0,0:0:0:0:
300,252,144703,1,8,0:0:0:0:
257,20,144853,2,0,P|219:54|193:116,1,99.0000030212403
108,258,145153,6,0,B|66:257|29:231|29:231|98:323|187:336,1,270,6|0,0:0|0:0,0:0:0:0:
284,321,145454,5,2,0:0:0:0:
416,112,145604,1,0,0:0:0:0:
416,256,145754,1,0,0:0:0:0:
287,47,145904,1,2,0:0:0:0:
480,209,146054,2,0,P|494:248|480:305,1,99.0000030212403
245,226,146355,6,0,B|248:168|184:110|184:110|256:160|330:156,1,270,6|0,0:0|0:0,0:0:0:0:
469,129,146655,5,0,0:0:0:0:
284,321,146805,1,0,0:0:0:0:
321,56,146955,1,0,0:0:0:0:
446,292,147105,1,0,0:0:0:0:
208,176,147255,1,0,0:0:0:0:
469,129,147406,1,0,0:0:0:0:
284,321,147556,1,0,0:0:0:0:
321,56,147706,1,0,0:0:0:0:
468,304,147856,5,0,0:0:0:0:
208,176,148006,1,0,0:0:0:0:
112,240,148156,1,0,0:0:0:0:
80,288,148231,1,0,0:0:0:0:
48,336,148306,1,8,0:0:0:0:
48,144,148457,2,0,L|112:48,1,107.999996704102
272,48,148757,1,0,0:0:0:0:
325,52,148832,1,0,0:0:0:0:
374,73,148907,1,0,0:0:0:0:
415,109,148982,1,0,0:0:0:0:
441,156,149057,5,4,0:0:0:0:
256,192,162270,12,0,163322,0:0:0:0:
112,80,163472,5,0,0:0:0:0:
224,160,163622,1,0,0:0:0:0:
336,80,163772,1,0,0:0:0:0:
112,80,163922,1,0,0:0:0:0:
224,160,164072,1,0,0:0:0:0:
336,80,164222,1,0,0:0:0:0:
432,192,164373,2,0,P|416:256|368:288,1,107.999996704102
256,304,164673,5,0,0:0:0:0:
128,320,164823,1,0,0:0:0:0:
48,208,164973,1,0,0:0:0:0:
256,304,165123,1,0,0:0:0:0:
128,320,165273,1,0,0:0:0:0:
48,208,165424,1,0,0:0:0:0:
128,80,165574,2,0,L|96:32,2,53.9999983520508
304,128,165874,5,0,0:0:0:0:
448,208,166024,1,0,0:0:0:0:
304,128,166174,1,0,0:0:0:0:
448,208,166325,1,0,0:0:0:0:
320,272,166475,2,0,P|256:304|208:288,1,107.999996704102
64,144,166775,2,0,P|80:208|128:240,1,107.999996704102
256,176,167075,5,0,0:0:0:0:
368,80,167225,1,0,0:0:0:0:
160,112,167376,1,0,0:0:0:0:
288,272,167526,1,0,0:0:0:0:
448,144,167676,2,0,L|432:256,1,107.999996704102
304,368,167976,2,0,L|352:336,2,53.9999983520508
80,80,168276,6,0,P|96:144|128:192,1,107.999996704102
304,64,168577,2,0,P|368:80|416:112,1,107.999996704102
432,320,168877,2,0,P|384:352|304:368,1,107.999996704102
112,208,169177,2,0,P|80:272|80:320,1,107.999996704102
368,48,169478,6,0,P|384:112|384:176,1,107.999996704102
320,304,169778,2,0,P|256:304|208:336,1,107.999996704102
64,112,170078,2,0,P|128:80|176:80,1,107.999996704102
416,256,170379,2,0,L|464:288,2,53.9999983520508
304,272,170679,5,0,0:0:0:0:
224,320,170829,1,0,0:0:0:0:
176,240,170979,1,0,0:0:0:0:
96,288,171129,1,0,0:0:0:0:
48,192,171279,2,0,P|32:128|64:80,1,107.999996704102
160,48,171580,1,0,0:0:0:0:
288,64,171730,1,0,0:0:0:0:
448,208,171880,5,0,0:0:0:0:
272,288,172030,1,0,0:0:0:0:
112,208,172180,1,0,0:0:0:0:
272,112,172331,1,0,0:0:0:0:
144,336,172481,1,0,0:0:0:0:
384,240,172631,1,0,0:0:0:0:
192,48,172781,1,0,0:0:0:0:
384,240,172931,1,0,0:0:0:0:
96,128,173081,6,0,B|80:208|80:208|112:272,1,135.000005149842
256,336,173382,1,0,0:0:0:0:
176,192,173532,1,0,0:0:0:0:
288,64,173682,2,0,P|352:96|400:144,1,135.000005149842
464,256,173982,1,0,0:0:0:0:
384,352,174132,1,0,0:0:0:0:
256,342,174282,6,0,B|181:338|128:288,1,135.000005149842
44,185,174583,1,0,0:0:0:0:
116,48,174733,1,0,0:0:0:0:
189,165,174883,2,0,P|258:185|349:165,1,135.000005149842
413,28,175183,2,0,P|443:89|434:171,1,135.000005149842
405,301,175484,6,0,B|357:345|357:345|279:337,1,135.000005149842
117,288,175784,1,0,0:0:0:0:
329,252,175934,1,0,0:0:0:0:
76,207,176084,2,0,P|140:159|204:143,1,135.000005149842
347,130,176385,1,0,0:0:0:0:
456,14,176535,1,0,0:0:0:0:
256,9,176685,6,0,B|180:17|112:73,1,135.000005149842
48,144,176985,1,0,0:0:0:0:
32,256,177135,1,0,0:0:0:0:
80,352,177285,1,0,0:0:0:0:
192,384,177436,1,0,0:0:0:0:
256,272,177586,2,0,P|320:304|352:368,1,135.000005149842
448,256,177886,6,0,B|464:176|464:176|416:128,1,135.000005149842
192,48,178186,1,0,0:0:0:0:
368,192,178337,1,0,0:0:0:0:
176,208,178487,2,0,P|128:272|128:336,1,135.000005149842
256,272,178787,1,0,0:0:0:0:
368,368,178937,1,0,0:0:0:0:
368,192,179087,6,0,B|390:122|344:48,1,135.000005149842
194,19,179388,1,0,0:0:0:0:
268,138,179538,1,0,0:0:0:0:
60,163,179688,2,0,P|80:231|141:258,1,135.000005149842
256,272,179988,2,0,P|336:288|400:336,1,135.000005149842
480,80,180288,6,0,B|448:144|448:144|384:192,1,135.000005149842
192,48,180589,1,0,0:0:0:0:
368,96,180739,1,0,0:0:0:0:
114,151,180889,1,0,0:0:0:0:
116,278,181039,1,0,0:0:0:0:
240,352,181189,2,0,P|320:368|384:336,1,135.000005149842
489,98,181490,6,0,P|470:170|417:232,1,135.000005149842
300,278,181790,1,0,0:0:0:0:
368,105,181940,1,0,0:0:0:0:
126,190,182090,2,0,P|142:110|190:78,1,135.000005149842
288,48,182391,2,0,P|256:128|208:160,1,135.000005149842
94,302,182691,5,0,0:0:0:0:
256,336,182841,1,0,0:0:0:0:
176,320,182991,1,0,0:0:0:0:
336,352,183141,1,0,0:0:0:0:
448,80,183291,2,0,L|400:224,1,135.000005149842
64,80,183592,2,0,L|112:224,1,135.000005149842
256,224,183892,6,0,L|256:80,1,135.000005149842
256,368,184192,1,0,0:0:0:0:
384,224,184343,1,0,0:0:0:0:
128,224,184493,1,0,0:0:0:0:
256,64,184643,1,0,0:0:0:0:
368,48,184793,1,0,0:0:0:0:
448,128,184943,1,0,0:0:0:0:
96,48,185093,6,0,P|48:128|64:192,1,135.000005149842
416,48,185394,2,0,P|464:128|448:192,1,135.000005149842
52,218,185694,2,0,P|54:284|96:336,1,135.000005149842
459,218,185995,2,0,P|457:284|416:336,1,135.000005149842
336,208,186294,6,0,L|224:288,1,135.000005149842
176,176,186595,2,0,L|304:96,1,135.000005149842
336,272,186895,2,0,L|192:272,1,135.000005149842
176,112,187195,2,0,L|320:112,1,135.000005149842
416,80,187496,5,0,0:0:0:0:
256,48,187646,1,0,0:0:0:0:
336,64,187796,1,0,0:0:0:0:
176,32,187946,1,0,0:0:0:0:
64,304,188096,2,0,L|106:175,1,135.000005149842
448,304,188397,2,0,L|405:175,1,135.000005149842
256,112,188697,6,0,L|256:247,1,135.000005149842
256,16,188997,1,0,0:0:0:0:
384,160,189148,1,0,0:0:0:0:
128,160,189298,1,0,0:0:0:0:
256,320,189448,1,0,0:0:0:0:
368,336,189598,1,0,0:0:0:0:
448,256,189748,1,0,0:0:0:0:
176,192,189898,6,0,P|96:176|32:192,1,135.000005149842
336,192,190198,2,0,P|416:176|480:192,1,135.000005149842
176,112,190499,2,0,P|96:128|32:112,1,135.000005149842
336,272,190799,2,0,P|416:288|480:272,1,135.000005149842
256,48,191099,6,0,B|240:96|272:96|256:192,1,135.000005149842
256,336,191400,2,0,B|272:288|240:288|256:192,1,135.000005149842
400,192,191700,2,0,B|352:176|352:208|256:192,1,135.000005149842
112,192,192001,2,0,B|160:208|160:176|256:192,1,135.000005149842
400,48,192300,5,0,0:0:0:0:
480,192,192451,1,0,0:0:0:0:
288,128,192601,1,0,0:0:0:0:
352,272,192751,1,0,0:0:0:0:
160,176,192901,2,0,P|80:160|0:160,1,135.000005149842
176,320,193201,2,0,P|96:352|32:352,1,135.000005149842
320,288,193502,6,0,L|432:368,1,135.000005149842
192,192,193802,1,0,0:0:0:0:
153,48,193952,1,0,0:0:0:0:
297,10,194102,1,0,0:0:0:0:
335,153,194252,1,0,0:0:0:0:
464,256,194403,1,0,0:0:0:0:
377,61,194553,1,0,0:0:0:0:
48,128,194703,6,0,P|128:112|192:128,1,135.000005149842
288,144,195003,2,0,P|368:160|448:144,1,135.000005149842
480,272,195303,2,0,P|432:320|384:384,1,135.000005149842
256,352,195604,2,0,P|192:320|112:320,1,135.000005149842
64,48,195904,6,0,P|80:128|144:160,1,135.000005149842
272,32,196204,2,0,P|240:96|256:160,1,135.000005149842
448,160,196505,2,0,P|384:208|368:272,1,135.000005149842
496,352,196805,2,0,P|416:352|336:384,1,135.000005149842
176,272,197105,5,0,0:0:0:0:
32,144,197255,1,0,0:0:0:0:
208,64,197406,1,0,0:0:0:0:
176,272,197556,1,0,0:0:0:0:
32,144,197706,1,0,0:0:0:0:
208,64,197856,1,0,0:0:0:0:
176,272,198006,2,0,P|240:304|320:304,1,135.000005149842
432,112,198306,6,0,L|384:240,1,135.000005149842
96,368,198607,1,0,0:0:0:0:
115,139,198757,1,0,0:0:0:0:
234,336,198907,1,0,0:0:0:0:
22,246,199057,1,0,0:0:0:0:
246,194,199207,1,0,0:0:0:0:
368,240,199358,1,0,0:0:0:0:
464,144,199508,5,0,0:0:0:0:
256,32,199658,1,0,0:0:0:0:
416,48,199808,1,0,0:0:0:0:
176,96,199958,1,0,0:0:0:0:
32,32,200108,1,0,0:0:0:0:
32,288,200258,1,0,0:0:0:0:
32,16,200409,1,0,0:0:0:0:
32,304,200559,1,0,0:0:0:0:
304,144,200709,5,0,0:0:0:0:
80,176,200859,1,0,0:0:0:0:
288,288,201009,1,0,0:0:0:0:
176,80,201159,1,0,0:0:0:0:
144,320,201309,6,0,L|184:266,1,67.5000025749208
368,64,201460,2,0,L|327:118,1,67.5000025749208
144,64,201610,2,0,L|184:118,1,67.5000025749208
368,320,201760,2,0,L|327:266,1,67.5000025749208
256,192,201910,5,0,0:0:0:0:
