osu file format v14

[General]
AudioFilename: audio.mp3
AudioLeadIn: 0
PreviewTime: 38547
Countdown: 0
SampleSet: Normal
StackLeniency: 0.6
Mode: 0
LetterboxInBreaks: 0
EpilepsyWarning: 1
WidescreenStoryboard: 1

[Editor]
Bookmarks: 4913,14523,28937,33742,38547,46955,48156,57766,79388,88547,88997,92901,97406,98607,107015,108216,117826,120228,129838,139448,149057,153862,163472,173081,177886,182691,187496,192300,197105,202060
DistanceSpacing: 1.1
BeatDivisor: 4
GridSize: 4
TimelineZoom: 2

[Metadata]
Title:Say Goodbye (Speed Up Ver.)
TitleUnicode:Say Goodbye (Speed Up Ver.)
Artist:Krewella
ArtistUnicode:Krewella
Creator:saggi
Version:Melsoon's Hard
Source:
Tags:LiousPL Melsoon walter85 Megapcmx Minorsonek LukerMaster -NeBu- Broly Envory ChuuritsuTv
BeatmapID:1254392
BeatmapSetID:580821

[Difficulty]
HPDrainRate:6
CircleSize:3.7
OverallDifficulty:6
ApproachRate:8
SliderMultiplier:1.2
SliderTickRate:2

[Events]
//Background and Video events
0,0,"girl.jpg",0,0
//Break Periods
2,60368,64073
2,79588,87647
2,120428,124133
2,152861,162572
//Storyboard Layer 0 (Background)
//Storyboard Layer 1 (Fail)
//Storyboard Layer 2 (Pass)
//Storyboard Layer 3 (Foreground)
Sprite,Foreground,Centre,"sb\highlight.png",492,164 C,0,107916,,125,67,19 F,2,107916,108716,1,0 S,2,107916,108716,0.9,0.18 P,0,107916,108716,A
Sprite,Foreground,Centre,"sb\highlight.png",72,184 C,0,117826,,125,67,19 F,2,117826,118626,1,0 S,2,117826,118626,0.9,0.18 P,0,117826,118626,A
Sprite,Foreground,Centre,"sb\highlight.png",228,96 C,0,118126,,125,67,19 F,2,118126,118926,1,0 S,2,118126,118926,0.9,0.18 P,0,118126,118926,A
Sprite,Foreground,Centre,"sb\highlight.png",412,100 C,0,118427,,125,67,19 F,2,118427,119227,1,0 S,2,118427,119227,0.9,0.18 P,0,118427,119227,A
Sprite,Foreground,Centre,"sb\highlight.png",564,196 C,0,118727,,125,67,19 F,2,118727,119527,1,0 S,2,118727,119527,0.9,0.18 P,0,118727,119527,A
Sprite,Foreground,Centre,"sb\highlight.png",400,76 C,0,47856,,255,128,64 F,2,47856,48656,1,0 S,2,47856,48656,0.9,0.18 P,0,47856,48656,A
Sprite,Foreground,Centre,"sb\highlight.png",204,284 C,0,96204,,236,206,36 M,0,96204,96241,204,284,190.4439,290.4213 F,2,96204,97304,1,0 S,2,96204,97304,0.9,0.18 P,0,96204,97304,A M,0,96241,96279,190.4439,290.4213,176.8879,296.8426 M,0,96279,96316,176.8879,296.8426,163.3318,303.2639 M,0,96316,96354,163.3318,303.2639,149.7757,309.6852 M,0,96354,96391,149.7757,309.6852,163.3318,303.2639 M,0,96391,96429,163.3318,303.2639,176.8879,296.8426 M,0,96429,96466,176.8879,296.8426,190.4439,290.4213 M,0,96466,96504,190.4439,290.4213,204,284
Sprite,Foreground,Centre,"sb\highlight.png",208,212 C,0,96655,,236,206,36 M,0,96655,96692,208,212,194.4439,218.4213 F,2,96655,97755,1,0 S,2,96655,97755,0.9,0.18 P,0,96655,97755,A M,0,96692,96730,194.4439,218.4213,180.8879,224.8426 M,0,96730,96767,180.8879,224.8426,167.3318,231.2639 M,0,96767,96805,167.3318,231.2639,153.7757,237.6852 M,0,96805,96842,153.7757,237.6852,167.3318,231.2639 M,0,96842,96880,167.3318,231.2639,180.8879,224.8426 M,0,96880,96917,180.8879,224.8426,194.4439,218.4213 M,0,96917,96955,194.4439,218.4213,208,212
Sprite,Foreground,Centre,"sb\highlight.png",252,159 C,0,97105,,236,206,36 F,2,97105,97905,1,0 S,2,97105,97905,0.9,0.18 P,0,97105,97905,A
Sprite,Foreground,Centre,"sb\highlight.png",351,173 C,0,97406,,36,129,134 M,0,97406,97443,351,173,364.5561,166.5787 F,2,97406,98506,1,0 S,2,97406,98506,0.9,0.18 P,0,97406,98506,A M,0,97443,97481,364.5561,166.5787,378.1121,160.1574 M,0,97481,97518,378.1121,160.1574,391.6682,153.7361 M,0,97518,97556,391.6682,153.7361,405.2243,147.3148 M,0,97556,97593,405.2243,147.3148,391.6682,153.7361 M,0,97593,97631,391.6682,153.7361,378.1121,160.1574 M,0,97631,97668,378.1121,160.1574,364.5561,166.5787 M,0,97668,97706,364.5561,166.5787,351,173
Sprite,Foreground,Centre,"sb\highlight.png",353,245 C,0,97856,,36,129,134 M,0,97856,97893,353,245,366.5561,238.5787 F,2,97856,98956,1,0 S,2,97856,98956,0.9,0.18 P,0,97856,98956,A M,0,97893,97931,366.5561,238.5787,380.1121,232.1574 M,0,97931,97968,380.1121,232.1574,393.6682,225.7361 M,0,97968,98006,393.6682,225.7361,407.2243,219.3148 M,0,98006,98043,407.2243,219.3148,393.6682,225.7361 M,0,98043,98081,393.6682,225.7361,380.1121,232.1574 M,0,98081,98118,380.1121,232.1574,366.5561,238.5787 M,0,98118,98156,366.5561,238.5787,353,245
Sprite,Foreground,Centre,"sb\highlight.png",324,304 C,0,98306,,36,129,134 F,2,98306,99106,1,0 S,2,98306,99106,0.9,0.18 P,0,98306,99106,A
Sprite,Foreground,Centre,"sb\highlight.png",480,288 C,0,147856,,150,7,7 M,0,147856,147893,480,288,484.0018,271.9926 F,2,147856,148806,1,0 S,2,147856,148806,0.9,0.18 P,0,147856,148806,A M,0,147893,147931,484.0018,271.9926,488.0037,255.9853 M,0,147931,147968,488.0037,255.9853,492.0055,239.9779 M,0,147968,148006,492.0055,239.9779,496.0074,223.9706
Sprite,Foreground,Centre,"sb\highlight.png",524,128 C,0,148156,,150,7,7 F,2,148156,148956,1,0 S,2,148156,148956,0.9,0.18 P,0,148156,148956,A
Sprite,Foreground,Centre,"sb\highlight.png",544,220 C,0,171880,,125,67,19 M,0,171880,171917,544,220,540.3619,234.5521 F,2,171880,173130,1,0 S,2,171880,173130,0.9,0.18 P,0,171880,173130,A M,0,171917,171955,540.3619,234.5521,536.7239,249.1043 M,0,171955,171992,536.7239,249.1043,540.3619,234.5521 M,0,171992,172030,540.3619,234.5521,544,220 M,0,172030,172067,544,220,540.3619,234.5521 M,0,172067,172105,540.3619,234.5521,536.7239,249.1043 M,0,172105,172142,536.7239,249.1043,540.3619,234.5521 M,0,172142,172180,540.3619,234.5521,544,220 M,0,172180,172217,544,220,540.3619,234.5521 M,0,172217,172255,540.3619,234.5521,536.7239,249.1043 M,0,172255,172292,536.7239,249.1043,540.3619,234.5521 M,0,172292,172330,540.3619,234.5521,544,220
Sprite,Foreground,Centre,"sb\highlight.png",495,311 C,0,172481,,125,67,19 M,0,172481,172518,495,311,481.2928,317.0921 F,2,172481,173731,1,0 S,2,172481,173731,0.9,0.18 P,0,172481,173731,A M,0,172518,172556,481.2928,317.0921,467.5857,323.1841 M,0,172556,172593,467.5857,323.1841,481.2928,317.0921 M,0,172593,172631,481.2928,317.0921,495,311 M,0,172631,172668,495,311,481.2928,317.0921 M,0,172668,172706,481.2928,317.0921,467.5857,323.1841 M,0,172706,172743,467.5857,323.1841,481.2928,317.0921 M,0,172743,172781,481.2928,317.0921,495,311 M,0,172781,172818,495,311,481.2928,317.0921 M,0,172818,172856,481.2928,317.0921,467.5857,323.1841 M,0,172856,172893,467.5857,323.1841,481.2928,317.0921 M,0,172893,172931,481.2928,317.0921,495,311
Sprite,Foreground,Centre,"sb\highlight.png",124,212 C,0,37346,,236,206,36 M,0,37346,37383,124,212,116.7522,200.6106 F,2,37346,39046,1,0 S,2,37346,39046,0.9,0.18 P,0,37346,39046,A M,0,37383,37421,116.7522,200.6106,109.5044,189.2211 M,0,37421,37458,109.5044,189.2211,116.7522,200.6106 M,0,37458,37496,116.7522,200.6106,124,212 M,0,37496,37533,124,212,116.7522,200.6106 M,0,37533,37571,116.7522,200.6106,109.5044,189.2211 M,0,37571,37608,109.5044,189.2211,116.7522,200.6106 M,0,37608,37646,116.7522,200.6106,124,212 M,0,37646,37683,124,212,116.7522,200.6106 M,0,37683,37721,116.7522,200.6106,109.5044,189.2211 M,0,37721,37758,109.5044,189.2211,116.7522,200.6106 M,0,37758,37796,116.7522,200.6106,124,212 M,0,37796,37833,124,212,116.7522,200.6106 M,0,37833,37871,116.7522,200.6106,109.5044,189.2211 M,0,37871,37909,109.5044,189.2211,116.7522,200.6106 M,0,37909,37946,116.7522,200.6106,124,212 M,0,37946,37984,124,212,116.7522,200.6106 M,0,37984,38021,116.7522,200.6106,109.5044,189.2211 M,0,38021,38059,109.5044,189.2211,116.7522,200.6106 M,0,38059,38096,116.7522,200.6106,124,212 M,0,38096,38134,124,212,116.7522,200.6106 M,0,38134,38171,116.7522,200.6106,109.5044,189.2211 M,0,38171,38209,109.5044,189.2211,116.7522,200.6106 M,0,38209,38246,116.7522,200.6106,124,212
//Storyboard Sound Samples

[TimingPoints]
1310,300.3003003003,4,1,2,70,1,0
4913,-111.111111111111,4,2,2,70,0,0
19328,-100,4,2,2,70,0,0
28937,-153.846153846153,4,2,2,70,0,0
29838,-90.9090909090909,4,2,2,70,0,0
30138,-142.857142857143,4,2,2,70,0,0
31039,-90.9090909090909,4,2,2,70,0,0
31340,-133.333333333333,4,2,2,70,0,0
32240,-90.9090909090909,4,2,2,70,0,0
32541,-125,4,2,2,70,0,0
33442,-90.9090909090909,4,2,2,70,0,0
33742,-117.647058823529,4,2,2,70,0,0
34643,-76.9230769230769,4,2,2,70,0,0
34943,-111.111111111111,4,2,2,70,0,0
35844,-76.9230769230769,4,2,2,70,0,0
36144,-111.111111111111,4,2,2,70,0,0
38246,-111.111111111111,4,2,2,90,0,0
38547,-100,4,2,2,70,0,1
46955,-100,4,2,2,70,0,0
48156,-83.3333333333333,4,2,2,70,0,1
57766,-100,4,2,2,70,0,0
59868,-100,4,2,2,5,0,0
60168,-83.3333333333333,4,2,2,70,0,0
79388,-133.333333333333,4,2,2,70,0,0
88547,-133.333333333333,4,2,2,70,0,0
88997,-111.111111111111,4,2,2,70,0,0
93802,-111.111111111111,4,2,2,70,0,0
95003,-105.263157894737,4,2,2,70,0,0
96204,-100,4,2,2,30,0,0
98306,-100,4,2,2,30,0,0
98607,-100,4,2,2,70,0,1
107015,-100,4,2,2,70,0,0
108216,-83.3333333333333,4,2,2,70,0,1
117826,-100,4,2,2,70,0,0
139448,-153.846153846153,4,2,2,70,0,0
140349,-100,4,2,2,70,0,0
140649,-142.857142857143,4,2,2,70,0,0
141550,-90.9090909090909,4,2,2,70,0,0
141850,-133.333333333333,4,2,2,70,0,0
142751,-90.9090909090909,4,2,2,70,0,0
143051,-125,4,2,2,70,0,0
143952,-90.9090909090909,4,2,2,70,0,0
144252,-117.647058823529,4,2,2,70,0,0
145153,-90.9090909090909,4,2,2,70,0,0
145454,-111.111111111111,4,2,2,70,0,0
146355,-90.9090909090909,4,2,2,70,0,0
146655,-105.263157894737,4,2,2,70,0,0
147255,-83.3333333333333,4,2,2,70,0,0
147856,-90.9090909090909,4,2,2,70,0,0
148457,-83.3333333333333,4,2,2,70,0,0
149057,-133.333333333333,4,2,2,30,0,0
152661,-133.333333333333,4,2,2,5,0,0
163472,-100,4,2,2,70,0,0
173081,-83.3333333333333,4,2,2,70,0,1
201910,-100,4,2,2,70,0,0
203477,300.3003003003,4,2,2,70,1,0

[Colours]
Combo1 : 36,129,134
Combo2 : 125,67,19
Combo3 : 150,7,7
Combo4 : 236,206,36

[HitObjects]
81,301,4913,5,0,0:0:0:0:
457,125,5364,1,2,0:0:0:0:
80,71,6114,5,0,0:0:0:0:
452,310,6565,1,2,0:0:0:0:
60,164,7316,5,0,0:0:0:0:
478,231,7766,1,2,0:0:0:0:
256,192,8517,12,0,9718,0:0:0:0:
56,112,10018,5,0,0:0:0:0:
56,112,10319,2,0,P|26:213|32:228,1,107.999996704102
192,205,10919,2,0,P|221:279|208:328,1,107.999996704102
112,182,11520,2,0,P|168:126|273:188,1,215.999993408203,0|8,0:0|0:0,0:0:0:0:
392,84,12421,5,0,0:0:0:0:
408,236,12721,1,0,0:0:0:0:
254,146,13021,1,0,0:0:0:0:
408,236,13322,2,0,P|320:308|292:312,2,107.999996704102
254,146,14222,1,0,0:0:0:0:
256,308,14523,1,8,0:0:0:0:
120,320,14823,6,0,P|72:216|64:180,1,107.999996704102
44,80,15424,1,0,0:0:0:0:
129,22,15724,2,0,P|148:91|129:140,2,107.999996704102
44,80,16625,1,8,0:0:0:0:
138,124,16925,6,0,B|136:157|136:157|164:181,2,53.9999983520508
218,86,17376,2,0,P|261:155|273:252,1,161.999995056153,0|8,0:0|0:0,0:0:0:0:
368,221,18126,6,0,B|370:188|370:188|342:164,2,53.9999983520508
274,233,18577,2,0,P|340:295|449:301,1,161.999995056153,0|8,0:0|0:0,0:0:0:0:
480,152,19328,5,2,0:0:0:0:
269,117,19628,2,0,P|281:245|307:273,1,120
480,152,20228,1,2,0:0:0:0:
269,117,20529,1,0,0:0:0:0:
347,275,20829,1,0,0:0:0:0:
269,117,21129,2,0,P|177:141|66:266,1,240,0|8,0:0|0:0,0:0:0:0:
224,304,22030,6,0,B|272:336|272:336|376:308,1,120
436,184,22631,1,0,0:0:0:0:
231,109,22931,2,0,P|186:169|179:240,1,120
293,216,23532,2,0,P|260:296|99:299,1,240,0|8,0:0|0:0,0:0:0:0:
98,128,24433,6,0,L|244:93,1,120
348,108,25033,1,0,0:0:0:0:
283,271,25334,2,0,P|226:245|203:167,1,120
215,101,25934,2,0,P|264:122|297:190,1,120
106,204,26535,6,0,P|153:359|192:376,2,180
239,243,27736,2,0,P|267:139|212:60,2,180
71,193,28937,5,4,0:0:0:0:
125,241,29087,1,0,0:0:0:0:
183,198,29237,1,0,0:0:0:0:
239,243,29388,1,0,0:0:0:0:
254,320,29538,2,0,P|315:270|322:240,1,77.9999964294435,0|2,0:0|0:0,0:0:0:0:
420,216,30138,6,0,L|456:148,1,41.9999987182618
360,124,30439,2,0,L|324:184,1,41.9999987182618
240,124,30739,2,0,L|272:76,2,41.9999987182618,0|0|2,0:0|0:0|0:0,0:0:0:0:
132,60,31340,5,0,0:0:0:0:
80,120,31490,1,0,0:0:0:0:
32,188,31640,2,0,L|96:220,1,45.0000017166138
44,272,31940,2,0,L|92:292,1,45.0000017166138
156,348,32240,1,2,0:0:0:0:
254,325,32541,6,0,B|246:297|246:297|270:250,2,48
358,305,32991,1,0,0:0:0:0:
463,279,33141,2,0,B|473:299|473:299|465:327,2,48,0|0|2,0:0|0:0|0:0,0:0:0:0:
358,305,33742,6,0,L|358:206,1,51.0000009727478
356,172,34042,2,0,L|356:104,1,51.0000009727478
363,15,34343,2,0,P|414:33|450:75,1,102.000001945496,0|8,0:0|0:0,0:0:0:0:
508,160,34943,6,0,L|508:236,1,53.9999983520508
501,292,35243,2,0,L|501:368,1,53.9999983520508
508,214,35544,2,0,P|432:246|422:307,1,107.999996704102,0|8,0:0|0:0,0:0:0:0:
272,300,36144,6,2,L|184:284,3,53.9999983520508
148,252,36745,2,2,L|88:212,3,53.9999983520508
60,156,37346,2,2,L|32:112,12,26.9999991760254
176,28,38547,6,0,P|244:72|256:144,1,120,4|0,0:0|0:0,0:0:0:0:
261,176,38997,2,0,P|273:260|313:304,1,120
351,216,39448,2,0,P|382:295|359:351,1,120
292,286,40048,2,0,P|209:256|182:218,2,120
346,121,40949,5,0,0:0:0:0:
180,52,41249,1,0,0:0:0:0:
190,233,41550,1,0,0:0:0:0:
346,121,41850,1,0,0:0:0:0:
341,7,42150,2,0,P|260:47|238:91,2,120
315,156,43051,1,8,0:0:0:0:
300,284,43352,6,0,L|412:164,1,120
315,156,43802,2,0,L|411:64,1,120
422,4,44252,2,0,P|472:63|466:105,1,120
468,212,44853,2,0,L|468:368,2,120
329,304,45754,6,0,P|234:286|213:268,1,120
301,188,46355,2,0,P|248:161|184:158,1,120
101,240,46955,1,4,0:0:0:0:
336,20,47856,5,2,0:0:0:0:
192,16,48156,2,0,P|120:112|104:200,1,143.999995605469
189,158,48607,2,0,P|158:222|109:275,1,143.999995605469
44,336,49057,2,0,P|176:368|344:316,1,287.999991210938
417,225,49958,1,0,0:0:0:0:
340,140,50258,1,0,0:0:0:0:
417,225,50559,6,0,P|453:121|433:69,1,143.999995605469,4|0,0:0|0:0,0:0:0:0:
404,50,51009,2,0,P|324:12|243:32,1,143.999995605469
213,37,51460,2,0,P|90:97|22:249,1,287.999991210938
18,370,52361,1,0,0:0:0:0:
144,281,52661,1,0,0:0:0:0:
249,169,52961,5,4,0:0:0:0:
331,270,53261,1,0,0:0:0:0:
432,200,53562,2,0,P|452:280|428:356,1,143.999995605469
331,270,54162,5,4,0:0:0:0:
201,90,54463,1,0,0:0:0:0:
60,44,54763,2,0,P|84:184|116:216,1,143.999995605469
144,281,55364,6,0,L|248:229,3,71.9999978027344,4|0|0|0,0:0|0:0|0:0|0:0,0:0:0:0:
299,200,55964,2,0,L|367:140,3,71.9999978027344,4|0|0|0,0:0|0:0|0:0|0:0,0:0:0:0:
441,90,56565,1,8,0:0:0:0:
485,219,56865,1,8,0:0:0:0:
388,296,57165,2,0,L|332:336,6,35.9999989013672
256,192,57766,12,4,60168,0:0:0:0:
68,120,64973,6,0,P|128:64|232:40,1,155.999992858887,4|0,0:0|0:0,0:0:0:0:
353,64,65574,2,0,P|406:123|409:138,2,71.9999978027344
320,148,66024,2,0,L|200:252,2,143.999995605469
320,148,66775,1,0,0:0:0:0:
432,210,67075,1,0,0:0:0:0:
292,284,67376,6,0,L|208:276,2,71.9999978027344
372,260,67826,2,0,L|437:211,2,71.9999978027344
309,204,68276,2,0,L|223:194,2,71.9999978027344
376,161,68727,2,0,L|436:111,2,71.9999978027344
303,127,69177,1,8,0:0:0:0:
166,187,69478,1,8,0:0:0:0:
20,132,69778,1,4,0:0:0:0:
256,336,70379,6,0,L|348:304,2,77.9999964294435
180,336,70829,1,0,0:0:0:0:
22,323,71129,2,0,P|110:250|342:329,1,359.999989013672
329,309,72030,1,0,0:0:0:0:
329,309,72180,1,0,0:0:0:0:
412,176,72481,1,0,0:0:0:0:
344,48,72781,6,0,B|292:24|292:24|256:56,2,71.9999978027344
408,68,73231,1,0,0:0:0:0:
280,33,73532,2,0,P|184:73|172:113,3,143.999995605469,0|0|0|8,0:0|0:0|0:0|0:0,0:0:0:0:
173,103,74583,1,8,0:0:0:0:
152,332,75183,6,0,P|118:313|97:280,2,77.9999964294435
175,255,75634,2,0,L|290:150,2,155.999992858887
175,255,76385,1,0,0:0:0:0:
71,181,76685,1,0,0:0:0:0:
290,150,76985,6,0,L|367:160,2,77.9999964294435
218,178,77436,2,0,L|157:227,2,77.9999964294435
346,240,77886,2,0,L|423:250,2,77.9999964294435
233,272,78337,2,0,L|172:321,2,77.9999964294435
311,336,78787,1,8,0:0:0:0:
311,336,79087,1,0,0:0:0:0:
248,136,79388,1,4,0:0:0:0:
76,160,88697,5,4,0:0:0:0:
172,44,88997,5,4,0:0:0:0:
272,28,89297,1,0,0:0:0:0:
172,44,89598,2,0,B|184:100|238:124,1,107.999996704102
201,187,90198,2,0,P|155:161|102:164,1,107.999996704102
4,125,90799,2,0,P|32:244|120:268,1,215.999993408203,0|2,0:0|0:0,0:0:0:0:
201,295,91700,6,0,L|201:167,1,107.999996704102
168,70,92300,1,0,0:0:0:0:
262,55,92601,2,0,P|312:73|345:114,1,107.999996704102
413,157,93201,2,0,P|369:237|237:297,1,215.999993408203,0|2,0:0|0:0,0:0:0:0:
87,227,94102,6,0,L|217:196,1,107.999996704102
345,114,94703,1,0,0:0:0:0:
280,264,95003,2,0,P|225:246|188:180,1,113.999996955872,0|2,0:0|0:0,0:0:0:0:
195,107,95604,2,0,P|250:125|287:191,1,113.999996955872,0|2,0:0|0:0,0:0:0:0:
140,228,96204,6,8,L|64:264,2,60
144,156,96655,2,8,L|68:192,2,60
188,103,97105,1,2,0:0:0:0:
287,117,97406,6,8,L|363:81,2,60
289,189,97856,2,8,L|365:153,2,60
260,248,98306,1,2,0:0:0:0:
193,311,98607,6,0,L|76:198,1,150,4|0,0:0|0:0,0:0:0:0:
193,152,99057,2,0,L|97:60,1,120
97,0,99507,2,0,P|38:60|47:104,1,120
86,207,100108,2,0,L|193:152,2,120
219,325,101009,6,0,P|313:307|336:284,1,120
251,223,101610,2,0,P|303:190|364:195,1,120
496,220,102210,1,0,0:0:0:0:
456,80,102511,1,0,0:0:0:0:
370,193,102811,1,0,0:0:0:0:
284,296,103111,5,8,0:0:0:0:
284,296,103412,2,0,P|200:284|160:256,1,120,2|0,0:0|0:0,0:0:0:0:
120,216,103862,2,0,P|88:152|80:96,1,120
0,79,104313,2,0,P|68:18|96:20,1,120
232,32,104913,1,0,0:0:0:0:
120,214,105213,1,0,0:0:0:0:
364,182,105514,1,0,0:0:0:0:
230,248,105814,6,0,P|135:228|116:209,1,120
202,139,106415,2,0,P|150:107|84:109,1,120
2,182,107015,1,4,0:0:0:0:
428,108,107916,5,8,0:0:0:0:
464,276,108216,2,0,P|384:336|320:348,1,143.999995605469,4|0,0:0|0:0,0:0:0:0:
256,352,108667,2,0,P|168:336|104:292,1,143.999995605469
192,289,109117,2,0,B|184:178|14:209|55:82|160:87,1,287.999991210938
296,64,110018,1,0,0:0:0:0:
380,184,110319,1,0,0:0:0:0:
380,184,110619,6,0,P|380:272|332:304,1,143.999995605469,4|0,0:0|0:0,0:0:0:0:
308,224,111069,2,0,P|258:272|268:341,1,143.999995605469
308,224,111520,2,0,P|272:156|64:112,1,287.999991210938
148,248,112421,1,0,0:0:0:0:
308,224,112721,1,0,0:0:0:0:
420,92,113021,6,0,P|360:64|260:64,2,143.999995605469
252,124,113922,2,0,P|323:260|240:336,1,287.999991210938
136,216,114823,1,0,0:0:0:0:
252,124,115123,1,0,0:0:0:0:
404,40,115424,6,8,L|444:108,1,71.9999978027344
468,184,115724,2,8,L|484:272,1,71.9999978027344
480,328,116024,2,8,L|424:376,1,71.9999978027344
340,376,116325,2,8,L|240:364,1,71.9999978027344
224,292,116625,2,8,L|128:284,3,71.9999978027344
140,200,117225,2,8,L|40:192,3,71.9999978027344
8,128,117826,5,2,0:0:0:0:
164,40,118126,1,2,0:0:0:0:
348,44,118427,1,2,0:0:0:0:
500,140,118727,1,2,0:0:0:0:
256,192,119027,12,4,120228,0:0:0:0:
112,136,125033,5,4,0:0:0:0:
244,260,125334,1,0,0:0:0:0:
244,96,125634,2,0,L|304:48,2,60
187,143,126084,1,0,0:0:0:0:
60,200,126385,2,0,P|120:272|208:292,1,180
268,236,126985,1,0,0:0:0:0:
356,228,127135,2,0,L|436:208,1,60
440,116,127436,6,0,L|368:68,2,60
338,147,127886,2,0,L|266:99,2,60
265,198,128337,1,0,0:0:0:0:
214,222,128487,1,0,0:0:0:0:
159,213,128637,1,0,0:0:0:0:
116,176,128787,1,0,0:0:0:0:
118,123,128937,1,0,0:0:0:0:
87,73,129087,1,0,0:0:0:0:
36,56,129237,1,8,0:0:0:0:
23,286,129538,1,8,0:0:0:0:
188,320,129838,6,0,P|304:320|424:268,1,240,4|0,0:0|0:0,0:0:0:0:
440,168,130739,1,0,0:0:0:0:
400,68,131039,2,0,P|290:21|170:20,1,240
56,56,131940,1,0,0:0:0:0:
60,225,132240,5,4,0:0:0:0:
219,324,132541,1,0,0:0:0:0:
403,229,132841,1,0,0:0:0:0:
446,78,133141,1,0,0:0:0:0:
280,40,133442,2,0,P|204:44|40:136,1,240
16,205,134343,1,0,0:0:0:0:
59,292,134643,6,0,P|161:353|279:368,1,240,4|0,0:0|0:0,0:0:0:0:
392,328,135544,1,0,0:0:0:0:
472,240,135844,2,0,P|488:104|420:24,1,240
280,40,136745,1,0,0:0:0:0:
256,192,137045,12,0,139448,0:0:0:0:
280,228,139748,5,0,0:0:0:0:
256,328,140048,2,0,P|192:276|188:268,1,77.9999964294435,0|8,0:0|0:0,0:0:0:0:
150,173,140649,5,0,0:0:0:0:
195,281,140949,1,0,0:0:0:0:
260,172,141249,2,0,L|228:124,2,41.9999987182618,0|0|8,0:0|0:0|0:0,0:0:0:0:
364,84,141850,5,0,0:0:0:0:
484,144,142150,1,0,0:0:0:0:
472,280,142450,2,0,L|424:300,1,45.0000017166138
343,332,142750,1,8,0:0:0:0:
256,244,143051,6,0,B|264:216|264:216|240:169,2,48
47,198,143651,2,0,B|37:218|37:218|45:246,2,48,0|0|8,0:0|0:0|0:0,0:0:0:0:
148,80,144252,5,0,0:0:0:0:
448,85,144553,1,0,0:0:0:0:
308,152,144853,2,0,L|288:268,1,102.000001945496,0|8,0:0|0:0,0:0:0:0:
83,321,145454,5,0,0:0:0:0:
61,30,145754,1,0,0:0:0:0:
308,152,146054,2,0,L|374:190,2,53.9999983520508,0|0|8,0:0|0:0|0:0,0:0:0:0:
272,60,146505,1,0,0:0:0:0:
188,52,146655,5,0,0:0:0:0:
32,124,146955,1,0,0:0:0:0:
100,312,147255,2,0,P|200:328|256:308,1,143.999995605469,0|8,0:0|0:0,0:0:0:0:
416,232,147856,6,0,L|436:152,1,66.0000020141602
460,72,148156,1,0,0:0:0:0:
256,192,148457,12,0,152661,0:0:0:0:
208,48,163472,6,0,P|128:72|64:144,2,180
280,64,164523,1,0,0:0:0:0:
304,132,164673,2,0,P|245:199|160:226,2,180
377,104,165649,2,8,L|425:124,2,30
306,58,165874,6,0,P|242:14|126:6,2,180
252,104,166925,1,0,0:0:0:0:
208,160,167075,2,0,P|283:208|371:215,2,180
163,110,168051,2,8,L|123:74,2,30
140,172,168276,6,0,P|120:208|152:348,2,180
208,200,169328,1,0,0:0:0:0:
272,168,169478,2,0,P|292:204|260:344,2,180
208,200,170529,1,8,0:0:0:0:
208,200,170679,2,0,L|208:112,1,60,8|0,0:0|0:0,0:0:0:0:
220,68,170979,2,0,L|264:8,1,60
324,4,171279,2,0,L|388:4,1,60
444,44,171580,2,0,L|492:116,1,60
480,164,171880,2,8,L|472:196,6,30
431,255,172481,2,8,L|395:271,6,30
418,188,173081,6,0,P|362:144|286:124,1,143.999995605469,4|0,0:0|0:0,0:0:0:0:
214,123,173532,2,0,P|150:138|88:192,1,143.999995605469
156,236,173982,1,0,0:0:0:0:
465,320,174282,1,0,0:0:0:0:
366,51,174583,1,0,0:0:0:0:
212,24,174883,2,0,P|108:56|56:84,1,143.999995605469
84,144,175334,5,0,0:0:0:0:
84,144,175484,2,0,P|128:164|232:192,1,143.999995605469
248,106,175934,2,0,P|296:145|304:224,1,143.999995605469
219,189,176385,2,0,P|187:265|128:300,2,143.999995605469
64,140,177285,1,8,0:0:0:0:
372,48,177586,1,8,0:0:0:0:
489,157,177886,6,0,P|492:252|440:288,1,143.999995605469,4|0,0:0|0:0,0:0:0:0:
422,206,178337,2,0,P|369:253|284:236,1,143.999995605469
346,174,178787,2,0,P|294:114|88:72,1,287.999991210938
72,224,179688,1,0,0:0:0:0:
346,174,179988,1,0,0:0:0:0:
228,276,180288,5,0,0:0:0:0:
349,61,180589,1,0,0:0:0:0:
472,271,180889,1,0,0:0:0:0:
234,159,181189,1,0,0:0:0:0:
128,8,181490,2,0,P|72:76|64:136,1,132.00000402832
140,128,181940,1,0,0:0:0:0:
220,136,182090,2,0,P|201:198|140:252,1,143.999995605469,8|8,0:0|0:0,0:0:0:0:
51,256,182541,1,0,0:0:0:0:
51,256,182691,6,0,P|80:317|177:339,1,143.999995605469,4|2,0:0|0:0,0:0:0:0:
224,344,183141,1,0,0:0:0:0:
296,344,183291,2,0,P|361:319|392:256,1,143.999995605469,0|2,0:0|0:0,0:0:0:0:
396,184,183742,1,0,0:0:0:0:
396,112,183892,2,0,P|364:48|299:24,1,143.999995605469,0|2,0:0|0:0,0:0:0:0:
228,24,184343,1,0,0:0:0:0:
156,24,184493,2,0,P|90:48|59:111,1,143.999995605469,0|2,0:0|0:0,0:0:0:0:
100,235,184943,1,0,0:0:0:0:
202,313,185093,5,0,0:0:0:0:
275,83,185394,1,0,0:0:0:0:
403,319,185694,1,0,0:0:0:0:
155,175,185994,1,2,0:0:0:0:
263,175,186144,1,0,0:0:0:0:
396,188,186294,2,0,P|424:245|390:333,1,143.999995605469
324,258,186745,1,0,0:0:0:0:
263,175,186895,2,8,P|224:240|236:310,1,143.999995605469,8|10,0:0|0:0,0:0:0:0:
324,258,187496,6,0,L|346:91,1,143.999995605469,4|2,0:0|0:0,0:0:0:0:
355,44,187946,1,0,0:0:0:0:
355,44,188096,2,0,L|203:20,1,143.999995605469,0|2,0:0|0:0,0:0:0:0:
139,29,188547,1,0,0:0:0:0:
139,29,188697,2,0,L|99:173,1,143.999995605469,0|2,0:0|0:0,0:0:0:0:
84,236,189147,1,0,0:0:0:0:
84,236,189297,2,0,L|196:336,1,143.999995605469,0|2,0:0|0:0,0:0:0:0:
264,332,189748,5,0,0:0:0:0:
264,332,189898,2,0,P|356:244|360:136,2,215.999993408203
200,300,190949,1,0,0:0:0:0:
164,240,191099,2,0,P|184:136|232:88,1,143.999995605469
268,68,191550,1,2,0:0:0:0:
336,48,191700,2,8,P|420:36|472:68,1,143.999995605469
256,192,192300,12,4,201910,0:0:0:0:
