osu file format v14

[General]
AudioFilename: audio.mp3
AudioLeadIn: 0
PreviewTime: 38547
Countdown: 0
SampleSet: Normal
StackLeniency: 0.7
Mode: 0
LetterboxInBreaks: 0
EpilepsyWarning: 1
WidescreenStoryboard: 1

[Editor]
Bookmarks: 4913,33742,149057,163472,173081,182691,201910
DistanceSpacing: 1.4
BeatDivisor: 4
GridSize: 4
TimelineZoom: 4.299998

[Metadata]
Title:Say Goodbye (Speed Up Ver.)
TitleUnicode:Say Goodbye (Speed Up Ver.)
Artist:Krewella
ArtistUnicode:Krewella
Creator:saggi
Version:Megapcmx's Nightmare
Source:
Tags:LiousPL Melsoon walter85 Megapcmx Minorsonek LukerMaster -NeBu- Broly Envory ChuuritsuTv
BeatmapID:1273685
BeatmapSetID:580821

[Difficulty]
HPDrainRate:6
CircleSize:3.5
OverallDifficulty:8.2
ApproachRate:9
SliderMultiplier:1.4
SliderTickRate:2

[Events]
//Background and Video events
0,0,"girl.jpg",0,0
//Break Periods
2,29137,32302
2,79588,87107
2,149257,162032
//Storyboard Layer 0 (Background)
//Storyboard Layer 1 (Fail)
//Storyboard Layer 2 (Pass)
//Storyboard Layer 3 (Foreground)
Sprite,Foreground,Centre,"sb\highlight.png",280,224 C,0,117826,,255,128,0 F,2,117826,118626,1,0 S,2,117826,118626,0.9,0.18 P,0,117826,118626,A
Sprite,Foreground,Centre,"sb\highlight.png",241,276 C,0,117976,,255,128,0 F,2,117976,118776,1,0 S,2,117976,118776,0.9,0.18 P,0,117976,118776,A
Sprite,Foreground,Centre,"sb\highlight.png",182,301 C,0,118126,,255,128,0 F,2,118126,118926,1,0 S,2,118126,118926,0.9,0.18 P,0,118126,118926,A
Sprite,Foreground,Centre,"sb\highlight.png",118,294 C,0,118276,,255,128,0 F,2,118276,119076,1,0 S,2,118276,119076,0.9,0.18 P,0,118276,119076,A
Sprite,Foreground,Centre,"sb\highlight.png",156,152 C,0,118427,,242,24,57 F,2,118427,119227,1,0 S,2,118427,119227,0.9,0.18 P,0,118427,119227,A
Sprite,Foreground,Centre,"sb\highlight.png",236,86 C,0,118577,,242,24,57 F,2,118577,119377,1,0 S,2,118577,119377,0.9,0.18 P,0,118577,119377,A
Sprite,Foreground,Centre,"sb\highlight.png",341,85 C,0,118727,,242,24,57 F,2,118727,119527,1,0 S,2,118727,119527,0.9,0.18 P,0,118727,119527,A
Sprite,Foreground,Centre,"sb\highlight.png",425,147 C,0,118877,,242,24,57 F,2,118877,119677,1,0 S,2,118877,119677,0.9,0.18 P,0,118877,119677,A
Sprite,Foreground,Centre,"sb\highlight.png",482,313 M,0,119027,,482,313 C,0,119027,,255,0,0 F,2,119027,119827,1,0 S,2,119027,119827,0.9,0.18 P,0,119027,119827,A
Sprite,Foreground,Centre,"sb\highlight.png",286,313 C,0,119177,,255,0,0 F,2,119177,119977,1,0 S,2,119177,119977,0.9,0.18 P,0,119177,119977,A
Sprite,Foreground,Centre,"sb\highlight.png",384,143 C,0,119328,,255,0,0 F,2,119328,120128,1,0 S,2,119328,120128,0.9,0.18 P,0,119328,120128,A
Sprite,Foreground,Centre,"sb\highlight.png",396,388 C,0,119478,,255,0,0 F,2,119478,120278,1,0 S,2,119478,120278,0.9,0.18 P,0,119478,120278,A
Sprite,Foreground,Centre,"sb\highlight.png",169,199 C,0,119628,,255,0,0 F,2,119628,120428,1,0 S,2,119628,120428,0.9,0.18 P,0,119628,120428,A
Sprite,Foreground,Centre,"sb\highlight.png",447,96 C,0,119778,119779,255,0,0 F,2,119779,120579,1,0 S,2,119779,120579,0.9,0.18 P,0,119779,120579,A
Sprite,Foreground,Centre,"sb\highlight.png",296,375 C,0,119928,,255,0,0 F,2,119928,120728,1,0 S,2,119928,120728,0.9,0.18 P,0,119928,120728,A
Sprite,Foreground,Centre,"sb\highlight.png",193,96 C,0,120079,,255,0,0 F,2,120079,120879,1,0 S,2,120079,120879,0.9,0.18 P,0,120079,120879,A
Sprite,Foreground,Centre,"sb\highlight.png",180,100 C,0,107916,,255,0,0 F,2,107916,108716,1,0 S,2,107916,108716,0.9,0.18 P,0,107916,108716,A
Sprite,Foreground,Centre,"sb\highlight.png",169,114 C,0,107991,,255,0,0 F,2,107991,108791,1,0 S,2,107991,108791,0.9,0.18 P,0,107991,108791,A
Sprite,Foreground,Centre,"sb\highlight.png",158,129 C,0,108066,,255,0,0 F,2,108066,108866,1,0 S,2,108066,108866,0.9,0.18 P,0,108066,108866,A
Sprite,Foreground,Centre,"sb\highlight.png",149,145 C,0,108141,,255,0,0 F,2,108141,108941,1,0 S,2,108141,108941,0.9,0.18 P,0,108141,108941,A
Sprite,Foreground,Centre,"sb\highlight.png",544,216 C,0,47856,,255,192,0 F,2,47856,48656,1,0 S,2,47856,48656,0.9,0.18 P,0,47856,48656,A
Sprite,Foreground,Centre,"sb\highlight.png",540,264 C,0,47931,,255,192,0 F,2,47931,48731,1,0 S,2,47931,48731,0.9,0.18 P,0,47931,48731,A
Sprite,Foreground,Centre,"sb\highlight.png",523,310 C,0,48006,,255,192,0 F,2,48006,48806,1,0 S,2,48006,48806,0.9,0.18 P,0,48006,48806,A
Sprite,Foreground,Centre,"sb\highlight.png",495,350 C,0,48081,,255,192,0 F,2,48081,48881,1,0 S,2,48081,48881,0.9,0.18 P,0,48081,48881,A
Sprite,Foreground,Centre,"sb\highlight.png",513,93 C,0,96204,,255,192,0 F,2,96204,97004,1,0 S,2,96204,97004,0.9,0.18 P,0,96204,97004,A
Sprite,Foreground,Centre,"sb\highlight.png",313,256 C,0,96355,,255,192,0 F,2,96355,97155,1,0 S,2,96355,97155,0.9,0.18 P,0,96355,97155,A
Sprite,Foreground,Centre,"sb\highlight.png",313,256 C,0,96505,,255,192,0 F,2,96505,97305,1,0 S,2,96505,97305,0.9,0.18 P,0,96505,97305,A
Sprite,Foreground,Centre,"sb\highlight.png",557,170 C,0,96655,,255,192,0 F,2,96655,97455,1,0 S,2,96655,97455,0.9,0.18 P,0,96655,97455,A
Sprite,Foreground,Centre,"sb\highlight.png",299,170 C,0,96805,,255,192,0 F,2,96805,97605,1,0 S,2,96805,97605,0.9,0.18 P,0,96805,97605,A
Sprite,Foreground,Centre,"sb\highlight.png",299,170 C,0,96955,,255,192,0 F,2,96955,97755,1,0 S,2,96955,97755,0.9,0.18 P,0,96955,97755,A
Sprite,Foreground,Centre,"sb\highlight.png",542,256 C,0,97105,,255,192,0 F,2,97105,97905,1,0 S,2,97105,97905,0.9,0.18 P,0,97105,97905,A
Sprite,Foreground,Centre,"sb\highlight.png",342,93 C,0,97255,,255,192,0 F,2,97255,98055,1,0 S,2,97255,98055,0.9,0.18 P,0,97255,98055,A
Sprite,Foreground,Centre,"sb\highlight.png",480,386 C,0,97406,,255,0,0 F,2,97406,98206,1,0 S,2,97406,98206,0.9,0.18 P,0,97406,98206,A
Sprite,Foreground,Centre,"sb\highlight.png",486,240 C,0,147856,,255,128,0 F,2,147856,148656,1,0 S,2,147856,148656,0.9,0.18 P,0,147856,148656,A
Sprite,Foreground,Centre,"sb\highlight.png",182,339 C,0,148006,,255,128,0 F,2,148006,148806,1,0 S,2,148006,148806,0.9,0.18 P,0,148006,148806,A
Sprite,Foreground,Centre,"sb\highlight.png",370,80 C,0,148156,,255,128,0 F,2,148156,148956,1,0 S,2,148156,148956,0.9,0.18 P,0,148156,148956,A
Sprite,Foreground,Centre,"sb\highlight.png",370,400 C,0,148306,,255,128,0 F,2,148306,149106,1,0 S,2,148306,149106,0.9,0.18 P,0,148306,149106,A
Sprite,Foreground,Centre,"sb\highlight.png",182,141 C,0,148457,,255,128,0 M,0,148457,148494,182,141,172.2548,130.9791 F,2,148457,149557,1,0 S,2,148457,149557,0.9,0.18 P,0,148457,149557,A M,0,148494,148532,172.2548,130.9791,161.6334,121.9107 M,0,148532,148569,161.6334,121.9107,150.0623,114.0723 M,0,148569,148607,150.0623,114.0723,137.571,107.8043 M,0,148607,148644,137.571,107.8043,124.5215,102.8417 M,0,148644,148682,124.5215,102.8417,110.9967,99.35742 M,0,148682,148719,110.9967,99.35742,97.15855,97.39533 M,0,148719,148757,97.15855,97.39533,83.17403,96.9992
Sprite,Foreground,Centre,"sb\highlight.png",83,96 C,0,149057,,255,0,0 F,2,149057,149857,1,0 S,2,149057,149857,0.9,0.18 P,0,149057,149857,A
Sprite,Foreground,Centre,"sb\highlight.png",320,98 C,0,171880,,255,0,0 F,2,171880,172680,1,0 S,2,171880,172680,0.9,0.18 P,0,171880,172680,A
Sprite,Foreground,Centre,"sb\highlight.png",407,368 C,0,172030,,255,0,0 F,2,172030,172830,1,0 S,2,172030,172830,0.9,0.18 P,0,172030,172830,A
Sprite,Foreground,Centre,"sb\highlight.png",178,201 C,0,172180,,255,0,0 F,2,172180,172980,1,0 S,2,172180,172980,0.9,0.18 P,0,172180,172980,A
Sprite,Foreground,Centre,"sb\highlight.png",461,201 C,0,172331,,255,0,0 F,2,172331,173131,1,0 S,2,172331,173131,0.9,0.18 P,0,172331,173131,A
Sprite,Foreground,Centre,"sb\highlight.png",232,368 C,0,172481,,255,0,0 F,2,172481,173281,1,0 S,2,172481,173281,0.9,0.18 P,0,172481,173281,A
Sprite,Foreground,Centre,"sb\highlight.png",320,98 C,0,172631,,255,0,0 F,2,172631,173431,1,0 S,2,172631,173431,0.9,0.18 P,0,172631,173431,A
Sprite,Foreground,Centre,"sb\highlight.png",407,368 C,0,172781,,255,0,0 F,2,172781,173581,1,0 S,2,172781,173581,0.9,0.18 P,0,172781,173581,A
Sprite,Foreground,Centre,"sb\highlight.png",212,96 C,0,172931,,255,0,0 F,2,172931,173731,1,0 S,2,172931,173731,0.9,0.18 P,0,172931,173731,A
Sprite,Foreground,Centre,"sb\highlight.png",188,336 C,0,201309,,255,255,0 F,2,201309,202509,1,0 S,2,201309,202509,1,0.2 P,0,201309,202509,A
Sprite,Foreground,Centre,"sb\highlight.png",151,324 C,0,201385,,255,255,0 F,2,201385,202585,1,0 S,2,201385,202585,1,0.2 P,0,201385,202585,A
Sprite,Foreground,Centre,"sb\highlight.png",119,304 C,0,201460,,255,255,0 F,2,201460,202660,1,0 S,2,201460,202660,1,0.2 P,0,201460,202660,A
Sprite,Foreground,Centre,"sb\highlight.png",93,278 C,0,201535,,255,255,0 F,2,201535,202735,1,0 S,2,201535,202735,1,0.2 P,0,201535,202735,A
Sprite,Foreground,Centre,"sb\highlight.png",74,245 C,0,201610,,255,255,0 F,2,201610,202810,1,0 S,2,201610,202810,1,0.2 P,0,201610,202810,A
Sprite,Foreground,Centre,"sb\highlight.png",65,210 C,0,201685,,255,255,0 F,2,201685,202885,1,0 S,2,201685,202885,1,0.2 P,0,201685,202885,A
Sprite,Foreground,Centre,"sb\highlight.png",64,172 C,0,201760,,255,255,0 F,2,201760,202960,1,0 S,2,201760,202960,1,0.2 P,0,201760,202960,A
Sprite,Foreground,Centre,"sb\highlight.png",74,135 C,0,201835,,255,255,0 F,2,201835,203035,1,0 S,2,201835,203035,1,0.2 P,0,201835,203035,A
Sprite,Foreground,Centre,"sb\highlight.png",281,344 C,0,37346,,255,192,0 F,2,37346,38146,1,0 S,2,37346,38146,0.9,0.18 P,0,37346,38146,A
Sprite,Foreground,Centre,"sb\highlight.png",281,148 C,0,37496,,255,192,0 F,2,37496,38296,1,0 S,2,37496,38296,0.9,0.18 P,0,37496,38296,A
Sprite,Foreground,Centre,"sb\highlight.png",166,306 C,0,37646,,255,192,0 F,2,37646,38446,1,0 S,2,37646,38446,0.9,0.18 P,0,37646,38446,A
Sprite,Foreground,Centre,"sb\highlight.png",390,164 C,0,37796,,255,192,0 F,2,37796,38596,1,0 S,2,37796,38596,0.9,0.18 P,0,37796,38596,A
Sprite,Foreground,Centre,"sb\highlight.png",368,356 C,0,37946,,255,192,0 F,2,37946,38746,1,0 S,2,37946,38746,0.9,0.18 P,0,37946,38746,A
Sprite,Foreground,Centre,"sb\highlight.png",207,93 C,0,38096,,255,192,0 M,0,38096,38133,207,93,192.6965,103.0679 F,2,38096,39271,1,0 S,2,38096,39271,0.9,0.18 P,0,38096,39271,A M,0,38133,38171,192.6965,103.0679,177.1232,110.9948 M,0,38171,38208,177.1232,110.9948,160.0871,114.551 M,0,38208,38246,160.0871,114.551,151.903,125.1837 M,0,38246,38283,151.903,125.1837,138.616,127.678 M,0,38283,38321,138.616,127.678,132.1527,140.5245 M,0,38321,38358,132.1527,140.5245,120.0167,150.208 M,0,38358,38396,120.0167,150.208,108.351,163.1119 M,0,38396,38433,108.351,163.1119,100.2254,178.5894 M,0,38433,38471,100.2254,178.5894,94.01147,194.9428
//Storyboard Sound Samples

[TimingPoints]
1310,300.3003003003,4,1,1,70,1,0
9418,-83.3333333333333,4,1,1,70,0,0
9718,-100,4,1,1,70,0,0
28937,-83.3333333333333,4,1,1,70,0,0
38096,-100,4,1,1,15,0,0
38472,-100,4,1,1,5,0,0
38547,-68.9655172413792,4,1,1,70,0,1
38847,-68.9655172413792,4,1,1,70,0,1
40949,-83.3333333333333,4,1,1,70,0,1
45754,-100,4,1,1,70,0,1
46955,-125,4,1,1,70,0,1
47856,-83.3333333333333,4,1,1,40,0,1
48156,-71.4285714285714,4,1,1,70,0,1
55364,-100,4,1,1,70,0,1
57165,-68.9655172413793,4,1,1,70,0,1
57841,-68.9655172413792,4,1,1,30,0,0
60168,-68.9655172413792,4,1,1,70,0,0
67376,-55.5555555555556,4,1,1,70,0,0
69778,-68.9655172413793,4,1,1,70,0,0
72180,-55.5555555555556,4,1,1,70,0,0
72481,-68.9655172413793,4,1,1,70,0,0
76985,-55.5555555555556,4,1,1,70,0,0
79388,-100,4,1,1,85,0,0
88547,-100,4,1,1,85,0,0
88997,-83.3333333333333,4,1,1,70,0,0
98607,-55.5555555555556,4,1,1,85,0,1
98907,-62.5,4,1,1,85,0,1
115424,-71.4285714285714,4,1,1,85,0,1
120228,-62.5,4,1,1,85,0,0
129838,-83.3333333333333,4,1,1,85,0,0
130439,-71.4285714285714,4,1,1,85,0,0
132240,-83.3333333333333,4,1,1,85,0,0
132841,-71.4285714285714,4,1,1,85,0,0
134643,-83.3333333333333,4,1,1,85,0,0
135243,-71.4285714285714,4,1,1,85,0,0
137045,-100,4,1,1,70,0,0
139448,-83.3333333333333,4,1,1,70,0,0
148457,-125,4,1,1,70,0,0
163472,-100,4,1,1,70,0,0
168276,-83.3333333333333,4,1,1,70,0,0
173081,-62.5,4,1,1,70,0,0
195904,-71.4285714285714,4,1,1,60,0,0
197105,-62.5,4,1,1,70,0,0
201910,-100,4,1,1,60,0,0
203111,-100,4,1,1,50,0,0
204313,-100,4,1,1,40,0,0
205514,-100,4,1,1,30,0,0
206715,-100,4,1,1,20,0,0
207916,-100,4,1,1,10,0,0
208817,-100,4,1,1,5,0,0

[HitObjects]
312,96,4913,5,0,0:0:0:0:
384,208,5063,2,0,L|408:248,2,35,0|0|0,0:0|0:0|0:0,0:0:0:0:
271,231,5364,2,0,P|207:191|135:191,1,140
64,272,5814,1,0,0:0:0:0:
168,304,5964,1,0,0:0:0:0:
144,188,6114,6,0,P|141:112|177:50,1,140
264,152,6565,2,0,P|299:84|361:48,1,140,0|0,0:0|0:0,0:0:0:0:
368,160,7015,2,0,L|368:256,1,70,0|0,0:0|0:0,0:0:0:0:
304,320,7316,5,0,0:0:0:0:
248,224,7466,2,0,P|209:223|179:242,1,70,0|0,0:0|0:0,0:0:0:0:
112,344,7766,2,0,P|146:345|177:329,1,70,0|0,0:0|0:0,0:0:0:0:
88,216,8066,1,0,0:0:0:0:
220,268,8216,1,0,0:0:0:0:
40,312,8367,1,0,0:0:0:0:
136,168,8517,6,0,B|194:136|194:136|266:148,1,140,0|0,0:0|0:0,0:0:0:0:
376,184,8967,2,0,P|388:113|376:40,1,140,0|0,0:0|0:0,0:0:0:0:
266,148,9418,2,0,B|264:180|251:207|251:207|263:212|263:212|251:220|251:220|263:225|263:225|244:252|240:288,1,167.999994873047
64,336,10168,5,0,0:0:0:0:
64,112,10619,2,0,P|124:76|192:72,1,140,0|2,0:0|0:0,0:0:0:0:
176,240,11370,1,0,0:0:0:0:
288,112,11820,1,0,0:0:0:0:
288,256,12120,6,0,P|352:336|416:352,1,140,0|0,0:0|0:0,0:0:0:0:
424,208,12571,2,0,B|472:142|472:142|457:69|390:33,1,210
184,52,13322,2,0,P|101:75|56:144,1,140,0|0,0:0|0:0,0:0:0:0:
160,144,13772,2,0,P|237:145|295:107,1,140
324,216,14222,1,0,0:0:0:0:
232,304,14373,1,0,0:0:0:0:
128,212,14523,6,0,P|92:290|115:368,1,140,0|0,0:0|0:0,0:0:0:0:
232,304,14973,2,0,B|268:304|288:292|288:292|320:268|320:268|344:252|380:256,1,140,0|0,0:0|0:0,0:0:0:0:
448,328,15424,1,0,0:0:0:0:
448,160,15724,6,2,B|457:107|457:107|436:60|448:16,1,140,2|0,0:0|0:0,0:0:0:0:
368,124,16174,2,0,P|304:160|230:165,1,140,0|0,0:0|0:0,0:0:0:0:
120,136,16625,1,0,0:0:0:0:
120,136,16775,1,0,0:0:0:0:
184,244,16925,6,2,P|124:310|59:322,1,140,2|0,0:0|0:0,0:0:0:0:
120,136,17376,2,2,P|179:69|244:57,1,140,2|0,0:0|0:0,0:0:0:0:
308,52,17826,1,0,0:0:0:0:
260,216,18126,6,2,P|320:282|385:294,1,140,2|0,0:0|0:0,0:0:0:0:
452,296,18577,1,2,0:0:0:0:
452,160,18727,1,0,0:0:0:0:
244,348,19027,1,0,0:0:0:0:
168,188,19328,6,0,B|133:128|133:128|65:108,1,140,0|0,0:0|0:0,0:0:0:0:
72,212,19778,1,0,0:0:0:0:
196,52,20228,1,0,0:0:0:0:
280,240,20529,6,2,B|314:299|314:299|382:319,1,140,2|0,0:0|0:0,0:0:0:0:
392,196,20979,1,2,0:0:0:0:
200,140,21430,1,0,0:0:0:0:
280,240,21730,6,0,P|204:284|156:264,1,140,0|0,0:0|0:0,0:0:0:0:
64,324,22180,2,0,B|32:239|32:239|72:124,1,210,0|0,0:0|0:0,0:0:0:0:
212,208,22931,1,0,0:0:0:0:
316,52,23231,1,0,0:0:0:0:
400,124,23382,2,0,P|426:163|434:190,1,70,0|0,0:0|0:0,0:0:0:0:
384,340,23832,1,0,0:0:0:0:
320,204,24132,6,0,P|267:249|236:335,1,140,0|0,0:0|0:0,0:0:0:0:
172,384,24583,2,0,B|115:339|115:339|87:260,1,140,0|0,0:0|0:0,0:0:0:0:
60,152,25033,1,0,0:0:0:0:
216,216,25334,6,2,P|268:170|299:84,1,140,2|0,0:0|0:0,0:0:0:0:
364,36,25784,2,0,B|420:80|420:80|448:159,1,140,0|0,0:0|0:0,0:0:0:0:
448,248,26234,1,0,0:0:0:0:
356,352,26385,1,0,0:0:0:0:
236,308,26535,6,2,P|186:266|152:185,1,140,2|0,0:0|0:0,0:0:0:0:
148,88,26985,2,2,L|292:164,1,140,2|0,0:0|0:0,0:0:0:0:
352,192,27436,1,0,0:0:0:0:
256,192,27736,12,0,28937,0:0:0:0:
461,77,33742,5,8,0:0:0:0:
445,199,34042,1,8,0:0:0:0:
370,297,34343,1,8,0:0:0:0:
256,344,34643,1,8,0:0:0:0:
68,232,34943,5,8,0:0:0:0:
162,136,35243,1,8,0:0:0:0:
257,231,35544,1,8,0:0:0:0:
68,232,35844,1,8,0:0:0:0:
288,112,36144,5,8,0:0:0:0:
288,112,36294,1,8,0:0:0:0:
217,288,36445,1,8,0:0:0:0:
217,288,36595,1,8,0:0:0:0:
102,129,36745,1,8,0:0:0:0:
288,189,36895,1,8,0:0:0:0:
102,250,37045,1,8,0:0:0:0:
217,92,37195,1,8,0:0:0:0:
217,288,37346,5,0,0:0:0:0:
217,92,37496,1,0,0:0:0:0:
102,250,37646,1,0,0:0:0:0:
326,108,37796,1,0,0:0:0:0:
304,300,37946,1,0,0:0:0:0:
143,37,38096,2,0,B|111:62|90:58|90:58|87:74|87:74|71:71|71:71|67:90|67:90|43:92|26:152,1,175
56,216,38547,6,12,P|156:192|256:236,1,203.000006195069,12|2,0:0|0:0,0:0:0:0:
344,308,38997,1,0,0:0:0:0:
344,104,39147,1,0,0:0:0:0:
344,104,39222,1,0,0:0:0:0:
344,104,39297,1,8,0:0:0:0:
172,36,39448,2,0,L|67:63,1,101.500003097534,0|8,0:0|0:0,0:0:0:0:
164,240,39748,6,2,P|220:152|336:144,1,203.000006195069,2|2,0:0|0:0,0:0:0:0:
468,176,40198,1,0,0:0:0:0:
284,256,40349,1,0,0:0:0:0:
284,256,40424,1,0,0:0:0:0:
284,256,40499,1,0,0:0:0:0:
376,32,40649,1,2,0:0:0:0:
468,292,40799,1,0,0:0:0:0:
224,72,40949,6,8,P|160:124|164:220,1,167.999994873047,8|2,0:0|0:0,0:0:0:0:
316,204,41400,1,0,0:0:0:0:
316,204,41550,6,0,P|313:266|279:315,1,83.9999974365235
255,353,41850,1,0,0:0:0:0:
156,204,42000,1,0,0:0:0:0:
36,304,42150,2,8,B|40:236|40:236|24:196|24:196|24:140,1,167.999994873047,8|0,0:0|0:0,0:0:0:0:
204,132,42601,1,0,0:0:0:0:
24,40,42751,1,0,0:0:0:0:
24,40,42826,1,0,0:0:0:0:
24,40,42901,1,8,0:0:0:0:
88,160,43051,1,0,0:0:0:0:
240,28,43201,1,0,0:0:0:0:
408,144,43352,6,4,B|408:188|376:220|376:220|328:208|268:232,1,167.999994873047,4|2,0:0|0:0,0:0:0:0:
204,132,43802,1,0,0:0:0:0:
116,248,43952,2,0,L|92:292,2,41.9999987182618
232,328,44252,2,2,P|276:346|332:346,1,83.9999974365235,2|0,0:0|0:0,0:0:0:0:
448,344,44553,6,8,B|476:308|476:308|476:236,1,83.9999974365235,8|2,0:0|0:0,0:0:0:0:
476,219,44853,1,0,0:0:0:0:
472,56,45003,1,0,0:0:0:0:
312,148,45153,1,0,0:0:0:0:
312,148,45228,1,0,0:0:0:0:
312,148,45303,1,8,0:0:0:0:
352,304,45454,2,2,P|312:312|260:300,1,83.9999974365235,2|0,0:0|0:0,0:0:0:0:
184,112,45754,6,8,P|120:96|52:124,1,140,8|2,0:0|0:0,0:0:0:0:
132,240,46204,1,0,0:0:0:0:
256,192,46355,1,0,0:0:0:0:
380,328,46505,1,8,0:0:0:0:
380,328,46580,1,0,0:0:0:0:
380,328,46655,1,0,0:0:0:0:
132,328,46805,1,0,0:0:0:0:
256,100,46955,1,0,0:0:0:0:
480,160,47856,5,0,0:0:0:0:
476,208,47931,1,0,0:0:0:0:
459,254,48006,1,0,0:0:0:0:
431,294,48081,1,0,0:0:0:0:
392,328,48156,6,12,P|349:336|295:323,1,97.9999970092774,12|0,0:0|0:0,0:0:0:0:
128,192,48457,1,2,0:0:0:0:
360,88,48607,1,0,0:0:0:0:
296,323,48757,1,0,0:0:0:0:
216,72,48907,1,8,0:0:0:0:
124,280,49057,6,2,P|93:309|40:329,1,97.9999970092774,2|0,0:0|0:0,0:0:0:0:
44,64,49358,5,8,0:0:0:0:
256,28,49508,1,0,0:0:0:0:
144,248,49658,1,2,0:0:0:0:
256,28,49808,1,0,0:0:0:0:
296,312,49958,2,0,P|340:352|384:360,1,97.9999970092774,0|0,0:0|0:0,0:0:0:0:
228,180,50258,2,2,P|184:140|140:132,1,97.9999970092774,2|0,0:0|0:0,0:0:0:0:
84,328,50559,5,4,0:0:0:0:
296,312,50709,1,0,0:0:0:0:
147,131,50859,1,2,0:0:0:0:
12,328,51009,1,0,0:0:0:0:
214,357,51159,2,0,P|270:338|299:304,1,97.9999970092774,0|8,0:0|0:0,0:0:0:0:
384,112,51460,2,2,P|349:78|302:65,1,97.9999970092774,2|0,0:0|0:0,0:0:0:0:
120,196,51760,5,8,0:0:0:0:
212,56,51910,1,0,0:0:0:0:
276,220,52060,1,2,0:0:0:0:
92,84,52210,1,0,0:0:0:0:
92,272,52361,2,0,P|128:312|184:332,1,97.9999970092774,0|8,0:0|0:0,0:0:0:0:
420,272,52661,2,2,P|384:312|328:332,1,97.9999970092774,2|0,0:0|0:0,0:0:0:0:
80,364,52961,5,4,0:0:0:0:
256,180,53261,1,12,0:0:0:0:
432,364,53562,5,8,0:0:0:0:
184,244,53862,1,8,0:0:0:0:
360,88,54162,1,8,0:0:0:0:
152,88,54463,1,8,0:0:0:0:
256,300,54763,1,8,0:0:0:0:
256,24,55063,1,8,0:0:0:0:
77,202,55364,6,12,L|25:255,3,70,12|8|8|8,0:0|0:0|0:0|0:0,0:0:0:0:
129,298,55964,1,8,0:0:0:0:
211,326,56114,1,8,0:0:0:0:
298,328,56264,1,8,0:0:0:0:
382,303,56415,1,8,0:0:0:0:
460,160,56565,5,0,0:0:0:0:
336,36,56715,1,0,0:0:0:0:
291,206,56865,1,0,0:0:0:0:
245,37,57015,5,0,0:0:0:0:
121,161,57165,1,0,0:0:0:0:
291,206,57315,1,0,0:0:0:0:
245,37,57466,1,0,0:0:0:0:
101,180,57616,1,0,0:0:0:0:
276,352,57766,1,0,0:0:0:0:
256,192,57841,12,0,59868,0:0:0:0:
84,132,60168,6,0,B|64:172|76:224|76:224|136:244|152:300,1,203.000006195069,0|0,0:0|0:0,0:0:0:0:
232,152,60619,1,0,0:0:0:0:
296,352,60769,2,0,P|351:339|390:310,1,101.500003097534,0|8,0:0|0:0,0:0:0:0:
448,204,61069,1,0,0:0:0:0:
327,114,61219,2,8,P|271:126|232:155,1,101.500003097534,8|0,0:0|0:0,0:0:0:0:
216,352,61520,2,0,P|160:339|121:310,1,101.500003097534,0|2,0:0|0:0,0:0:0:0:
60,124,61820,5,0,0:0:0:0:
60,124,61895,1,0,0:0:0:0:
60,124,61970,2,0,P|108:137|148:168,1,101.500003097534,0|8,0:0|0:0,0:0:0:0:
69,230,62270,2,0,P|105:266|124:313,1,101.500003097534,0|8,0:0|0:0,0:0:0:0:
160,56,62571,6,12,B|232:40|232:40|256:16|280:40|280:40|364:56,1,203.000006195069,12|2,0:0|0:0,0:0:0:0:
256,160,63021,1,0,0:0:0:0:
208,272,63171,2,0,P|254:283|306:272,1,101.500003097534,0|8,0:0|0:0,0:0:0:0:
392,168,63472,1,8,0:0:0:0:
464,316,63622,2,0,P|429:352|383:373,1,101.500003097534,0|8,0:0|0:0,0:0:0:0:
336,217,63922,2,0,P|301:180|255:159,1,101.500003097534,0|2,0:0|0:0,0:0:0:0:
92,148,64222,5,0,0:0:0:0:
92,148,64297,1,0,0:0:0:0:
92,148,64373,2,0,L|92:252,1,101.500003097534,0|8,0:0|0:0,0:0:0:0:
176,144,64673,2,0,L|176:42,1,101.500003097534,0|8,0:0|0:0,0:0:0:0:
348,44,64973,6,12,P|433:99|460:192,1,203.000006195069,12|2,0:0|0:0,0:0:0:0:
306,192,65424,1,0,0:0:0:0:
156,144,65574,2,8,P|103:170|64:224,2,101.500003097534,8|0|2,0:0|0:0|0:0,0:0:0:0:
306,192,66024,2,0,L|371:269,1,101.500003097534,0|8,0:0|0:0,0:0:0:0:
236,312,66325,2,0,L|153:381,1,101.500003097534,0|2,0:0|0:0,0:0:0:0:
28,316,66625,5,0,0:0:0:0:
28,316,66700,1,0,0:0:0:0:
28,316,66775,1,0,0:0:0:0:
156,144,66925,1,8,0:0:0:0:
157,376,67075,1,2,0:0:0:0:
288,132,67225,1,0,0:0:0:0:
156,8,67376,5,0,0:0:0:0:
17,201,67526,2,0,P|57:262|125:291,1,125.999996154785,0|0,0:0|0:0,0:0:0:0:
244,44,67826,1,0,0:0:0:0:
361,239,67976,2,0,P|323:296|261:326,1,125.999996154785,0|0,0:0|0:0,0:0:0:0:
310,125,68276,5,0,0:0:0:0:
153,46,68427,2,0,P|89:77|51:136,1,125.999996154785
96,344,68727,1,0,0:0:0:0:
272,344,68877,1,2,0:0:0:0:
216,152,69027,5,0,0:0:0:0:
216,152,69102,1,0,0:0:0:0:
216,152,69177,2,0,P|197:94|147:42,1,125.999996154785,0|0,0:0|0:0,0:0:0:0:
15,200,69478,2,2,P|70:176|142:181,1,125.999996154785,2|0,0:0|0:0,0:0:0:0:
328,288,69778,6,12,P|421:288|421:164,1,203.000006195069,12|2,0:0|0:0,0:0:0:0:
336,48,70228,1,0,0:0:0:0:
153,46,70379,2,0,P|119:92|104:160,2,101.500003097534,0|8|2,0:0|0:0|0:0,0:0:0:0:
256,160,70829,2,0,L|368:216,1,101.500003097534,0|8,0:0|0:0,0:0:0:0:
256,336,71129,2,0,P|199:363|137:365,1,101.500003097534,0|2,0:0|0:0,0:0:0:0:
15,200,71430,5,0,0:0:0:0:
15,200,71505,1,0,0:0:0:0:
15,200,71580,1,0,0:0:0:0:
160,56,71730,1,8,0:0:0:0:
236,232,71880,1,2,0:0:0:0:
396,92,72030,1,0,0:0:0:0:
452,288,72180,6,12,B|385:311|355:365|355:365|280:372|232:324,1,253.750007743836,12|0,0:0|0:0,0:0:0:0:
115,170,72631,1,0,0:0:0:0:
256,0,72781,2,0,P|297:46|317:106,2,101.500003097534,0|8|2,0:0|0:0|0:0,0:0:0:0:
160,56,73231,2,0,L|69:104,1,101.500003097534,0|0,0:0|0:0,0:0:0:0:
127,270,73532,2,0,L|223:321,1,101.500003097534,0|2,0:0|0:0,0:0:0:0:
268,156,73832,5,0,0:0:0:0:
268,156,73907,1,0,0:0:0:0:
268,156,73982,1,0,0:0:0:0:
396,57,74132,1,0,0:0:0:0:
447,218,74282,1,2,0:0:0:0:
279,309,74433,1,0,0:0:0:0:
152,180,74583,6,12,P|69:200|52:320,1,203.000006195069,12|2,0:0|0:0,0:0:0:0:
232,244,75033,1,0,0:0:0:0:
396,151,75183,2,0,P|455:168|483:223,2,101.500003097534,0|8|0,0:0|0:0|0:0,0:0:0:0:
284,332,75634,2,0,P|223:339|155:315,1,101.500003097534,0|8,0:0|0:0,0:0:0:0:
84,188,75934,2,0,L|44:286,1,101.500003097534,0|2,0:0|0:0,0:0:0:0:
228,244,76234,5,0,0:0:0:0:
228,244,76309,1,0,0:0:0:0:
228,244,76385,1,0,0:0:0:0:
372,104,76535,1,8,0:0:0:0:
180,160,76685,1,2,0:0:0:0:
316,12,76835,1,0,0:0:0:0:
84,60,76985,5,12,0:0:0:0:
44,194,77135,2,0,P|40:266|71:323,1,125.999996154785,0|2,0:0|0:0,0:0:0:0:
217,289,77436,1,12,0:0:0:0:
342,351,77586,2,0,P|413:344|465:305,1,125.999996154785,0|8,0:0|0:0,0:0:0:0:
459,138,77886,1,12,0:0:0:0:
346,220,78036,2,0,P|279:248|215:238,1,125.999996154785,0|8,0:0|0:0,0:0:0:0:
48,63,78337,5,8,0:0:0:0:
274,172,78487,1,8,0:0:0:0:
32,241,78637,1,8,0:0:0:0:
194,47,78787,1,8,0:0:0:0:
178,310,78937,1,8,0:0:0:0:
48,63,79087,1,2,0:0:0:0:
274,172,79237,1,0,0:0:0:0:
32,241,79388,5,12,0:0:0:0:
85,230,88547,5,8,0:0:0:0:
256,48,88697,1,2,0:0:0:0:
256,284,88997,6,12,P|320:336|412:340,1,167.999994873047,12|2,0:0|0:0,0:0:0:0:
360,232,89448,2,0,P|389:154|467:105,1,167.999994873047,0|8,0:0|0:0,0:0:0:0:
477,223,89898,1,2,0:0:0:0:
304,64,90198,6,0,P|231:105|140:92,1,167.999994873047,0|2,0:0|0:0,0:0:0:0:
48,32,90649,1,0,0:0:0:0:
48,216,90949,2,0,L|48:300,1,83.9999974365235,0|0,0:0|0:0,0:0:0:0:
244,168,91400,6,0,P|296:104|380:88,1,167.999994873047,0|2,0:0|0:0,0:0:0:0:
360,232,91850,2,0,P|308:296|224:312,1,167.999994873047,0|8,0:0|0:0,0:0:0:0:
124,256,92300,1,2,0:0:0:0:
304,32,92601,5,8,0:0:0:0:
88,184,92901,1,0,0:0:0:0:
204,148,93051,1,0,0:0:0:0:
16,32,93352,1,0,0:0:0:0:
40,252,93502,2,0,P|52:304|80:328,1,83.9999974365235,0|0,0:0|0:0,0:0:0:0:
208,344,93802,6,12,P|293:279|368:278,1,167.999994873047,12|2,0:0|0:0,0:0:0:0:
456,328,94252,1,0,0:0:0:0:
244,168,94553,1,0,0:0:0:0:
340,80,94703,1,2,0:0:0:0:
224,32,95003,6,8,P|161:88|65:94,1,167.999994873047,8|2,0:0|0:0,0:0:0:0:
40,252,95454,2,0,P|100:307|182:318,1,167.999994873047,0|0,0:0|0:0,0:0:0:0:
351,275,95904,1,0,0:0:0:0:
449,37,96204,5,2,0:0:0:0:
249,200,96355,1,8,0:0:0:0:
249,200,96505,1,8,0:0:0:0:
493,114,96655,1,2,0:0:0:0:
235,114,96805,1,0,0:0:0:0:
235,114,96955,1,8,0:0:0:0:
478,200,97105,1,2,0:0:0:0:
278,37,97255,1,8,0:0:0:0:
416,330,97406,5,2,0:0:0:0:
220,300,98607,6,12,B|164:264|176:180|176:180|104:168|56:216,1,251.999992309571,12|2,0:0|0:0,0:0:0:0:
80,340,99057,1,0,0:0:0:0:
288,208,99207,1,0,0:0:0:0:
288,208,99282,1,0,0:0:0:0:
288,208,99358,1,8,0:0:0:0:
388,328,99508,2,2,P|452:344|500:312,1,112,2|0,0:0|0:0,0:0:0:0:
428,180,99808,6,8,P|368:88|258:66,1,224,8|2,0:0|0:0,0:0:0:0:
116,112,100258,1,0,0:0:0:0:
208,240,100409,1,0,0:0:0:0:
208,240,100484,1,0,0:0:0:0:
208,240,100559,1,0,0:0:0:0:
36,284,100709,1,2,0:0:0:0:
196,364,100859,1,0,0:0:0:0:
32,140,101009,6,8,P|88:29|184:51,1,224,8|0,0:0|0:0,0:0:0:0:
292,144,101460,1,0,0:0:0:0:
208,240,101610,1,0,0:0:0:0:
340,312,101760,1,8,0:0:0:0:
340,312,101835,1,0,0:0:0:0:
340,312,101910,2,0,P|399:313|450:261,1,112,0|0,0:0|0:0,0:0:0:0:
437,86,102210,5,8,0:0:0:0:
260,188,102361,1,0,0:0:0:0:
344,2,102511,1,0,0:0:0:0:
388,204,102661,1,0,0:0:0:0:
233,65,102811,1,0,0:0:0:0:
437,86,102961,1,8,0:0:0:0:
260,188,103111,2,2,P|216:220|192:272,1,112,2|0,0:0|0:0,0:0:0:0:
60,356,103412,6,12,B|41:223|41:223|96:132,1,224,12|2,0:0|0:0,0:0:0:0:
172,16,103862,1,0,0:0:0:0:
260,188,104012,1,0,0:0:0:0:
260,188,104087,1,0,0:0:0:0:
260,188,104162,1,8,0:0:0:0:
120,240,104313,2,2,P|162:306|215:324,1,112,2|0,0:0|0:0,0:0:0:0:
380,344,104613,6,0,B|434:282|434:282|399:222|445:148,1,224,0|2,0:0|0:0,0:0:0:0:
500,32,105063,1,0,0:0:0:0:
324,72,105213,1,0,0:0:0:0:
324,72,105288,1,0,0:0:0:0:
324,72,105364,1,8,0:0:0:0:
340,252,105514,1,2,0:0:0:0:
416,92,105664,1,0,0:0:0:0:
216,40,105814,6,8,B|169:54|105:27|105:27|89:90|126:153,1,224,8|2,0:0|0:0,0:0:0:0:
180,300,106264,1,8,0:0:0:0:
180,300,106340,1,0,0:0:0:0:
180,300,106415,1,0,0:0:0:0:
280,124,106565,1,0,0:0:0:0:
392,304,106715,1,2,0:0:0:0:
200,192,106865,1,0,0:0:0:0:
388,104,107015,1,12,0:0:0:0:
116,44,107916,5,0,0:0:0:0:
105,58,107991,1,0,0:0:0:0:
94,73,108066,1,0,0:0:0:0:
85,89,108141,1,0,0:0:0:0:
77,104,108216,6,12,P|59:178|83:231,1,112,12|0,0:0|0:0,0:0:0:0:
168,332,108517,1,2,0:0:0:0:
256,200,108667,1,0,0:0:0:0:
356,348,108817,1,0,0:0:0:0:
200,260,108967,1,8,0:0:0:0:
380,172,109117,1,2,0:0:0:0:
256,356,109267,1,0,0:0:0:0:
256,108,109418,6,8,P|216:72|160:68,1,112,8|0,0:0|0:0,0:0:0:0:
92,208,109718,1,2,0:0:0:0:
95,16,109868,2,0,P|43:30|10:76,1,112,0|0,0:0|0:0,0:0:0:0:
24,248,110168,1,0,0:0:0:0:
184,144,110319,2,2,P|223:180|233:235,1,112,2|0,0:0|0:0,0:0:0:0:
144,336,110619,5,4,0:0:0:0:
144,336,110694,1,0,0:0:0:0:
144,336,110769,1,0,0:0:0:0:
92,208,110919,1,2,0:0:0:0:
192,68,111069,1,0,0:0:0:0:
376,128,111219,5,0,0:0:0:0:
212,200,111370,1,8,0:0:0:0:
424,200,111520,1,2,0:0:0:0:
312,60,111670,1,0,0:0:0:0:
312,236,111820,6,8,P|344:288|392:312,2,112,8|0|2,0:0|0:0|0:0,0:0:0:0:
192,68,112270,2,0,P|152:28|99:15,2,112,0|0|0,0:0|0:0|0:0,0:0:0:0:
228,236,112721,1,2,0:0:0:0:
84,160,112871,1,0,0:0:0:0:
84,312,113021,6,12,B|144:316|184:360|184:360|248:372|308:336,1,224,12|2,0:0|0:0,0:0:0:0:
396,228,113472,1,0,0:0:0:0:
396,228,113622,2,0,L|464:116,1,112,0|8,0:0|0:0,0:0:0:0:
316,56,113922,6,2,B|248:36|248:36|184:100|108:80,1,224,2|8,0:0|0:0,0:0:0:0:
36,220,114373,1,0,0:0:0:0:
180,160,114523,1,4,0:0:0:0:
144,312,114673,2,0,P|188:344|248:352,1,112,0|8,0:0|0:0,0:0:0:0:
320,172,114973,2,8,P|306:224|266:269,1,112,8|4,0:0|0:0,0:0:0:0:
48,108,115424,6,12,B|76:80|114:80|114:80|110:65|110:65|126:71|126:71|122:56|122:56|168:56|196:28,1,195.999994018555,12|8,0:0|0:0,0:0:0:0:
184,228,116024,2,0,B|176:280|212:304|212:304|224:304|224:304|224:320|224:320|236:320|236:320|280:344|332:324,1,195.999994018555,0|8,0:0|0:0,0:0:0:0:
412,168,116625,1,8,0:0:0:0:
264,40,116925,1,8,0:0:0:0:
348,216,117225,1,8,0:0:0:0:
344,20,117526,1,8,0:0:0:0:
216,168,117826,5,8,0:0:0:0:
177,220,117976,1,8,0:0:0:0:
118,245,118126,1,8,0:0:0:0:
54,238,118276,1,8,0:0:0:0:
92,96,118427,5,8,0:0:0:0:
172,30,118577,1,8,0:0:0:0:
277,29,118727,1,8,0:0:0:0:
361,91,118877,1,8,0:0:0:0:
418,257,119027,5,2,0:0:0:0:
222,257,119177,1,8,0:0:0:0:
320,87,119328,1,8,0:0:0:0:
332,332,119478,5,2,0:0:0:0:
105,143,119628,1,8,0:0:0:0:
383,40,119779,1,8,0:0:0:0:
232,319,119928,1,8,0:0:0:0:
129,40,120079,1,8,0:0:0:0:
383,40,120228,6,0,B|448:108|448:108|444:192|400:224,1,224,4|0,0:0|0:0,0:0:0:0:
261,133,120679,1,0,0:0:0:0:
108,160,120829,2,0,P|126:222|166:256,2,112,0|8|2,0:0|0:0|0:0,0:0:0:0:
209,39,121279,2,0,P|247:78|260:132,1,112,0|8,0:0|0:0,0:0:0:0:
260,289,121580,2,0,P|315:290|363:263,1,112,0|2,0:0|0:0,0:0:0:0:
452,124,121880,5,0,0:0:0:0:
452,124,121955,1,0,0:0:0:0:
452,124,122030,2,0,B|472:68|436:48|452:12,1,112,0|8,0:0|0:0,0:0:0:0:
452,236,122331,2,0,B|472:292|436:312|452:348,1,112,0|8,0:0|0:0,0:0:0:0:
363,262,122631,6,12,B|312:241|277:192|277:192|211:209|184:268,1,224,12|0,0:0|0:0,0:0:0:0:
268,328,123081,1,8,0:0:0:0:
124,173,123231,2,0,P|64:177|16:221,2,112,0|8|0,0:0|0:0|0:0,0:0:0:0:
268,328,123682,6,0,P|320:311|356:269,1,112,0|8,0:0|0:0,0:0:0:0:
356,90,123982,6,0,P|320:47|267:31,1,112,0|2,0:0|0:0,0:0:0:0:
224,180,124282,1,0,0:0:0:0:
224,180,124358,1,0,0:0:0:0:
224,180,124433,1,0,0:0:0:0:
113,69,124583,1,8,0:0:0:0:
267,31,124733,1,2,0:0:0:0:
124,173,124883,1,0,0:0:0:0:
234,283,125033,6,12,P|318:221|298:110,1,224,12|0,0:0|0:0,0:0:0:0:
180,24,125484,1,0,0:0:0:0:
124,173,125634,2,0,P|91:225|40:256,2,112,0|8|2,0:0|0:0|0:0,0:0:0:0:
267,31,126084,2,0,P|317:9|377:9,1,112,0|8,0:0|0:0,0:0:0:0:
348,164,126385,2,0,P|363:216|401:262,1,112,0|2,0:0|0:0,0:0:0:0:
260,336,126685,1,0,0:0:0:0:
260,336,126835,2,0,P|203:354|144:356,2,112,0|0|0,0:0|0:0|0:0,0:0:0:0:
399,260,127285,1,0,0:0:0:0:
308,104,127436,5,12,0:0:0:0:
136,148,127586,2,0,P|96:204|96:256,1,112,0|2,0:0|0:0,0:0:0:0:
224,24,127886,1,0,0:0:0:0:
203,200,128036,2,0,P|240:257|289:276,1,112,0|8,0:0|0:0,0:0:0:0:
118,72,128337,5,2,0:0:0:0:
275,154,128487,2,0,P|342:139|376:100,1,112,0|8,0:0|0:0,0:0:0:0:
432,16,128787,1,0,0:0:0:0:
500,180,128937,1,2,0:0:0:0:
428,348,129087,1,0,0:0:0:0:
428,348,129237,2,0,P|368:332|300:344,1,112
157,265,129538,2,2,P|210:280|265:275,1,112,2|0,0:0|0:0,0:0:0:0:
372,178,129838,6,12,B|288:136|280:40|280:40|196:32|152:140,1,335.999989746094,12|2,0:0|0:0,0:0:0:0:
157,265,130589,1,0,0:0:0:0:
280,208,130739,1,0,0:0:0:0:
180,344,130889,2,0,P|119:339|83:303,1,97.9999970092774,0|8,0:0|0:0,0:0:0:0:
68,164,131189,2,0,P|116:163|156:191,1,97.9999970092774,0|0,0:0|0:0,0:0:0:0:
267,302,131490,1,0,0:0:0:0:
380,116,131640,6,2,P|420:72|472:56,1,97.9999970092774,2|0,0:0|0:0,0:0:0:0:
454,273,131940,2,0,P|423:310|379:330,1,97.9999970092774,0|0,0:0|0:0,0:0:0:0:
304,164,132240,2,12,B|224:156|160:88|160:88|228:20|312:24,1,335.999989746094,12|0,0:0|0:0,0:0:0:0:
448,24,132991,1,0,0:0:0:0:
332,96,133141,1,0,0:0:0:0:
448,172,133291,1,0,0:0:0:0:
332,248,133442,6,0,P|282:269|227:257,1,97.9999970092774,0|0,0:0|0:0,0:0:0:0:
188,116,133742,2,0,P|144:94|96:100,1,97.9999970092774,0|0,0:0|0:0,0:0:0:0:
68,124,133967,1,0,0:0:0:0:
44,156,134042,2,0,L|44:260,1,97.9999970092774,0|0,0:0|0:0,0:0:0:0:
128,224,134343,2,0,L|128:322,1,97.9999970092774,0|0,0:0|0:0,0:0:0:0:
246,301,134643,6,12,B|321:251|405:283|405:283|433:199|369:115,1,335.999989746094,12|2,0:0|0:0,0:0:0:0:
300,28,135394,1,0,0:0:0:0:
225,143,135544,1,0,0:0:0:0:
128,46,135694,2,0,P|81:28|27:46,1,97.9999970092774,0|8,0:0|0:0,0:0:0:0:
80,172,135994,2,0,L|80:276,1,97.9999970092774,0|0,0:0|0:0,0:0:0:0:
168,348,136294,5,0,0:0:0:0:
168,348,136370,1,0,0:0:0:0:
168,348,136445,2,2,P|228:328|248:296,1,97.9999970092774,2|0,0:0|0:0,0:0:0:0:
246,163,136745,2,0,P|277:126|324:116,1,97.9999970092774,0|0,0:0|0:0,0:0:0:0:
413,205,137045,5,12,0:0:0:0:
334,320,137195,2,0,P|286:313|251:286,1,70,0|0,0:0|0:0,0:0:0:0:
344,168,137496,1,0,0:0:0:0:
224,72,137646,2,6,P|183:45|139:43,1,70,6|0,0:0|0:0,0:0:0:0:
54,36,137946,1,0,0:0:0:0:
54,189,138096,2,0,P|42:221|18:246,1,70,0|8,0:0|0:0,0:0:0:0:
176,336,138397,1,0,0:0:0:0:
288,176,138547,1,0,0:0:0:0:
376,344,138697,5,0,0:0:0:0:
376,344,138772,1,0,0:0:0:0:
376,344,138847,1,2,0:0:0:0:
456,180,138997,1,0,0:0:0:0:
288,248,139147,1,0,0:0:0:0:
288,52,139297,1,0,0:0:0:0:
152,52,139448,6,12,P|115:96|110:136,1,83.9999974365235,12|0,0:0|0:0,0:0:0:0:
164,232,139748,1,0,0:0:0:0:
248,148,139898,1,8,0:0:0:0:
288,248,140048,2,0,P|286:305|263:338,1,83.9999974365235,0|0,0:0|0:0,0:0:0:0:
164,232,140349,2,0,P|125:275|87:285,1,83.9999974365235,0|0,0:0|0:0,0:0:0:0:
32,168,140649,5,2,0:0:0:0:
136,84,140799,1,0,0:0:0:0:
12,32,140949,1,0,0:0:0:0:
94,210,141099,1,2,0:0:0:0:
215,88,141249,2,0,P|249:65|291:59,1,83.9999974365235,0|0,0:0|0:0,0:0:0:0:
407,123,141550,2,0,P|418:162|412:204,1,83.9999974365235,0|0,0:0|0:0,0:0:0:0:
284,168,141850,5,8,0:0:0:0:
352,284,142000,1,0,0:0:0:0:
220,276,142150,2,0,P|182:257|141:256,1,83.9999974365235,0|8,0:0|0:0,0:0:0:0:
12,296,142451,2,0,P|28:334|60:361,1,83.9999974365235,0|0,0:0|0:0,0:0:0:0:
141,256,142751,2,0,L|141:160,1,83.9999974365235,0|0,0:0|0:0,0:0:0:0:
141,37,143051,5,8,0:0:0:0:
141,37,143201,1,0,0:0:0:0:
216,152,143352,2,0,P|248:196|292:208,1,83.9999974365235,0|8,0:0|0:0,0:0:0:0:
408,206,143652,1,0,0:0:0:0:
408,206,143802,1,0,0:0:0:0:
340,320,143952,2,0,P|294:350|249:346,1,83.9999974365235,0|0,0:0|0:0,0:0:0:0:
112,288,144252,6,2,P|67:254|16:236,1,83.9999974365235,2|0,0:0|0:0,0:0:0:0:
213,212,144553,2,0,P|257:178|309:160,1,83.9999974365235,0|8,0:0|0:0,0:0:0:0:
112,96,144853,1,0,0:0:0:0:
112,96,145003,1,0,0:0:0:0:
291,59,145153,2,0,P|336:36|368:4,1,83.9999974365235,0|0,0:0|0:0,0:0:0:0:
444,160,145454,5,2,0:0:0:0:
444,160,145604,1,0,0:0:0:0:
304,256,145754,1,0,0:0:0:0:
304,256,145904,1,2,0:0:0:0:
141,172,146054,2,0,P|97:156|56:161,1,83.9999974365235,0|0,0:0|0:0,0:0:0:0:
88,260,146355,2,0,L|88:348,1,83.9999974365235,0|0,0:0|0:0,0:0:0:0:
306,344,146655,5,8,0:0:0:0:
422,142,146805,1,0,0:0:0:0:
189,276,146955,1,0,0:0:0:0:
423,277,147105,1,8,0:0:0:0:
189,142,147255,5,0,0:0:0:0:
306,344,147406,1,0,0:0:0:0:
306,75,147556,1,0,0:0:0:0:
189,276,147706,1,0,0:0:0:0:
422,184,147856,5,8,0:0:0:0:
118,283,148006,1,0,0:0:0:0:
306,24,148156,1,0,0:0:0:0:
306,344,148306,1,0,0:0:0:0:
118,85,148457,6,0,P|70:50|19:41,1,112,0|8,0:0|0:0,0:0:0:0:
19,40,149057,1,4,0:0:0:0:
384,80,163472,5,0,0:0:0:0:
456,180,163622,1,0,0:0:0:0:
456,180,163772,1,8,0:0:0:0:
344,180,163922,1,2,0:0:0:0:
402,280,164072,1,8,0:0:0:0:
402,280,164222,1,8,0:0:0:0:
261,280,164373,6,2,P|224:280|176:308,1,70,2|8,0:0|0:0,0:0:0:0:
88,328,164673,1,2,0:0:0:0:
32,228,164823,1,8,0:0:0:0:
92,128,164973,1,8,0:0:0:0:
142,228,165123,1,2,0:0:0:0:
240,129,165273,6,8,P|272:116|307:116,1,70,8|8,0:0|0:0,0:0:0:0:
396,180,165574,1,0,0:0:0:0:
396,180,165649,1,0,0:0:0:0:
396,180,165724,1,0,0:0:0:0:
396,180,165799,1,0,0:0:0:0:
396,180,165874,6,0,P|411:225|442:261,1,70,0|8,0:0|0:0,0:0:0:0:
480,340,166174,1,8,0:0:0:0:
367,340,166325,1,8,0:0:0:0:
300,252,166475,6,8,P|263:245|211:264,1,70,8|8,0:0|0:0,0:0:0:0:
124,284,166775,1,2,0:0:0:0:
184,376,166925,1,8,0:0:0:0:
56,372,167075,2,2,P|28:344|20:300,2,70,2|8|0,0:0|0:0|0:0,0:0:0:0:
124,284,167526,1,2,0:0:0:0:
188,192,167676,2,8,P|244:187|272:207,1,70,8|8,0:0|0:0,0:0:0:0:
348,252,167976,1,0,0:0:0:0:
348,252,168051,1,0,0:0:0:0:
348,252,168126,1,0,0:0:0:0:
348,252,168201,1,0,0:0:0:0:
348,252,168276,6,12,P|380:288|432:304,1,83.9999974365235,12|0,0:0|0:0,0:0:0:0:
452,172,168577,1,8,0:0:0:0:
348,84,168727,1,2,0:0:0:0:
254,192,168877,6,8,L|190:252,1,83.9999974365235,8|8,0:0|0:0,0:0:0:0:
80,320,169177,2,2,P|45:292|27:246,2,83.9999974365235,2|0|0,0:0|0:0|0:0,0:0:0:0:
215,320,169628,5,8,0:0:0:0:
215,320,169778,1,8,0:0:0:0:
136,172,169928,1,2,0:0:0:0:
300,252,170078,1,8,0:0:0:0:
300,252,170228,1,8,0:0:0:0:
212,88,170379,1,0,0:0:0:0:
212,88,170454,1,0,0:0:0:0:
212,88,170529,1,0,0:0:0:0:
212,88,170604,1,0,0:0:0:0:
212,88,170679,6,2,P|168:64|120:60,1,83.9999974365235,2|8,0:0|0:0,0:0:0:0:
300,296,170979,2,2,P|344:320|392:324,1,83.9999974365235,2|8,0:0|0:0,0:0:0:0:
124,192,171279,6,2,P|85:223|63:266,1,83.9999974365235,2|0,0:0|0:0,0:0:0:0:
388,192,171580,2,0,P|426:160|448:117,1,83.9999974365235,0|0,0:0|0:0,0:0:0:0:
256,42,171880,5,2,0:0:0:0:
343,312,172030,1,0,0:0:0:0:
114,145,172180,1,2,0:0:0:0:
397,145,172331,1,2,0:0:0:0:
168,312,172481,1,2,0:0:0:0:
256,42,172631,1,2,0:0:0:0:
343,312,172781,1,2,0:0:0:0:
148,40,172931,1,0,0:0:0:0:
36,180,173081,6,12,B|52:255|103:263|103:263|152:208|224:248,1,224,12|2,0:0|0:0,0:0:0:0:
300,112,173532,1,0,0:0:0:0:
300,112,173607,1,0,0:0:0:0:
300,112,173682,2,0,L|344:220,1,112,0|8,0:0|0:0,0:0:0:0:
255,341,173982,2,2,P|197:326|127:350,1,112,2|0,0:0|0:0,0:0:0:0:
348,336,174282,5,8,0:0:0:0:
226,194,174433,1,0,0:0:0:0:
390,266,174583,1,2,0:0:0:0:
208,268,174733,1,0,0:0:0:0:
406,165,174883,2,0,P|440:120|444:48,1,112,0|8,0:0|0:0,0:0:0:0:
316,68,175183,2,2,P|265:42|194:50,1,112,2|0,0:0|0:0,0:0:0:0:
114,145,175484,6,8,L|34:49,2,112,8|0|2,0:0|0:0|0:0,0:0:0:0:
208,268,175934,1,0,0:0:0:0:
208,268,176009,1,0,0:0:0:0:
208,268,176084,1,0,0:0:0:0:
248,116,176234,1,8,0:0:0:0:
342,215,176385,2,2,P|387:252|443:252,1,112,2|0,0:0|0:0,0:0:0:0:
260,344,176685,5,8,0:0:0:0:
112,176,176835,1,0,0:0:0:0:
12,376,176985,1,2,0:0:0:0:
208,268,177135,1,0,0:0:0:0:
24,140,177285,1,0,0:0:0:0:
108,348,177436,1,8,0:0:0:0:
216,140,177586,1,2,0:0:0:0:
300,348,177736,1,0,0:0:0:0:
416,160,177886,6,12,B|444:108|444:108|520:92,1,112,12|0,0:0|0:0,0:0:0:0:
440,304,178186,1,2,0:0:0:0:
300,348,178337,1,0,0:0:0:0:
300,348,178412,1,0,0:0:0:0:
300,348,178487,6,0,P|244:345|198:315,1,112,0|8,0:0|0:0,0:0:0:0:
76,264,178787,6,2,P|101:215|148:186,1,112,2|0,0:0|0:0,0:0:0:0:
338,185,179087,1,8,0:0:0:0:
176,76,179237,1,0,0:0:0:0:
352,63,179388,1,2,0:0:0:0:
148,185,179538,1,0,0:0:0:0:
260,324,179688,2,0,P|312:360|372:364,2,112,0|8|2,0:0|0:0|0:0,0:0:0:0:
148,185,180138,1,0,0:0:0:0:
260,16,180288,5,8,0:0:0:0:
260,16,180364,1,0,0:0:0:0:
260,16,180439,1,0,0:0:0:0:
352,168,180589,2,2,P|379:216|427:242,1,112,2|0,0:0|0:0,0:0:0:0:
240,168,180889,2,0,P|173:171|132:202,1,112,0|8,0:0|0:0,0:0:0:0:
335,286,181189,2,2,P|384:309|439:303,1,112,2|0,0:0|0:0,0:0:0:0:
244,348,181490,5,0,0:0:0:0:
244,348,181565,1,0,0:0:0:0:
244,348,181640,1,0,0:0:0:0:
133,237,181790,2,2,L|80:344,1,112,2|0,0:0|0:0,0:0:0:0:
60,160,182090,2,0,L|36:276,1,112,0|8,0:0|0:0,0:0:0:0:
152,100,182391,2,2,P|204:64|272:72,1,112,2|0,0:0|0:0,0:0:0:0:
252,267,182691,6,12,P|346:335|446:295,1,224,12|2,0:0|0:0,0:0:0:0:
436,144,183141,1,0,0:0:0:0:
429,120,183216,1,0,0:0:0:0:
422,96,183291,2,0,P|381:60|326:56,1,112,0|8,0:0|0:0,0:0:0:0:
226,194,183592,1,2,0:0:0:0:
102,56,183742,1,0,0:0:0:0:
64,260,183892,6,8,B|48:336|84:364|84:364|136:316|192:320,1,224,8|2,0:0|0:0,0:0:0:0:
370,315,184343,1,0,0:0:0:0:
370,315,184418,1,0,0:0:0:0:
370,315,184493,1,0,0:0:0:0:
204,252,184643,1,0,0:0:0:0:
380,156,184793,1,0,0:0:0:0:
260,344,184943,1,0,0:0:0:0:
196,152,185093,6,8,B|148:90|103:100|103:100|106:171|72:205,1,224,8|0,0:0|0:0,0:0:0:0:
204,252,185544,2,0,L|272:252,2,56,0|0|0,0:0|0:0|0:0,0:0:0:0:
83,337,185844,1,8,0:0:0:0:
239,337,185994,2,2,L|351:337,1,112,2|0,0:0|0:0,0:0:0:0:
436,180,186294,2,8,P|456:120|436:64,1,112,8|0,0:0|0:0,0:0:0:0:
364,120,186595,2,2,P|340:61|289:31,1,112,2|0,0:0|0:0,0:0:0:0:
256,136,186895,6,0,P|222:189|167:210,1,112,0|8,0:0|0:0,0:0:0:0:
163,119,187195,2,2,P|102:99|46:119,1,112,2|0,0:0|0:0,0:0:0:0:
60,308,187496,6,12,B|116:308|164:344|164:344|216:308|272:308,1,224,12|2,0:0|0:0,0:0:0:0:
424,308,187946,1,0,0:0:0:0:
424,308,188021,1,0,0:0:0:0:
424,308,188096,1,0,0:0:0:0:
388,136,188246,1,8,0:0:0:0:
278,204,188397,2,2,P|255:268|274:316,1,112,2|0,0:0|0:0,0:0:0:0:
444,268,188697,6,8,P|480:164|444:44,1,224,8|2,0:0|0:0,0:0:0:0:
306,155,189147,1,0,0:0:0:0:
306,155,189222,1,0,0:0:0:0:
306,155,189297,1,0,0:0:0:0:
392,24,189448,1,0,0:0:0:0:
235,24,189598,1,0,0:0:0:0:
364,120,189748,1,0,0:0:0:0:
192,118,189898,6,8,B|118:144|113:190|113:190|182:209|203:251,1,224,8|2,0:0|0:0,0:0:0:0:
280,364,190349,1,0,0:0:0:0:
280,364,190424,1,0,0:0:0:0:
280,364,190499,1,0,0:0:0:0:
123,364,190649,1,8,0:0:0:0:
249,237,190799,1,2,0:0:0:0:
57,126,190949,1,0,0:0:0:0:
57,260,191099,6,8,L|57:376,1,112,8|0,0:0|0:0,0:0:0:0:
148,192,191400,2,2,P|187:142|252:131,1,112,2|0,0:0|0:0,0:0:0:0:
249,237,191700,2,0,L|306:337,1,112,0|8,0:0|0:0,0:0:0:0:
439,333,192000,2,2,P|481:298|497:245,1,112,2|0,0:0|0:0,0:0:0:0:
443,74,192300,6,12,B|395:12|350:22|350:22|353:93|319:126,1,224,12|2,0:0|0:0,0:0:0:0:
249,237,192751,1,0,0:0:0:0:
249,237,192826,1,0,0:0:0:0:
249,237,192901,6,0,P|196:271|137:268,1,112,0|8,0:0|0:0,0:0:0:0:
170,183,193201,2,2,P|106:176|63:135,1,112,2|0,0:0|0:0,0:0:0:0:
172,28,193502,6,8,B|228:28|276:64|276:64|328:28|384:28,1,224,8|2,0:0|0:0,0:0:0:0:
491,138,193952,1,0,0:0:0:0:
491,138,194027,1,0,0:0:0:0:
491,138,194102,1,0,0:0:0:0:
289,138,194252,1,0,0:0:0:0:
388,302,194403,1,0,0:0:0:0:
197,302,194553,1,0,0:0:0:0:
197,145,194703,6,8,P|168:76|128:60,1,112,8|0,0:0|0:0,0:0:0:0:
26,61,195003,1,2,0:0:0:0:
26,195,195153,1,0,0:0:0:0:
26,195,195228,1,0,0:0:0:0:
26,195,195303,2,0,B|12:256|40:248|26:311,1,112,0|0,0:0|0:0,0:0:0:0:
161,307,195604,2,2,B|218:319|210:291|271:305,1,112,2|0,0:0|0:0,0:0:0:0:
420,348,195904,6,8,B|470:331|470:331|492:277,1,97.9999970092774,8|0,0:0|0:0,0:0:0:0:
424,148,196204,2,2,L|389:239,1,97.9999970092774,2|0,0:0|0:0,0:0:0:0:
258,246,196505,6,0,B|207:229|207:229|185:175,1,97.9999970092774,0|8,0:0|0:0,0:0:0:0:
254,46,196805,2,2,L|288:137,1,97.9999970092774,2|0,0:0|0:0,0:0:0:0:
356,280,197105,6,12,B|382:353|428:358|428:358|447:289|489:268,1,224,12|2,0:0|0:0,0:0:0:0:
462,92,197556,1,0,0:0:0:0:
462,92,197631,1,0,0:0:0:0:
462,92,197706,2,0,P|419:42|358:33,1,112,0|8,0:0|0:0,0:0:0:0:
340,181,198006,2,2,P|300:233|240:245,1,112,2|0,0:0|0:0,0:0:0:0:
104,340,198306,6,8,B|88:280|40:252|40:252|40:136,1,224,8|0,0:0|0:0,0:0:0:0:
208,76,198757,1,0,0:0:0:0:
208,76,198832,1,0,0:0:0:0:
208,76,198907,1,0,0:0:0:0:
40,16,199057,1,0,0:0:0:0:
164,200,199207,1,0,0:0:0:0:
323,40,199358,1,0,0:0:0:0:
481,198,199508,6,8,P|464:260|408:300,1,112,8|0,0:0|0:0,0:0:0:0:
324,310,199808,1,2,0:0:0:0:
118,192,199958,1,0,0:0:0:0:
187,310,200108,1,0,0:0:0:0:
393,192,200258,1,8,0:0:0:0:
324,310,200409,1,2,0:0:0:0:
187,73,200559,1,0,0:0:0:0:
118,192,200709,5,8,0:0:0:0:
376,56,200859,1,0,0:0:0:0:
364,347,201009,1,0,0:0:0:0:
260,80,201159,1,0,0:0:0:0:
124,280,201309,5,0,0:0:0:0:
87,268,201385,1,0,0:0:0:0:
55,248,201460,1,0,0:0:0:0:
29,222,201535,1,0,0:0:0:0:
10,189,201610,1,0,0:0:0:0:
1,154,201685,1,0,0:0:0:0:
0,116,201760,1,0,0:0:0:0:
10,79,201835,1,8,0:0:0:0:
256,192,201910,12,0,209117,0:0:0:0:
