osu file format v14

[General]
AudioFilename: audio.mp3
AudioLeadIn: 0
PreviewTime: 38547
Countdown: 0
SampleSet: Normal
StackLeniency: 0.3
Mode: 0
LetterboxInBreaks: 0
EpilepsyWarning: 1
WidescreenStoryboard: 1

[Editor]
DistanceSpacing: 2.3
BeatDivisor: 4
GridSize: 8
TimelineZoom: 1.6

[Metadata]
Title:Say Goodbye (Speed Up Ver.)
TitleUnicode:Say Goodbye (Speed Up Ver.)
Artist:Krewella
ArtistUnicode:Krewella
Creator:saggi
Version:Lious's Normal
Source:
Tags:LiousPL Melsoon walter85 Megapcmx Minorsonek LukerMaster -NeBu- Broly Envory ChuuritsuTv
BeatmapID:1237234
BeatmapSetID:580821

[Difficulty]
HPDrainRate:4
CircleSize:3
OverallDifficulty:4
ApproachRate:5
SliderMultiplier:0.8
SliderTickRate:1

[Events]
//Background and Video events
0,0,"girl.jpg",0,0
//Break Periods
2,28386,32542
2,79588,87197
2,139647,162272
//Storyboard Layer 0 (Background)
//Storyboard Layer 1 (Fail)
//Storyboard Layer 2 (Pass)
//Storyboard Layer 3 (Foreground)
//Storyboard Sound Samples

[TimingPoints]
1310,300.3003003003,4,1,1,70,1,0
28937,-83.3333333333333,4,1,1,70,0,0
37926,-133.333333333333,4,1,1,70,0,0
38547,-68.9655172413792,4,1,1,70,0,1
38647,-68.9655172413792,4,1,1,70,0,1
58066,-68.9655172413792,4,1,1,70,0,0
79388,-90.9090909090909,4,1,1,85,0,0
88997,-71.4285714285714,4,1,1,70,0,0
98607,-62.5,4,1,1,85,0,1
120228,-62.5,4,1,1,85,0,0
137045,-133.333333333333,4,1,1,70,0,0
139448,-90.9090909090909,4,1,1,70,0,0
163472,-66.6666666666667,4,1,1,70,0,0
173099,-66.6666666666667,4,1,1,70,0,0

[HitObjects]
130,144,4913,5,0,0:0:0:0:
323,202,5364,1,0,0:0:0:0:
212,257,6114,1,0,0:0:0:0:
349,110,6565,1,0,0:0:0:0:
385,231,7316,1,0,0:0:0:0:
196,164,7766,1,0,0:0:0:0:
147,278,8517,1,0,0:0:0:0:
318,174,8967,1,0,0:0:0:0:
148,82,9718,6,0,P|130:132|146:203,1,120
215,277,10619,1,0,0:0:0:0:
312,221,10919,2,0,L|340:340,1,120
349,140,12120,6,0,P|307:136|232:172,1,120
174,254,13021,1,0,0:0:0:0:
82,319,13322,2,0,L|51:198,1,120
189,134,14523,6,0,P|256:154|316:135,1,120
396,87,15424,1,0,0:0:0:0:
442,189,15724,2,0,L|407:303,1,120
162,297,16925,6,0,P|144:238|160:181,1,120
255,133,17826,1,0,0:0:0:0:
358,177,18126,2,0,L|386:301,1,120
447,149,19328,6,0,P|420:110|341:80,1,120
251,107,20228,1,0,0:0:0:0:
156,167,20529,2,0,L|131:287,1,120
356,222,21730,6,0,L|331:102,1,120
226,127,22631,1,0,0:0:0:0:
139,197,22931,2,0,P|124:232|148:315,1,120
373,187,24132,6,0,P|388:152|364:69,1,120
274,126,25033,1,0,0:0:0:0:
185,195,25334,2,0,L|164:320,1,120
89,181,26535,6,0,P|124:126|175:101,1,120
246,180,27436,1,0,0:0:0:0:
351,219,27736,2,0,P|365:282|346:336,1,120
181,71,33742,6,0,P|158:114|152:165,1,95.9999970703126
181,252,34343,1,0,0:0:0:0:
256,312,34643,2,0,P|299:335|350:341,1,95.9999970703126
418,278,35243,2,0,L|391:178,1,95.9999970703126
313,132,35844,2,0,P|277:129|211:145,2,95.9999970703126
267,217,36745,2,0,P|266:263|246:312,2,95.9999970703126
185,93,38547,6,0,L|154:212,1,116.000003540039
208,296,39147,1,0,0:0:0:0:
310,319,39448,2,0,P|363:319|431:281,2,116.000003540039
359,226,40349,5,0,0:0:0:0:
417,140,40649,2,0,L|296:108,1,116.000003540039
206,144,41249,2,0,P|173:188|163:255,2,116.000003540039
259,234,42150,5,0,0:0:0:0:
343,297,42451,2,0,L|408:193,1,116.000003540039
361,104,43051,2,0,P|325:89|245:95,1,116.000003540039
159,147,43652,5,0,0:0:0:0:
85,221,43952,2,0,L|148:328,2,116.000003540039
189,231,44853,2,0,P|249:249|319:236,1,116.000003540039
387,182,45454,5,0,0:0:0:0:
309,112,45754,2,0,L|188:100,1,116.000003540039
121,176,46355,2,0,P|111:217|134:289,1,116.000003540039
228,326,46955,1,0,0:0:0:0:
304,89,48156,6,0,L|319:207,1,116.000003540039
278,301,48757,1,0,0:0:0:0:
176,324,49057,2,0,P|128:292|98:238,1,116.000003540039
156,154,49658,5,0,0:0:0:0:
240,93,49958,2,0,L|363:125,1,116.000003540039
428,195,50559,2,0,P|390:238|336:258,1,116.000003540039
232,256,51159,5,0,0:0:0:0:
141,204,51460,2,0,L|155:323,2,116.000003540039
315,140,52511,5,0,0:0:0:0:
344,225,52661,1,0,0:0:0:0:
221,119,52961,6,0,P|165:104|95:131,1,116.000003540039
180,234,53562,2,0,L|254:337,1,116.000003540039
372,280,54162,2,0,P|408:228|408:157,1,116.000003540039
283,144,54763,2,0,L|168:95,2,116.000003540039
365,250,55664,1,0,0:0:0:0:
238,292,55964,1,0,0:0:0:0:
108,262,56264,1,0,0:0:0:0:
64,136,56565,1,0,0:0:0:0:
191,175,56865,6,0,P|245:193|316:173,1,116.000003540039
414,110,57466,2,0,P|430:135|419:220,1,116.000003540039
184,128,60168,6,0,P|160:184|168:248,1,116.000003540039
231,319,60769,1,0,0:0:0:0:
329,285,61069,2,0,L|393:179,1,116.000003540039
427,88,61670,5,0,0:0:0:0:
326,116,61970,2,0,P|267:134|213:120,1,116.000003540039
111,104,62571,2,0,L|138:219,1,116.000003540039
175,314,63171,5,0,0:0:0:0:
257,249,63472,2,0,P|303:227|381:244,1,116.000003540039
450,296,64072,1,0,0:0:0:0:
470,193,64373,6,0,L|417:87,1,116.000003540039
314,91,64973,1,0,0:0:0:0:
222,139,65273,2,0,P|206:173|223:255,1,116.000003540039
302,311,65874,6,0,L|181:343,1,116.000003540039
92,302,66475,1,0,0:0:0:0:
55,205,66775,2,0,P|39:148|59:88,1,116.000003540039
155,125,67376,6,0,P|215:137|283:118,2,116.000003540039
165,229,68276,1,0,0:0:0:0:
235,307,68577,2,0,P|175:319|107:300,2,116.000003540039
280,212,69478,1,0,0:0:0:0:
376,172,69778,6,0,L|283:91,1,116.000003540039
184,95,70379,1,0,0:0:0:0:
109,167,70679,2,0,P|97:214|121:292,1,116.000003540039
200,335,71279,1,0,0:0:0:0:
341,106,72180,6,0,L|365:221,1,116.000003540039
295,297,72781,1,0,0:0:0:0:
200,254,73081,2,0,P|166:224|161:156,1,116.000003540039
236,84,73682,2,0,L|361:108,1,116.000003540039
140,114,74583,6,0,P|116:158|135:229,1,116.000003540039
212,282,75183,1,0,0:0:0:0:
305,233,75484,2,0,L|385:140,1,116.000003540039
450,67,76084,1,0,0:0:0:0:
203,109,76985,6,0,P|175:157|180:233,2,116.000003540039
277,197,77886,2,0,P|347:204|405:184,2,116.000003540039
319,101,78787,1,0,0:0:0:0:
406,80,79087,1,0,0:0:0:0:
472,135,79388,1,0,0:0:0:0:
137,115,88397,5,0,0:0:0:0:
227,101,88697,1,0,0:0:0:0:
305,151,88997,6,0,P|319:189|302:275,1,111.999996582031
220,304,89598,1,0,0:0:0:0:
132,255,89898,2,0,L|97:145,1,111.999996582031
197,129,90499,6,0,P|266:144|326:131,1,111.999996582031
350,113,90949,1,0,0:0:0:0:
385,149,91099,2,0,L|406:275,1,111.999996582031
323,321,91700,5,0,0:0:0:0:
235,272,92000,2,0,L|241:332,2,55.9999982910157
168,197,92601,6,0,P|142:129|161:84,1,111.999996582031
254,97,93201,2,0,L|277:44,2,55.9999982910157
277,195,93802,6,0,P|317:203|382:173,1,111.999996582031
470,220,94403,2,0,L|472:162,2,55.9999982910157
388,279,95003,1,0,0:0:0:0:
295,318,95303,6,0,P|242:311|190:272,1,111.999996582031
174,232,95754,1,0,0:0:0:0:
151,187,95904,2,0,L|243:108,1,111.999996582031
327,69,96505,5,0,0:0:0:0:
384,152,96805,1,0,0:0:0:0:
338,242,97105,1,0,0:0:0:0:
385,332,97406,1,0,0:0:0:0:
168,216,98607,6,0,P|153:172|188:100,1,128
301,91,99207,1,0,0:0:0:0:
369,185,99508,2,0,L|330:308,1,128
218,331,100108,6,0,P|153:341|94:317,1,128
65,208,100709,1,0,0:0:0:0:
140,121,101009,6,0,P|201:115|269:142,2,128
201,219,101910,6,0,P|241:257|317:277,1,128
413,226,102511,1,0,0:0:0:0:
459,120,102811,2,0,L|328:91,1,128
219,98,103412,6,0,P|161:124|116:180,1,128
137,286,104012,1,0,0:0:0:0:
248,318,104313,2,0,L|377:289,1,128
441,197,104913,6,0,P|400:138|344:110,1,128
237,127,105514,1,0,0:0:0:0:
143,193,105814,2,0,L|252:277,1,128
350,319,106415,1,0,0:0:0:0:
450,261,106715,2,0,P|454:208|417:130,1,128
100,77,108216,6,0,L|138:204,1,128
185,304,108817,1,0,0:0:0:0:
295,338,109117,2,0,P|347:292|363:233,1,128
304,138,109718,5,0,0:0:0:0:
215,65,110018,2,0,L|188:191,1,128
73,183,110619,2,0,P|85:226|157:287,1,128
259,286,111219,5,0,0:0:0:0:
369,251,111520,2,0,L|329:122,1,128
217,111,112120,2,0,P|145:87|90:112,1,128
63,214,112721,5,0,0:0:0:0:
154,285,113021,1,0,0:0:0:0:
255,229,113322,2,0,P|288:188|286:113,1,128
173,100,113922,6,0,L|124:222,1,128
161,328,114523,1,0,0:0:0:0:
263,274,114823,2,0,P|301:250|362:186,1,128
402,84,115424,5,0,0:0:0:0:
287,77,115724,1,0,0:0:0:0:
179,115,116024,1,0,0:0:0:0:
128,219,116325,1,0,0:0:0:0:
177,323,116625,6,0,P|235:340|311:332,1,128
377,248,117225,2,0,L|400:115,1,128
285,102,117826,6,0,P|225:78|137:90,2,128
187,163,118727,2,0,L|150:295,2,128
253,257,119628,2,0,P|317:251|374:222,1,128
439,128,120228,5,0,0:0:0:0:
328,94,120529,2,0,L|192:115,1,128
103,174,121129,2,0,P|82:231|120:304,1,128
212,334,121730,5,0,0:0:0:0:
320,296,122030,2,0,P|390:313|457:295,2,128
250,204,122931,5,0,0:0:0:0:
147,152,123231,2,0,L|280:97,1,128
379,80,123832,2,0,P|414:136|403:220,1,128
334,281,124433,1,0,0:0:0:0:
148,79,125033,6,0,P|124:151|140:207,1,128
201,295,125634,1,0,0:0:0:0:
313,324,125934,2,0,L|383:196,1,128
294,129,126535,6,0,P|222:109|152:136,1,128
79,191,127135,1,0,0:0:0:0:
145,286,127436,6,0,P|177:302|274:308,2,128
241,221,128337,2,0,P|250:155|292:98,2,128
354,198,129237,5,0,0:0:0:0:
423,290,129538,2,0,P|357:308|283:306,1,128
140,102,130439,6,0,L|166:246,2,128
297,235,131640,2,0,L|277:317,2,64
259,126,132240,2,0,P|316:111|389:138,2,128
149,111,133442,6,0,P|117:191|140:248,2,128
235,189,134343,2,0,L|283:251,2,64
374,108,135243,2,0,P|393:149|377:246,2,128
159,102,136445,2,0,L|176:237,1,128
214,336,137045,5,0,0:0:0:0:
311,213,137646,1,0,0:0:0:0:
408,335,138246,2,0,P|437:277|445:211,2,120.000004577637
165,129,163472,6,0,P|141:172|135:206,2,60.0000022888184
269,158,164072,2,0,P|293:115|299:81,2,60.0000022888184
298,262,164673,2,0,P|274:305|268:339,2,60.0000022888184
401,229,165273,2,0,P|427:198|426:106,1,120.000004577637
325,111,165874,6,0,L|345:44,2,60.0000022888184
241,179,166475,2,0,L|261:246,2,60.0000022888184
152,119,167075,2,0,L|172:52,2,60.0000022888184
63,180,167676,2,0,P|50:229|99:299,1,120.000004577637
186,265,168276,6,0,L|316:269,1,120.000004577637
413,251,168877,2,0,P|436:213|418:134,1,120.000004577637
316,128,169478,2,0,L|195:126,1,120.000004577637
91,153,170078,1,0,0:0:0:0:
127,255,170379,2,0,L|161:320,2,60.0000022888184
225,210,170979,5,0,0:0:0:0:
332,226,171279,1,0,0:0:0:0:
436,195,171580,1,0,0:0:0:0:
466,91,171880,1,0,0:0:0:0:
172,104,173081,6,0,P|150:149|175:229,1,120.000004577637
237,295,173682,1,0,0:0:0:0:
340,263,173982,2,0,L|368:135,1,120.000004577637
295,64,174583,6,0,P|247:51|168:60,2,120.000004577637
241,158,175484,2,0,L|213:277,1,120.000004577637
133,346,176084,1,0,0:0:0:0:
68,259,176385,6,0,P|57:190|81:125,1,120.000004577637
174,113,176985,2,0,L|295:109,1,120.000004577637
393,153,177586,1,0,0:0:0:0:
471,227,177886,6,0,P|447:274|374:302,1,120.000004577637
280,300,178487,1,0,0:0:0:0:
199,229,178787,2,0,L|160:103,2,120.000004577637
272,149,179688,6,0,P|337:132|394:157,1,120.000004577637
428,248,180288,1,0,0:0:0:0:
340,311,180589,2,0,L|212:314,1,120.000004577637
123,268,181189,6,0,P|107:217|132:156,1,120.000004577637
238,140,181790,1,0,0:0:0:0:
339,80,182240,2,0,L|367:148,1,60.0000022888184
468,161,182691,6,0,L|425:276,1,120.000004577637
329,320,183291,1,0,0:0:0:0:
221,329,183592,2,0,P|155:304|121:258,2,120.000004577637
210,221,184493,6,0,L|263:102,1,120.000004577637
365,91,185093,1,0,0:0:0:0:
432,176,185394,2,0,P|417:219|360:274,1,120.000004577637
261,298,185994,6,0,L|138:278,1,120.000004577637
44,233,186595,1,0,0:0:0:0:
99,140,186895,2,0,P|151:122|228:129,2,120.000004577637
181,211,187796,6,0,L|286:302,1,120.000004577637
362,350,188397,1,0,0:0:0:0:
421,260,188697,2,0,P|431:227|408:124,1,120.000004577637
316,115,189297,6,0,L|186:108,1,120.000004577637
96,149,189898,1,0,0:0:0:0:
60,251,190198,2,0,P|87:273|175:284,1,120.000004577637
268,242,190799,5,0,0:0:0:0:
368,284,191099,2,0,L|399:156,1,120.000004577637
305,110,191700,2,0,P|260:89|188:97,1,120.000004577637
114,171,192300,5,0,0:0:0:0:
48,257,192601,2,0,P|83:292|152:302,1,120.000004577637
257,317,193201,2,0,L|297:189,1,120.000004577637
317,97,193802,5,0,0:0:0:0:
214,65,194102,2,0,P|176:49|99:64,1,120.000004577637
130,167,194703,2,0,L|221:263,1,120.000004577637
290,330,195303,5,0,0:0:0:0:
370,257,195604,2,0,P|393:205|379:126,1,120.000004577637
282,118,196204,2,0,L|168:170,1,120.000004577637
74,212,196805,5,0,0:0:0:0:
43,315,197105,2,0,P|86:326|161:309,1,120.000004577637
264,286,197706,2,0,L|317:166,1,120.000004577637
356,77,198306,5,0,0:0:0:0:
249,63,198607,2,0,P|195:55|126:73,2,120.000004577637
183,149,199508,2,0,L|165:280,1,120.000004577637
69,314,200108,6,0,P|104:337|195:352,1,120.000004577637
281,317,200709,1,0,0:0:0:0:
355,239,201009,2,0,L|471:326,2,120.000004577637
260,186,201910,1,0,0:0:0:0:
