osu file format v14

[General]
AudioFilename: audio.mp3
AudioLeadIn: 0
PreviewTime: 38547
Countdown: 0
SampleSet: Normal
StackLeniency: 0.6
Mode: 0
LetterboxInBreaks: 0
EpilepsyWarning: 1
WidescreenStoryboard: 1

[Editor]
Bookmarks: 4913,6114,7316,8517,19328,20228,21730,22931,28937,33742,36144,37346,38096,46955,47856,48156,52961,55364,57766,58967,60168,61970,62571,69177,69778,76985,78186,79388,88997,96204,97406,98607,103412,104613,105814,107916,115424,117826,119027,120228,129237,129838,137045,137646,144252,144703,145454,145904,146655,147105,147856,149057,150258,153862,154388,154763,155514,157466,159117,163472,165574,165649,165724,167976,168051,168126,170379,170454,170529,174282,182691,200709,201309,201460
DistanceSpacing: 0.7
BeatDivisor: 4
GridSize: 8
TimelineZoom: 0.9999994

[Metadata]
Title:Say Goodbye (Speed Up Ver.)
TitleUnicode:Say Goodbye (Speed Up Ver.)
Artist:Krewella
ArtistUnicode:Krewella
Creator:saggi
Version:LKR's Loss
Source:
Tags:LiousPL Melsoon walter85 Megapcmx Minorsonek LukerMaster -NeBu- Broly Envory ChuuritsuTv
BeatmapID:1715917
BeatmapSetID:580821

[Difficulty]
HPDrainRate:5
CircleSize:4.5
OverallDifficulty:9.7
ApproachRate:10
SliderMultiplier:2
SliderTickRate:1

[Events]
//Background and Video events
0,0,"girl.jpg",0,0
//Break Periods
2,149257,153412
//Storyboard Layer 0 (Background)
//Storyboard Layer 1 (Fail)
//Storyboard Layer 2 (Pass)
//Storyboard Layer 3 (Foreground)
Sprite,Foreground,Centre,"sb\highlight.png",421,223 C,0,47856,,242,24,57 F,2,47856,48656,1,0 S,2,47856,48656,0.9,0.18 P,0,47856,48656,A
Sprite,Foreground,Centre,"sb\highlight.png",400,243 C,0,47931,,242,24,57 F,2,47931,48731,1,0 S,2,47931,48731,0.9,0.18 P,0,47931,48731,A
Sprite,Foreground,Centre,"sb\highlight.png",371,250 C,0,48006,,242,24,57 F,2,48006,48806,1,0 S,2,48006,48806,0.9,0.18 P,0,48006,48806,A
Sprite,Foreground,Centre,"sb\highlight.png",344,237 C,0,48081,,242,24,57 F,2,48081,48881,1,0 S,2,48081,48881,0.9,0.18 P,0,48081,48881,A
Sprite,Foreground,Centre,"sb\highlight.png",464,344 C,0,96204,,18,124,255 F,2,96204,97004,1,0 S,2,96204,97004,0.9,0.18 P,0,96204,97004,A
Sprite,Foreground,Centre,"sb\highlight.png",464,344 C,0,96279,,18,124,255 F,2,96279,97079,1,0 S,2,96279,97079,0.9,0.18 P,0,96279,97079,A
Sprite,Foreground,Centre,"sb\highlight.png",464,344 C,0,96355,,18,124,255 F,2,96355,97155,1,0 S,2,96355,97155,0.9,0.18 P,0,96355,97155,A
Sprite,Foreground,Centre,"sb\highlight.png",256,200 C,0,96505,,18,124,255 F,2,96505,97305,1,0 S,2,96505,97305,0.9,0.18 P,0,96505,97305,A
Sprite,Foreground,Centre,"sb\highlight.png",336,376 C,0,96655,,18,124,255 F,2,96655,97455,1,0 S,2,96655,97455,0.9,0.18 P,0,96655,97455,A
Sprite,Foreground,Centre,"sb\highlight.png",368,120 C,0,96805,,18,124,255 F,2,96805,97605,1,0 S,2,96805,97605,0.9,0.18 P,0,96805,97605,A
Sprite,Foreground,Centre,"sb\highlight.png",186,366 C,0,96955,,18,124,255 F,2,96955,97755,1,0 S,2,96955,97755,0.9,0.18 P,0,96955,97755,A
Sprite,Foreground,Centre,"sb\highlight.png",352,238 C,0,97105,,242,24,57 F,2,97105,97905,1,0 S,2,97105,97905,0.9,0.18 P,0,97105,97905,A
Sprite,Foreground,Centre,"sb\highlight.png",352,238 C,0,97180,,242,24,57 F,2,97180,97980,1,0 S,2,97180,97980,0.9,0.18 P,0,97180,97980,A
Sprite,Foreground,Centre,"sb\highlight.png",352,238 C,0,97255,,242,24,57 F,2,97255,98055,1,0 S,2,97255,98055,0.9,0.18 P,0,97255,98055,A
Sprite,Foreground,Centre,"sb\highlight.png",210,169 C,0,97406,,242,24,57 M,0,97406,97443,210,169,185.6413,169.4591 F,2,97406,98356,1,0 S,2,97406,98356,0.9,0.18 P,0,97406,98356,A M,0,97443,97481,185.6413,169.4591,162.3116,176.2729 M,0,97481,97518,162.3116,176.2729,141.7947,189.309 M,0,97518,97556,141.7947,189.309,125.7099,207.5418
Sprite,Foreground,Centre,"sb\highlight.png",203,255 C,0,97706,,242,24,57 F,2,97706,98506,1,0 S,2,97706,98506,0.9,0.18 P,0,97706,98506,A
Sprite,Foreground,Centre,"sb\highlight.png",272,216 C,0,97856,,242,24,57 F,2,97856,98656,1,0 S,2,97856,98656,0.9,0.18 P,0,97856,98656,A
Sprite,Foreground,Centre,"sb\highlight.png",332,150 C,0,98006,,242,24,57 M,0,98006,98043,332,150,347.9951,168.3016 F,2,98006,98956,1,0 S,2,98006,98956,0.9,0.18 P,0,98006,98956,A M,0,98043,98081,347.9951,168.3016,357.36,190.6407 M,0,98081,98118,357.36,190.6407,358.7318,214.8247 M,0,98118,98156,358.7318,214.8247,351.9528,238.08
Sprite,Foreground,Centre,"sb\highlight.png",272,296 C,0,98306,,242,24,57 M,0,98306,98343,272,296,292.3068,309.7071 F,2,98306,99256,1,0 S,2,98306,99256,0.9,0.18 P,0,98306,99256,A M,0,98343,98381,292.3068,309.7071,312,323 M,0,98381,98418,312,323,292.3068,309.7071 M,0,98418,98456,292.3068,309.7071,272,296
Sprite,Foreground,Centre,"sb\highlight.png",448,104 C,0,147856,,18,124,255 M,0,147856,147893,448,104,457.9041,120.5067 F,2,147856,148806,1,0 S,2,147856,148806,0.9,0.18 P,0,147856,148806,A M,0,147893,147931,457.9041,120.5067,467.8081,137.0135 M,0,147931,147968,467.8081,137.0135,477.7121,153.5202 M,0,147968,148006,477.7121,153.5202,487.6162,170.027
Sprite,Foreground,Centre,"sb\highlight.png",304,264 C,0,148156,,18,124,255 F,2,148156,148956,1,0 S,2,148156,148956,0.9,0.18 P,0,148156,148956,A
Sprite,Foreground,Centre,"sb\highlight.png",278,261 C,0,148231,,18,124,255 F,2,148231,149031,1,0 S,2,148231,149031,0.9,0.18 P,0,148231,149031,A
Sprite,Foreground,Centre,"sb\highlight.png",252,248 C,0,148306,,18,124,255 F,2,148306,149106,1,0 S,2,148306,149106,0.9,0.18 P,0,148306,149106,A
Sprite,Foreground,Centre,"sb\highlight.png",224,136 C,0,148457,,242,24,57 M,0,148457,148494,224,136,239.0317,123.9746 F,2,148457,149407,1,0 S,2,148457,149407,0.9,0.18 P,0,148457,149407,A M,0,148494,148532,239.0317,123.9746,254.0634,111.9492 M,0,148532,148569,254.0634,111.9492,269.0952,99.92386 M,0,148569,148607,269.0952,99.92386,284.1269,87.89848
Sprite,Foreground,Centre,"sb\highlight.png",368,216 C,0,148757,,242,24,57 F,2,148757,149557,1,0 S,2,148757,149557,0.9,0.18 P,0,148757,149557,A
Sprite,Foreground,Centre,"sb\highlight.png",368,216 C,0,148832,,242,24,57 F,2,148832,149632,1,0 S,2,148832,149632,0.9,0.18 P,0,148832,149632,A
Sprite,Foreground,Centre,"sb\highlight.png",368,216 C,0,148907,,242,24,57 F,2,148907,149707,1,0 S,2,148907,149707,0.9,0.18 P,0,148907,149707,A
Sprite,Foreground,Centre,"sb\highlight.png",368,216 C,0,148982,,242,24,57 F,2,148982,149782,1,0 S,2,148982,149782,0.9,0.18 P,0,148982,149782,A
Sprite,Foreground,Centre,"sb\highlight.png",368,216 C,0,149057,,242,24,57 F,2,149057,149857,1,0 S,2,149057,149857,0.9,0.18 P,0,149057,149857,A
Sprite,Foreground,Centre,"sb\highlight.png",192,312 C,0,171880,,255,192,0 F,2,171880,172680,1,0 S,2,171880,172680,0.9,0.18 P,0,171880,172680,A
Sprite,Foreground,Centre,"sb\highlight.png",192,312 C,0,172030,,255,192,0 M,0,172030,172067,192,312,205.6118,298.3882 F,2,172030,172905,1,0 S,2,172030,172905,0.9,0.18 P,0,172030,172905,A M,0,172067,172105,205.6118,298.3882,219.2236,284.7764
Sprite,Foreground,Centre,"sb\highlight.png",336,168 C,0,172180,,255,192,0 F,2,172180,172980,1,0 S,2,172180,172980,0.9,0.18 P,0,172180,172980,A
Sprite,Foreground,Centre,"sb\highlight.png",160,120 C,0,172331,,255,192,0 F,2,172331,173131,1,0 S,2,172331,173131,0.9,0.18 P,0,172331,173131,A
Sprite,Foreground,Centre,"sb\highlight.png",326,376 C,0,172481,,255,192,0 F,2,172481,173281,1,0 S,2,172481,173281,0.9,0.18 P,0,172481,173281,A
Sprite,Foreground,Centre,"sb\highlight.png",160,120 C,0,172631,,0,202,0 F,2,172631,173431,1,0 S,2,172631,173431,0.9,0.18 P,0,172631,173431,A
Sprite,Foreground,Centre,"sb\highlight.png",326,376 C,0,172781,,0,202,0 F,2,172781,173581,1,0 S,2,172781,173581,0.9,0.18 P,0,172781,173581,A
Sprite,Foreground,Centre,"sb\highlight.png",160,120 C,0,172931,,0,202,0 F,2,172931,173731,1,0 S,2,172931,173731,0.9,0.18 P,0,172931,173731,A
Sprite,Foreground,Centre,"sb\highlight.png",176,392 C,0,201309,,242,24,57 M,0,201309,201346,176,392,150.5338,385.6335 F,2,201309,202584,1,0 S,2,201309,202584,1,0.2 P,0,201309,202584,A M,0,201346,201384,150.5338,385.6335,125.0675,379.2669
Sprite,Foreground,Centre,"sb\highlight.png",240,312 C,0,201460,,242,24,57 M,0,201460,201497,240,312,213.8297,314.0446 F,2,201460,202735,1,0 S,2,201460,202735,1,0.2 P,0,201460,202735,A M,0,201497,201535,213.8297,314.0446,187.6595,316.0891
Sprite,Foreground,Centre,"sb\highlight.png",128,300 C,0,201610,,255,192,0 F,2,201610,202810,1,0 S,2,201610,202810,1,0.2 P,0,201610,202810,A
Sprite,Foreground,Centre,"sb\highlight.png",99,269 C,0,201685,,255,192,0 F,2,201685,202885,1,0 S,2,201685,202885,1,0.2 P,0,201685,202885,A
Sprite,Foreground,Centre,"sb\highlight.png",95,227 C,0,201760,,255,192,0 F,2,201760,202960,1,0 S,2,201760,202960,1,0.2 P,0,201760,202960,A
Sprite,Foreground,Centre,"sb\highlight.png",120,193 C,0,201835,,255,192,0 F,2,201835,203035,1,0 S,2,201835,203035,1,0.2 P,0,201835,203035,A
Sprite,Foreground,Centre,"sb\highlight.png",176,264 C,0,37346,,242,24,57 F,2,37346,38146,1,0 S,2,37346,38146,0.9,0.18 P,0,37346,38146,A
Sprite,Foreground,Centre,"sb\highlight.png",352,360 C,0,37496,,242,24,57 F,2,37496,38296,1,0 S,2,37496,38296,0.9,0.18 P,0,37496,38296,A
Sprite,Foreground,Centre,"sb\highlight.png",352,360 C,0,37646,,242,24,57 M,0,37646,37683,352,360,360.6595,340.8685 F,2,37646,38596,1,0 S,2,37646,38596,0.9,0.18 P,0,37646,38596,A M,0,37683,37721,360.6595,340.8685,369.319,321.7371 M,0,37721,37758,369.319,321.7371,377.9785,302.6056 M,0,37758,37796,377.9785,302.6056,386.638,283.4741
Sprite,Foreground,Centre,"sb\highlight.png",400,136 C,0,37946,,242,24,57 F,2,37946,38746,1,0 S,2,37946,38746,0.9,0.18 P,0,37946,38746,A
Sprite,Foreground,Centre,"sb\highlight.png",400,136 C,0,38096,,242,24,57 M,0,38096,38133,400,136,387.0223,134.2819 F,2,38096,39196,1,0 S,2,38096,39196,0.9,0.18 P,0,38096,39196,A M,0,38133,38171,387.0223,134.2819,373.9347,133.811 M,0,38171,38208,373.9347,133.811,360.9657,135.5727 M,0,38208,38246,360.9657,135.5727,348.2442,138.638 M,0,38246,38283,348.2442,138.638,336.2,143.7537 M,0,38283,38321,336.2,143.7537,324.7802,150.1247 M,0,38321,38358,324.7802,150.1247,314.5111,158.232 M,0,38358,38396,314.5111,158.232,305.2319,167.436
Sprite,Foreground,Centre,"sb\highlight.png",326,270 C,0,107916,,255,192,0 F,2,107916,108716,1,0 S,2,107916,108716,0.9,0.18 P,0,107916,108716,A
Sprite,Foreground,Centre,"sb\highlight.png",311,245 C,0,107991,,255,192,0 F,2,107991,108791,1,0 S,2,107991,108791,0.9,0.18 P,0,107991,108791,A
Sprite,Foreground,Centre,"sb\highlight.png",283,240 C,0,108066,,255,192,0 F,2,108066,108866,1,0 S,2,108066,108866,0.9,0.18 P,0,108066,108866,A
Sprite,Foreground,Centre,"sb\highlight.png",257,250 C,0,108141,,255,192,0 F,2,108141,108941,1,0 S,2,108141,108941,0.9,0.18 P,0,108141,108941,A
Sprite,Foreground,Centre,"sb\highlight.png",480,88 C,0,117826,,0,202,0 F,2,117826,118626,1,0 S,2,117826,118626,0.9,0.18 P,0,117826,118626,A
Sprite,Foreground,Centre,"sb\highlight.png",368,327 C,0,117976,,0,202,0 F,2,117976,118776,1,0 S,2,117976,118776,0.9,0.18 P,0,117976,118776,A
Sprite,Foreground,Centre,"sb\highlight.png",272,72 C,0,118126,,0,202,0 F,2,118126,118926,1,0 S,2,118126,118926,0.9,0.18 P,0,118126,118926,A
Sprite,Foreground,Centre,"sb\highlight.png",496,216 C,0,118276,,0,202,0 F,2,118276,119076,1,0 S,2,118276,119076,0.9,0.18 P,0,118276,119076,A
Sprite,Foreground,Centre,"sb\highlight.png",234,236 C,0,118427,,0,202,0 F,2,118427,119227,1,0 S,2,118427,119227,0.9,0.18 P,0,118427,119227,A
Sprite,Foreground,Centre,"sb\highlight.png",375,80 C,0,118577,,0,202,0 F,2,118577,119377,1,0 S,2,118577,119377,0.9,0.18 P,0,118577,119377,A
Sprite,Foreground,Centre,"sb\highlight.png",160,120 C,0,118877,,18,124,255 F,2,118877,119677,1,0 S,2,118877,119677,0.9,0.18 P,0,118877,119677,A
Sprite,Foreground,Centre,"sb\highlight.png",480,184 C,0,119027,,18,124,255 F,2,119027,119827,1,0 S,2,119027,119827,0.9,0.18 P,0,119027,119827,A
Sprite,Foreground,Centre,"sb\highlight.png",400,296 C,0,119628,,242,24,57 F,2,119628,120428,1,0 S,2,119628,120428,0.9,0.18 P,0,119628,120428,A
Sprite,Foreground,Centre,"sb\highlight.png",288,376 C,0,120078,,242,24,57 F,2,120078,120878,1,0 S,2,120078,120878,0.9,0.18 P,0,120078,120878,A
Sprite,Foreground,Centre,"sb\highlight.png",240,88 C,0,119928,,242,24,57 F,2,119928,120728,1,0 S,2,119928,120728,0.9,0.18 P,0,119928,120728,A
Sprite,Foreground,Centre,"sb\highlight.png",400,296 C,0,119778,,242,24,57 M,0,119778,119815,400,296,406.791,268.836 F,2,119778,120653,1,0 S,2,119778,120653,0.9,0.18 P,0,119778,120653,A M,0,119815,119853,406.791,268.836,413.582,241.672
Sprite,Foreground,Centre,"sb\highlight.png",273,174 C,0,119478,,242,24,57 F,2,119478,120278,1,0 S,2,119478,120278,0.9,0.18 P,0,119478,120278,A
Sprite,Foreground,Centre,"sb\highlight.png",273,174 C,0,119328,,242,24,57 F,2,119328,120128,1,0 S,2,119328,120128,0.9,0.18 P,0,119328,120128,A
Sprite,Foreground,Centre,"sb\highlight.png",480,184 C,0,119177,,18,124,255 F,2,119177,119977,1,0 S,2,119177,119977,0.9,0.18 P,0,119177,119977,A
Sprite,Foreground,Centre,"sb\highlight.png",296,362 C,0,118727,,18,124,255 F,2,118727,119527,1,0 S,2,118727,119527,0.9,0.18 P,0,118727,119527,A
//Storyboard Sound Samples

[TimingPoints]
1310,300.3003003003,4,1,1,70,1,0
1310,-133.333333333333,4,2,1,70,0,0
8967,-100,4,2,1,70,0,0
9418,-66.6666666666667,4,1,1,70,0,0
10319,-100,4,1,1,70,0,0
10919,-71.4285714285714,4,1,1,70,0,0
16925,-76.9230769230769,4,1,1,70,0,0
29838,-50,4,1,1,70,0,0
30739,-66.6666666666667,4,1,1,70,0,0
31039,-45.4545454545455,4,1,1,70,0,0
31940,-62.5,4,1,1,70,0,0
32240,-41.6666666666667,4,1,1,70,0,0
32841,-62.5,4,1,1,70,0,0
33442,-38.4615384615385,4,1,1,70,0,0
34793,-55.5555555555556,4,1,1,70,0,0
35394,-47.6190476190476,4,1,1,70,0,0
37421,-58.8235294117647,4,1,1,70,0,0
37571,-71.4285714285714,4,1,1,70,0,0
37721,-58.8235294117647,4,1,1,70,0,0
37946,-100,4,1,1,70,0,0
38096,-166.666666666667,4,1,1,70,0,0
38547,-66.6666666666667,4,1,1,100,0,1
46955,-66.6666666666667,4,1,1,100,0,0
48156,-66.6666666666667,4,1,1,100,0,1
57766,-66.6666666666667,4,1,1,100,0,0
58967,-133.333333333333,4,1,1,100,0,0
60168,-80,4,1,1,100,0,1
79388,-80,4,1,1,100,0,0
79838,-250,4,2,1,30,0,0
87796,-166.666666666667,4,2,1,30,0,0
88697,-166.666666666667,4,1,1,100,0,0
88997,-100,4,1,1,70,0,0
97406,-166.666666666667,4,1,1,70,0,0
98607,-62.5,4,1,1,100,0,1
107015,-125,4,1,1,100,0,0
108216,-62.5,4,1,1,100,0,1
113021,-55.5555555555556,4,1,1,100,0,1
120228,-50,4,1,1,100,0,1
129838,-100,4,1,1,100,0,0
140349,-66.6666666666667,4,1,1,100,0,0
141550,-55.5555555555556,4,1,1,100,0,0
142751,-45.4545454545455,4,1,1,100,0,0
143952,-38.4615384615385,4,1,1,100,0,0
144853,-45.4545454545455,4,1,1,100,0,0
145153,-38.4615384615385,4,1,1,100,0,0
146054,-43.4782608695652,4,1,1,100,0,0
146355,-33.3333333333333,4,1,1,100,0,0
146955,-41.6666666666667,4,1,1,100,0,0
148156,-50,4,1,1,90,0,0
148306,-50,4,1,1,80,0,0
148457,-41.6666666666667,4,1,1,70,0,0
148607,-50,4,1,1,60,0,0
148757,-55.5555555555556,4,1,1,50,0,0
148907,-41.6666666666667,4,1,1,25,0,0
149057,-333.333333333333,4,2,1,25,0,0
163472,-66.6666666666667,4,1,1,100,0,0
172781,-200,4,1,1,100,0,0
173081,-55.5555555555556,4,1,1,100,0,1
201385,-55.5555555555556,4,1,1,60,0,1
201460,-90.9090909090909,4,1,1,40,0,1
201610,-90.9090909090909,4,1,1,100,0,1
201760,-90.9090909090909,4,1,1,100,0,0

[Colours]
Combo1 : 255,192,0
Combo2 : 159,120,47
Combo3 : 88,99,129
Combo4 : 49,49,49

[HitObjects]
104,324,4913,5,2,1:0:0:0:
200,48,5063,1,0,0:0:0:0:
296,320,5213,2,0,L|301:337,2,18.7500007152558,2|2|2,0:0|0:0|0:0,0:0:0:0:
350,206,5364,6,0,P|356:152|352:128,1,75.000002861023,2|0,1:0|0:0,0:0:0:0:
59,206,5664,1,0,0:0:0:0:
204,352,5814,1,0,0:0:0:0:
280,168,5964,1,2,0:0:0:0:
4,276,6114,5,2,1:0:0:0:
440,208,6264,1,0,0:0:0:0:
116,140,6415,1,0,0:0:0:0:
328,32,6565,5,2,1:0:0:0:
248,308,6715,1,0,0:0:0:0:
324,132,6865,1,0,0:0:0:0:
373,318,7015,1,2,0:0:0:0:
376,344,7165,1,2,0:0:0:0:
464,132,7316,6,0,L|456:52,1,75.000002861023,2|0,1:0|0:0,0:0:0:0:
380,372,7616,1,0,0:0:0:0:
244,88,7766,2,0,L|260:8,1,75.000002861023,2|0,1:0|0:0,0:0:0:0:
132,304,8066,1,0,0:0:0:0:
172,88,8216,1,0,0:0:0:0:
200,348,8367,1,2,0:0:0:0:
104,124,8517,2,0,P|96:76|104:48,1,75.000002861023,2|0,1:0|0:0,0:0:0:0:
236,48,8817,6,0,L|272:56,1,37.5000014305115,4|0,0:0|0:0,0:0:0:0:
328,100,8967,2,0,P|372:84|408:128,1,100,4|0,1:3|0:0,0:0:0:0:
327,225,9267,1,0,0:0:0:0:
437,54,9418,2,0,B|517:100|473:207|392:193|392:193|414:247|367:284,1,300.000011444092,0|2,0:0|1:0,0:0:0:0:
120,350,9868,5,0,0:0:0:0:
228,122,10018,1,0,0:0:0:0:
299,368,10168,1,0,0:0:0:0:
156,156,10319,2,0,P|148:196|164:264,1,100
332,176,10619,1,8,0:0:0:0:
200,368,10769,1,8,0:0:0:0:
52,48,10919,6,0,B|103:39|103:39|136:46|136:46|196:37,1,139.999995727539,2|0,0:0|0:0,0:0:0:0:
500,108,11219,1,0,0:0:0:0:
152,176,11370,2,0,B|100:184|100:184|67:177|67:177|7:186,1,139.999995727539,2|0,0:0|0:0,0:0:0:0:
200,300,11670,1,0,0:0:0:0:
272,160,11820,1,8,0:0:0:0:
188,32,11970,1,8,0:0:0:0:
292,328,12120,6,0,B|364:344|364:344|432:328,1,139.999995727539,2|0,0:0|0:0,0:0:0:0:
316,24,12421,1,0,0:0:0:0:
208,284,12571,2,0,B|136:300|136:300|68:284,1,139.999995727539,2|0,0:0|0:0,0:0:0:0:
356,148,12871,1,0,0:0:0:0:
144,216,13021,1,8,0:0:0:0:
332,268,13171,2,0,B|364:276|364:276|404:268,1,69.9999978637696,8|0,0:0|0:0,0:0:0:0:
488,148,13322,6,0,P|424:140|380:80,1,139.999995727539,2|0,0:0|0:0,0:0:0:0:
100,32,13622,1,0,0:0:0:0:
220,220,13772,2,0,P|284:212|328:152,1,139.999995727539,2|0,0:0|0:0,0:0:0:0:
308,28,14072,1,0,0:0:0:0:
508,144,14222,1,8,0:0:0:0:
308,260,14373,1,8,0:0:0:0:
320,16,14523,6,0,P|392:4|456:52,1,139.999995727539,2|0,0:0|0:0,0:0:0:0:
356,344,14823,2,0,B|288:344|288:344|212:316,1,139.999995727539
176,64,15123,2,0,B|244:64|244:64|320:92,1,139.999995727539
440,324,15424,1,8,0:0:0:0:
476,56,15574,6,0,P|444:72|396:76,1,69.9999978637696,8|0,0:0|0:0,0:0:0:0:
384,224,15724,2,0,P|316:220|236:164,1,139.999995727539,2|0,0:0|0:0,0:0:0:0:
132,0,16024,1,8,0:0:0:0:
200,280,16174,1,8,0:0:0:0:
284,76,16325,2,0,B|260:172|260:172|232:124,1,139.999995727539
136,16,16625,1,8,0:0:0:0:
384,64,16775,1,8,0:0:0:0:
296,332,16925,6,0,B|205:356|205:356|130:338|130:338|44:361,1,259.999988098145,4|0,0:0|0:0,0:0:0:0:
260,240,17376,2,0,B|350:264|350:264|425:246|425:246|511:269,1,259.999988098145,4|0,0:0|0:0,0:0:0:0:
208,180,17826,2,0,P|184:224|188:260,2,64.9999970245363
456,152,18126,2,0,P|348:168|236:72,1,259.999988098145,4|0,0:0|0:0,0:0:0:0:
72,300,18577,2,0,P|180:316|292:220,1,259.999988098145,4|0,0:0|0:0,0:0:0:0:
176,44,19027,6,0,L|112:32,2,64.9999970245363
336,148,19328,2,0,L|476:128,1,129.999994049073,2|0,0:0|0:0,0:0:0:0:
124,164,19628,1,0,0:0:0:0:
384,276,19778,2,0,L|512:294,1,129.999994049073,2|0,0:0|0:0,0:0:0:0:
264,112,20078,1,8,0:0:0:0:
328,324,20228,1,8,0:0:0:0:
392,48,20379,1,0,0:0:0:0:
192,236,20529,6,0,L|216:368,1,129.999994049073,2|0,0:0|0:0,0:0:0:0:
472,168,20829,1,0,0:0:0:0:
120,136,20979,2,0,L|144:4,1,129.999994049073,2|0,0:0|0:0,0:0:0:0:
288,216,21279,1,8,0:0:0:0:
76,264,21430,1,8,0:0:0:0:
360,260,21580,1,0,0:0:0:0:
8,212,21730,6,0,B|4:144|4:144|36:68,1,129.999994049073,2|0,0:0|0:0,0:0:0:0:
256,24,22030,1,0,0:0:0:0:
464,136,22180,2,0,B|468:204|468:204|436:280,1,129.999994049073,2|0,0:0|0:0,0:0:0:0:
184,276,22481,1,8,0:0:0:0:
384,192,22631,1,8,0:0:0:0:
136,184,22781,2,0,L|68:192,1,64.9999970245363
32,264,22931,6,0,L|188:276,1,129.999994049073,2|0,0:0|0:0,0:0:0:0:
400,196,23231,1,0,0:0:0:0:
132,96,23382,2,0,L|-24:84,1,129.999994049073,2|0,0:0|0:0,0:0:0:0:
212,336,23682,1,0,0:0:0:0:
200,116,23832,1,8,0:0:0:0:
132,360,23982,1,8,0:0:0:0:
276,152,24132,6,0,P|284:84|244:40,1,129.999994049073,2|0,0:0|0:0,0:0:0:0:
88,240,24433,2,0,P|80:308|120:352,1,129.999994049073,0|2,0:0|0:0,0:0:0:0:
372,64,24733,2,0,P|317:23|259:35,1,129.999994049073
396,256,24958,1,0,0:0:0:0:
456,224,25033,2,0,L|472:92,1,129.999994049073
296,144,25334,5,2,0:0:0:0:
336,364,25484,1,0,0:0:0:0:
376,84,25634,1,0,0:0:0:0:
116,200,25784,1,0,0:0:0:0:
448,304,25934,1,0,0:0:0:0:
112,356,26084,2,0,P|72:352|36:336,2,64.9999970245363,8|0|0,0:0|0:0|0:0,0:0:0:0:
432,304,26385,5,0,0:0:0:0:
132,208,26535,2,0,B|128:144|108:80|108:80|160:124|236:144,1,259.999988098145,2|0,0:0|0:0,0:0:0:0:
331,291,26985,2,0,B|278:326|233:376|233:376|245:309|224:233,1,259.999988098145,2|0,0:0|0:0,0:0:0:0:
304,76,27436,2,0,B|361:105|426:119|426:119|362:142|307:198,1,259.999988098145,2|8,0:0|0:0,0:0:0:0:
156,304,27886,6,0,L|88:288,2,64.9999970245363
408,252,28186,1,0,0:0:0:0:
152,208,28337,2,0,L|20:224,1,129.999994049073
236,100,28637,1,2,2:0:0:0:
268,103,28712,1,0,2:0:0:0:
300,107,28787,1,2,2:0:0:0:
332,110,28862,1,0,2:0:0:0:
365,114,28937,5,2,1:0:0:0:
462,293,29087,1,0,0:0:0:0:
444,64,29237,1,0,0:0:0:0:
384,344,29387,1,2,1:0:0:0:
456,52,29538,6,0,L|376:40,1,64.9999970245363
260,272,29688,2,0,L|340:284,1,64.9999970245363
456,32,29838,6,0,B|355:27|355:27,1,100,4|0,0:0|0:0,0:0:0:0:
40,64,29988,1,0,0:0:0:0:
248,112,30138,5,2,0:0:0:0:
20,56,30288,1,0,0:0:0:0:
288,28,30439,1,0,0:0:0:0:
0,48,30589,1,2,0:0:0:0:
304,200,30739,2,0,L|320:108,1,75.0000028610231
64,176,30889,2,0,L|80:268,1,75.0000028610231
404,332,31039,6,0,L|388:220,1,110.000003356934,4|0,0:0|0:0,0:0:0:0:
356,0,31189,1,0,0:0:0:0:
184,80,31340,5,2,0:0:0:0:
464,52,31490,1,0,0:0:0:0:
160,100,31640,1,0,0:0:0:0:
489,67,31790,1,2,0:0:0:0:
180,172,31940,2,0,P|132:172|100:152,1,80
284,20,32090,2,0,P|332:20|364:40,1,80
308,312,32240,6,0,P|284:270|308:200,1,119.999996337891,4|0,0:0|0:0,0:0:0:0:
512,80,32391,1,0,0:0:0:0:
152,92,32541,5,2,0:0:0:0:
500,168,32691,1,0,0:0:0:0:
168,264,32841,2,0,L|68:252,1,80
144,284,32991,2,0,L|44:272,1,80,2|0,0:0|0:0,0:0:0:0:
392,236,33141,2,0,L|492:224,1,80
416,256,33291,2,0,L|516:244,1,80
188,120,33442,6,0,L|40:128,1,129.999994049073,4|0,0:0|0:0,0:0:0:0:
472,20,33592,1,0,0:0:0:0:
80,24,33742,5,8,0:0:0:0:
456,96,33892,1,0,0:0:0:0:
24,200,34042,1,8,0:0:0:0:
480,92,34192,1,0,0:0:0:0:
36,108,34343,5,8,0:0:0:0:
456,244,34493,1,0,0:0:0:0:
8,308,34643,1,8,0:0:0:0:
360,152,34793,6,0,L|460:164,1,89.9999972534181,2|0,0:0|0:0,0:0:0:0:
272,336,34943,1,8,0:0:0:0:
192,136,35093,2,0,L|92:148,1,89.9999972534181,2|0,0:0|0:0,0:0:0:0:
280,348,35243,1,8,0:0:0:0:
332,64,35394,2,0,L|444:76,1,104.999996795654,2|0,0:0|0:0,0:0:0:0:
288,360,35544,1,8,0:0:0:0:
208,24,35694,2,0,L|84:28,1,104.999996795654,2|0,0:0|0:0,0:0:0:0:
296,376,35844,1,8,0:0:0:0:
476,248,35994,6,0,B|491:198|491:198|481:138,1,104.999996795654,2|0,0:0|0:0,0:0:0:0:
253,118,36144,1,8,0:0:0:0:
227,110,36219,1,0,0:0:0:0:
202,103,36294,1,8,0:0:0:0:
177,95,36369,1,0,0:0:0:0:
152,88,36444,1,8,0:0:0:0:
122,131,36520,1,0,0:0:0:0:
107,181,36595,1,8,0:0:0:0:
107,234,36670,1,0,0:0:0:0:
123,283,36745,5,2,0:0:0:0:
164,346,36820,1,0,0:0:0:0:
240,355,36895,1,8,0:0:0:0:
295,303,36970,1,0,0:0:0:0:
290,227,37045,1,8,0:0:0:0:
302,126,37120,1,0,0:0:0:0:
390,75,37195,1,8,0:0:0:0:
483,114,37270,1,0,0:0:0:0:
509,212,37346,6,0,L|400:224,1,104.999996795654,2|0,0:0|0:0,0:0:0:0:
510,232,37496,2,0,L|422:240,1,85.0000016212464
510,248,37646,2,0,L|437:255,1,69.9999978637696
511,262,37796,2,0,L|423:270,1,85.0000016212464,2|0,0:0|0:0,0:0:0:0:
512,324,37946,6,0,L|457:329,1,50
501,344,38096,2,0,L|366:357,1,119.999996337891
76,296,38547,6,0,P|53:232|75:156,1,150.000005722046,4|0,0:0|0:0,0:0:0:0:
298,21,38847,1,2,0:0:0:0:
242,373,38997,1,8,0:0:0:0:
5,74,39147,1,0,0:0:0:0:
61,69,39222,1,0,0:0:0:0:
117,65,39297,1,0,0:0:0:0:
173,61,39372,1,0,0:0:0:0:
229,57,39447,1,2,0:0:0:0:
493,168,39598,1,0,0:0:0:0:
113,295,39748,2,0,L|18:288,2,75.0000028610231,8|0|8,0:0|0:0|0:0,0:0:0:0:
477,168,40048,5,2,0:0:0:0:
113,206,40198,1,0,0:0:0:0:
75,200,40273,1,8,0:0:0:0:
38,195,40348,1,8,0:0:0:0:
418,237,40499,1,0,0:0:0:0:
203,51,40649,2,0,B|180:126|180:126|196:206|196:206|174:286,1,225.000008583069,2|0,0:0|0:0,0:0:0:0:
141,338,40949,2,0,B|211:356|211:356|305:348,1,150.000005722046,12|0,0:0|0:0,0:0:0:0:
486,215,41249,1,2,0:0:0:0:
109,177,41400,1,8,0:0:0:0:
375,327,41550,5,8,0:0:0:0:
86,169,41700,1,8,0:0:0:0:
431,135,41850,2,0,P|468:103|394:83,1,150.000005722046,2|0,0:0|0:0,0:0:0:0:
308,177,42150,1,0,0:0:0:0:
255,196,42225,1,8,0:0:0:0:
199,204,42300,1,8,0:0:0:0:
144,197,42375,1,0,0:0:0:0:
91,178,42450,1,2,0:0:0:0:
207,64,42601,1,8,0:0:0:0:
283,347,42751,1,8,0:0:0:0:
114,88,42901,5,0,0:0:0:0:
440,280,43051,2,0,B|460:208|460:208|440:124,1,150.000005722046,2|0,0:0|0:0,0:0:0:0:
144,20,43352,1,12,0:0:0:0:
260,276,43502,1,0,0:0:0:0:
432,48,43652,1,2,0:0:0:0:
124,120,43802,5,0,0:0:0:0:
131,175,43877,1,8,0:0:0:0:
138,231,43952,1,0,0:0:0:0:
146,287,44027,1,8,0:0:0:0:
153,343,44102,1,0,0:0:0:0:
68,56,44252,1,2,0:0:0:0:
452,44,44402,1,0,0:0:0:0:
24,188,44552,1,8,0:0:0:0:
408,176,44702,1,8,0:0:0:0:
220,12,44853,5,2,0:0:0:0:
364,316,45003,1,0,0:0:0:0:
401,312,45078,1,8,0:0:0:0:
438,309,45153,1,8,0:0:0:0:
204,104,45303,1,8,0:0:0:0:
76,300,45454,1,2,0:0:0:0:
39,304,45529,1,0,0:0:0:0:
2,307,45604,1,0,0:0:0:0:
420,84,45754,5,12,0:0:0:0:
64,124,45904,1,8,0:0:0:0:
360,244,46054,2,0,L|512:224,1,150.000005722046,2|0,0:0|0:0,0:0:0:0:
40,128,46355,1,12,0:0:0:0:
440,80,46505,1,8,0:0:0:0:
152,320,46655,2,0,L|-12:304,1,150.000005722046,2|0,0:0|0:0,0:0:0:0:
224,36,46955,5,12,0:0:0:0:
280,348,47105,1,0,0:0:0:0:
248,20,47255,1,0,0:0:0:0:
305,338,47405,1,0,0:0:0:0:
320,112,47556,5,12,0:0:0:0:
192,272,47706,1,0,0:0:0:0:
320,132,47856,1,8,0:0:0:0:
192,292,48006,1,0,0:0:0:0:
440,20,48156,6,0,P|480:104|468:160,1,150.000005722046,4|8,0:0|0:0,0:0:0:0:
280,284,48382,1,8,0:0:0:0:
336,244,48457,2,0,L|424:252,1,75.0000028610231,2|0,0:0|0:0,0:0:0:0:
496,324,48607,2,0,P|416:316|352:356,1,150.000005722046,8|0,0:0|0:0,0:0:0:0:
392,164,48907,5,8,0:0:0:0:
216,324,49057,1,2,0:0:0:0:
280,112,49207,2,0,L|256:32,2,75.0000028610231,8|0|8,0:0|0:0|0:0,0:0:0:0:
352,356,49508,1,8,0:0:0:0:
120,144,49658,1,2,0:0:0:0:
392,84,49808,1,0,0:0:0:0:
188,272,49958,6,0,B|100:268|100:268|40:240,1,150.000005722046,8|0,0:0|0:0,0:0:0:0:
248,44,50258,2,0,B|336:48|336:48|396:76,1,150.000005722046,2|8,0:0|0:0,0:0:0:0:
424,200,50484,1,0,0:0:0:0:
468,144,50559,2,0,L|444:308,1,150.000005722046,4|0,0:0|0:0,0:0:0:0:
292,136,50859,1,2,0:0:0:0:
280,336,51009,1,8,0:0:0:0:
317,331,51084,1,8,0:0:0:0:
354,326,51159,1,8,0:0:0:0:
212,152,51309,2,0,L|124:140,2,75.0000028610231,8|0|2,0:0|0:0|0:0,0:0:0:0:
492,148,51610,5,8,0:0:0:0:
160,264,51760,1,0,0:0:0:0:
500,296,51910,2,0,L|476:220,1,75.0000028610231
500,136,52060,2,0,L|360:84,1,150.000005722046,2|0,0:0|0:0,0:0:0:0:
112,52,52361,1,0,0:0:0:0:
356,196,52511,1,0,0:0:0:0:
192,8,52661,1,2,0:0:0:0:
232,324,52811,1,0,0:0:0:0:
292,24,52961,5,12,0:0:0:0:
156,96,53111,1,0,0:0:0:0:
404,88,53261,1,8,0:0:0:0:
108,184,53412,1,0,0:0:0:0:
496,200,53562,1,8,0:0:0:0:
36,292,53712,1,0,0:0:0:0:
508,352,53862,1,8,0:0:0:0:
24,280,54012,1,0,0:0:0:0:
480,188,54162,1,12,0:0:0:0:
0,204,54313,5,0,0:0:0:0:
388,296,54463,2,0,B|488:280|488:280|432:264,1,150.000005722046,8|4,0:0|0:0,0:0:0:0:
112,112,54763,2,0,B|12:128|12:128|68:144,1,150.000005722046,8|0,0:0|0:0,0:0:0:0:
380,216,55063,1,0,0:0:0:0:
168,48,55213,1,0,0:0:0:0:
270,293,55364,5,2,0:0:0:0:
240,89,55514,1,0,0:0:0:0:
252,303,55664,1,0,0:0:0:0:
258,79,55814,1,2,0:0:0:0:
231,311,55964,5,0,0:0:0:0:
279,71,56114,1,0,0:0:0:0:
207,314,56264,1,0,0:0:0:0:
303,68,56414,1,2,0:0:0:0:
48,284,56565,5,2,0:0:0:0:
460,100,56715,1,0,0:0:0:0:
76,124,56865,1,2,0:0:0:0:
432,260,57015,1,0,0:0:0:0:
174,80,57165,5,2,0:0:0:0:
144,273,57316,1,8,0:0:0:0:
337,303,57466,1,2,0:0:0:0:
367,110,57616,1,2,0:0:0:0:
256,192,57766,5,4,0:0:0:0:
256,192,58066,1,0,0:0:0:0:
256,192,58367,1,0,0:0:0:0:
256,192,58667,1,0,0:0:0:0:
256,192,58967,2,0,L|336:180,2,75.0000028610231
192,264,59418,1,0,0:0:0:0:
132,184,59568,2,0,L|120:104,2,75.0000028610231
196,288,60018,1,0,0:0:0:0:
192,80,60168,6,0,B|256:56|256:56|332:68,1,125,4|0,0:0|0:0,0:0:0:0:
488,136,60469,1,2,0:0:0:0:
276,192,60619,2,0,P|264:152|272:120,1,62.5
400,236,60769,1,0,0:0:0:0:
396,267,60844,1,0,0:0:0:0:
393,298,60919,1,8,0:0:0:0:
192,164,61069,1,2,0:0:0:0:
472,136,61219,6,0,P|432:144|384:132,1,62.5
324,68,61370,2,0,P|264:48|192:80,1,125
92,224,61670,1,2,0:0:0:0:
72,60,61820,2,0,L|88:-4,1,62.5
252,188,61970,5,8,0:0:0:0:
8,128,62120,1,0,0:0:0:0:
344,172,62270,1,2,0:0:0:0:
72,228,62421,1,0,0:0:0:0:
292,96,62571,6,0,B|334:84|334:84|373:90|373:90|435:74,1,125,4|0,0:0|0:0,0:0:0:0:
132,32,62871,1,2,0:0:0:0:
248,160,63021,2,0,P|304:172|328:164,1,62.5
336,28,63171,1,0,0:0:0:0:
307,16,63246,1,0,0:0:0:0:
276,16,63321,1,8,0:0:0:0:
168,200,63472,1,2,0:0:0:0:
388,180,63622,6,0,L|464:192,1,62.5
352,256,63772,2,0,L|212:276,1,125
40,288,63997,1,0,0:0:0:0:
112,344,64072,2,0,P|124:280|92:216,1,125,2|0,0:0|0:0,0:0:0:0:
52,72,64297,1,0,0:0:0:0:
112,136,64373,2,0,L|248:144,1,125,8|0,0:0|0:0,0:0:0:0:
432,44,64673,5,2,0:0:0:0:
172,204,64823,1,0,0:0:0:0:
460,160,64973,2,0,P|432:168|488:208,1,125,4|0,0:0|0:0,0:0:0:0:
348,32,65273,1,2,0:0:0:0:
416,292,65424,2,0,P|464:300|496:292,1,62.5
288,88,65574,1,0,0:0:0:0:
294,118,65649,1,0,0:0:0:0:
301,149,65724,1,8,0:0:0:0:
256,336,65874,5,2,0:0:0:0:
208,100,66024,2,0,L|224:32,1,62.5
144,160,66174,2,0,L|156:292,1,125
404,144,66475,1,2,0:0:0:0:
332,360,66625,1,8,0:0:0:0:
324,329,66700,1,8,0:0:0:0:
317,299,66775,5,0,0:0:0:0:
420,64,66925,1,0,0:0:0:0:
480,344,67075,1,2,0:0:0:0:
416,44,67225,1,0,0:0:0:0:
72,112,67376,5,8,0:0:0:0:
296,224,67526,1,0,0:0:0:0:
508,88,67676,1,2,0:0:0:0:
32,196,67826,1,8,0:0:0:0:
256,84,67976,1,0,0:0:0:0:
468,220,68126,1,0,0:0:0:0:
100,108,68276,6,0,P|92:80|96:40,1,62.5,2|0,0:0|0:0,0:0:0:0:
232,268,68427,2,0,P|240:296|236:336,1,62.5
116,192,68577,1,8,0:0:0:0:
488,136,68727,1,0,0:0:0:0:
96,176,68877,1,2,0:0:0:0:
507,151,69027,1,0,0:0:0:0:
120,96,69177,5,8,0:0:0:0:
418,305,69328,1,0,0:0:0:0:
374,51,69478,1,2,0:0:0:0:
165,350,69628,1,0,0:0:0:0:
112,76,69778,6,0,L|100:200,1,125,4|0,0:0|0:0,0:0:0:0:
432,284,70078,1,2,0:0:0:0:
368,40,70228,1,0,0:0:0:0:
274,32,70303,1,8,0:0:0:0:
181,24,70378,1,8,0:0:0:0:
99,69,70453,1,0,0:0:0:0:
17,115,70528,1,0,0:0:0:0:
248,336,70679,1,2,0:0:0:0:
180,104,70829,2,0,L|152:160,1,62.5
80,192,70979,6,0,B|64:256|64:256|88:336,1,125,8|0,0:0|0:0,0:0:0:0:
352,228,71279,1,2,0:0:0:0:
88,112,71430,2,0,P|60:108|16:112,1,62.5,8|0,0:0|0:0,0:0:0:0:
376,84,71580,2,0,P|404:80|448:84,1,62.5,8|0,0:0|0:0,0:0:0:0:
96,196,71730,1,0,0:0:0:0:
488,148,71880,5,2,0:0:0:0:
72,196,72030,1,0,0:0:0:0:
464,320,72180,2,0,B|420:323|420:323|403:321|403:321|388:326|388:326|336:331,1,125,4|0,0:0|0:0,0:0:0:0:
48,196,72481,1,2,0:0:0:0:
320,16,72631,1,0,0:0:0:0:
378,86,72706,1,8,0:0:0:0:
382,178,72781,1,8,0:0:0:0:
328,253,72856,1,0,0:0:0:0:
240,280,72931,1,8,0:0:0:0:
220,128,73081,5,2,0:0:0:0:
444,24,73231,2,0,P|464:96|464:112,1,62.5
496,184,73382,2,0,P|468:256|420:308,1,125,8|0,0:0|0:0,0:0:0:0:
192,223,73682,1,2,0:0:0:0:
376,84,73832,2,0,P|344:96|304:96,1,62.5,8|0,0:0|0:0,0:0:0:0:
128,80,73982,2,0,P|94:74|59:54,1,62.5,8|0,0:0|0:0,0:0:0:0:
332,188,74132,1,0,0:0:0:0:
48,216,74282,5,2,0:0:0:0:
452,308,74433,1,0,0:0:0:0:
110,324,74583,2,0,B|94:292|100:267|100:267|124:245|121:205,1,125,4|0,0:0|0:0,0:0:0:0:
88,0,74883,5,2,0:0:0:0:
184,272,75033,1,8,0:0:0:0:
276,255,75108,1,0,0:0:0:0:
368,239,75183,1,0,0:0:0:0:
403,152,75258,1,8,0:0:0:0:
439,65,75333,1,8,0:0:0:0:
216,48,75484,1,2,0:0:0:0:
512,212,75634,2,0,L|444:220,1,62.5,8|8,0:0|0:0,0:0:0:0:
236,328,75784,2,0,L|372:344,1,125,8|0,0:0|0:0,0:0:0:0:
224,72,76084,1,2,0:0:0:0:
168,292,76234,6,0,P|160:332|176:372,1,62.5,8|0,0:0|0:0,0:0:0:0:
292,104,76385,2,0,P|300:64|284:24,1,62.5,8|0,0:0|0:0,0:0:0:0:
376,336,76535,1,0,0:0:0:0:
80,132,76685,5,2,0:0:0:0:
488,176,76835,1,0,0:0:0:0:
56,120,76985,5,8,0:0:0:0:
256,192,77135,1,0,0:0:0:0:
456,264,77285,1,2,0:0:0:0:
113,34,77436,1,8,0:0:0:0:
256,192,77586,1,0,0:0:0:0:
398,349,77736,1,0,0:0:0:0:
322,8,77886,5,2,0:0:0:0:
64,225,78036,1,0,0:0:0:0:
381,341,78186,1,8,0:0:0:0:
144,72,78337,5,8,0:0:0:0:
228,376,78487,1,2,0:0:0:0:
312,24,78637,1,8,0:0:0:0:
184,272,78787,5,0,0:0:0:0:
224,52,78937,1,0,0:0:0:0:
312,368,79087,1,2,0:0:0:0:
224,52,79237,1,8,0:0:0:0:
208,164,79388,5,4,0:0:0:0:
208,164,79838,2,0,P|268:184|324:164,1,120,2|0,0:0|0:0,0:0:0:0:
372,88,80589,1,4,0:3:0:0:
372,88,81039,1,4,0:3:0:0:
372,88,81790,6,0,B|388:128|388:128|384:180,1,80,2|0,0:0|0:0,0:0:0:0:
352,256,82391,2,0,L|368:348,1,80
272,300,82991,2,0,P|224:296|188:308,3,80,4|0|0|0,0:3|0:0|0:0|0:0,0:0:0:0:
48,184,84192,2,0,P|32:120|40:96,1,80,4|0,0:3|0:0,0:0:0:0:
104,40,84643,1,4,0:3:0:0:
104,40,85394,6,0,L|184:48,1,80,4|0,0:3|0:0,0:0:0:0:
208,136,85994,2,0,P|256:128|248:188,1,120
288,264,86595,2,0,P|224:268|180:224,2,120,4|0|0,0:3|0:0|0:0,0:0:0:0:
307,267,87796,2,0,P|225:283|162:201,1,179.999994506836
176,124,88397,1,0,0:0:0:0:
188,112,88547,5,0,0:0:0:0:
88,352,88697,1,4,0:0:0:0:
128,52,88997,6,0,P|176:28|268:76,1,150,8|8,0:0|0:0,0:0:0:0:
308,120,89297,2,0,B|360:128|360:128|416:116,1,100,2|0,0:0|0:0,0:0:0:0:
488,16,89598,1,0,0:0:0:0:
400,200,89748,1,0,0:0:0:0:
336,16,89898,1,2,0:0:0:0:
484,96,90048,1,0,0:0:0:0:
380,212,90198,6,0,P|360:252|372:312,1,100,8|0,0:0|0:0,0:0:0:0:
148,252,90499,2,0,P|168:212|156:152,1,100,2|0,0:0|0:0,0:0:0:0:
44,52,90799,1,0,0:0:0:0:
88,316,90949,1,8,0:0:0:0:
88,316,91024,1,8,0:0:0:0:
88,316,91099,1,2,0:0:0:0:
244,160,91249,1,0,0:0:0:0:
20,128,91400,6,0,L|36:244,1,100,8|0,0:0|0:0,0:0:0:0:
240,268,91700,2,0,L|256:152,1,100,2|0,0:0|0:0,0:0:0:0:
100,104,92000,1,0,0:0:0:0:
388,128,92150,2,0,L|464:116,2,50,8|8|2,0:0|0:0|0:0,0:0:0:0:
112,192,92451,1,0,0:0:0:0:
360,52,92601,5,0,0:0:0:0:
64,32,92751,1,0,0:0:0:0:
360,204,92901,2,0,L|472:216,1,100,2|0,0:0|0:0,0:0:0:0:
100,272,93201,2,0,L|-12:284,2,100,8|0|2,0:0|0:0|0:0,0:0:0:0:
320,220,93652,1,0,0:0:0:0:
340,212,93727,1,0,0:0:0:0:
360,204,93802,1,4,0:0:0:0:
100,180,93952,5,0,0:0:0:0:
396,292,94102,2,0,L|508:288,1,100,2|0,0:0|0:0,0:0:0:0:
272,128,94403,1,0,0:0:0:0:
240,348,94553,1,0,0:0:0:0:
188,108,94703,1,2,0:0:0:0:
324,372,94853,1,0,0:0:0:0:
76,248,95003,5,8,0:0:0:0:
380,152,95153,1,8,0:0:0:0:
56,252,95303,1,2,0:0:0:0:
376,292,95454,1,0,0:0:0:0:
112,144,95604,2,0,P|104:100|124:48,1,100
452,108,95904,2,0,P|460:152|440:204,1,100,2|0,0:0|0:0,0:0:0:0:
100,232,96204,5,2,0:0:0:0:
356,156,96355,1,8,0:0:0:0:
380,148,96505,1,8,0:0:0:0:
48,144,96655,1,2,0:0:0:0:
380,248,96805,1,8,0:0:0:0:
424,268,96955,1,8,0:0:0:0:
24,32,97105,1,2,0:0:0:0:
304,304,97255,1,8,0:0:0:0:
219,37,97406,6,0,B|176:108|261:137|219:209,2,179.999994506836,2|0|4,0:0|0:0|0:0,0:0:0:0:
232,32,98607,6,0,B|284:20|284:20|334:35|334:35|386:24,1,160,4|0,0:0|0:0,0:0:0:0:
488,260,98907,1,2,0:0:0:0:
188,280,99057,1,0,0:0:0:0:
243,258,99132,1,0,0:0:0:0:
303,257,99207,1,8,0:0:0:0:
359,276,99282,1,0,0:0:0:0:
406,313,99357,1,8,0:0:0:0:
320,108,99508,1,2,0:0:0:0:
284,384,99658,1,0,0:0:0:0:
76,204,99808,6,0,B|48:128|48:128|76:40,1,160,8|0,0:0|0:0,0:0:0:0:
448,92,100108,1,0,0:0:0:0:
196,292,100258,1,0,0:0:0:0:
189,232,100333,1,8,0:0:0:0:
182,172,100408,1,8,0:0:0:0:
176,113,100483,1,0,0:0:0:0:
169,53,100558,1,8,0:0:0:0:
492,172,100709,1,2,0:0:0:0:
112,264,100859,5,0,0:0:0:0:
73,252,100934,1,0,0:0:0:0:
35,241,101009,1,8,0:0:0:0:
400,120,101159,1,0,0:0:0:0:
184,360,101309,1,2,0:0:0:0:
260,12,101460,1,0,0:0:0:0:
388,304,101610,2,0,B|492:288|492:288|440:256,1,160,8|0,0:0|0:0,0:0:0:0:
184,48,101910,2,0,B|80:64|80:64|132:96,1,160,2|0,0:0|0:0,0:0:0:0:
420,180,102210,5,8,0:0:0:0:
40,144,102361,1,8,0:0:0:0:
480,52,102511,1,2,0:0:0:0:
252,272,102661,1,0,0:0:0:0:
212,265,102736,1,8,0:0:0:0:
173,258,102811,1,8,0:0:0:0:
136,24,102961,5,0,0:0:0:0:
176,344,103111,1,2,0:0:0:0:
280,112,103261,1,0,0:0:0:0:
36,184,103412,6,0,B|100:236|152:148|208:200,1,160,4|0,0:0|0:0,0:0:0:0:
440,320,103712,1,2,0:0:0:0:
324,24,103862,1,0,0:0:0:0:
210,305,104012,2,0,P|168:308|128:296,2,80,0|0|8,0:0|0:0|0:0,0:0:0:0:
511,262,104313,1,2,0:0:0:0:
188,112,104463,1,0,0:0:0:0:
440,64,104613,2,0,B|452:144|452:144|436:232,1,160,8|0,0:0|0:0,0:0:0:0:
288,348,104913,1,2,0:0:0:0:
120,256,105063,5,8,0:0:0:0:
93,202,105138,1,8,0:0:0:0:
88,143,105213,1,0,0:0:0:0:
107,86,105288,1,0,0:0:0:0:
146,41,105363,1,8,0:0:0:0:
200,288,105514,2,0,P|120:344|48:312,1,160,2|0,0:0|0:0,0:0:0:0:
400,48,105814,5,8,0:0:0:0:
456,296,105964,1,0,0:0:0:0:
248,16,106114,1,2,0:0:0:0:
192,264,106264,1,0,0:0:0:0:
472,24,106415,5,8,0:0:0:0:
376,328,106565,1,8,0:0:0:0:
160,32,106715,1,2,0:0:0:0:
256,336,106865,1,0,0:0:0:0:
388,20,107015,6,0,B|384:43|386:71|415:91|415:91|335:105|308:198|394:302|516:228|482:116|412:162,1,400,4|8,0:0|0:0,0:0:0:0:
288,184,107916,1,0,0:0:0:0:
292,203,107991,1,0,0:0:0:0:
300,221,108066,1,0,0:0:0:0:
311,238,108141,1,0,0:0:0:0:
328,256,108216,2,0,P|304:288|192:248,1,160,4|0,0:0|0:0,0:0:0:0:
56,208,108442,1,0,0:0:0:0:
72,280,108517,2,0,P|120:248|128:208,1,80,2|0,0:0|0:0,0:0:0:0:
128,40,108667,5,8,0:0:0:0:
352,120,108817,1,0,0:0:0:0:
325,148,108892,1,0,0:0:0:0:
287,160,108967,1,8,0:0:0:0:
48,128,109117,2,0,P|112:112|200:152,1,160,2|8,0:0|0:0,0:0:0:0:
248,368,109418,1,8,0:0:0:0:
80,192,109568,2,0,P|128:192|168:224,1,80,8|0,0:0|0:0,0:0:0:0:
320,320,109718,2,0,P|400:336|480:312,1,160,2|0,0:0|0:0,0:0:0:0:
400,96,110018,6,0,B|320:80|320:80|240:112,1,160
240,296,110243,1,0,0:0:0:0:
304,232,110319,2,0,P|248:208|208:216,1,80,2|0,0:0|0:0,0:0:0:0:
64,304,110469,1,8,0:0:0:0:
384,224,110619,1,8,0:0:0:0:
64,56,110769,2,0,L|160:32,1,80,8|0,0:0|0:0,0:0:0:0:
304,0,110919,2,0,L|472:16,1,160,2|0,0:0|0:0,0:0:0:0:
261,147,111219,5,0,0:0:0:0:
247,109,111294,1,0,0:0:0:0:
246,69,111369,1,8,0:0:0:0:
464,200,111520,2,0,P|468:273|417:367,1,160,2|0,0:0|0:0,0:0:0:0:
72,248,111820,2,0,P|176:216|312:248,1,240,8|8,0:0|0:0,0:0:0:0:
320,328,112120,2,0,P|376:280|360:184,1,160,2|0,0:0|0:0,0:0:0:0:
160,64,112421,5,0,0:0:0:0:
200,312,112571,1,8,0:0:0:0:
280,40,112721,1,2,0:0:0:0:
128,336,112871,1,0,0:0:0:0:
424,264,113021,6,0,P|336:288|240:256,1,179.999994506836,4|0,0:0|0:0,0:0:0:0:
56,64,113246,1,0,0:0:0:0:
104,128,113322,2,0,P|152:144|208:136,1,89.9999972534181,2|0,0:0|0:0,0:0:0:0:
400,64,113472,1,8,0:0:0:0:
128,248,113622,1,8,0:0:0:0:
296,8,113772,1,8,0:0:0:0:
256,360,113922,1,2,0:0:0:0:
184,40,114072,5,8,0:0:0:0:
392,200,114222,1,8,0:0:0:0:
176,352,114373,1,0,0:0:0:0:
312,80,114523,2,0,B|375:71|375:71|433:79|433:79|496:70,1,179.999994506836,2|0,0:0|0:0,0:0:0:0:
112,288,114823,1,0,0:0:0:0:
102,244,114898,1,0,0:0:0:0:
114,201,114973,1,8,0:0:0:0:
424,280,115123,1,2,0:0:0:0:
56,352,115273,1,8,0:0:0:0:
504,48,115424,5,8,0:0:0:0:
32,8,115574,1,0,0:0:0:0:
450,134,115724,1,8,0:0:0:0:
68,101,115874,1,0,0:0:0:0:
400,224,116024,1,8,0:0:0:0:
102,198,116174,1,0,0:0:0:0:
408,64,116325,5,8,0:0:0:0:
104,320,116475,1,0,0:0:0:0:
303,61,116625,1,8,0:0:0:0:
208,322,116775,1,0,0:0:0:0:
303,61,116925,1,8,0:0:0:0:
208,322,117075,1,0,0:0:0:0:
238,96,117225,1,8,0:0:0:0:
273,287,117375,1,0,0:0:0:0:
238,96,117525,1,8,0:0:0:0:
273,287,117675,1,0,0:0:0:0:
176,152,117826,5,8,0:0:0:0:
392,208,117976,1,8,0:0:0:0:
144,248,118126,1,8,0:0:0:0:
360,80,118276,5,8,0:0:0:0:
272,368,118427,1,8,0:0:0:0:
184,32,118577,1,8,0:0:0:0:
312,288,118727,1,8,0:0:0:0:
432,16,118877,1,8,0:0:0:0:
24,32,119027,5,2,0:0:0:0:
312,144,119177,1,0,0:0:0:0:
48,208,119328,5,2,0:0:0:0:
416,120,119478,1,0,0:0:0:0:
96,0,119628,5,2,0:0:0:0:
152,376,119778,1,2,0:0:0:0:
392,8,119928,1,2,0:0:0:0:
448,384,120078,1,2,0:0:0:0:
56,152,120228,6,0,P|160:120|256:168,1,200,4|0,0:0|0:0,0:0:0:0:
328,328,120529,1,2,0:0:0:0:
296,104,120679,2,0,P|312:168|280:216,1,100,8|0,0:0|0:0,0:0:0:0:
144,288,120829,1,0,0:0:0:0:
179,227,120904,1,0,0:0:0:0:
245,249,120979,1,8,0:0:0:0:
32,224,121129,5,2,0:0:0:0:
448,240,121279,2,0,P|400:232|336:248,1,100
208,360,121430,2,0,P|120:384|56:304,1,200,8|0,0:0|0:0,0:0:0:0:
152,40,121730,1,2,0:0:0:0:
288,312,121880,1,0,0:0:0:0:
80,80,122030,5,8,0:0:0:0:
392,144,122180,1,0,0:0:0:0:
104,168,122331,1,2,0:0:0:0:
416,136,122481,1,0,0:0:0:0:
208,288,122631,6,0,B|192:240|192:192|192:192|224:80,1,200,4|0,0:0|0:0,0:0:0:0:
464,24,122931,1,2,0:0:0:0:
168,24,123081,2,0,P|136:72|144:136,1,100
296,240,123231,1,0,0:0:0:0:
365,234,123306,1,0,0:0:0:0:
435,228,123381,1,8,0:0:0:0:
96,184,123532,1,2,0:0:0:0:
424,312,123682,6,0,P|456:240|456:200,1,100
296,96,123832,2,0,P|400:112|464:40,1,200,8|0,0:0|0:0,0:0:0:0:
216,56,124057,1,0,0:0:0:0:
160,120,124132,2,0,P|80:128|32:24,1,200,2|0,0:0|0:0,0:0:0:0:
200,200,124358,1,0,0:0:0:0:
120,240,124433,2,0,B|80:144|80:144|112:40,1,200,8|0,0:0|0:0,0:0:0:0:
280,184,124733,1,2,0:0:0:0:
40,248,124883,1,8,0:0:0:0:
280,304,125033,6,0,B|343:292|343:292|418:304|418:304|496:290,1,200,4|0,0:0|0:0,0:0:0:0:
216,248,125334,1,2,0:0:0:0:
384,56,125484,2,0,B|392:104|392:104|384:160,1,100
192,326,125634,1,0,0:0:0:0:
140,281,125709,1,0,0:0:0:0:
139,213,125784,1,8,0:0:0:0:
256,24,125934,1,2,0:0:0:0:
400,168,126084,6,0,L|288:184,1,100
40,232,126234,2,0,L|256:256,1,200
488,144,126535,1,2,0:0:0:0:
168,104,126685,1,0,0:0:0:0:
360,328,126835,5,8,0:0:0:0:
392,48,126985,1,0,0:0:0:0:
376,320,127135,1,2,0:0:0:0:
376,56,127285,1,0,0:0:0:0:
0,128,127436,5,8,0:0:0:0:
488,88,127586,1,0,0:0:0:0:
256,304,127736,1,2,0:0:0:0:
0,16,127886,5,8,0:0:0:0:
496,112,128036,1,0,0:0:0:0:
256,328,128186,1,0,0:0:0:0:
88,112,128337,5,2,0:0:0:0:
424,112,128487,1,0,0:0:0:0:
0,128,128637,5,8,0:0:0:0:
256,352,128787,1,0,0:0:0:0:
512,128,128937,1,2,0:0:0:0:
256,376,129087,1,0,0:0:0:0:
104,88,129237,5,8,0:0:0:0:
56,312,129388,1,0,0:0:0:0:
280,88,129538,1,2,0:0:0:0:
328,312,129689,1,0,0:0:0:0:
104,72,129838,6,0,B|176:72|176:72|200:64|200:64|224:72|224:72|304:72,2,200,4|0|2,0:0|0:0|0:0,0:0:0:0:
80,288,130589,1,0,0:0:0:0:
105,288,130664,1,0,0:0:0:0:
130,288,130739,1,0,0:0:0:0:
155,288,130814,1,0,0:0:0:0:
180,288,130889,1,0,0:0:0:0:
280,168,131039,1,8,0:0:0:0:
368,256,131189,1,0,0:0:0:0:
393,256,131264,1,0,0:0:0:0:
418,256,131339,1,0,0:0:0:0:
443,256,131414,1,0,0:0:0:0:
468,256,131489,1,0,0:0:0:0:
288,152,131640,5,2,0:0:0:0:
240,368,131790,1,0,0:0:0:0:
208,80,131940,1,0,0:0:0:0:
264,264,132090,1,0,0:0:0:0:
464,56,132240,6,0,B|392:56|392:56|352:32|352:32|264:32,2,200,4|0|2,0:0|0:0|0:0,0:0:0:0:
328,208,132991,1,0,0:0:0:0:
328,183,133066,1,0,0:0:0:0:
328,158,133141,1,0,0:0:0:0:
328,133,133216,1,0,0:0:0:0:
328,108,133291,1,0,0:0:0:0:
184,176,133442,1,8,0:0:0:0:
96,128,133592,1,0,0:0:0:0:
96,103,133667,1,0,0:0:0:0:
96,78,133742,1,0,0:0:0:0:
96,53,133817,1,0,0:0:0:0:
96,28,133892,1,0,0:0:0:0:
224,80,134042,5,2,0:0:0:0:
8,136,134192,1,0,0:0:0:0:
200,248,134343,1,0,0:0:0:0:
80,288,134493,1,0,0:0:0:0:
320,208,134643,6,0,B|472:208|472:208|440:248,2,200,4|0|2,0:0|0:0|0:0,0:0:0:0:
128,160,135394,1,0,0:0:0:0:
153,160,135469,1,0,0:0:0:0:
178,160,135544,1,0,0:0:0:0:
203,160,135619,1,0,0:0:0:0:
228,160,135694,1,0,0:0:0:0:
336,96,135844,1,8,0:0:0:0:
216,176,135994,1,0,0:0:0:0:
191,176,136069,1,0,0:0:0:0:
166,176,136144,1,0,0:0:0:0:
141,176,136219,1,0,0:0:0:0:
116,176,136294,1,0,0:0:0:0:
40,272,136445,5,2,0:0:0:0:
130,93,136595,1,0,0:0:0:0:
308,184,136745,1,0,0:0:0:0:
218,362,136895,1,0,0:0:0:0:
168,224,137045,6,0,L|128:336,2,100,4|0|0,0:0|0:0|0:0,0:0:0:0:
272,96,137496,2,0,L|232:-16,2,100,0|2|0,0:0|0:0|0:0,0:0:0:0:
400,232,137946,1,0,0:0:0:0:
391,255,138021,1,0,0:0:0:0:
383,279,138096,1,0,0:0:0:0:
374,302,138171,1,0,0:0:0:0:
366,326,138246,1,8,0:0:0:0:
288,208,138397,5,0,0:0:0:0:
472,160,138547,1,0,0:0:0:0:
208,160,138697,1,0,0:0:0:0:
488,240,138847,1,2,0:0:0:0:
384,128,138997,5,0,0:0:0:0:
472,328,139147,1,8,0:0:0:0:
360,8,139297,1,8,0:0:0:0:
200,248,139448,5,2,0:0:0:0:
384,208,139598,1,0,0:0:0:0:
104,144,139748,1,0,0:0:0:0:
224,336,139898,1,2,0:0:0:0:
176,56,140048,6,0,L|112:64,1,50
328,224,140198,2,0,L|392:216,1,50
184,32,140349,2,0,L|107:41,1,75.0000028610231,4|0,0:0|0:0,0:0:0:0:
24,216,140499,1,0,0:0:0:0:
320,88,140649,5,2,0:0:0:0:
144,224,140799,1,0,0:0:0:0:
336,336,140949,1,0,0:0:0:0:
216,112,141099,1,2,0:0:0:0:
216,320,141249,6,0,P|168:336|128:328,1,75.0000028610231
408,232,141400,2,0,P|456:216|496:224,1,75.0000028610231
136,208,141550,2,0,P|72:200|32:176,1,89.9999972534181,4|0,0:0|0:0,0:0:0:0:
432,120,141700,1,0,0:0:0:0:
128,80,141850,5,2,0:0:0:0:
304,264,142000,1,0,0:0:0:0:
312,40,142150,1,0,0:0:0:0:
312,288,142300,1,2,0:0:0:0:
120,56,142451,6,0,L|24:40,1,89.9999972534181
368,160,142601,2,0,L|464:176,1,89.9999972534181
128,264,142751,2,0,L|0:280,1,110.000003356934,4|0,0:0|0:0,0:0:0:0:
408,328,142901,1,0,0:0:0:0:
96,176,143051,5,2,0:0:0:0:
392,64,143201,1,0,0:0:0:0:
32,120,143352,1,0,0:0:0:0:
456,256,143502,1,2,0:0:0:0:
152,32,143652,6,0,B|96:24|96:24|32:40,1,110.000003356934
368,264,143802,2,0,B|424:272|424:272|488:256,1,110.000003356934
136,0,143952,2,0,B|72:0|72:0|-8:24,1,129.999994049073,4|0,0:0|0:0,0:0:0:0:
152,336,144102,1,0,0:0:0:0:
464,56,144252,5,2,0:0:0:0:
32,120,144403,1,0,0:0:0:0:
488,184,144553,1,0,0:0:0:0:
56,248,144704,1,2,0:0:0:0:
376,128,144853,6,0,P|392:64|368:0,1,110.000003356934
136,240,145003,2,0,P|120:304|144:368,1,110.000003356934
256,24,145153,2,0,L|120:16,1,129.999994049073,4|0,0:0|0:0,0:0:0:0:
392,304,145303,1,0,0:0:0:0:
48,56,145454,5,2,0:0:0:0:
472,304,145604,1,0,0:0:0:0:
48,328,145754,1,0,0:0:0:0:
472,80,145904,1,2,0:0:0:0:
80,128,146054,6,0,L|104:272,1,115.000002193451
376,176,146204,2,0,L|397:47,1,115.000002193451
152,80,146355,2,0,L|184:232,1,150.000005722046,4|0,0:0|0:0,0:0:0:0:
328,360,146505,5,0,0:0:0:0:
88,8,146655,5,8,0:0:0:0:
216,376,146805,1,2,0:0:0:0:
472,0,146955,1,8,0:0:0:0:
344,368,147105,1,2,0:0:0:0:
16,80,147255,5,8,0:0:0:0:
496,160,147406,1,2,0:0:0:0:
442,186,147481,1,0,0:0:0:0:
388,213,147556,1,12,0:0:0:0:
112,360,147706,1,2,0:0:0:0:
352,16,147856,2,0,P|360:72|312:144,1,119.999996337891,2|0,0:0|0:0,0:0:0:0:
144,64,148006,2,0,B|208:48|208:48|288:64,1,119.999996337891
192,176,148156,2,0,L|64:152,1,100
160,200,148306,2,0,L|32:176,1,100,2|0,0:0|0:0,0:0:0:0:
344,216,148457,6,0,P|416:160|424:112,1,119.999996337891
40,288,148607,2,0,L|160:280,1,100,2|0,0:0|0:0,0:0:0:0:
496,288,148757,2,0,L|376:280,1,89.9999972534181,2|0,0:0|0:0,0:0:0:0:
264,320,148907,1,2,2:0:0:0:
240,328,148982,1,2,2:0:0:0:
216,336,149057,1,2,2:0:0:0:
192,27,153862,6,0,B|222:44|253:59|294:66|294:66|262:97|216:104|216:104|261:121|278:170|257:215|257:215|327:243|361:122|462:125|529:208|502:333|362:313|404:235,1,719.999978027344,0|2,0:0|0:0,0:0:0:0:
401,240,158667,6,0,B|415:205|413:182|392:156|392:156|365:176|345:190|309:188|309:188|322:122|299:70|299:70|277:127|255:196|229:307|97:289|40:161|139:75|176:171,1,719.999978027344,0|2,0:0|0:0,0:0:0:0:
176,168,163472,5,2,0:0:0:0:
256,344,163622,1,8,0:0:0:0:
304,112,163772,1,8,0:0:0:0:
216,256,163922,1,2,0:0:0:0:
464,280,164072,1,8,0:0:0:0:
192,256,164222,1,8,0:0:0:0:
456,144,164373,5,2,0:0:0:0:
72,256,164523,1,8,0:0:0:0:
416,336,164673,1,2,0:0:0:0:
48,256,164823,1,8,0:0:0:0:
368,80,164973,5,0,0:0:0:0:
256,360,165123,1,2,0:0:0:0:
208,32,165273,1,8,0:0:0:0:
168,352,165424,1,8,0:0:0:0:
448,32,165574,1,2,0:0:0:0:
457,87,165649,1,8,0:0:0:0:
467,142,165724,1,8,0:0:0:0:
476,198,165799,1,8,0:0:0:0:
486,253,165874,1,2,0:0:0:0:
112,176,166024,5,8,0:0:0:0:
96,168,166174,1,8,0:0:0:0:
416,304,166325,1,2,0:0:0:0:
144,40,166475,1,8,0:0:0:0:
128,24,166625,1,8,0:0:0:0:
328,352,166775,5,2,0:0:0:0:
232,32,166925,1,8,0:0:0:0:
128,336,167075,1,2,0:0:0:0:
344,0,167225,1,8,0:0:0:0:
120,64,167376,5,8,0:0:0:0:
472,136,167526,1,2,0:0:0:0:
120,224,167676,2,0,B|48:208|48:208|120:184,1,150.000005722046,8|8,0:0|0:0,0:0:0:0:
448,304,167976,1,2,0:0:0:0:
391,307,168051,1,8,0:0:0:0:
335,310,168126,1,8,0:0:0:0:
279,313,168201,1,8,0:0:0:0:
223,316,168276,1,2,0:0:0:0:
480,24,168427,5,8,0:0:0:0:
456,152,168577,1,8,0:0:0:0:
96,32,168727,1,2,0:0:0:0:
432,160,168877,5,8,0:0:0:0:
400,16,169027,1,8,0:0:0:0:
32,136,169177,1,2,0:0:0:0:
368,240,169328,1,0,0:0:0:0:
192,16,169478,5,2,0:0:0:0:
176,336,169628,1,8,0:0:0:0:
336,320,169778,1,8,0:0:0:0:
288,16,169928,5,2,0:0:0:0:
158,336,170078,1,8,0:0:0:0:
38,232,170228,1,8,0:0:0:0:
384,112,170379,5,2,0:0:0:0:
334,137,170454,1,8,0:0:0:0:
278,145,170529,1,8,0:0:0:0:
223,135,170604,1,8,0:0:0:0:
174,108,170679,1,2,0:0:0:0:
464,176,170829,1,8,0:0:0:0:
112,208,170979,1,2,0:0:0:0:
432,264,171129,1,8,0:0:0:0:
40,232,171279,5,2,0:0:0:0:
424,96,171430,1,8,0:0:0:0:
56,160,171580,1,2,0:0:0:0:
472,328,171730,1,8,0:0:0:0:
348,43,171880,5,2,0:0:0:0:
163,340,172030,1,2,0:0:0:0:
107,99,172180,1,2,0:0:0:0:
404,284,172331,1,2,0:0:0:0:
160,8,172481,5,2,0:0:0:0:
256,368,172631,1,2,0:0:0:0:
352,8,172781,2,0,P|368:48|368:88,1,75,2|0,0:0|0:0,0:0:0:0:
320,128,173081,6,0,P|296:232|320:312,1,179.999994506836,4|0,0:0|0:0,0:0:0:0:
496,368,173382,1,2,0:0:0:0:
64,248,173532,1,0,0:0:0:0:
147,215,173607,1,0,0:0:0:0:
236,206,173682,1,0,0:0:0:0:
325,220,173757,1,8,0:0:0:0:
407,258,173832,1,8,0:0:0:0:
120,368,173982,1,2,0:0:0:0:
208,16,174132,1,8,0:0:0:0:
504,160,174282,6,0,P|416:168|320:136,1,179.999994506836,8|8,0:0|0:0,0:0:0:0:
80,16,174583,1,2,0:0:0:0:
224,198,174733,1,0,0:0:0:0:
276,271,174808,1,0,0:0:0:0:
224,344,174883,1,0,0:0:0:0:
138,316,174958,1,8,0:0:0:0:
138,226,175033,1,8,0:0:0:0:
280,16,175183,1,2,0:0:0:0:
384,376,175334,1,8,0:0:0:0:
192,24,175484,5,8,0:0:0:0:
56,344,175634,1,8,0:0:0:0:
48,56,175784,1,2,0:0:0:0:
296,264,175934,2,0,L|400:248,2,89.9999972534181,0|8|8,0:0|0:0|0:0,0:0:0:0:
32,144,176234,1,8,0:0:0:0:
400,40,176385,1,2,0:0:0:0:
224,320,176535,5,0,0:0:0:0:
224,320,176610,1,0,0:0:0:0:
224,320,176685,1,8,0:0:0:0:
152,80,176835,1,8,0:0:0:0:
40,272,176985,2,0,P|112:280|208:216,1,179.999994506836,2|8,0:0|0:0,0:0:0:0:
288,8,177285,1,8,0:0:0:0:
496,248,177436,1,8,0:0:0:0:
176,72,177586,2,0,B|88:64|88:64|0:104,1,179.999994506836,2|0,0:0|0:0,0:0:0:0:
392,344,177886,6,0,L|416:152,1,179.999994506836,4|0,0:0|0:0,0:0:0:0:
200,64,178186,1,2,0:0:0:0:
312,368,178337,1,0,0:0:0:0:
323,278,178412,1,0,0:0:0:0:
334,189,178487,1,0,0:0:0:0:
345,100,178562,1,0,0:0:0:0:
356,10,178637,1,8,0:0:0:0:
48,192,178787,5,2,0:0:0:0:
432,96,178937,1,8,0:0:0:0:
296,360,179087,2,0,B|232:351|232:351|182:360|182:360|111:350,1,179.999994506836,8|8,0:0|0:0,0:0:0:0:
256,56,179388,1,2,0:0:0:0:
456,216,179538,1,0,0:0:0:0:
381,265,179613,1,0,0:0:0:0:
294,288,179688,1,0,0:0:0:0:
205,281,179763,1,8,0:0:0:0:
123,245,179838,1,8,0:0:0:0:
328,16,179988,5,2,0:0:0:0:
432,352,180138,1,8,0:0:0:0:
32,160,180288,2,0,P|120:128|208:184,1,179.999994506836,8|8,0:0|0:0,0:0:0:0:
264,376,180589,1,2,0:0:0:0:
392,112,180739,2,0,P|432:104|488:112,2,89.9999972534181,0|8|8,0:0|0:0|0:0,0:0:0:0:
112,232,181039,1,8,0:0:0:0:
440,216,181189,1,2,0:0:0:0:
128,48,181340,1,8,0:0:0:0:
464,232,181490,5,8,0:0:0:0:
48,296,181640,1,8,0:0:0:0:
368,8,181790,2,0,B|384:144|384:144|352:104,1,179.999994506836,2|8,0:0|0:0,0:0:0:0:
160,32,182090,1,0,0:0:0:0:
73,17,182165,1,8,0:0:0:0:
4,70,182240,1,8,0:0:0:0:
176,248,182391,1,2,0:0:0:0:
408,144,182541,1,0,0:0:0:0:
88,304,182691,6,0,P|168:344|256:304,1,179.999994506836,4|0,0:0|0:0,0:0:0:0:
432,56,182991,1,2,0:0:0:0:
420,347,183141,1,0,0:0:0:0:
398,263,183216,1,8,0:0:0:0:
460,205,183291,1,8,0:0:0:0:
208,216,183442,2,0,P|264:208|312:224,1,89.9999972534181
160,152,183592,2,0,P|248:128|352:160,1,179.999994506836,2|8,0:0|0:0,0:0:0:0:
488,288,183817,5,0,0:0:0:0:
416,352,183892,2,0,B|320:360|320:360|224:344,1,179.999994506836,0|8,0:0|0:0,0:0:0:0:
40,240,184117,1,8,0:0:0:0:
112,296,184192,2,0,L|104:200,1,89.9999972534181,2|0,0:0|0:0,0:0:0:0:
176,48,184343,6,0,L|160:144,1,89.9999972534181,8|0,0:0|0:0,0:0:0:0:
232,320,184493,2,0,B|224:224|224:224|240:136,1,179.999994506836,4|0,0:0|0:0,0:0:0:0:
392,32,184793,1,2,0:0:0:0:
480,176,184943,1,0,0:0:0:0:
398,208,185018,1,0,0:0:0:0:
315,178,185093,6,0,P|240:152|136:184,1,179.999994506836,8|8,0:0|0:0,0:0:0:0:
48,352,185394,1,2,0:0:0:0:
72,56,185544,1,0,0:0:0:0:
161,48,185619,1,0,0:0:0:0:
251,40,185694,1,0,0:0:0:0:
340,32,185769,1,8,0:0:0:0:
430,24,185844,1,8,0:0:0:0:
128,168,185994,2,0,L|24:152,1,89.9999972534181,2|0,0:0|0:0,0:0:0:0:
304,248,186144,2,0,L|408:232,1,89.9999972534181,8|8,0:0|0:0,0:0:0:0:
160,344,186294,6,0,B|32:328|32:328|88:304,1,179.999994506836,8|8,0:0|0:0,0:0:0:0:
440,112,186595,1,2,0:0:0:0:
491,183,186670,1,0,0:0:0:0:
489,271,186745,1,0,0:0:0:0:
433,340,186820,1,8,0:0:0:0:
347,360,186895,1,8,0:0:0:0:
256,64,187045,1,8,0:0:0:0:
164,360,187195,1,2,0:0:0:0:
78,340,187270,1,0,0:0:0:0:
22,271,187345,1,0,0:0:0:0:
20,183,187420,1,8,0:0:0:0:
72,112,187496,6,0,B|136:112|136:112|184:136|184:136|256:136,1,179.999994506836,4|0,0:0|0:0,0:0:0:0:
448,40,187796,1,2,0:0:0:0:
288,208,187946,2,0,P|240:216|192:200,1,89.9999972534181,8|0,0:0|0:0,0:0:0:0:
208,64,188096,2,0,P|256:56|304:72,1,89.9999972534181,8|0,0:0|0:0,0:0:0:0:
328,280,188246,1,8,0:0:0:0:
240,296,188321,1,0,0:0:0:0:
155,270,188396,1,2,0:0:0:0:
456,56,188547,5,8,0:0:0:0:
448,145,188622,1,0,0:0:0:0:
441,235,188697,2,0,L|456:336,1,89.9999972534181,8|0,0:0|0:0,0:0:0:0:
360,96,188847,2,0,L|344:200,1,89.9999972534181,8|8,0:0|0:0,0:0:0:0:
280,0,188997,1,2,0:0:0:0:
16,48,189147,5,0,0:0:0:0:
48,128,189222,1,0,0:0:0:0:
132,147,189297,2,0,P|192:120|80:80,1,269.999991760254,4|0,0:0|0:0,0:0:0:0:
240,184,189598,6,0,P|272:128|275:86,1,89.9999972534181,2|0,0:0|0:0,0:0:0:0:
80,264,189748,2,0,L|96:360,1,89.9999972534181
312,296,189898,1,8,0:0:0:0:
388,333,189973,1,0,0:0:0:0:
452,277,190048,1,8,0:0:0:0:
427,196,190123,1,8,0:0:0:0:
342,188,190198,5,2,0:0:0:0:
261,223,190273,1,0,0:0:0:0:
175,202,190348,1,8,0:0:0:0:
119,134,190423,1,8,0:0:0:0:
115,46,190499,1,8,0:0:0:0:
137,49,190574,1,8,0:0:0:0:
159,52,190649,1,8,0:0:0:0:
182,54,190724,1,8,0:0:0:0:
204,58,190799,6,0,L|300:50,1,89.9999972534181,2|0,0:0|0:0,0:0:0:0:
120,256,190949,2,0,L|24:248,1,89.9999972534181
216,48,191099,2,0,L|312:40,1,89.9999972534181,8|0,0:0|0:0,0:0:0:0:
112,272,191249,2,0,L|16:264,1,89.9999972534181,8|0,0:0|0:0,0:0:0:0:
312,120,191400,2,0,L|416:104,2,89.9999972534181,2|0|0,0:0|0:0|0:0,0:0:0:0:
32,152,191700,5,8,0:0:0:0:
296,288,191850,1,8,0:0:0:0:
385,298,191925,1,8,0:0:0:0:
472,304,192000,1,2,0:0:0:0:
152,336,192150,1,0,0:0:0:0:
144,344,192300,6,0,P|128:240|168:168,1,179.999994506836,4|0,0:0|0:0,0:0:0:0:
416,48,192601,1,2,0:0:0:0:
208,96,192751,1,0,0:0:0:0:
119,98,192826,1,8,0:0:0:0:
46,48,192901,1,8,0:0:0:0:
424,56,193051,1,0,0:0:0:0:
447,142,193126,1,0,0:0:0:0:
433,230,193201,2,0,B|352:248|352:248|240:216,1,179.999994506836,2|8,0:0|0:0,0:0:0:0:
160,16,193502,5,0,0:0:0:0:
107,88,193577,1,8,0:0:0:0:
87,175,193652,1,8,0:0:0:0:
103,263,193727,1,8,0:0:0:0:
153,337,193802,2,0,L|264:352,1,89.9999972534181,2|0,0:0|0:0,0:0:0:0:
272,144,193952,2,0,L|382:129,1,89.9999972534181,8|0,0:0|0:0,0:0:0:0:
480,304,194102,6,0,B|392:328|392:328|296:304,1,179.999994506836,4|0,0:0|0:0,0:0:0:0:
224,16,194403,1,2,0:0:0:0:
392,248,194553,1,8,0:0:0:0:
416,24,194703,2,0,P|336:16|304:32,1,89.9999972534181,8|0,0:0|0:0,0:0:0:0:
64,72,194853,2,0,P|144:80|176:64,1,89.9999972534181,8|0,0:0|0:0,0:0:0:0:
240,24,195003,2,0,B|288:104|288:104|280:208,1,179.999994506836,2|0,0:0|0:0,0:0:0:0:
152,344,195303,5,0,0:0:0:0:
68,377,195379,1,8,0:0:0:0:
10,308,195454,1,8,0:0:0:0:
58,232,195529,1,8,0:0:0:0:
144,254,195604,1,2,0:0:0:0:
432,296,195754,1,0,0:0:0:0:
136,248,195904,5,0,0:0:0:0:
50,226,195979,1,8,0:0:0:0:
2,302,196054,1,8,0:0:0:0:
60,371,196129,1,8,0:0:0:0:
144,338,196205,1,2,0:0:0:0:
384,120,196355,1,0,0:0:0:0:
64,64,196505,1,8,0:0:0:0:
264,352,196655,1,8,0:0:0:0:
344,32,196805,1,2,0:0:0:0:
248,216,196955,1,0,0:0:0:0:
80,48,197105,6,0,B|132:28|132:28|198:47|198:47|266:22,1,179.999994506836,4|8,0:0|0:0,0:0:0:0:
464,80,197331,1,8,0:0:0:0:
416,160,197406,2,0,B|328:152|328:152|248:200,1,179.999994506836,2|0,0:0|0:0,0:0:0:0:
272,360,197631,1,0,0:0:0:0:
200,296,197706,2,0,P|248:268|304:272,1,89.9999972534181,8|0,0:0|0:0,0:0:0:0:
480,328,197856,2,0,B|496:288|496:288|488:232,1,89.9999972534181,8|0,0:0|0:0,0:0:0:0:
176,152,198006,1,2,0:0:0:0:
472,0,198156,1,0,0:0:0:0:
450,87,198231,1,0,0:0:0:0:
428,174,198306,6,0,B|384:192|384:192|336:192,1,89.9999972534181,8|0,0:0|0:0,0:0:0:0:
176,56,198457,2,0,B|220:38|220:38|268:38,1,89.9999972534181,8|0,0:0|0:0,0:0:0:0:
88,224,198607,1,2,0:0:0:0:
312,344,198757,1,0,0:0:0:0:
399,324,198832,1,0,0:0:0:0:
487,305,198907,2,0,P|384:312|288:256,1,179.999994506836,4|8,0:0|0:0,0:0:0:0:
176,24,199207,1,2,0:0:0:0:
504,136,199358,1,0,0:0:0:0:
80,272,199508,5,0,0:0:0:0:
328,24,199658,1,0,0:0:0:0:
372,102,199733,1,8,0:0:0:0:
415,180,199808,1,2,0:0:0:0:
325,189,199883,1,0,0:0:0:0:
236,199,199958,1,8,0:0:0:0:
24,16,200108,2,0,L|8:112,1,89.9999972534181
232,296,200258,2,0,L|248:200,1,89.9999972534181,8|0,0:0|0:0,0:0:0:0:
40,0,200409,2,0,L|40:104,1,89.9999972534181,2|0,0:0|0:0,0:0:0:0:
96,288,200559,5,8,0:0:0:0:
156,353,200634,1,0,0:0:0:0:
241,381,200709,1,8,0:0:0:0:
328,365,200784,1,0,0:0:0:0:
398,310,200859,1,0,0:0:0:0:
426,227,200934,1,0,0:0:0:0:
379,154,201009,5,2,0:0:0:0:
292,146,201084,1,0,0:0:0:0:
232,208,201159,1,8,0:0:0:0:
200,128,201234,1,0,0:0:0:0:
252,59,201309,2,0,L|352:64,1,89.9999972534181,8|0,0:0|0:0,0:0:0:0:
112,152,201460,2,0,L|40:160,1,55.0000016784668,8|0,0:0|0:0,0:0:0:0:
328,248,201610,1,2,0:0:0:0:
328,256,201760,1,2,0:0:0:0:
