osu file format v14

[General]
AudioFilename: audio.mp3
AudioLeadIn: 0
PreviewTime: 38547
Countdown: 0
SampleSet: Normal
StackLeniency: 0.3
Mode: 0
LetterboxInBreaks: 0
EpilepsyWarning: 1
WidescreenStoryboard: 1

[Editor]
DistanceSpacing: 1.4
BeatDivisor: 4
GridSize: 16
TimelineZoom: 2.899999

[Metadata]
Title:Say Goodbye (Speed Up Ver.)
TitleUnicode:Say Goodbye (Speed Up Ver.)
Artist:Krewella
ArtistUnicode:Krewella
Creator:saggi
Version:Dreaming
Source:
Tags:LiousPL Melsoon walter85 Megapcmx Minorsonek LukerMaster -NeBu- Broly Envory ChuuritsuTv
BeatmapID:1229631
BeatmapSetID:580821

[Difficulty]
HPDrainRate:5
CircleSize:4
OverallDifficulty:9
ApproachRate:9.6
SliderMultiplier:1.4
SliderTickRate:2

[Events]
//Background and Video events
0,0,"girl.jpg",0,0
//Break Periods
2,149257,161362
//Storyboard Layer 0 (Background)
//Storyboard Layer 1 (Fail)
//Storyboard Layer 2 (Pass)
//Storyboard Layer 3 (Foreground)
Sprite,Foreground,Centre,"sb\highlight.png",421,223 C,0,47856,,242,24,57 F,2,47856,48656,1,0 S,2,47856,48656,0.9,0.18 P,0,47856,48656,A
Sprite,Foreground,Centre,"sb\highlight.png",400,243 C,0,47931,,242,24,57 F,2,47931,48731,1,0 S,2,47931,48731,0.9,0.18 P,0,47931,48731,A
Sprite,Foreground,Centre,"sb\highlight.png",371,250 C,0,48006,,242,24,57 F,2,48006,48806,1,0 S,2,48006,48806,0.9,0.18 P,0,48006,48806,A
Sprite,Foreground,Centre,"sb\highlight.png",344,237 C,0,48081,,242,24,57 F,2,48081,48881,1,0 S,2,48081,48881,0.9,0.18 P,0,48081,48881,A
Sprite,Foreground,Centre,"sb\highlight.png",464,344 C,0,96204,,18,124,255 F,2,96204,97004,1,0 S,2,96204,97004,0.9,0.18 P,0,96204,97004,A
Sprite,Foreground,Centre,"sb\highlight.png",464,344 C,0,96279,,18,124,255 F,2,96279,97079,1,0 S,2,96279,97079,0.9,0.18 P,0,96279,97079,A
Sprite,Foreground,Centre,"sb\highlight.png",464,344 C,0,96355,,18,124,255 F,2,96355,97155,1,0 S,2,96355,97155,0.9,0.18 P,0,96355,97155,A
Sprite,Foreground,Centre,"sb\highlight.png",256,200 C,0,96505,,18,124,255 F,2,96505,97305,1,0 S,2,96505,97305,0.9,0.18 P,0,96505,97305,A
Sprite,Foreground,Centre,"sb\highlight.png",336,376 C,0,96655,,18,124,255 F,2,96655,97455,1,0 S,2,96655,97455,0.9,0.18 P,0,96655,97455,A
Sprite,Foreground,Centre,"sb\highlight.png",368,120 C,0,96805,,18,124,255 F,2,96805,97605,1,0 S,2,96805,97605,0.9,0.18 P,0,96805,97605,A
Sprite,Foreground,Centre,"sb\highlight.png",186,366 C,0,96955,,18,124,255 F,2,96955,97755,1,0 S,2,96955,97755,0.9,0.18 P,0,96955,97755,A
Sprite,Foreground,Centre,"sb\highlight.png",352,238 C,0,97105,,242,24,57 F,2,97105,97905,1,0 S,2,97105,97905,0.9,0.18 P,0,97105,97905,A
Sprite,Foreground,Centre,"sb\highlight.png",352,238 C,0,97180,,242,24,57 F,2,97180,97980,1,0 S,2,97180,97980,0.9,0.18 P,0,97180,97980,A
Sprite,Foreground,Centre,"sb\highlight.png",352,238 C,0,97255,,242,24,57 F,2,97255,98055,1,0 S,2,97255,98055,0.9,0.18 P,0,97255,98055,A
Sprite,Foreground,Centre,"sb\highlight.png",210,169 C,0,97406,,242,24,57 M,0,97406,97443,210,169,185.6413,169.4591 F,2,97406,98356,1,0 S,2,97406,98356,0.9,0.18 P,0,97406,98356,A M,0,97443,97481,185.6413,169.4591,162.3116,176.2729 M,0,97481,97518,162.3116,176.2729,141.7947,189.309 M,0,97518,97556,141.7947,189.309,125.7099,207.5418
Sprite,Foreground,Centre,"sb\highlight.png",203,255 C,0,97706,,242,24,57 F,2,97706,98506,1,0 S,2,97706,98506,0.9,0.18 P,0,97706,98506,A
Sprite,Foreground,Centre,"sb\highlight.png",272,216 C,0,97856,,242,24,57 F,2,97856,98656,1,0 S,2,97856,98656,0.9,0.18 P,0,97856,98656,A
Sprite,Foreground,Centre,"sb\highlight.png",332,150 C,0,98006,,242,24,57 M,0,98006,98043,332,150,347.9951,168.3016 F,2,98006,98956,1,0 S,2,98006,98956,0.9,0.18 P,0,98006,98956,A M,0,98043,98081,347.9951,168.3016,357.36,190.6407 M,0,98081,98118,357.36,190.6407,358.7318,214.8247 M,0,98118,98156,358.7318,214.8247,351.9528,238.08
Sprite,Foreground,Centre,"sb\highlight.png",272,296 C,0,98306,,242,24,57 M,0,98306,98343,272,296,292.3068,309.7071 F,2,98306,99256,1,0 S,2,98306,99256,0.9,0.18 P,0,98306,99256,A M,0,98343,98381,292.3068,309.7071,312,323 M,0,98381,98418,312,323,292.3068,309.7071 M,0,98418,98456,292.3068,309.7071,272,296
Sprite,Foreground,Centre,"sb\highlight.png",448,104 C,0,147856,,18,124,255 M,0,147856,147893,448,104,457.9041,120.5067 F,2,147856,148806,1,0 S,2,147856,148806,0.9,0.18 P,0,147856,148806,A M,0,147893,147931,457.9041,120.5067,467.8081,137.0135 M,0,147931,147968,467.8081,137.0135,477.7121,153.5202 M,0,147968,148006,477.7121,153.5202,487.6162,170.027
Sprite,Foreground,Centre,"sb\highlight.png",304,264 C,0,148156,,18,124,255 F,2,148156,148956,1,0 S,2,148156,148956,0.9,0.18 P,0,148156,148956,A
Sprite,Foreground,Centre,"sb\highlight.png",278,261 C,0,148231,,18,124,255 F,2,148231,149031,1,0 S,2,148231,149031,0.9,0.18 P,0,148231,149031,A
Sprite,Foreground,Centre,"sb\highlight.png",252,248 C,0,148306,,18,124,255 F,2,148306,149106,1,0 S,2,148306,149106,0.9,0.18 P,0,148306,149106,A
Sprite,Foreground,Centre,"sb\highlight.png",224,136 C,0,148457,,242,24,57 M,0,148457,148494,224,136,239.0317,123.9746 F,2,148457,149407,1,0 S,2,148457,149407,0.9,0.18 P,0,148457,149407,A M,0,148494,148532,239.0317,123.9746,254.0634,111.9492 M,0,148532,148569,254.0634,111.9492,269.0952,99.92386 M,0,148569,148607,269.0952,99.92386,284.1269,87.89848
Sprite,Foreground,Centre,"sb\highlight.png",368,216 C,0,148757,,242,24,57 F,2,148757,149557,1,0 S,2,148757,149557,0.9,0.18 P,0,148757,149557,A
Sprite,Foreground,Centre,"sb\highlight.png",368,216 C,0,148832,,242,24,57 F,2,148832,149632,1,0 S,2,148832,149632,0.9,0.18 P,0,148832,149632,A
Sprite,Foreground,Centre,"sb\highlight.png",368,216 C,0,148907,,242,24,57 F,2,148907,149707,1,0 S,2,148907,149707,0.9,0.18 P,0,148907,149707,A
Sprite,Foreground,Centre,"sb\highlight.png",368,216 C,0,148982,,242,24,57 F,2,148982,149782,1,0 S,2,148982,149782,0.9,0.18 P,0,148982,149782,A
Sprite,Foreground,Centre,"sb\highlight.png",368,216 C,0,149057,,242,24,57 F,2,149057,149857,1,0 S,2,149057,149857,0.9,0.18 P,0,149057,149857,A
Sprite,Foreground,Centre,"sb\highlight.png",192,312 C,0,171880,,255,192,0 F,2,171880,172680,1,0 S,2,171880,172680,0.9,0.18 P,0,171880,172680,A
Sprite,Foreground,Centre,"sb\highlight.png",192,312 C,0,172030,,255,192,0 M,0,172030,172067,192,312,205.6118,298.3882 F,2,172030,172905,1,0 S,2,172030,172905,0.9,0.18 P,0,172030,172905,A M,0,172067,172105,205.6118,298.3882,219.2236,284.7764
Sprite,Foreground,Centre,"sb\highlight.png",336,168 C,0,172180,,255,192,0 F,2,172180,172980,1,0 S,2,172180,172980,0.9,0.18 P,0,172180,172980,A
Sprite,Foreground,Centre,"sb\highlight.png",160,120 C,0,172331,,255,192,0 F,2,172331,173131,1,0 S,2,172331,173131,0.9,0.18 P,0,172331,173131,A
Sprite,Foreground,Centre,"sb\highlight.png",326,376 C,0,172481,,255,192,0 F,2,172481,173281,1,0 S,2,172481,173281,0.9,0.18 P,0,172481,173281,A
Sprite,Foreground,Centre,"sb\highlight.png",160,120 C,0,172631,,0,202,0 F,2,172631,173431,1,0 S,2,172631,173431,0.9,0.18 P,0,172631,173431,A
Sprite,Foreground,Centre,"sb\highlight.png",326,376 C,0,172781,,0,202,0 F,2,172781,173581,1,0 S,2,172781,173581,0.9,0.18 P,0,172781,173581,A
Sprite,Foreground,Centre,"sb\highlight.png",160,120 C,0,172931,,0,202,0 F,2,172931,173731,1,0 S,2,172931,173731,0.9,0.18 P,0,172931,173731,A
Sprite,Foreground,Centre,"sb\highlight.png",176,392 C,0,201309,,242,24,57 M,0,201309,201346,176,392,150.5338,385.6335 F,2,201309,202584,1,0 S,2,201309,202584,1,0.2 P,0,201309,202584,A M,0,201346,201384,150.5338,385.6335,125.0675,379.2669
Sprite,Foreground,Centre,"sb\highlight.png",240,312 C,0,201460,,242,24,57 M,0,201460,201497,240,312,213.8297,314.0446 F,2,201460,202735,1,0 S,2,201460,202735,1,0.2 P,0,201460,202735,A M,0,201497,201535,213.8297,314.0446,187.6595,316.0891
Sprite,Foreground,Centre,"sb\highlight.png",128,300 C,0,201610,,255,192,0 F,2,201610,202810,1,0 S,2,201610,202810,1,0.2 P,0,201610,202810,A
Sprite,Foreground,Centre,"sb\highlight.png",99,269 C,0,201685,,255,192,0 F,2,201685,202885,1,0 S,2,201685,202885,1,0.2 P,0,201685,202885,A
Sprite,Foreground,Centre,"sb\highlight.png",95,227 C,0,201760,,255,192,0 F,2,201760,202960,1,0 S,2,201760,202960,1,0.2 P,0,201760,202960,A
Sprite,Foreground,Centre,"sb\highlight.png",120,193 C,0,201835,,255,192,0 F,2,201835,203035,1,0 S,2,201835,203035,1,0.2 P,0,201835,203035,A
Sprite,Foreground,Centre,"sb\highlight.png",176,264 C,0,37346,,242,24,57 F,2,37346,38146,1,0 S,2,37346,38146,0.9,0.18 P,0,37346,38146,A
Sprite,Foreground,Centre,"sb\highlight.png",352,360 C,0,37496,,242,24,57 F,2,37496,38296,1,0 S,2,37496,38296,0.9,0.18 P,0,37496,38296,A
Sprite,Foreground,Centre,"sb\highlight.png",352,360 C,0,37646,,242,24,57 M,0,37646,37683,352,360,360.6595,340.8685 F,2,37646,38596,1,0 S,2,37646,38596,0.9,0.18 P,0,37646,38596,A M,0,37683,37721,360.6595,340.8685,369.319,321.7371 M,0,37721,37758,369.319,321.7371,377.9785,302.6056 M,0,37758,37796,377.9785,302.6056,386.638,283.4741
Sprite,Foreground,Centre,"sb\highlight.png",400,136 C,0,37946,,242,24,57 F,2,37946,38746,1,0 S,2,37946,38746,0.9,0.18 P,0,37946,38746,A
Sprite,Foreground,Centre,"sb\highlight.png",400,136 C,0,38096,,242,24,57 M,0,38096,38133,400,136,387.0223,134.2819 F,2,38096,39196,1,0 S,2,38096,39196,0.9,0.18 P,0,38096,39196,A M,0,38133,38171,387.0223,134.2819,373.9347,133.811 M,0,38171,38208,373.9347,133.811,360.9657,135.5727 M,0,38208,38246,360.9657,135.5727,348.2442,138.638 M,0,38246,38283,348.2442,138.638,336.2,143.7537 M,0,38283,38321,336.2,143.7537,324.7802,150.1247 M,0,38321,38358,324.7802,150.1247,314.5111,158.232 M,0,38358,38396,314.5111,158.232,305.2319,167.436
Sprite,Foreground,Centre,"sb\highlight.png",326,270 C,0,107916,,255,192,0 F,2,107916,108716,1,0 S,2,107916,108716,0.9,0.18 P,0,107916,108716,A
Sprite,Foreground,Centre,"sb\highlight.png",311,245 C,0,107991,,255,192,0 F,2,107991,108791,1,0 S,2,107991,108791,0.9,0.18 P,0,107991,108791,A
Sprite,Foreground,Centre,"sb\highlight.png",283,240 C,0,108066,,255,192,0 F,2,108066,108866,1,0 S,2,108066,108866,0.9,0.18 P,0,108066,108866,A
Sprite,Foreground,Centre,"sb\highlight.png",257,250 C,0,108141,,255,192,0 F,2,108141,108941,1,0 S,2,108141,108941,0.9,0.18 P,0,108141,108941,A
Sprite,Foreground,Centre,"sb\highlight.png",480,88 C,0,117826,,0,202,0 F,2,117826,118626,1,0 S,2,117826,118626,0.9,0.18 P,0,117826,118626,A
Sprite,Foreground,Centre,"sb\highlight.png",368,327 C,0,117976,,0,202,0 F,2,117976,118776,1,0 S,2,117976,118776,0.9,0.18 P,0,117976,118776,A
Sprite,Foreground,Centre,"sb\highlight.png",272,72 C,0,118126,,0,202,0 F,2,118126,118926,1,0 S,2,118126,118926,0.9,0.18 P,0,118126,118926,A
Sprite,Foreground,Centre,"sb\highlight.png",496,216 C,0,118276,,0,202,0 F,2,118276,119076,1,0 S,2,118276,119076,0.9,0.18 P,0,118276,119076,A
Sprite,Foreground,Centre,"sb\highlight.png",234,236 C,0,118427,,0,202,0 F,2,118427,119227,1,0 S,2,118427,119227,0.9,0.18 P,0,118427,119227,A
Sprite,Foreground,Centre,"sb\highlight.png",375,80 C,0,118577,,0,202,0 F,2,118577,119377,1,0 S,2,118577,119377,0.9,0.18 P,0,118577,119377,A
Sprite,Foreground,Centre,"sb\highlight.png",160,120 C,0,118877,,18,124,255 F,2,118877,119677,1,0 S,2,118877,119677,0.9,0.18 P,0,118877,119677,A
Sprite,Foreground,Centre,"sb\highlight.png",480,184 C,0,119027,,18,124,255 F,2,119027,119827,1,0 S,2,119027,119827,0.9,0.18 P,0,119027,119827,A
Sprite,Foreground,Centre,"sb\highlight.png",400,296 C,0,119628,,242,24,57 F,2,119628,120428,1,0 S,2,119628,120428,0.9,0.18 P,0,119628,120428,A
Sprite,Foreground,Centre,"sb\highlight.png",288,376 C,0,120078,,242,24,57 F,2,120078,120878,1,0 S,2,120078,120878,0.9,0.18 P,0,120078,120878,A
Sprite,Foreground,Centre,"sb\highlight.png",240,88 C,0,119928,,242,24,57 F,2,119928,120728,1,0 S,2,119928,120728,0.9,0.18 P,0,119928,120728,A
Sprite,Foreground,Centre,"sb\highlight.png",400,296 C,0,119778,,242,24,57 M,0,119778,119815,400,296,406.791,268.836 F,2,119778,120653,1,0 S,2,119778,120653,0.9,0.18 P,0,119778,120653,A M,0,119815,119853,406.791,268.836,413.582,241.672
Sprite,Foreground,Centre,"sb\highlight.png",273,174 C,0,119478,,242,24,57 F,2,119478,120278,1,0 S,2,119478,120278,0.9,0.18 P,0,119478,120278,A
Sprite,Foreground,Centre,"sb\highlight.png",273,174 C,0,119328,,242,24,57 F,2,119328,120128,1,0 S,2,119328,120128,0.9,0.18 P,0,119328,120128,A
Sprite,Foreground,Centre,"sb\highlight.png",480,184 C,0,119177,,18,124,255 F,2,119177,119977,1,0 S,2,119177,119977,0.9,0.18 P,0,119177,119977,A
Sprite,Foreground,Centre,"sb\highlight.png",296,362 C,0,118727,,18,124,255 F,2,118727,119527,1,0 S,2,118727,119527,0.9,0.18 P,0,118727,119527,A
//Storyboard Sound Samples

[TimingPoints]
1310,300.3003003003,4,1,1,70,1,0
28937,-83.3333333333333,4,1,1,70,0,0
29838,-66.6666666666667,4,1,1,70,0,0
30138,-83.3333333333333,4,1,1,70,0,0
37946,-133.333333333333,4,1,1,70,0,0
38547,-54.054054054054,4,1,1,70,0,1
38647,-68.9655172413792,4,1,1,70,0,1
38847,-68.9655172413792,4,1,1,70,0,1
58066,-68.9655172413792,4,1,1,70,0,0
60168,-57.1428571428571,4,1,1,70,0,0
60319,-68.9655172413793,4,1,1,70,0,0
79388,-90.9090909090909,4,1,1,70,0,0
88997,-71.4285714285714,4,1,1,70,0,0
98607,-62.5,4,1,1,70,0,1
120228,-62.5,4,1,1,70,0,0
137045,-95.2380952380951,4,1,1,70,0,0
139448,-90.9090909090909,4,1,1,70,0,0
173099,-66.6666666666667,4,1,1,70,0,1
197105,-66.6666666666667,4,1,1,70,0,0

[HitObjects]
256,192,8517,12,8,9718,0:0:0:0:
89,204,10018,6,0,B|48:192|32:150|48:112|98:98,1,140
208,57,10619,1,0,0:0:0:0:
181,221,10919,5,2,0:0:0:0:
320,61,11219,2,0,P|311:29|339:13,1,70,2|0,0:0|0:0,0:0:0:0:
374,224,11520,2,0,B|342:192|394:102|394:102|316:170|253:104,1,280,0|2,0:0|0:0,0:0:0:0:
208,272,12421,5,0,0:0:0:0:
208,272,12721,2,0,B|176:288|160:320|160:320|144:288|96:272,1,140,0|0,0:0|0:0,0:0:0:0:
29,141,13322,1,0,0:0:0:0:
206,61,13622,2,0,P|224:64|272:96,1,70,2|0,0:0|0:0,0:0:0:0:
374,224,13922,2,0,B|288:224|256:288|256:288|224:224|135:224,1,280,0|2,0:0|0:0,0:0:0:0:
80,64,14823,5,0,0:0:0:0:
205,62,14973,1,0,0:0:0:0:
80,64,15123,2,0,B|112:48|112:48|144:64|144:64|176:48|176:48|208:64,1,140,0|0,0:0|0:0,0:0:0:0:
352,320,15724,5,2,0:0:0:0:
384,128,16024,1,0,0:0:0:0:
293,90,16174,1,2,0:0:0:0:
201,52,16325,1,0,0:0:0:0:
336,192,16625,1,0,0:0:0:0:
336,192,16925,6,0,B|288:144|288:144|320:80,1,140,2|0,0:0|0:0,0:0:0:0:
384,128,17376,2,0,B|432:176|432:176|400:240,1,140,2|0,0:0|0:0,0:0:0:0:
272,272,17826,1,0,0:0:0:0:
96,208,18126,6,0,B|48:160|48:160|80:96,1,140,2|0,0:0|0:0,0:0:0:0:
144,144,18577,2,0,B|192:192|192:192|160:256,1,140,2|0,0:0|0:0,0:0:0:0:
53,277,19027,1,0,0:0:0:0:
80,95,19328,5,2,0:0:0:0:
221,301,19628,2,0,B|237:333|237:333|269:317|269:317|301:333|301:333|317:301,1,140
384,112,20228,1,0,0:0:0:0:
293,155,20529,2,0,L|229:203,1,70,2|0,0:0|0:0,0:0:0:0:
176,144,20829,2,2,L|112:192,1,70
64,256,21129,2,0,B|22:314|37:342|37:342|128:352|96:256|225:263,1,280,0|2,0:0|0:0,0:0:0:0:
352,256,22030,5,0,0:0:0:0:
276,193,22180,1,2,0:0:0:0:
201,128,22331,1,0,0:0:0:0:
406,185,22631,1,0,0:0:0:0:
369,66,22931,2,0,L|321:146,1,70,2|0,0:0|0:0,0:0:0:0:
244,66,23231,2,0,L|196:146,1,70,0|2,0:0|0:0,0:0:0:0:
256,224,23532,2,0,B|224:288|192:288|192:288|192:192|128:160|64:160,1,280,0|2,0:0|0:0,0:0:0:0:
256,128,24433,6,0,B|288:112|288:112|320:128|320:128|352:112|352:112|384:128,1,140
240,288,25033,1,0,0:0:0:0:
416,192,25334,1,2,0:0:0:0:
256,128,25634,2,0,P|224:144|192:112,1,70
157,191,25934,2,0,P|214:215|297:188,1,140
368,80,26535,5,2,0:0:0:0:
287,195,26835,1,0,0:0:0:0:
107,164,26985,2,0,P|75:116|82:81,1,70,2|0,0:0|0:0,0:0:0:0:
192,64,27285,2,0,P|224:112|195:188,1,140,0|0,0:0|0:0,0:0:0:0:
112,256,27736,5,2,0:0:0:0:
384,272,28036,1,0,0:0:0:0:
304,176,28186,2,0,P|272:128|272:96,1,70,2|0,0:0|0:0,0:0:0:0:
352,48,28487,2,0,P|400:80|416:160,1,140,0|0,0:0|0:0,0:0:0:0:
348,269,28937,5,6,0:0:0:0:
209,158,29087,1,0,0:0:0:0:
368,192,29237,1,0,0:0:0:0:
217,244,29388,1,0,0:0:0:0:
320,128,29538,2,0,P|357:61|349:23,1,83.9999974365235,0|0,0:0|0:0,0:0:0:0:
252,39,29838,2,0,L|206:167,1,105.000004005432,0|0,0:0|0:0,0:0:0:0:
208,336,30138,5,0,0:0:0:0:
320,192,30288,1,0,0:0:0:0:
144,240,30439,1,0,0:0:0:0:
320,304,30589,1,0,0:0:0:0:
205,161,30739,1,0,0:0:0:0:
208,336,30889,1,0,0:0:0:0:
144,240,31039,2,0,P|107:214|43:213,1,83.9999974365235
112,32,31340,5,0,0:0:0:0:
32,144,31490,1,0,0:0:0:0:
208,112,31640,1,0,0:0:0:0:
32,144,31790,1,0,0:0:0:0:
201,265,31940,1,0,0:0:0:0:
32,144,32090,1,0,0:0:0:0:
116,201,32240,6,0,P|79:236|21:240,1,83.9999974365235
96,96,32541,1,0,0:0:0:0:
160,304,32691,1,0,0:0:0:0:
224,112,32841,1,0,0:0:0:0:
192,320,32991,1,0,0:0:0:0:
336,128,33141,1,0,0:0:0:0:
224,336,33291,1,0,0:0:0:0:
415,191,33442,2,0,P|415:79|399:63,1,83.9999974365235
336,48,33742,5,8,0:0:0:0:
271,219,33892,1,0,0:0:0:0:
432,112,34042,1,8,0:0:0:0:
224,112,34192,1,0,0:0:0:0:
397,223,34343,1,8,0:0:0:0:
336,48,34493,1,0,0:0:0:0:
271,219,34643,2,0,L|175:283,1,83.9999974365235,8|0,0:0|0:0,0:0:0:0:
397,223,34943,6,0,L|477:271,1,83.9999974365235,8|0,0:0|0:0,0:0:0:0:
336,128,35243,2,0,L|336:16,1,83.9999974365235,8|0,0:0|0:0,0:0:0:0:
144,160,35544,2,0,L|32:160,1,83.9999974365235,8|0,0:0|0:0,0:0:0:0:
336,128,35844,1,8,0:0:0:0:
336,128,35994,1,0,0:0:0:0:
283,301,36144,5,8,0:0:0:0:
192,80,36294,1,8,0:0:0:0:
192,304,36445,5,8,0:0:0:0:
288,80,36595,1,8,0:0:0:0:
320,336,36745,5,8,0:0:0:0:
160,48,36895,1,8,0:0:0:0:
160,336,37045,5,8,0:0:0:0:
320,48,37195,1,8,0:0:0:0:
112,208,37346,5,0,0:0:0:0:
288,304,37496,1,0,0:0:0:0:
288,304,37646,2,0,L|331:209,1,83.9999974365235
336,80,37946,1,0,0:0:0:0:
336,80,38096,2,0,P|280:84|233:122,1,105.000004005432
443,274,38547,6,0,L|276:209,1,129.499999505997,12|0,0:0|0:0,0:0:0:0:
128,144,38847,1,2,0:0:0:0:
288,352,38997,1,0,0:0:0:0:
313,148,39147,1,0,0:0:0:0:
178,209,39297,1,8,0:0:0:0:
256,80,39448,6,0,P|339:62|379:94,1,101.500003097534,2|0,0:0|0:0,0:0:0:0:
299,256,39748,2,0,P|307:305|288:351,1,101.500003097534,8|0,0:0|0:0,0:0:0:0:
128,144,40048,2,0,P|128:32|144:16,1,101.500003097534,2|0,0:0|0:0,0:0:0:0:
234,299,40349,2,0,P|122:294|90:278,1,101.500003097534,0|8,0:0|0:0,0:0:0:0:
190,91,40649,1,2,0:0:0:0:
207,210,40799,1,0,0:0:0:0:
315,103,40949,6,0,B|352:96|416:96|448:144|448:144|416:192|384:208,1,203.000006195069,8|2,0:0|0:0,0:0:0:0:
272,288,41400,1,0,0:0:0:0:
230,183,41550,2,0,P|280:176|329:188,1,101.500003097534,0|8,0:0|0:0,0:0:0:0:
359,307,41850,1,2,0:0:0:0:
192,256,42000,1,0,0:0:0:0:
433,313,42150,6,0,B|432:318|487:302|487:302|493:245|444:204|411:185,1,203.000006195069,8|2,0:0|0:0,0:0:0:0:
230,183,42601,1,0,0:0:0:0:
359,269,42751,1,0,0:0:0:0:
453,109,42901,1,8,0:0:0:0:
453,109,43051,2,0,P|394:82|320:93,1,101.500003097534,2|0,0:0|0:0,0:0:0:0:
185,132,43352,5,12,0:0:0:0:
185,132,43427,1,0,0:0:0:0:
185,132,43502,1,0,0:0:0:0:
384,166,43652,1,2,0:0:0:0:
224,256,43802,1,0,0:0:0:0:
267,84,43952,1,0,0:0:0:0:
384,166,44102,1,8,0:0:0:0:
224,256,44252,6,0,P|128:208|112:160,1,101.500003097534,2|0,0:0|0:0,0:0:0:0:
267,84,44553,2,0,P|282:190|323:220,1,101.500003097534,8|0,0:0|0:0,0:0:0:0:
384,166,44853,2,0,P|368:272|327:302,1,101.500003097534,2|0,0:0|0:0,0:0:0:0:
184,196,45153,2,0,L|170:96,1,101.500003097534,0|8,0:0|0:0,0:0:0:0:
384,64,45454,2,0,L|384:165,1,101.500003097534,2|0,0:0|0:0,0:0:0:0:
224,32,45754,5,8,0:0:0:0:
256,224,45904,1,0,0:0:0:0:
112,48,46054,1,2,0:0:0:0:
256,224,46204,1,0,0:0:0:0:
48,144,46355,1,0,0:0:0:0:
256,224,46505,1,8,0:0:0:0:
384,64,46655,2,0,P|352:32|352:64,1,101.500003097534,2|0,0:0|0:0,0:0:0:0:
157,70,46955,2,4,L|110:47,2,50.7500015487671,8|0|0,0:0|0:0|0:0,0:0:0:0:
357,167,47856,5,0,0:0:0:0:
336,187,47931,1,0,0:0:0:0:
307,194,48006,1,0,0:0:0:0:
280,181,48081,1,0,0:0:0:0:
268,158,48156,6,0,L|300:14,1,101.500003097534,12|0,0:0|0:0,0:0:0:0:
208,80,48457,1,2,0:0:0:0:
407,225,48607,1,0,0:0:0:0:
208,80,48757,2,0,P|96:96|64:112,1,101.500003097534,0|8,0:0|0:0,0:0:0:0:
0,224,49057,1,2,0:0:0:0:
176,224,49207,1,0,0:0:0:0:
0,128,49358,5,8,0:0:0:0:
112,288,49508,1,0,0:0:0:0:
160,112,49658,2,0,P|240:48|272:48,1,101.500003097534,2|0,0:0|0:0,0:0:0:0:
368,144,49958,1,0,0:0:0:0:
272,256,50108,1,8,0:0:0:0:
429,78,50258,1,2,0:0:0:0:
432,272,50409,1,0,0:0:0:0:
368,144,50559,5,12,0:0:0:0:
352,128,50634,1,0,0:0:0:0:
336,112,50709,1,0,0:0:0:0:
192,144,50859,1,2,0:0:0:0:
272,256,51009,2,0,P|260:314|212:346,1,101.500003097534
192,144,51309,1,8,0:0:0:0:
368,192,51460,2,8,L|464:240,1,101.500003097534,2|0,0:0|0:0,0:0:0:0:
320,128,51760,5,8,0:0:0:0:
272,224,51910,1,0,0:0:0:0:
448,144,52060,1,2,0:0:0:0:
272,224,52210,1,0,0:0:0:0:
160,80,52361,1,0,0:0:0:0:
160,80,52436,1,0,0:0:0:0:
160,80,52511,1,8,0:0:0:0:
272,224,52661,2,0,L|320:240,2,50.7500015487671,2|0|0,0:0|0:0|0:0,0:0:0:0:
160,304,52961,5,12,0:0:0:0:
144,288,53036,1,0,0:0:0:0:
128,272,53111,1,0,0:0:0:0:
336,80,53261,2,0,L|392:164,1,101.500003097534,8|0,0:0|0:0,0:0:0:0:
96,208,53562,2,0,L|112:80,1,101.500003097534,8|0,0:0|0:0,0:0:0:0:
400,176,53862,2,0,L|387:276,1,101.500003097534,8|0,0:0|0:0,0:0:0:0:
108,107,54162,2,0,P|149:70|199:62,1,101.500003097534,8|0,0:0|0:0,0:0:0:0:
386,276,54463,2,0,P|345:313|295:321,1,101.500003097534,8|0,0:0|0:0,0:0:0:0:
189,145,54763,5,8,0:0:0:0:
189,145,54838,1,0,0:0:0:0:
189,145,54913,1,0,0:0:0:0:
310,241,55063,1,8,0:0:0:0:
310,241,55138,1,0,0:0:0:0:
310,241,55213,1,0,0:0:0:0:
400,32,55364,5,8,0:0:0:0:
201,227,55514,1,8,0:0:0:0:
432,244,55664,1,8,0:0:0:0:
192,32,55814,1,8,0:0:0:0:
336,320,55964,1,8,0:0:0:0:
399,70,56114,1,8,0:0:0:0:
96,240,56264,5,8,0:0:0:0:
384,228,56415,1,8,0:0:0:0:
128,64,56565,1,2,0:0:0:0:
384,228,56715,2,0,L|432:244,2,50.7500015487671,8|0|2,0:0|0:0|0:0,0:0:0:0:
160,352,57015,5,8,0:0:0:0:
309,205,57165,1,2,0:0:0:0:
96,224,57316,2,0,L|48:240,2,50.7500015487671,2|0|2,0:0|0:0|0:0,0:0:0:0:
288,64,57616,1,2,0:0:0:0:
480,288,57766,1,6,0:0:0:0:
256,192,57916,12,0,60018,0:0:0:0:
68,191,60168,6,0,B|67:226|67:226|108:202|101:263|101:263|131:242|131:242|243:183,1,245.000002336502,12|2,0:0|0:0,0:0:0:0:
320,80,60619,1,0,0:0:0:0:
304,224,60769,2,0,L|288:352,1,101.500003097534,0|8,0:0|0:0,0:0:0:0:
233,95,61069,2,0,L|217:223,1,101.500003097534,2|0,0:0|0:0,0:0:0:0:
68,191,61370,5,8,0:0:0:0:
208,304,61520,1,0,0:0:0:0:
89,158,61670,1,2,0:0:0:0:
208,304,61820,1,0,0:0:0:0:
224,96,61970,2,0,P|288:16|336:0,1,101.500003097534,0|8,0:0|0:0,0:0:0:0:
368,160,62270,2,0,P|344:204|307:238,1,101.500003097534,2|0,0:0|0:0,0:0:0:0:
149,108,62571,5,12,0:0:0:0:
149,108,62646,1,0,0:0:0:0:
149,108,62721,1,0,0:0:0:0:
208,258,62871,1,2,0:0:0:0:
312,101,63021,1,0,0:0:0:0:
352,224,63171,2,0,L|320:336,1,101.500003097534,0|8,0:0|0:0,0:0:0:0:
144,160,63472,6,0,L|171:62,1,101.500003097534,2|0,0:0|0:0,0:0:0:0:
360,50,63772,1,8,0:0:0:0:
208,224,63922,1,0,0:0:0:0:
413,175,64072,1,2,0:0:0:0:
256,32,64222,1,0,0:0:0:0:
320,240,64373,6,0,L|368:352,1,101.500003097534,0|8,0:0|0:0,0:0:0:0:
400,144,64673,2,0,L|360:50,1,101.500003097534,2|0,0:0|0:0,0:0:0:0:
227,178,64973,1,12,0:0:0:0:
227,178,65048,1,0,0:0:0:0:
227,178,65123,1,0,0:0:0:0:
96,32,65273,5,2,0:0:0:0:
133,182,65424,2,0,P|151:229|197:260,1,101.500003097534
214,264,65649,1,0,0:0:0:0:
241,262,65724,1,8,0:0:0:0:
269,90,65874,1,2,0:0:0:0:
269,90,66024,2,0,P|205:90|157:122,1,101.500003097534,0|8,0:0|0:0,0:0:0:0:
384,208,66325,1,0,0:0:0:0:
384,208,66475,2,0,L|400:96,1,101.500003097534,2|0,0:0|0:0,0:0:0:0:
224,16,66775,5,0,0:0:0:0:
256,272,66925,1,8,0:0:0:0:
224,16,67075,1,2,0:0:0:0:
133,182,67225,1,0,0:0:0:0:
304,160,67376,6,0,P|352:128|384:80,1,101.500003097534,12|0,0:0|0:0,0:0:0:0:
208,96,67676,1,2,0:0:0:0:
256,272,67826,2,0,P|310:254|354:217,1,101.500003097534
176,112,68126,1,8,0:0:0:0:
80,256,68276,2,0,P|176:288|208:288,1,101.500003097534,2|0,0:0|0:0,0:0:0:0:
244,88,68577,5,8,0:0:0:0:
448,224,68727,1,0,0:0:0:0:
144,208,68877,1,2,0:0:0:0:
448,224,69027,1,0,0:0:0:0:
336,48,69177,1,0,0:0:0:0:
240,200,69328,1,8,0:0:0:0:
336,48,69478,1,2,0:0:0:0:
240,200,69628,1,0,0:0:0:0:
160,80,69778,5,12,0:0:0:0:
160,80,69853,1,0,0:0:0:0:
160,80,69928,1,0,0:0:0:0:
352,224,70078,1,2,0:0:0:0:
240,48,70228,1,0,0:0:0:0:
128,160,70379,2,0,L|48:240,1,101.500003097534,0|8,0:0|0:0,0:0:0:0:
288,128,70679,1,2,0:0:0:0:
288,128,70829,2,0,L|208:208,1,101.500003097534,0|8,0:0|0:0,0:0:0:0:
224,272,71129,5,0,0:0:0:0:
384,192,71279,1,2,0:0:0:0:
192,272,71430,1,0,0:0:0:0:
416,192,71580,1,0,0:0:0:0:
208,144,71730,1,8,0:0:0:0:
448,192,71880,1,2,0:0:0:0:
176,144,72030,1,0,0:0:0:0:
90,29,72180,5,12,0:0:0:0:
90,29,72255,1,0,0:0:0:0:
90,29,72331,1,0,0:0:0:0:
176,144,72481,2,0,P|245:176|275:162,1,101.500003097534,2|0,0:0|0:0,0:0:0:0:
416,96,72781,1,0,0:0:0:0:
320,304,72931,1,8,0:0:0:0:
251,82,73081,1,2,0:0:0:0:
224,317,73231,1,0,0:0:0:0:
336,48,73382,5,8,0:0:0:0:
370,218,73532,1,0,0:0:0:0:
176,144,73682,2,0,P|64:144|32:160,1,101.500003097534,2|0,0:0|0:0,0:0:0:0:
271,215,73982,2,0,P|383:215|415:199,1,101.500003097534,0|8,0:0|0:0,0:0:0:0:
160,240,74282,2,0,L|240:336,1,101.500003097534,2|0,0:0|0:0,0:0:0:0:
256,128,74583,5,12,0:0:0:0:
256,128,74658,1,0,0:0:0:0:
256,128,74733,1,0,0:0:0:0:
372,251,74883,1,2,0:0:0:0:
336,48,75033,1,0,0:0:0:0:
128,32,75183,6,0,L|64:144,1,101.500003097534,0|8,0:0|0:0,0:0:0:0:
203,192,75484,1,2,0:0:0:0:
203,192,75634,2,0,L|235:304,1,101.500003097534,0|8,0:0|0:0,0:0:0:0:
390,125,75934,1,0,0:0:0:0:
390,125,76084,2,0,L|320:224,1,101.500003097534,2|0,0:0|0:0,0:0:0:0:
432,352,76385,1,0,0:0:0:0:
390,125,76535,1,8,0:0:0:0:
432,352,76685,1,2,0:0:0:0:
203,192,76835,1,0,0:0:0:0:
418,223,76985,6,0,P|322:287|306:287,1,101.500003097534,12|0,0:0|0:0,0:0:0:0:
224,96,77285,1,2,0:0:0:0:
384,208,77436,2,0,P|288:272|272:272,1,101.500003097534
192,64,77736,1,8,0:0:0:0:
340,182,77886,2,0,P|244:246|228:246,1,101.500003097534,2|0,0:0|0:0,0:0:0:0:
32,208,78186,5,8,0:0:0:0:
352,80,78337,1,8,0:0:0:0:
32,80,78487,1,8,0:0:0:0:
352,192,78637,1,8,0:0:0:0:
16,208,78787,5,8,0:0:0:0:
368,80,78937,1,8,0:0:0:0:
16,80,79087,1,2,0:0:0:0:
368,192,79237,1,0,0:0:0:0:
238,235,79388,5,4,0:0:0:0:
193,296,79688,2,0,P|265:306|313:242,1,154.000004699707
123,117,80288,1,0,0:0:0:0:
131,37,80589,2,0,B|59:29|28:92|33:145|63:157,1,154.000004699707,2|0,0:0|0:0,0:0:0:0:
240,240,81189,2,0,P|304:240|272:176,1,154.000004699707
112,208,81790,1,2,0:0:0:0:
208,336,82090,6,0,P|256:304|192:304,1,154.000004699707,0|0,0:0|0:0,0:0:0:0:
112,208,82691,2,0,P|160:144|176:128,1,77.0000023498536,0|0,0:0|0:0,0:0:0:0:
280,176,82991,1,2,0:0:0:0:
256,32,83291,1,2,0:0:0:0:
368,96,83592,2,0,B|416:128|464:128|464:128|432:160|416:192,1,154.000004699707,0|0,0:0|0:0,0:0:0:0:
304,176,84192,1,2,0:0:0:0:
176,160,84493,6,0,B|96:176|96:176|176:208,1,154.000004699707,0|0,0:0|0:0,0:0:0:0:
304,176,85093,2,0,B|336:144|336:144|304:128,1,77.0000023498536
167,86,85394,1,2,0:0:0:0:
304,176,85694,1,0,0:0:0:0:
176,272,85994,2,0,P|144:304|160:240,1,154.000004699707,0|0,0:0|0:0,0:0:0:0:
336,96,86595,6,0,P|320:48|304:112,1,154.000004699707,2|0,0:0|0:0,0:0:0:0:
304,224,87045,2,0,L|304:320,1,77.0000023498536,2|0,0:0|0:0,0:0:0:0:
96,224,87346,1,0,0:0:0:0:
96,224,87496,2,0,B|48:208|48:208|80:192,1,77.0000023498536,0|0,0:0|0:0,0:0:0:0:
208,288,87796,6,0,P|243:337|255:277,1,154.000004699707,2|0,0:0|0:0,0:0:0:0:
192,160,88246,2,0,L|160:64,1,77.0000023498536,2|0,0:0|0:0,0:0:0:0:
304,128,88547,1,8,0:0:0:0:
304,128,88697,2,0,L|336:208,1,77.0000023498536,2|0,0:0|0:0,0:0:0:0:
224,256,88997,6,0,P|144:320|128:320,1,97.9999970092774,12|0,0:0|0:0,0:0:0:0:
64,208,89297,1,2,0:0:0:0:
253,161,89448,1,0,0:0:0:0:
112,80,89598,2,0,P|32:96|16:112,1,97.9999970092774,0|8,0:0|0:0,0:0:0:0:
160,176,89898,2,0,P|224:176|272:144,1,97.9999970092774,2|0,0:0|0:0,0:0:0:0:
209,68,90198,6,0,P|273:36|305:68,1,97.9999970092774,8|0,0:0|0:0,0:0:0:0:
368,159,90499,2,0,P|390:214|372:274,1,97.9999970092774,2|0,0:0|0:0,0:0:0:0:
192,336,90799,1,8,0:0:0:0:
192,336,90949,1,0,0:0:0:0:
298,215,91099,1,2,0:0:0:0:
298,215,91249,1,0,0:0:0:0:
131,288,91400,5,8,0:0:0:0:
288,320,91550,1,0,0:0:0:0:
176,208,91700,2,0,P|118:202|62:232,1,97.9999970092774,2|0,0:0|0:0,0:0:0:0:
240,112,92000,2,0,P|272:48|256:-16,1,97.9999970092774,0|8,0:0|0:0,0:0:0:0:
160,128,92300,1,2,0:0:0:0:
240,240,92451,1,0,0:0:0:0:
240,240,92601,6,0,P|208:320|192:368,1,97.9999970092774,8|0,0:0|0:0,0:0:0:0:
324,258,92901,2,0,P|324:194|292:162,1,97.9999970092774,2|0,0:0|0:0,0:0:0:0:
160,128,93201,1,0,0:0:0:0:
160,128,93352,1,0,0:0:0:0:
240,224,93502,1,0,0:0:0:0:
240,224,93652,1,0,0:0:0:0:
272,96,93802,5,12,0:0:0:0:
272,96,93877,1,0,0:0:0:0:
272,96,93952,1,0,0:0:0:0:
160,128,94102,2,0,P|109:108|61:60,1,97.9999970092774,2|0,0:0|0:0,0:0:0:0:
239,183,94403,2,0,P|175:215|111:215,1,97.9999970092774,0|8,0:0|0:0,0:0:0:0:
41,252,94703,2,0,P|82:278|118:311,1,97.9999970092774,2|0,0:0|0:0,0:0:0:0:
272,256,95003,5,8,0:0:0:0:
224,80,95153,1,0,0:0:0:0:
272,272,95303,1,2,0:0:0:0:
224,64,95454,1,0,0:0:0:0:
400,144,95604,2,0,B|448:176|448:176|384:176,1,97.9999970092774,0|8,0:0|0:0,0:0:0:0:
304,144,95904,2,0,B|256:176|256:176|320:176,1,97.9999970092774,2|0,0:0|0:0,0:0:0:0:
400,288,96204,5,2,0:0:0:0:
400,288,96279,1,0,0:0:0:0:
400,288,96355,1,8,0:0:0:0:
192,144,96505,1,8,0:0:0:0:
272,320,96655,1,2,0:0:0:0:
304,64,96805,1,8,0:0:0:0:
122,310,96955,1,8,0:0:0:0:
288,182,97105,5,2,0:0:0:0:
288,182,97180,1,0,0:0:0:0:
288,182,97255,1,8,0:0:0:0:
146,113,97406,2,0,P|66:145|50:177,1,97.9999970092774,2|0,0:0|0:0,0:0:0:0:
139,199,97706,1,0,0:0:0:0:
208,160,97856,1,0,0:0:0:0:
268,94,98006,2,0,P|295:141|284:190,1,97.9999970092774
208,240,98306,2,0,L|248:267,2,48.9999985046387
193,92,98607,6,0,P|129:124|91:170,1,112,12|0,0:0|0:0,0:0:0:0:
108,296,98907,1,2,0:0:0:0:
308,173,99057,1,0,0:0:0:0:
144,320,99207,1,0,0:0:0:0:
276,157,99358,1,8,0:0:0:0:
176,336,99508,1,2,0:0:0:0:
240,144,99658,1,0,0:0:0:0:
160,256,99808,6,0,P|80:224|48:176,1,112,8|0,0:0|0:0,0:0:0:0:
212,123,100108,6,0,P|292:155|324:203,1,112,2|0,0:0|0:0,0:0:0:0:
160,256,100409,1,0,0:0:0:0:
212,123,100559,1,8,0:0:0:0:
80,304,100709,1,2,0:0:0:0:
90,152,100859,1,0,0:0:0:0:
80,304,101009,6,0,B|157:310|208:352|208:352|273:346|320:304,1,224,12|0,0:0|0:0,0:0:0:0:
370,159,101460,1,0,0:0:0:0:
266,244,101610,2,0,P|175:231|144:202,1,112,0|8,0:0|0:0,0:0:0:0:
111,99,101910,2,0,P|202:112|233:141,1,112,2|8,0:0|0:0,0:0:0:0:
288,224,102210,6,0,B|363:247|427:215|427:215|380:190|368:153,1,224,4|0,0:0|0:0,0:0:0:0:
272,32,102661,1,2,0:0:0:0:
425,62,102811,2,0,L|361:174,1,112,0|8,0:0|0:0,0:0:0:0:
161,220,103111,2,0,L|225:108,1,112,2|0,0:0|0:0,0:0:0:0:
320,96,103412,5,12,0:0:0:0:
320,96,103487,1,0,0:0:0:0:
320,96,103562,1,0,0:0:0:0:
302,280,103712,1,2,0:0:0:0:
451,130,103862,1,0,0:0:0:0:
259,167,104012,2,0,P|147:231|131:247,1,112,0|8,0:0|0:0,0:0:0:0:
224,339,104313,1,2,0:0:0:0:
192,112,104463,5,0,0:0:0:0:
192,112,104613,2,0,P|238:81|290:59,1,112,8|0,0:0|0:0,0:0:0:0:
259,167,104913,2,0,P|266:221|263:278,1,112,2|0,0:0|0:0,0:0:0:0:
128,208,105213,1,0,0:0:0:0:
368,240,105364,1,8,0:0:0:0:
128,208,105514,1,2,0:0:0:0:
368,240,105664,1,0,0:0:0:0:
237,116,105814,6,0,P|157:84|109:84,1,112,12|0,0:0|0:0,0:0:0:0:
112,224,106114,1,2,0:0:0:0:
272,144,106264,2,0,P|192:96|128:96,1,112,0|8,0:0|0:0,0:0:0:0:
91,247,106565,1,2,0:0:0:0:
311,174,106715,2,0,P|239:117|190:105,1,112,2|0,0:0|0:0,0:0:0:0:
0,192,107015,1,12,0:0:0:0:
262,214,107916,5,0,0:0:0:0:
247,189,107991,1,0,0:0:0:0:
219,184,108066,1,0,0:0:0:0:
193,194,108141,1,0,0:0:0:0:
177,217,108216,6,0,L|129:329,1,112,12|0,0:0|0:0,0:0:0:0:
270,321,108517,1,2,0:0:0:0:
85,201,108667,1,0,0:0:0:0:
311,127,108817,2,0,P|391:127|439:143,1,112,0|8,0:0|0:0,0:0:0:0:
416,304,109117,1,2,0:0:0:0:
256,224,109267,5,0,0:0:0:0:
256,224,109418,2,0,P|256:160|208:96,1,112,8|0,0:0|0:0,0:0:0:0:
368,224,109718,2,0,P|368:160|416:96,1,112,2|0,0:0|0:0,0:0:0:0:
314,14,110018,2,0,L|311:148,1,112,0|8,0:0|0:0,0:0:0:0:
311,343,110319,1,2,0:0:0:0:
311,125,110469,1,0,0:0:0:0:
186,277,110619,5,12,0:0:0:0:
186,277,110694,1,0,0:0:0:0:
186,277,110769,1,0,0:0:0:0:
96,128,110919,1,2,0:0:0:0:
96,128,111069,1,0,0:0:0:0:
267,162,111219,2,0,P|235:114|219:146,1,112,0|8,0:0|0:0,0:0:0:0:
256,256,111520,1,2,0:0:0:0:
416,304,111670,1,0,0:0:0:0:
256,256,111820,2,0,L|128:208,1,112,8|0,0:0|0:0,0:0:0:0:
256,64,112120,2,0,L|288:176,1,112,2|0,0:0|0:0,0:0:0:0:
384,208,112421,6,0,L|416:160,1,56,0|0,0:0|0:0,0:0:0:0:
448,96,112571,1,8,0:0:0:0:
466,241,112721,2,0,P|396:295|332:279,1,112,2|0,0:0|0:0,0:0:0:0:
256,144,113021,6,0,L|256:32,1,112,12|0,0:0|0:0,0:0:0:0:
256,240,113322,2,0,L|256:352,1,112,2|0,0:0|0:0,0:0:0:0:
320,192,113622,2,0,L|448:192,1,112,0|8,0:0|0:0,0:0:0:0:
192,192,113922,2,0,L|64:192,1,112,2|0,0:0|0:0,0:0:0:0:
224,64,114222,6,0,L|304:32,2,56,8|0|0,0:0|0:0|0:0,0:0:0:0:
304,304,114523,1,2,0:0:0:0:
304,304,114598,1,0,0:0:0:0:
304,304,114673,1,0,0:0:0:0:
480,80,114823,2,0,L|416:80,2,56,0|0|8,0:0|0:0|0:0,0:0:0:0:
176,256,115123,1,2,0:0:0:0:
176,256,115198,1,0,0:0:0:0:
176,256,115273,1,0,0:0:0:0:
336,128,115424,6,0,P|400:80|416:48,1,112,12|0,0:0|0:0,0:0:0:0:
176,256,115724,2,0,P|112:288|80:352,1,112,8|0,0:0|0:0,0:0:0:0:
336,336,116024,1,8,0:0:0:0:
128,112,116174,1,0,0:0:0:0:
128,112,116325,2,0,L|32:32,1,112,8|0,0:0|0:0,0:0:0:0:
176,336,116625,5,8,0:0:0:0:
384,112,116775,1,0,0:0:0:0:
384,112,116926,2,0,L|480:32,1,112,8|0,0:0|0:0,0:0:0:0:
409,276,117225,1,8,0:0:0:0:
232,229,117376,1,0,0:0:0:0:
129,23,117526,1,8,0:0:0:0:
232,229,117676,1,0,0:0:0:0:
416,32,117826,5,8,0:0:0:0:
304,271,117976,1,8,0:0:0:0:
208,16,118126,1,8,0:0:0:0:
432,160,118276,1,8,0:0:0:0:
170,180,118427,1,8,0:0:0:0:
311,24,118577,1,8,0:0:0:0:
232,306,118727,5,8,0:0:0:0:
96,64,118877,1,8,0:0:0:0:
416,128,119027,1,2,0:0:0:0:
416,128,119177,1,8,0:0:0:0:
209,118,119328,5,2,0:0:0:0:
209,118,119478,1,8,0:0:0:0:
336,240,119628,1,2,0:0:0:0:
336,240,119778,2,0,L|352:176,1,56,0|0,0:0|0:0,0:0:0:0:
176,32,119928,1,2,0:0:0:0:
224,320,120078,1,2,0:0:0:0:
336,240,120228,6,0,B|368:224|368:224|327:199|384:176|384:176|347:129|260:106,1,224,12|2,0:0|0:0,0:0:0:0:
48,128,120679,1,0,0:0:0:0:
224,320,120829,1,0,0:0:0:0:
112,80,120979,1,8,0:0:0:0:
144,320,121129,1,2,0:0:0:0:
256,144,121279,1,0,0:0:0:0:
256,144,121430,2,0,P|288:64|288:32,1,112,8|0,0:0|0:0,0:0:0:0:
352,160,121730,6,0,P|352:224|368:288,1,112,2|0,0:0|0:0,0:0:0:0:
496,160,122030,2,0,L|480:224,1,56,0|0,0:0|0:0,0:0:0:0:
456,299,122180,1,8,0:0:0:0:
256,144,122331,1,2,0:0:0:0:
272,288,122481,1,0,0:0:0:0:
304,64,122631,1,12,0:0:0:0:
304,64,122706,1,0,0:0:0:0:
304,64,122781,1,0,0:0:0:0:
176,144,122931,6,0,P|160:208|176:272,1,112,2|0,0:0|0:0,0:0:0:0:
288,256,123231,2,0,P|304:192|288:128,1,112,0|8,0:0|0:0,0:0:0:0:
106,65,123532,1,2,0:0:0:0:
167,252,123682,1,0,0:0:0:0:
176,32,123832,1,8,0:0:0:0:
167,330,123982,1,0,0:0:0:0:
320,160,124132,2,0,P|384:160|432:192,1,112,2|0,0:0|0:0,0:0:0:0:
256,256,124433,6,0,P|240:208|224:144,1,112,0|8,0:0|0:0,0:0:0:0:
352,48,124733,2,0,L|400:96,1,56,2|0,0:0|0:0,0:0:0:0:
444,145,124883,1,0,0:0:0:0:
352,288,125033,1,12,0:0:0:0:
352,288,125108,1,0,0:0:0:0:
352,288,125183,1,0,0:0:0:0:
267,71,125334,1,2,0:0:0:0:
256,256,125484,1,0,0:0:0:0:
112,96,125634,6,0,P|32:144|16:176,1,112,0|8,0:0|0:0,0:0:0:0:
176,208,125934,1,2,0:0:0:0:
176,208,126084,2,0,L|160:320,1,112,0|8,0:0|0:0,0:0:0:0:
327,191,126385,1,0,0:0:0:0:
160,80,126535,1,2,0:0:0:0:
327,191,126685,1,0,0:0:0:0:
401,62,126835,2,0,L|439:9,2,56,0|0|8,0:0|0:0|0:0,0:0:0:0:
416,176,127135,2,0,P|480:272|480:288,1,112,2|0,0:0|0:0,0:0:0:0:
304,112,127436,6,0,P|240:80|192:80,1,112,12|0,0:0|0:0,0:0:0:0:
256,224,127736,1,2,0:0:0:0:
256,224,127886,2,0,L|272:352,1,112,0|0,0:0|0:0,0:0:0:0:
338,155,128186,2,0,L|274:75,2,56,8|0|2,0:0|0:0|0:0,0:0:0:0:
256,224,128487,1,0,0:0:0:0:
256,224,128637,2,0,L|128:208,1,112,8|0,0:0|0:0,0:0:0:0:
297,50,128937,6,0,L|338:156,1,112,2|0,0:0|0:0,0:0:0:0:
384,352,129237,1,0,0:0:0:0:
394,78,129388,1,8,0:0:0:0:
159,238,129538,1,2,0:0:0:0:
416,224,129688,1,0,0:0:0:0:
365,74,129838,6,0,B|349:58|349:58|349:74|349:74|333:58|333:58|333:74|333:74|317:58|317:58|317:74|317:74|301:58|301:58|301:74|301:74|285:58|285:58|285:74|285:74|257:54|232:35|173:42|141:74,1,336,12|0,0:0|0:0,0:0:0:0:
128,192,130439,2,0,L|160:240,1,56,2|0,0:0|0:0,0:0:0:0:
271,223,130589,2,0,L|239:271,1,56
208,176,130739,2,0,P|224:112|288:64,1,112
384,192,131039,1,8,0:0:0:0:
384,192,131114,1,0,0:0:0:0:
384,192,131189,1,0,0:0:0:0:
239,269,131340,5,0,0:0:0:0:
272,112,131490,2,0,L|320:64,2,56,0|0|2,0:0|0:0|0:0,0:0:0:0:
160,256,131790,2,0,L|64:336,1,112,0|0,0:0|0:0,0:0:0:0:
96,160,132090,1,0,0:0:0:0:
208,96,132240,6,4,B|224:80|224:80|224:96|224:96|240:80|240:80|240:96|240:96|256:80|256:80|256:96|256:96|272:80|272:80|272:96|272:96|288:80|288:80|288:96|288:96|304:80|336:64|368:64|400:64|432:80,1,336,12|0,0:0|0:0,0:0:0:0:
356,166,132841,2,0,L|325:233,1,56,2|0,0:0|0:0,0:0:0:0:
243,183,132991,2,0,L|211:247,1,56
146,291,133141,2,0,P|74:281|69:208,1,112,0|0,0:0|0:0,0:0:0:0:
91,92,133442,1,8,0:0:0:0:
91,92,133517,1,0,0:0:0:0:
91,92,133592,1,0,0:0:0:0:
243,183,133742,6,0,L|323:231,2,56,0|0|0,0:0|0:0|0:0,0:0:0:0:
158,18,134042,1,0,0:0:0:0:
158,18,134117,1,0,0:0:0:0:
158,18,134192,1,0,0:0:0:0:
320,80,134343,1,8,0:0:0:0:
144,176,134493,1,0,0:0:0:0:
144,176,134643,6,0,P|128:128|208:176,1,224,12|0,0:0|0:0,0:0:0:0:
96,272,135093,1,0,0:0:0:0:
96,272,135243,2,0,L|32:320,1,56,2|0,0:0|0:0,0:0:0:0:
192,288,135394,2,0,L|112:352,1,56,0|0,0:0|0:0,0:0:0:0:
304,288,135544,2,0,L|224:352,2,56,0|0|0,0:0|0:0|0:0,0:0:0:0:
352,128,135844,2,0,B|336:64|336:64|288:128,1,112,8|0,0:0|0:0,0:0:0:0:
272,192,136144,2,0,B|208:240|208:240|208:176,1,112,0|0,0:0|0:0,0:0:0:0:
224,32,136445,5,2,0:0:0:0:
352,128,136595,1,0,0:0:0:0:
224,32,136745,1,0,0:0:0:0:
100,126,136895,1,0,0:0:0:0:
256,160,137045,6,0,B|272:176|272:176|288:160|288:160|288:176|288:176|304:176|304:176|304:192|304:192|432:160,1,220.499993270874,12|0,0:0|0:0,0:0:0:0:
256,160,137646,2,0,B|240:176|240:176|224:160|224:160|224:176|224:176|208:176|208:176|208:192|208:192|64:160,1,220.499993270874,2|0,0:0|0:0,0:0:0:0:
32,208,138246,2,0,L|0:256,1,36.749998878479,8|0,0:0|0:0,0:0:0:0:
80,256,138397,2,0,L|48:304,1,36.749998878479,0|0,0:0|0:0,0:0:0:0:
128,304,138547,2,0,L|96:352,1,36.749998878479,0|0,0:0|0:0,0:0:0:0:
176,352,138697,2,0,L|144:400,1,36.749998878479,0|0,0:0|0:0,0:0:0:0:
208,320,138847,5,2,0:0:0:0:
315,205,138997,1,0,0:0:0:0:
256,64,139147,1,0,0:0:0:0:
400,192,139297,1,0,0:0:0:0:
141,97,139448,5,12,0:0:0:0:
337,126,139598,1,0,0:0:0:0:
256,64,139748,1,0,0:0:0:0:
224,208,139898,1,8,0:0:0:0:
115,272,140048,2,0,L|35:320,1,77.0000023498536,0|0,0:0|0:0,0:0:0:0:
80,144,140349,2,0,L|144:96,1,77.0000023498536,0|0,0:0|0:0,0:0:0:0:
272,48,140649,5,2,0:0:0:0:
272,160,140799,1,0,0:0:0:0:
272,48,140949,1,0,0:0:0:0:
272,160,141099,1,2,0:0:0:0:
304,272,141249,2,0,L|320:352,1,77.0000023498536,0|0,0:0|0:0,0:0:0:0:
192,288,141550,2,0,L|96:224,1,77.0000023498536,0|0,0:0|0:0,0:0:0:0:
48,144,141850,5,8,0:0:0:0:
192,160,142000,1,0,0:0:0:0:
64,96,142150,1,0,0:0:0:0:
159,197,142300,1,8,0:0:0:0:
80,304,142451,2,0,L|0:352,1,77.0000023498536,0|0,0:0|0:0,0:0:0:0:
182,301,142751,2,0,L|278:317,1,77.0000023498536,0|0,0:0|0:0,0:0:0:0:
223,159,143051,5,8,0:0:0:0:
336,256,143201,1,0,0:0:0:0:
208,240,143352,1,0,0:0:0:0:
336,160,143502,1,8,0:0:0:0:
223,95,143652,2,0,L|143:79,1,77.0000023498536,0|0,0:0|0:0,0:0:0:0:
320,64,143952,2,0,L|400:32,1,77.0000023498536,0|0,0:0|0:0,0:0:0:0:
416,176,144252,5,2,0:0:0:0:
223,95,144403,1,0,0:0:0:0:
448,96,144553,1,0,0:0:0:0:
279,189,144703,1,8,0:0:0:0:
416,272,144853,2,0,L|352:320,1,77.0000023498536,0|0,0:0|0:0,0:0:0:0:
240,256,145153,2,0,L|288:176,1,77.0000023498536,0|0,0:0|0:0,0:0:0:0:
336,48,145454,5,2,0:0:0:0:
144,128,145604,1,0,0:0:0:0:
352,128,145754,1,0,0:0:0:0:
177,41,145904,1,2,0:0:0:0:
108,216,146054,2,0,L|76:296,1,77.0000023498536,8|0,0:0|0:0,0:0:0:0:
252,119,146355,2,0,L|220:199,1,77.0000023498536,8|0,0:0|0:0,0:0:0:0:
80,288,146655,5,8,0:0:0:0:
288,272,146805,1,8,0:0:0:0:
80,288,146955,1,8,0:0:0:0:
336,304,147105,1,0,0:0:0:0:
80,288,147255,1,8,0:0:0:0:
368,336,147406,1,0,0:0:0:0:
240,208,147556,6,0,P|160:160|128:144,1,77.0000023498536,8|0,0:0|0:0,0:0:0:0:
384,48,147856,2,0,L|432:128,1,77.0000023498536,8|0,0:0|0:0,0:0:0:0:
240,208,148156,1,0,0:0:0:0:
214,205,148231,1,0,0:0:0:0:
188,192,148306,1,8,0:0:0:0:
160,80,148457,6,0,L|240:16,1,77.0000023498536,0|8,0:0|0:0,0:0:0:0:
304,160,148757,1,8,0:0:0:0:
304,160,148832,1,0,0:0:0:0:
304,160,148907,1,8,0:0:0:0:
304,160,148982,1,0,0:0:0:0:
304,160,149057,1,4,0:0:0:0:
256,192,162270,12,0,163322,0:0:0:0:
160,96,163472,5,6,0:0:0:0:
160,96,163622,2,0,L|160:160,1,38.5000011749268,8|0,0:0|0:0,0:0:0:0:
160,240,163772,2,0,L|160:352,1,77.0000023498536,8|2,0:0|0:0,0:0:0:0:
288,112,164072,1,8,0:0:0:0:
327,294,164222,1,8,0:0:0:0:
288,112,164373,2,0,L|304:192,1,77.0000023498536,2|8,0:0|0:0,0:0:0:0:
416,256,164673,5,2,0:0:0:0:
252,263,164823,1,8,0:0:0:0:
416,256,164973,1,8,0:0:0:0:
368,96,165123,1,2,0:0:0:0:
252,263,165273,2,0,L|300:167,1,77.0000023498536,8|8,0:0|0:0,0:0:0:0:
240,64,165574,1,2,0:0:0:0:
206,83,165649,1,2,0:0:0:0:
179,109,165724,1,8,0:0:0:0:
158,142,165799,1,8,0:0:0:0:
146,178,165874,5,12,0:0:0:0:
96,304,166024,1,8,0:0:0:0:
80,128,166174,1,8,0:0:0:0:
224,192,166325,1,8,0:0:0:0:
80,128,166475,2,0,L|0:176,1,77.0000023498536,8|8,0:0|0:0,0:0:0:0:
224,192,166775,6,0,L|256:272,1,77.0000023498536,2|8,0:0|0:0,0:0:0:0:
384,272,167075,1,2,0:0:0:0:
320,80,167225,1,8,0:0:0:0:
368,272,167376,1,8,0:0:0:0:
336,80,167526,1,2,0:0:0:0:
160,144,167676,1,8,0:0:0:0:
368,128,167826,1,8,0:0:0:0:
339,258,167976,5,2,0:0:0:0:
320,283,168051,1,2,0:0:0:0:
288,288,168126,1,8,0:0:0:0:
262,278,168201,1,8,0:0:0:0:
239,256,168276,2,0,L|194:157,1,77.0000023498536,6|8,0:0|0:0,0:0:0:0:
304,32,168577,5,8,0:0:0:0:
207,185,168727,1,2,0:0:0:0:
272,16,168877,1,8,0:0:0:0:
352,208,169027,1,8,0:0:0:0:
176,48,169177,1,2,0:0:0:0:
96,224,169328,1,8,0:0:0:0:
208,64,169478,1,2,0:0:0:0:
208,256,169628,5,8,0:0:0:0:
416,144,169778,1,8,0:0:0:0:
240,272,169928,1,2,0:0:0:0:
247,61,170078,2,0,L|295:-3,1,77.0000023498536,8|8,0:0|0:0,0:0:0:0:
375,218,170379,1,2,0:0:0:0:
375,218,170454,1,2,0:0:0:0:
375,218,170529,1,8,0:0:0:0:
176,272,170679,5,6,0:0:0:0:
320,96,170829,1,8,0:0:0:0:
96,80,170979,1,2,0:0:0:0:
336,240,171129,1,8,0:0:0:0:
128,224,171279,1,2,0:0:0:0:
320,96,171430,1,8,0:0:0:0:
144,96,171580,5,2,0:0:0:0:
352,256,171730,1,8,0:0:0:0:
128,256,171880,1,6,0:0:0:0:
128,256,172030,2,0,L|160:224,1,38.5000011749268,2|0,0:0|0:0,0:0:0:0:
272,112,172180,1,2,0:0:0:0:
96,64,172331,1,2,0:0:0:0:
262,320,172481,1,2,0:0:0:0:
96,64,172631,5,2,0:0:0:0:
262,320,172781,1,2,0:0:0:0:
96,64,172931,1,0,0:0:0:0:
128,256,173081,2,0,P|240:320|272:320,1,154.000004699707,12|2,0:0|0:0,0:0:0:0:
304,80,173532,6,0,L|192:128,1,105.000004005432
80,192,173832,1,8,0:0:0:0:
288,192,173982,1,2,0:0:0:0:
80,192,174132,1,0,0:0:0:0:
144,48,174282,2,0,L|288:0,1,105.000004005432,12|0,0:0|0:0,0:0:0:0:
208,176,174583,2,0,L|224:288,1,105.000004005432,2|0,0:0|0:0,0:0:0:0:
400,352,174883,5,0,0:0:0:0:
208,176,175033,1,8,0:0:0:0:
64,336,175183,1,2,0:0:0:0:
304,240,175334,1,0,0:0:0:0:
368,144,175484,6,0,P|352:80|336:160,1,210.000008010865,12|2,0:0|0:0,0:0:0:0:
288,336,175934,1,0,0:0:0:0:
448,224,176084,1,0,0:0:0:0:
224,256,176234,1,8,0:0:0:0:
432,336,176385,1,2,0:0:0:0:
321,157,176535,1,0,0:0:0:0:
224,256,176685,6,0,P|144:256|208:208,1,210.000008010865,12|2,0:0|0:0,0:0:0:0:
418,224,177135,1,0,0:0:0:0:
184,106,177285,1,0,0:0:0:0:
320,288,177436,1,8,0:0:0:0:
208,32,177586,1,2,0:0:0:0:
240,336,177736,1,0,0:0:0:0:
304,128,177886,6,0,P|368:176|288:160,1,210.000008010865,12|2,0:0|0:0,0:0:0:0:
80,160,178337,1,0,0:0:0:0:
290,172,178487,1,0,0:0:0:0:
137,42,178637,1,8,0:0:0:0:
290,172,178787,1,2,0:0:0:0:
144,288,178937,1,0,0:0:0:0:
80,160,179087,6,0,P|48:96|112:144,1,210.000008010865,12|2,0:0|0:0,0:0:0:0:
208,240,179538,2,0,L|272:272,2,52.5000020027161,0|0|0,0:0|0:0|0:0,0:0:0:0:
183,72,179838,1,8,0:0:0:0:
208,240,179988,2,0,P|146:230|96:192,1,105.000004005432,2|0,0:0|0:0,0:0:0:0:
192,80,180288,5,12,0:0:0:0:
192,80,180364,1,0,0:0:0:0:
192,80,180439,1,0,0:0:0:0:
322,190,180589,1,2,0:0:0:0:
124,296,180739,2,0,P|183:270|220:200,1,105.000004005432
192,80,181039,1,8,0:0:0:0:
323,168,181189,1,2,0:0:0:0:
384,48,181340,1,0,0:0:0:0:
512,173,181490,5,12,0:0:0:0:
512,173,181565,1,0,0:0:0:0:
512,173,181640,1,0,0:0:0:0:
345,42,181790,1,2,0:0:0:0:
240,192,181940,1,0,0:0:0:0:
384,125,182090,2,0,L|496:93,1,105.000004005432,0|8,0:0|0:0,0:0:0:0:
240,192,182391,2,0,L|336:256,1,105.000004005432,2|0,0:0|0:0,0:0:0:0:
144,256,182691,6,0,P|112:304|192:272,1,210.000008010865,12|2,0:0|0:0,0:0:0:0:
240,64,183141,1,0,0:0:0:0:
304,192,183291,2,0,L|368:288,1,105.000004005432,0|8,0:0|0:0,0:0:0:0:
117,102,183592,1,2,0:0:0:0:
304,192,183742,1,0,0:0:0:0:
128,112,183892,5,8,0:0:0:0:
128,112,183967,1,0,0:0:0:0:
128,112,184042,1,0,0:0:0:0:
345,42,184192,1,2,0:0:0:0:
256,176,184343,1,0,0:0:0:0:
256,176,184493,2,0,L|160:272,1,105.000004005432,0|0,0:0|0:0,0:0:0:0:
176,128,184793,2,0,L|240:32,1,105.000004005432,0|0,0:0|0:0,0:0:0:0:
320,144,185093,6,0,L|384:256,1,105.000004005432,12|0,0:0|0:0,0:0:0:0:
184,252,185394,1,2,0:0:0:0:
446,179,185544,1,0,0:0:0:0:
224,297,185694,1,0,0:0:0:0:
416,128,185844,1,2,0:0:0:0:
192,64,185994,2,0,L|80:16,1,105.000004005432,2|0,0:0|0:0,0:0:0:0:
224,192,186294,6,0,L|224:304,1,105.000004005432,12|0,0:0|0:0,0:0:0:0:
336,240,186595,1,2,0:0:0:0:
112,176,186745,1,0,0:0:0:0:
288,80,186895,1,0,0:0:0:0:
272,288,187045,1,8,0:0:0:0:
192,128,187195,1,2,0:0:0:0:
349,128,187346,1,0,0:0:0:0:
192,288,187496,5,12,0:0:0:0:
192,288,187571,1,0,0:0:0:0:
192,288,187646,1,0,0:0:0:0:
80,176,187796,2,0,L|32:80,1,105.000004005432,2|0,0:0|0:0,0:0:0:0:
192,128,188096,2,0,L|256:240,1,105.000004005432,0|8,0:0|0:0,0:0:0:0:
384,272,188397,5,2,0:0:0:0:
384,112,188547,1,0,0:0:0:0:
336,288,188697,1,8,0:0:0:0:
432,96,188847,1,0,0:0:0:0:
288,160,188997,2,0,B|240:192|240:192|208:144,1,105.000004005432,2|0,0:0|0:0,0:0:0:0:
160,64,189297,2,0,B|143:38|112:16|112:16|84:36|70:76|80:112|96:160,1,210.000008010865,0|0,0:0|0:0,0:0:0:0:
145,337,189748,1,0,0:0:0:0:
241,193,189898,5,12,0:0:0:0:
0,192,190048,1,0,0:0:0:0:
144,320,190198,1,2,0:0:0:0:
256,176,190349,1,0,0:0:0:0:
0,176,190499,5,0,0:0:0:0:
144,64,190649,1,8,0:0:0:0:
144,304,190799,1,2,0:0:0:0:
256,160,190949,1,0,0:0:0:0:
0,160,191099,5,8,0:0:0:0:
144,48,191249,1,0,0:0:0:0:
112,256,191400,2,0,L|96:368,1,105.000004005432,2|0,0:0|0:0,0:0:0:0:
208,160,191700,2,0,L|192:288,1,105.000004005432,0|8,0:0|0:0,0:0:0:0:
304,64,192000,2,0,L|288:176,1,105.000004005432,2|0,0:0|0:0,0:0:0:0:
288,352,192300,5,12,0:0:0:0:
288,352,192376,1,0,0:0:0:0:
288,352,192451,1,0,0:0:0:0:
361,147,192601,2,0,P|329:83|265:51,1,105.000004005432,2|0,0:0|0:0,0:0:0:0:
160,96,192901,1,0,0:0:0:0:
208,320,193051,1,8,0:0:0:0:
288,208,193201,2,0,P|256:128|208:96,1,105.000004005432,2|0,0:0|0:0,0:0:0:0:
80,176,193502,5,8,0:0:0:0:
208,320,193652,1,0,0:0:0:0:
288,208,193802,2,0,P|256:144|208:112,1,105.000004005432,2|0,0:0|0:0,0:0:0:0:
230,327,194102,2,0,P|277:349|329:350,1,105.000004005432,0|0,0:0|0:0,0:0:0:0:
148,249,194403,2,0,L|52:201,1,105.000004005432,0|0,0:0|0:0,0:0:0:0:
16,80,194703,5,12,0:0:0:0:
209,126,194853,1,0,0:0:0:0:
144,288,195003,1,2,0:0:0:0:
208,87,195153,1,0,0:0:0:0:
272,304,195303,1,0,0:0:0:0:
53,199,195454,1,8,0:0:0:0:
304,144,195604,1,2,0:0:0:0:
304,144,195754,2,0,L|272:96,1,52.5000020027161,0|0,0:0|0:0,0:0:0:0:
112,112,195904,6,0,L|48:208,1,105.000004005432,8|0,0:0|0:0,0:0:0:0:
208,192,196204,2,0,L|208:80,1,105.000004005432,2|0,0:0|0:0,0:0:0:0:
144,240,196505,2,0,L|112:352,1,105.000004005432,0|8,0:0|0:0,0:0:0:0:
288,208,196805,1,2,0:0:0:0:
288,208,196955,1,0,0:0:0:0:
208,96,197105,1,12,0:0:0:0:
208,96,197180,1,0,0:0:0:0:
208,96,197255,1,0,0:0:0:0:
352,64,197406,6,0,P|416:96|352:80,1,210.000008010865,2|0,0:0|0:0,0:0:0:0:
208,192,197856,1,8,0:0:0:0:
352,208,198006,6,0,P|416:240|352:224,1,210.000008010865,2|8,0:0|0:0,0:0:0:0:
208,192,198457,1,0,0:0:0:0:
218,335,198607,1,2,0:0:0:0:
218,335,198682,1,0,0:0:0:0:
218,335,198757,1,0,0:0:0:0:
112,192,198907,6,0,P|48:224|112:208,1,210.000008010865,0|0,0:0|0:0,0:0:0:0:
208,112,199358,6,0,L|288:32,1,105.000004005432,0|10,0:0|0:0,0:0:0:0:
304,128,199658,2,0,L|384:48,1,105.000004005432,0|2,0:0|0:0,0:0:0:0:
400,144,199958,2,0,L|480:64,2,105.000004005432,0|0|8,0:0|0:0|0:0,0:0:0:0:
320,288,200409,1,2,0:0:0:0:
400,144,200559,1,0,0:0:0:0:
256,304,200709,5,8,0:0:0:0:
368,240,200859,1,0,0:0:0:0:
189,336,201009,1,2,0:0:0:0:
320,192,201159,1,0,0:0:0:0:
112,336,201309,2,0,L|48:320,1,52.5000020027161,0|0,0:0|0:0,0:0:0:0:
176,256,201460,2,0,L|112:261,1,52.5000020027161,0|0,0:0|0:0,0:0:0:0:
64,244,201610,5,0,0:0:0:0:
35,213,201685,1,0,0:0:0:0:
31,171,201760,1,0,0:0:0:0:
56,137,201835,1,0,0:0:0:0:
96,126,201910,1,4,0:0:0:0:
