osu file format v14

[General]
AudioFilename: audio.mp3
AudioLeadIn: 0
PreviewTime: 38547
Countdown: 0
SampleSet: None
StackLeniency: 0.6
Mode: 0
LetterboxInBreaks: 0
EpilepsyWarning: 1
WidescreenStoryboard: 1

[Editor]
Bookmarks: 4913,6114,7316,8517,19328,20228,21730,22931,33742,36144,37346,38096,46955,47856,48156,52961,55364,57766,58967,60168,61970,62571,69177,69778,76985,78186,79388,88997,96204,97406,98607,103412,104613,105814,107916,115424,117826,119027,120228,129237,129838,137045,137646,144252,144703,145454,145904,146655,147105,147856,149057,150258,163472,165574,165649,165724,167976,168051,168126,170379,170454,170529,174282,200709,201309,201460
DistanceSpacing: 3
BeatDivisor: 4
GridSize: 4
TimelineZoom: 2.899999

[Metadata]
Title:Say Goodbye (Speed Up Ver.)
TitleUnicode:Say Goodbye (Speed Up Ver.)
Artist:Krewella
ArtistUnicode:Krewella
Creator:saggi
Version:Ciarmin's Let Me Go
Source:
Tags:LiousPL Melsoon walter85 Megapcmx Minorsonek LukerMaster -NeBu- Broly Envory ChuuritsuTv
BeatmapID:2061824
BeatmapSetID:580821

[Difficulty]
HPDrainRate:5
CircleSize:4
OverallDifficulty:8.5
ApproachRate:9.8
SliderMultiplier:1.8
SliderTickRate:1

[Events]
//Background and Video events
0,0,"girl.jpg",0,0
//Break Periods
2,79580,86100
2,151460,161069
//Storyboard Layer 0 (Background)
//Storyboard Layer 1 (Fail)
//Storyboard Layer 2 (Pass)
//Storyboard Layer 3 (Foreground)
Sprite,Foreground,Centre,"sb\highlight.png",421,223 C,0,47856,,242,24,57 F,2,47856,48656,1,0 S,2,47856,48656,0.9,0.18 P,0,47856,48656,A
Sprite,Foreground,Centre,"sb\highlight.png",400,243 C,0,47931,,242,24,57 F,2,47931,48731,1,0 S,2,47931,48731,0.9,0.18 P,0,47931,48731,A
Sprite,Foreground,Centre,"sb\highlight.png",371,250 C,0,48006,,242,24,57 F,2,48006,48806,1,0 S,2,48006,48806,0.9,0.18 P,0,48006,48806,A
Sprite,Foreground,Centre,"sb\highlight.png",344,237 C,0,48081,,242,24,57 F,2,48081,48881,1,0 S,2,48081,48881,0.9,0.18 P,0,48081,48881,A
Sprite,Foreground,Centre,"sb\highlight.png",464,344 C,0,96204,,18,124,255 F,2,96204,97004,1,0 S,2,96204,97004,0.9,0.18 P,0,96204,97004,A
Sprite,Foreground,Centre,"sb\highlight.png",464,344 C,0,96279,,18,124,255 F,2,96279,97079,1,0 S,2,96279,97079,0.9,0.18 P,0,96279,97079,A
Sprite,Foreground,Centre,"sb\highlight.png",464,344 C,0,96355,,18,124,255 F,2,96355,97155,1,0 S,2,96355,97155,0.9,0.18 P,0,96355,97155,A
Sprite,Foreground,Centre,"sb\highlight.png",256,200 C,0,96505,,18,124,255 F,2,96505,97305,1,0 S,2,96505,97305,0.9,0.18 P,0,96505,97305,A
Sprite,Foreground,Centre,"sb\highlight.png",336,376 C,0,96655,,18,124,255 F,2,96655,97455,1,0 S,2,96655,97455,0.9,0.18 P,0,96655,97455,A
Sprite,Foreground,Centre,"sb\highlight.png",368,120 C,0,96805,,18,124,255 F,2,96805,97605,1,0 S,2,96805,97605,0.9,0.18 P,0,96805,97605,A
Sprite,Foreground,Centre,"sb\highlight.png",186,366 C,0,96955,,18,124,255 F,2,96955,97755,1,0 S,2,96955,97755,0.9,0.18 P,0,96955,97755,A
Sprite,Foreground,Centre,"sb\highlight.png",352,238 C,0,97105,,242,24,57 F,2,97105,97905,1,0 S,2,97105,97905,0.9,0.18 P,0,97105,97905,A
Sprite,Foreground,Centre,"sb\highlight.png",352,238 C,0,97180,,242,24,57 F,2,97180,97980,1,0 S,2,97180,97980,0.9,0.18 P,0,97180,97980,A
Sprite,Foreground,Centre,"sb\highlight.png",352,238 C,0,97255,,242,24,57 F,2,97255,98055,1,0 S,2,97255,98055,0.9,0.18 P,0,97255,98055,A
Sprite,Foreground,Centre,"sb\highlight.png",210,169 C,0,97406,,242,24,57 M,0,97406,97443,210,169,185.6413,169.4591 F,2,97406,98356,1,0 S,2,97406,98356,0.9,0.18 P,0,97406,98356,A M,0,97443,97481,185.6413,169.4591,162.3116,176.2729 M,0,97481,97518,162.3116,176.2729,141.7947,189.309 M,0,97518,97556,141.7947,189.309,125.7099,207.5418
Sprite,Foreground,Centre,"sb\highlight.png",203,255 C,0,97706,,242,24,57 F,2,97706,98506,1,0 S,2,97706,98506,0.9,0.18 P,0,97706,98506,A
Sprite,Foreground,Centre,"sb\highlight.png",272,216 C,0,97856,,242,24,57 F,2,97856,98656,1,0 S,2,97856,98656,0.9,0.18 P,0,97856,98656,A
Sprite,Foreground,Centre,"sb\highlight.png",332,150 C,0,98006,,242,24,57 M,0,98006,98043,332,150,347.9951,168.3016 F,2,98006,98956,1,0 S,2,98006,98956,0.9,0.18 P,0,98006,98956,A M,0,98043,98081,347.9951,168.3016,357.36,190.6407 M,0,98081,98118,357.36,190.6407,358.7318,214.8247 M,0,98118,98156,358.7318,214.8247,351.9528,238.08
Sprite,Foreground,Centre,"sb\highlight.png",272,296 C,0,98306,,242,24,57 M,0,98306,98343,272,296,292.3068,309.7071 F,2,98306,99256,1,0 S,2,98306,99256,0.9,0.18 P,0,98306,99256,A M,0,98343,98381,292.3068,309.7071,312,323 M,0,98381,98418,312,323,292.3068,309.7071 M,0,98418,98456,292.3068,309.7071,272,296
Sprite,Foreground,Centre,"sb\highlight.png",448,104 C,0,147856,,18,124,255 M,0,147856,147893,448,104,457.9041,120.5067 F,2,147856,148806,1,0 S,2,147856,148806,0.9,0.18 P,0,147856,148806,A M,0,147893,147931,457.9041,120.5067,467.8081,137.0135 M,0,147931,147968,467.8081,137.0135,477.7121,153.5202 M,0,147968,148006,477.7121,153.5202,487.6162,170.027
Sprite,Foreground,Centre,"sb\highlight.png",304,264 C,0,148156,,18,124,255 F,2,148156,148956,1,0 S,2,148156,148956,0.9,0.18 P,0,148156,148956,A
Sprite,Foreground,Centre,"sb\highlight.png",278,261 C,0,148231,,18,124,255 F,2,148231,149031,1,0 S,2,148231,149031,0.9,0.18 P,0,148231,149031,A
Sprite,Foreground,Centre,"sb\highlight.png",252,248 C,0,148306,,18,124,255 F,2,148306,149106,1,0 S,2,148306,149106,0.9,0.18 P,0,148306,149106,A
Sprite,Foreground,Centre,"sb\highlight.png",224,136 C,0,148457,,242,24,57 M,0,148457,148494,224,136,239.0317,123.9746 F,2,148457,149407,1,0 S,2,148457,149407,0.9,0.18 P,0,148457,149407,A M,0,148494,148532,239.0317,123.9746,254.0634,111.9492 M,0,148532,148569,254.0634,111.9492,269.0952,99.92386 M,0,148569,148607,269.0952,99.92386,284.1269,87.89848
Sprite,Foreground,Centre,"sb\highlight.png",368,216 C,0,148757,,242,24,57 F,2,148757,149557,1,0 S,2,148757,149557,0.9,0.18 P,0,148757,149557,A
Sprite,Foreground,Centre,"sb\highlight.png",368,216 C,0,148832,,242,24,57 F,2,148832,149632,1,0 S,2,148832,149632,0.9,0.18 P,0,148832,149632,A
Sprite,Foreground,Centre,"sb\highlight.png",368,216 C,0,148907,,242,24,57 F,2,148907,149707,1,0 S,2,148907,149707,0.9,0.18 P,0,148907,149707,A
Sprite,Foreground,Centre,"sb\highlight.png",368,216 C,0,148982,,242,24,57 F,2,148982,149782,1,0 S,2,148982,149782,0.9,0.18 P,0,148982,149782,A
Sprite,Foreground,Centre,"sb\highlight.png",368,216 C,0,149057,,242,24,57 F,2,149057,149857,1,0 S,2,149057,149857,0.9,0.18 P,0,149057,149857,A
Sprite,Foreground,Centre,"sb\highlight.png",192,312 C,0,171880,,255,192,0 F,2,171880,172680,1,0 S,2,171880,172680,0.9,0.18 P,0,171880,172680,A
Sprite,Foreground,Centre,"sb\highlight.png",192,312 C,0,172030,,255,192,0 M,0,172030,172067,192,312,205.6118,298.3882 F,2,172030,172905,1,0 S,2,172030,172905,0.9,0.18 P,0,172030,172905,A M,0,172067,172105,205.6118,298.3882,219.2236,284.7764
Sprite,Foreground,Centre,"sb\highlight.png",336,168 C,0,172180,,255,192,0 F,2,172180,172980,1,0 S,2,172180,172980,0.9,0.18 P,0,172180,172980,A
Sprite,Foreground,Centre,"sb\highlight.png",160,120 C,0,172331,,255,192,0 F,2,172331,173131,1,0 S,2,172331,173131,0.9,0.18 P,0,172331,173131,A
Sprite,Foreground,Centre,"sb\highlight.png",326,376 C,0,172481,,255,192,0 F,2,172481,173281,1,0 S,2,172481,173281,0.9,0.18 P,0,172481,173281,A
Sprite,Foreground,Centre,"sb\highlight.png",160,120 C,0,172631,,0,202,0 F,2,172631,173431,1,0 S,2,172631,173431,0.9,0.18 P,0,172631,173431,A
Sprite,Foreground,Centre,"sb\highlight.png",326,376 C,0,172781,,0,202,0 F,2,172781,173581,1,0 S,2,172781,173581,0.9,0.18 P,0,172781,173581,A
Sprite,Foreground,Centre,"sb\highlight.png",160,120 C,0,172931,,0,202,0 F,2,172931,173731,1,0 S,2,172931,173731,0.9,0.18 P,0,172931,173731,A
Sprite,Foreground,Centre,"sb\highlight.png",176,392 C,0,201309,,242,24,57 M,0,201309,201346,176,392,150.5338,385.6335 F,2,201309,202584,1,0 S,2,201309,202584,1,0.2 P,0,201309,202584,A M,0,201346,201384,150.5338,385.6335,125.0675,379.2669
Sprite,Foreground,Centre,"sb\highlight.png",240,312 C,0,201460,,242,24,57 M,0,201460,201497,240,312,213.8297,314.0446 F,2,201460,202735,1,0 S,2,201460,202735,1,0.2 P,0,201460,202735,A M,0,201497,201535,213.8297,314.0446,187.6595,316.0891
Sprite,Foreground,Centre,"sb\highlight.png",128,300 C,0,201610,,255,192,0 F,2,201610,202810,1,0 S,2,201610,202810,1,0.2 P,0,201610,202810,A
Sprite,Foreground,Centre,"sb\highlight.png",99,269 C,0,201685,,255,192,0 F,2,201685,202885,1,0 S,2,201685,202885,1,0.2 P,0,201685,202885,A
Sprite,Foreground,Centre,"sb\highlight.png",95,227 C,0,201760,,255,192,0 F,2,201760,202960,1,0 S,2,201760,202960,1,0.2 P,0,201760,202960,A
Sprite,Foreground,Centre,"sb\highlight.png",120,193 C,0,201835,,255,192,0 F,2,201835,203035,1,0 S,2,201835,203035,1,0.2 P,0,201835,203035,A
Sprite,Foreground,Centre,"sb\highlight.png",176,264 C,0,37346,,242,24,57 F,2,37346,38146,1,0 S,2,37346,38146,0.9,0.18 P,0,37346,38146,A
Sprite,Foreground,Centre,"sb\highlight.png",352,360 C,0,37496,,242,24,57 F,2,37496,38296,1,0 S,2,37496,38296,0.9,0.18 P,0,37496,38296,A
Sprite,Foreground,Centre,"sb\highlight.png",352,360 C,0,37646,,242,24,57 M,0,37646,37683,352,360,360.6595,340.8685 F,2,37646,38596,1,0 S,2,37646,38596,0.9,0.18 P,0,37646,38596,A M,0,37683,37721,360.6595,340.8685,369.319,321.7371 M,0,37721,37758,369.319,321.7371,377.9785,302.6056 M,0,37758,37796,377.9785,302.6056,386.638,283.4741
Sprite,Foreground,Centre,"sb\highlight.png",400,136 C,0,37946,,242,24,57 F,2,37946,38746,1,0 S,2,37946,38746,0.9,0.18 P,0,37946,38746,A
Sprite,Foreground,Centre,"sb\highlight.png",400,136 C,0,38096,,242,24,57 M,0,38096,38133,400,136,387.0223,134.2819 F,2,38096,39196,1,0 S,2,38096,39196,0.9,0.18 P,0,38096,39196,A M,0,38133,38171,387.0223,134.2819,373.9347,133.811 M,0,38171,38208,373.9347,133.811,360.9657,135.5727 M,0,38208,38246,360.9657,135.5727,348.2442,138.638 M,0,38246,38283,348.2442,138.638,336.2,143.7537 M,0,38283,38321,336.2,143.7537,324.7802,150.1247 M,0,38321,38358,324.7802,150.1247,314.5111,158.232 M,0,38358,38396,314.5111,158.232,305.2319,167.436
Sprite,Foreground,Centre,"sb\highlight.png",326,270 C,0,107916,,255,192,0 F,2,107916,108716,1,0 S,2,107916,108716,0.9,0.18 P,0,107916,108716,A
Sprite,Foreground,Centre,"sb\highlight.png",311,245 C,0,107991,,255,192,0 F,2,107991,108791,1,0 S,2,107991,108791,0.9,0.18 P,0,107991,108791,A
Sprite,Foreground,Centre,"sb\highlight.png",283,240 C,0,108066,,255,192,0 F,2,108066,108866,1,0 S,2,108066,108866,0.9,0.18 P,0,108066,108866,A
Sprite,Foreground,Centre,"sb\highlight.png",257,250 C,0,108141,,255,192,0 F,2,108141,108941,1,0 S,2,108141,108941,0.9,0.18 P,0,108141,108941,A
Sprite,Foreground,Centre,"sb\highlight.png",480,88 C,0,117826,,0,202,0 F,2,117826,118626,1,0 S,2,117826,118626,0.9,0.18 P,0,117826,118626,A
Sprite,Foreground,Centre,"sb\highlight.png",368,327 C,0,117976,,0,202,0 F,2,117976,118776,1,0 S,2,117976,118776,0.9,0.18 P,0,117976,118776,A
Sprite,Foreground,Centre,"sb\highlight.png",272,72 C,0,118126,,0,202,0 F,2,118126,118926,1,0 S,2,118126,118926,0.9,0.18 P,0,118126,118926,A
Sprite,Foreground,Centre,"sb\highlight.png",496,216 C,0,118276,,0,202,0 F,2,118276,119076,1,0 S,2,118276,119076,0.9,0.18 P,0,118276,119076,A
Sprite,Foreground,Centre,"sb\highlight.png",234,236 C,0,118427,,0,202,0 F,2,118427,119227,1,0 S,2,118427,119227,0.9,0.18 P,0,118427,119227,A
Sprite,Foreground,Centre,"sb\highlight.png",375,80 C,0,118577,,0,202,0 F,2,118577,119377,1,0 S,2,118577,119377,0.9,0.18 P,0,118577,119377,A
Sprite,Foreground,Centre,"sb\highlight.png",160,120 C,0,118877,,18,124,255 F,2,118877,119677,1,0 S,2,118877,119677,0.9,0.18 P,0,118877,119677,A
Sprite,Foreground,Centre,"sb\highlight.png",480,184 C,0,119027,,18,124,255 F,2,119027,119827,1,0 S,2,119027,119827,0.9,0.18 P,0,119027,119827,A
Sprite,Foreground,Centre,"sb\highlight.png",400,296 C,0,119628,,242,24,57 F,2,119628,120428,1,0 S,2,119628,120428,0.9,0.18 P,0,119628,120428,A
Sprite,Foreground,Centre,"sb\highlight.png",288,376 C,0,120078,,242,24,57 F,2,120078,120878,1,0 S,2,120078,120878,0.9,0.18 P,0,120078,120878,A
Sprite,Foreground,Centre,"sb\highlight.png",240,88 C,0,119928,,242,24,57 F,2,119928,120728,1,0 S,2,119928,120728,0.9,0.18 P,0,119928,120728,A
Sprite,Foreground,Centre,"sb\highlight.png",400,296 C,0,119778,,242,24,57 M,0,119778,119815,400,296,406.791,268.836 F,2,119778,120653,1,0 S,2,119778,120653,0.9,0.18 P,0,119778,120653,A M,0,119815,119853,406.791,268.836,413.582,241.672
Sprite,Foreground,Centre,"sb\highlight.png",273,174 C,0,119478,,242,24,57 F,2,119478,120278,1,0 S,2,119478,120278,0.9,0.18 P,0,119478,120278,A
Sprite,Foreground,Centre,"sb\highlight.png",273,174 C,0,119328,,242,24,57 F,2,119328,120128,1,0 S,2,119328,120128,0.9,0.18 P,0,119328,120128,A
Sprite,Foreground,Centre,"sb\highlight.png",480,184 C,0,119177,,18,124,255 F,2,119177,119977,1,0 S,2,119177,119977,0.9,0.18 P,0,119177,119977,A
Sprite,Foreground,Centre,"sb\highlight.png",296,362 C,0,118727,,18,124,255 F,2,118727,119527,1,0 S,2,118727,119527,0.9,0.18 P,0,118727,119527,A
//Storyboard Sound Samples

[TimingPoints]
1302,300.3003003003,4,1,1,70,1,0
9710,-166.666666666667,4,1,1,70,0,0
28929,-125,4,1,1,70,0,0
37338,-200,4,1,1,70,0,0
38539,-100,4,1,1,70,0,1
46947,-200,4,1,1,70,0,0
47848,-142.857142857143,4,1,1,70,0,0
47998,-117.647058823529,4,1,1,70,0,0
48148,-100,4,1,1,70,0,1
52953,-125,4,1,1,70,0,1
57758,-200,4,1,1,70,0,0
60160,-76.9230769230769,4,1,1,70,0,1
69169,-133.333333333333,4,1,1,70,0,0
69770,-76.9230769230769,4,1,1,70,0,1
79079,-200,4,1,1,70,0,0
88989,-125,4,1,1,70,0,0
98599,-100,4,1,1,70,0,1
107007,-200,4,1,1,70,0,0
107908,-142.857142857143,4,1,1,70,0,0
108058,-117.647058823529,4,1,1,70,0,0
108208,-100,4,1,1,70,0,1
117818,-100,4,1,1,70,0,0
119695,-100,4,1,1,5,0,0
119770,-100,4,1,1,70,0,0
119845,-100,4,1,1,5,0,0
119920,-100,4,1,1,70,0,0
119995,-100,4,1,1,5,0,0
120070,-100,4,1,1,70,0,0
120145,-100,4,1,1,5,0,0
120220,-71.4285714285714,4,1,1,70,0,1
129830,-142.857142857143,4,1,1,70,0,0
130356,-142.857142857143,4,1,1,5,0,0
130431,-100,4,1,1,70,0,1
132232,-142.857142857143,4,1,1,70,0,0
132758,-142.857142857143,4,1,1,5,0,0
132833,-100,4,1,1,70,0,1
134635,-142.857142857143,4,1,1,70,0,0
135160,-142.857142857143,4,1,1,5,0,0
135235,-100,4,1,1,70,0,1
137037,-125,4,1,1,70,0,1
139440,-111.111111111111,4,1,1,70,0,0
148449,-62.5,4,1,1,70,0,0
163163,-200,4,1,1,70,0,0
163464,-100,4,1,1,70,0,0
172773,-200,4,1,1,70,0,0
173073,-62.5,4,1,1,70,0,1
182983,-62.5,4,1,1,70,0,1
185085,-100,4,1,1,70,0,1
187488,-62.5,4,1,1,70,0,1

[Colours]
Combo1 : 255,192,0
Combo2 : 159,120,47
Combo3 : 88,99,129
Combo4 : 49,49,49

[HitObjects]
162,286,9710,6,0,B|96:295|96:295|56:288,1,107.999996704102
156,136,10160,2,0,L|264:140,1,107.999996704102
388,216,10611,1,0,0:0:0:0:
388,216,10761,1,0,0:0:0:0:
388,216,10911,6,0,P|408:172|400:96,1,107.999996704102,0|0,0:0|0:0,0:0:0:0:
41,36,11362,2,0,B|68:108|68:108|57:260,1,215.999993408203
142,100,12112,6,0,P|196:91|250:93,1,107.999996704102
355,254,12563,2,0,P|301:256|248:248,1,107.999996704102
308,152,13013,1,0,0:0:0:0:
308,152,13163,1,0,0:0:0:0:
300,304,13314,2,0,L|296:380,1,53.9999983520508,0|0,0:0|0:0,0:0:0:0:
136,288,13614,1,0,0:0:0:0:
136,288,13764,2,0,B|146:207|146:207|118:145|118:145|124:59,1,215.999993408203
120,207,14515,6,0,P|67:206|14:216,1,107.999996704102
126,77,14965,2,0,P|179:87|233:85,1,107.999996704102
188,0,15416,1,0,0:0:0:0:
188,0,15566,1,0,0:0:0:0:
208,184,15716,2,0,L|212:256,1,53.9999983520508,0|0,0:0|0:0,0:0:0:0:
338,263,16016,1,0,0:0:0:0:
338,263,16166,2,0,L|336:374,1,107.999996704102,0|0,0:0|0:0,0:0:0:0:
68,296,16617,2,0,L|65:220,1,53.9999983520508,0|0,0:0|0:0,0:0:0:0:
7,164,16917,6,0,P|55:141|107:152,1,107.999996704102
191,227,17368,2,0,P|243:238|291:215,1,107.999996704102
328,116,17818,2,0,L|274:119,1,53.9999983520508
184,328,18118,6,0,B|239:338|239:338|311:331,1,107.999996704102,0|0,0:0|0:0,0:0:0:0:
397,211,18569,2,0,B|346:206|346:206|291:216,1,107.999996704102,0|0,0:0|0:0,0:0:0:0:
184,328,19019,2,0,L|239:338,1,53.9999983520508,0|0,0:0|0:0,0:0:0:0:
507,111,19320,6,0,P|451:99|383:115,1,107.999996704102,0|0,0:0|0:0,0:0:0:0:
241,122,19770,2,0,P|256:173|290:215,1,107.999996704102
452,240,20220,2,0,L|456:176,1,53.9999983520508,0|0,0:0|0:0,0:0:0:0:
120,24,20521,6,0,B|115:79|115:79|124:144,1,107.999996704102,0|0,0:0|0:0,0:0:0:0:
280,216,20971,2,0,B|287:163|287:163|282:108,1,107.999996704102,0|0,0:0|0:0,0:0:0:0:
104,232,21422,2,0,L|176:228,1,53.9999983520508,0|0,0:0|0:0,0:0:0:0:
236,24,21722,6,0,B|288:16|288:16|353:30,1,107.999996704102,0|0,0:0|0:0,0:0:0:0:
468,208,22172,2,0,P|413:221|356:208,1,107.999996704102
408,72,22623,2,0,L|412:128,1,53.9999983520508,0|0,0:0|0:0,0:0:0:0:
328,360,22923,6,0,L|253:357,1,53.9999983520508,0|0,0:0|0:0,0:0:0:0:
278,277,23223,2,0,L|332:280,1,53.9999983520508
168,300,23524,2,0,P|196:252|196:192,1,107.999996704102,0|0,0:0|0:0,0:0:0:0:
0,232,24124,6,0,P|50:222|128:232,1,107.999996704102,0|0,0:0|0:0,0:0:0:0:
272,68,24575,2,0,L|144:64,1,107.999996704102,0|0,0:0|0:0,0:0:0:0:
56,312,25025,1,0,0:0:0:0:
56,312,25175,1,0,0:0:0:0:
40,148,25326,2,0,L|36:88,1,53.9999983520508,0|0,0:0|0:0,0:0:0:0:
177,146,25626,2,0,L|172:200,1,53.9999983520508
284,284,25926,2,0,L|300:226,2,53.9999983520508,0|0|0,0:0|0:0|0:0,0:0:0:0:
120,40,26527,6,0,B|160:28|160:28|248:36,1,107.999996704102,0|0,0:0|0:0,0:0:0:0:
406,224,26977,2,0,L|290:232,1,107.999996704102,0|0,0:0|0:0,0:0:0:0:
173,242,27428,1,0,0:0:0:0:
400,28,27728,6,0,P|410:85|404:152,1,107.999996704102,0|0,0:0|0:0,0:0:0:0:
301,123,28178,2,0,B|294:180|294:180|297:247,1,107.999996704102,0|0,0:0|0:0,0:0:0:0:
406,224,28629,2,0,P|413:256|403:294,1,53.9999983520508,0|0,0:0|0:0,0:0:0:0:
40,248,28929,5,0,0:0:0:0:
140,236,29079,1,0,0:0:0:0:
200,336,29229,5,0,0:0:0:0:
100,324,29379,1,0,0:0:0:0:
180,160,29530,2,0,L|212:84,1,72,0|0,0:0|0:0,0:0:0:0:
280,4,29830,2,0,L|307:70,1,72,0|0,0:0|0:0,0:0:0:0:
286,263,30130,5,0,0:0:0:0:
184,252,30280,1,0,0:0:0:0:
286,263,30431,5,0,0:0:0:0:
180,160,30581,1,0,0:0:0:0:
120,320,30731,2,0,B|155:329|155:329|200:328,1,72,0|0,0:0|0:0,0:0:0:0:
349,170,31031,2,0,L|257:182,1,72,0|0,0:0|0:0,0:0:0:0:
91,209,31332,5,0,0:0:0:0:
184,248,31482,1,0,0:0:0:0:
132,188,31632,5,0,0:0:0:0:
142,268,31782,1,0,0:0:0:0:
68,238,31932,2,0,B|36:228|36:228|4:208,1,72,0|0,0:0|0:0,0:0:0:0:
81,113,32232,2,0,B|65:83|65:83|56:46,1,72,0|0,0:0|0:0,0:0:0:0:
236,48,32533,5,0,0:0:0:0:
272,188,32683,1,0,0:0:0:0:
236,48,32833,1,0,0:0:0:0:
200,144,32983,1,0,0:0:0:0:
317,110,33133,2,0,L|397:93,1,72,0|0,0:0|0:0,0:0:0:0:
488,208,33434,2,0,P|450:214|404:208,1,72,0|0,0:0|0:0,0:0:0:0:
68,224,33734,6,0,L|64:128,1,72
153,120,34034,2,0,L|156:192,1,72
244,160,34335,2,0,L|240:64,1,72,0|0,0:0|0:0,0:0:0:0:
329,56,34635,2,0,L|332:128,1,72
392,211,34935,6,0,P|355:224|308:223,1,72,0|0,0:0|0:0,0:0:0:0:
344,324,35235,2,0,P|307:310|260:312,1,72
248,212,35536,2,0,P|211:225|164:224,1,72,0|0,0:0|0:0,0:0:0:0:
204,324,35836,2,0,P|167:310|120:312,1,72,0|0,0:0|0:0,0:0:0:0:
312,312,36136,5,0,0:0:0:0:
223,130,36286,1,0,0:0:0:0:
204,324,36436,1,0,0:0:0:0:
324,149,36586,1,0,0:0:0:0:
118,123,36736,1,0,0:0:0:0:
204,324,36886,1,8,0:0:0:0:
223,130,37037,1,0,0:0:0:0:
56,211,37187,1,0,0:0:0:0:
96,340,37338,6,0,L|40:344,1,45,0|0,0:0|0:0,0:0:0:0:
128,236,37638,2,0,L|184:240,1,45,0|0,0:0|0:0,0:0:0:0:
96,340,37938,1,0,0:0:0:0:
168,160,38088,2,0,P|213:155|262:173,1,90
318,329,38539,5,4,0:0:0:0:
96,340,38689,1,0,0:0:0:0:
318,329,38839,2,0,P|325:284|328:224,1,90,2|0,0:0|0:0,0:0:0:0:
158,70,39139,2,0,P|160:114|167:159,1,90,0|0,0:0|0:0,0:0:0:0:
376,96,39440,2,0,B|336:92|336:92|272:100,1,90,0|0,0:0|0:0,0:0:0:0:
68,264,39740,5,0,0:0:0:0:
248,276,39890,1,0,0:0:0:0:
336,120,40040,5,0,0:0:0:0:
156,132,40190,1,0,0:0:0:0:
248,276,40341,2,0,P|256:324|252:376,1,90,0|0,0:0|0:0,0:0:0:0:
396,288,40641,2,0,P|394:243|401:198,1,90,0|0,0:0|0:0,0:0:0:0:
480,36,40941,6,0,B|434:33|434:33|372:40,1,90,0|0,0:0|0:0,0:0:0:0:
232,240,41241,2,0,B|275:244|275:244|321:241,1,90,0|0,0:0|0:0,0:0:0:0:
440,120,41542,1,0,0:0:0:0:
440,120,41692,1,0,0:0:0:0:
113,204,41842,2,0,L|121:320,1,90,0|0,0:0|0:0,0:0:0:0:
280,160,42142,6,0,P|288:114|286:70,1,90
356,256,42443,2,0,P|382:217|399:177,1,90,0|0,0:0|0:0,0:0:0:0:
372,372,42743,2,0,P|412:348|444:319,1,90,0|0,0:0|0:0,0:0:0:0:
248,224,43043,2,0,P|248:270|257:313,1,90,0|0,0:0|0:0,0:0:0:0:
500,244,43344,5,0,0:0:0:0:
356,256,43494,1,0,0:0:0:0:
288,120,43644,5,0,0:0:0:0:
432,132,43794,1,0,0:0:0:0:
356,256,43944,2,0,P|350:303|356:355,1,90,0|0,0:0|0:0,0:0:0:0:
504,384,44244,2,0,P|507:339|501:294,1,90
192,192,44545,6,0,L|196:300,1,90,0|0,0:0|0:0,0:0:0:0:
428,221,44845,2,0,L|431:131,1,90,0|0,0:0|0:0,0:0:0:0:
112,128,45145,1,0,0:0:0:0:
284,176,45295,1,8,0:0:0:0:
175,364,45446,2,0,P|135:341|111:284,1,90,0|0,0:0|0:0,0:0:0:0:
292,8,45746,6,0,L|288:108,1,90,0|0,0:0|0:0,0:0:0:0:
269,291,46046,1,0,0:0:0:0:
436,210,46196,1,0,0:0:0:0:
288,97,46347,1,8,0:0:0:0:
374,298,46497,1,0,0:0:0:0:
428,88,46647,1,0,0:0:0:0:
269,291,46797,1,0,0:0:0:0:
452,304,46947,2,0,L|512:308,1,45,0|0,0:0|0:0,0:0:0:0:
300,20,47548,6,0,L|244:24,1,45,0|0,0:0|0:0,0:0:0:0:
424,200,47848,6,0,L|428:140,1,31.4999990386963,0|0,0:0|0:0,0:0:0:0:
328,128,47998,2,0,L|328:166,1,38.2500007295609,0|0,0:0|0:0,0:0:0:0:
316,327,48148,6,0,B|352:331|352:331|428:323,1,90,0|0,0:0|0:0,0:0:0:0:
194,55,48448,2,0,P|187:100|184:160,1,90,2|0,0:0|0:0,0:0:0:0:
354,314,48748,2,0,P|352:270|345:225,1,90,0|0,0:0|0:0,0:0:0:0:
136,288,49049,2,0,B|176:292|176:292|240:284,1,90,0|0,0:0|0:0,0:0:0:0:
444,120,49349,5,0,0:0:0:0:
264,108,49499,1,0,0:0:0:0:
176,264,49649,5,0,0:0:0:0:
356,252,49799,1,0,0:0:0:0:
264,108,49950,2,0,P|256:60|260:8,1,90,0|0,0:0|0:0,0:0:0:0:
116,96,50250,2,0,P|118:141|111:186,1,90,0|0,0:0|0:0,0:0:0:0:
32,348,50550,6,0,B|78:351|78:351|140:344,1,90,0|0,0:0|0:0,0:0:0:0:
280,144,50850,2,0,B|236:139|236:139|190:142,1,90,0|0,0:0|0:0,0:0:0:0:
72,264,51151,1,0,0:0:0:0:
252,284,51301,1,0,0:0:0:0:
399,180,51451,2,0,L|391:64,1,90,0|0,0:0|0:0,0:0:0:0:
84,8,51752,6,0,B|77:53|77:53|77:97,1,90,0|0,0:0|0:0,0:0:0:0:
190,142,52052,2,0,B|197:187|197:187|196:231,1,90,0|0,0:0|0:0,0:0:0:0:
56,360,52353,2,0,P|46:314|56:257,1,90,0|0,0:0|0:0,0:0:0:0:
272,176,52653,1,0,0:0:0:0:
272,176,52803,1,0,0:0:0:0:
240,312,52953,6,0,P|202:318|160:316,1,72,0|0,0:0|0:0,0:0:0:0:
343,181,53253,2,0,P|307:175|271:175,1,72,0|0,0:0|0:0,0:0:0:0:
460,296,53554,2,0,P|424:301|388:301,1,72,0|0,0:0|0:0,0:0:0:0:
496,116,53854,2,0,P|475:145|449:170,1,72,0|0,0:0|0:0,0:0:0:0:
312,4,54154,6,0,P|317:39|317:75,1,72,0|0,0:0|0:0,0:0:0:0:
136,208,54455,2,0,P|135:172|141:136,1,72,0|0,0:0|0:0,0:0:0:0:
400,96,54755,2,0,P|379:125|353:150,1,72,0|0,0:0|0:0,0:0:0:0:
56,100,55055,2,0,P|80:74|110:53,1,72,0|0,0:0|0:0,0:0:0:0:
243,258,55356,5,0,0:0:0:0:
312,48,55507,1,8,0:0:0:0:
212,326,55657,5,8,0:0:0:0:
176,20,55807,1,8,0:0:0:0:
122,351,55957,5,0,0:0:0:0:
436,243,56107,1,8,0:0:0:0:
144,260,56257,5,0,0:0:0:0:
412,336,56407,1,12,0:0:0:0:
428,144,56557,6,0,P|391:161|355:182,1,72,2|0,0:0|0:0,0:0:0:0:
508,216,56857,2,0,L|435:254,1,72,2|0,0:0|0:0,0:0:0:0:
508,324,57157,2,2,P|476:345|435:362,1,72
252,360,57458,5,2,0:0:0:0:
444,249,57608,1,2,0:0:0:0:
279,348,57758,1,6,0:0:0:0:
180,36,58959,6,0,L|241:40,1,45,6|0,0:0|0:0,0:0:0:0:
336,120,59259,2,0,L|275:124,1,45,2|0,0:0|0:0,0:0:0:0:
164,27,59560,2,0,L|228:32,1,45,6|0,0:0|0:0,0:0:0:0:
351,128,59860,2,0,L|289:131,1,45,2|0,0:0|0:0,0:0:0:0:
52,232,60160,6,0,B|45:184|45:184|52:88,1,116.999994644165,4|0,0:0|0:0,0:0:0:0:
323,3,60461,2,0,L|335:119,1,116.999994644165,2|0,0:0|0:0,0:0:0:0:
92,356,60761,1,0,0:0:0:0:
236,272,60911,1,0,0:0:0:0:
92,356,61061,1,0,0:0:0:0:
392,384,61211,1,0,0:0:0:0:
132,24,61362,6,0,B|120:80|120:80|128:152,1,116.999994644165,0|0,0:0|0:0,0:0:0:0:
460,248,61662,2,0,B|472:192|472:192|465:132,1,116.999994644165,0|0,0:0|0:0,0:0:0:0:
334,62,61962,1,0,0:0:0:0:
37,201,62112,1,0,0:0:0:0:
340,188,62262,1,0,0:0:0:0:
32,76,62412,1,0,0:0:0:0:
260,300,62563,6,0,P|312:330|380:332,1,116.999994644165,0|0,0:0|0:0,0:0:0:0:
512,48,62863,2,0,B|472:40|472:40|380:52,1,116.999994644165,0|0,0:0|0:0,0:0:0:0:
160,332,63163,1,0,0:0:0:0:
332,256,63314,1,0,0:0:0:0:
188,136,63464,2,0,B|184:194|184:194|196:256,1,116.999994644165,0|0,0:0|0:0,0:0:0:0:
504,336,63764,6,0,P|512:280|512:208,1,116.999994644165,0|0,0:0|0:0,0:0:0:0:
303,63,64064,2,0,B|300:140|300:140|324:320,1,233.999989288331,0|0,0:0|0:0,0:0:0:0:
504,148,64515,1,0,0:0:0:0:
224,104,64665,2,0,B|176:100|176:100|92:116,1,116.999994644165,0|0,0:0|0:0,0:0:0:0:
12,368,64965,6,0,L|144:372,1,116.999994644165,0|0,0:0|0:0,0:0:0:0:
316,188,65265,2,0,L|184:192,1,116.999994644165,0|0,0:0|0:0,0:0:0:0:
276,364,65566,1,0,0:0:0:0:
224,104,65716,1,0,0:0:0:0:
391,299,65866,1,0,0:0:0:0:
171,152,66016,1,0,0:0:0:0:
427,172,66166,6,0,B|448:48,1,116.999994644165,0|0,0:0|0:0,0:0:0:0:
4,116,66467,2,0,B|23:231,1,116.999994644165,0|0,0:0|0:0,0:0:0:0:
52,376,66767,1,0,0:0:0:0:
171,152,66917,1,0,0:0:0:0:
226,329,67067,1,0,0:0:0:0:
181,183,67217,1,0,0:0:0:0:
328,224,67368,6,0,P|380:236|448:224,1,116.999994644165,0|0,0:0|0:0,0:0:0:0:
502,22,67668,2,0,P|445:10|388:20,1,116.999994644165,0|0,0:0|0:0,0:0:0:0:
181,183,67968,2,0,L|188:308,1,116.999994644165,0|0,0:0|0:0,0:0:0:0:
504,216,68268,2,0,L|510:99,1,116.999994644165,0|0,0:0|0:0,0:0:0:0:
40,228,68569,5,0,0:0:0:0:
304,268,68719,1,8,0:0:0:0:
95,85,68869,5,0,0:0:0:0:
314,180,69019,1,8,0:0:0:0:
232,0,69169,5,2,0:0:0:0:
240,216,69319,1,8,0:0:0:0:
372,109,69470,5,2,0:0:0:0:
304,268,69620,1,8,0:0:0:0:
95,85,69770,6,0,B|140:80|140:80|224:88,1,116.999994644165,0|0,0:0|0:0,0:0:0:0:
360,369,70070,2,0,B|333:332|333:332|298:255,1,116.999994644165,0|0,0:0|0:0,0:0:0:0:
464,52,70371,1,0,0:0:0:0:
416,284,70521,1,0,0:0:0:0:
280,100,70671,1,0,0:0:0:0:
512,148,70821,1,0,0:0:0:0:
356,368,70971,6,0,L|240:364,1,116.999994644165,0|0,0:0|0:0,0:0:0:0:
0,96,71271,2,0,L|116:92,1,116.999994644165,0|0,0:0|0:0,0:0:0:0:
392,76,71572,1,0,0:0:0:0:
356,368,71722,1,0,0:0:0:0:
398,203,71872,1,0,0:0:0:0:
213,348,72022,1,0,0:0:0:0:
330,279,72172,6,0,B|380:290|380:290|464:284,1,116.999994644165,0|0,0:0|0:0,0:0:0:0:
508,83,72473,2,0,L|384:75,1,116.999994644165,0|0,0:0|0:0,0:0:0:0:
77,43,72773,1,0,0:0:0:0:
398,203,72923,1,0,0:0:0:0:
24,213,73073,1,0,0:0:0:0:
364,99,73223,1,0,0:0:0:0:
106,371,73374,6,0,L|236:368,1,116.999994644165,0|0,0:0|0:0,0:0:0:0:
478,104,73674,2,0,P|417:90|357:102,1,116.999994644165,0|0,0:0|0:0,0:0:0:0:
223,368,73974,1,0,0:0:0:0:
416,168,74124,1,0,0:0:0:0:
409,328,74274,1,0,0:0:0:0:
234,93,74424,1,0,0:0:0:0:
72,236,74575,6,0,B|120:244|120:244|204:240,1,116.999994644165,0|0,0:0|0:0,0:0:0:0:
410,0,74875,2,0,B|379:37|379:37|340:112,1,116.999994644165,0|0,0:0|0:0,0:0:0:0:
320,352,75175,1,0,0:0:0:0:
234,93,75326,1,0,0:0:0:0:
320,352,75476,1,0,0:0:0:0:
410,0,75627,1,0,0:0:0:0:
71,153,75776,6,0,P|54:209|76:284,1,116.999994644165,0|0,0:0|0:0,0:0:0:0:
484,316,76076,2,0,P|495:259|478:203,1,116.999994644165,0|0,0:0|0:0,0:0:0:0:
133,212,76377,1,0,0:0:0:0:
420,264,76527,1,0,0:0:0:0:
205,256,76677,1,0,0:0:0:0:
347,219,76827,1,0,0:0:0:0:
188,20,76977,6,0,B|148:12|148:12|44:24,1,116.999994644165,0|0,0:0|0:0,0:0:0:0:
60,148,77277,2,0,B|136:140|136:140|176:148,1,116.999994644165
311,244,77578,2,0,B|236:236|236:236|196:244,1,116.999994644165
208,376,77878,2,0,B|283:384|283:384|323:376,1,116.999994644165,0|0,0:0|0:0,0:0:0:0:
468,40,78178,5,0,0:0:0:0:
56,304,78329,1,0,0:0:0:0:
437,179,78479,5,0,0:0:0:0:
34,96,78629,1,0,0:0:0:0:
368,274,78779,5,0,0:0:0:0:
191,5,78929,1,0,0:0:0:0:
280,316,79079,5,0,0:0:0:0:
340,28,79380,5,0,0:0:0:0:
324,259,88539,5,0,0:0:0:0:
226,166,88689,1,4,0:0:0:0:
296,364,88989,6,0,L|200:368,1,72,2|0,0:0|0:0,0:0:0:0:
263,231,89289,2,0,B|312:224|312:224|418:237,1,144,2|0,0:0|0:0,0:0:0:0:
460,356,89740,1,8,0:0:0:0:
368,144,89890,2,0,P|360:108|368:48,1,72,0|0,0:0|0:0,0:0:0:0:
192,0,90190,6,0,P|193:35|185:70,1,72,0|0,0:0|0:0,0:0:0:0:
124,200,90491,2,0,P|157:180|263:189,1,144,0|0,0:0|0:0,0:0:0:0:
204,308,90941,1,0,0:0:0:0:
104,104,91091,2,0,P|64:96|12:112,1,72,0|0,0:0|0:0,0:0:0:0:
352,360,91392,6,0,L|350:258,1,72,0|0,0:0|0:0,0:0:0:0:
488,230,91692,2,0,B|500:178|500:178|488:84,1,144,0|0,0:0|0:0,0:0:0:0:
256,192,92142,1,8,0:0:0:0:
408,134,92292,2,0,L|396:42,1,72,0|0,0:0|0:0,0:0:0:0:
188,268,92593,6,0,P|223:277|273:303,1,72,0|0,0:0|0:0,0:0:0:0:
216,100,92893,2,0,P|188:127|142:156,1,72,0|0,0:0|0:0,0:0:0:0:
348,216,93193,2,0,B|352:168|352:168|331:69,1,144,0|0,0:0|0:0,0:0:0:0:
137,62,93644,1,0,0:0:0:0:
8,196,93794,6,0,L|112:200,1,72,0|0,0:0|0:0,0:0:0:0:
256,340,94094,2,0,L|112:344,1,144,0|0,0:0|0:0,0:0:0:0:
204,192,94545,1,0,0:0:0:0:
348,200,94695,2,0,L|452:204,1,72,0|0,0:0|0:0,0:0:0:0:
327,337,94995,6,0,L|223:341,1,72,0|0,0:0|0:0,0:0:0:0:
348,200,95295,2,0,L|452:204,1,72,0|0,0:0|0:0,0:0:0:0:
264,260,95596,2,0,P|244:212|288:116,1,144,0|0,0:0|0:0,0:0:0:0:
419,202,96046,1,0,0:0:0:0:
128,188,96196,5,0,0:0:0:0:
308,52,96347,1,0,0:0:0:0:
308,52,96497,1,0,0:0:0:0:
185,117,96647,5,0,0:0:0:0:
364,142,96798,1,0,0:0:0:0:
364,142,96948,1,0,0:0:0:0:
258,110,97097,5,0,0:0:0:0:
345,225,97248,1,0,0:0:0:0:
345,225,97398,1,0,0:0:0:0:
176,292,98599,5,4,0:0:0:0:
308,364,98749,1,0,0:0:0:0:
56,356,98899,2,0,P|49:311|46:251,1,90,2|0,0:0|0:0,0:0:0:0:
218,98,99199,2,0,P|216:142|209:187,1,90,0|0,0:0|0:0,0:0:0:0:
56,356,99500,2,0,P|49:311|46:266,1,90,0|0,0:0|0:0,0:0:0:0:
124,136,99800,5,0,0:0:0:0:
304,156,99950,1,0,0:0:0:0:
141,278,100100,5,0,0:0:0:0:
248,132,100250,1,0,0:0:0:0:
332,292,100401,2,0,P|339:336|337:381,1,90,0|0,0:0|0:0,0:0:0:0:
479,303,100701,2,0,P|476:258|483:213,1,90,0|0,0:0|0:0,0:0:0:0:
512,32,101001,6,0,B|466:29|466:29|404:36,1,90,0|0,0:0|0:0,0:0:0:0:
264,236,101301,2,0,B|307:240|307:240|353:237,1,90,0|0,0:0|0:0,0:0:0:0:
472,116,101602,1,0,0:0:0:0:
472,116,101752,1,0,0:0:0:0:
145,200,101902,2,0,L|153:316,1,90,0|0,0:0|0:0,0:0:0:0:
364,128,102202,6,0,L|370:38,1,90,0|0,0:0|0:0,0:0:0:0:
114,216,102503,2,0,L|122:332,1,90,0|0,0:0|0:0,0:0:0:0:
395,117,102803,2,0,L|401:27,1,90,0|0,0:0|0:0,0:0:0:0:
344,207,103103,2,0,P|390:221|440:215,1,90,0|0,0:0|0:0,0:0:0:0:
395,117,103404,5,0,0:0:0:0:
384,296,103554,1,0,0:0:0:0:
262,97,103704,1,0,0:0:0:0:
266,311,103854,1,0,0:0:0:0:
128,212,104004,2,0,L|16:216,1,90,0|0,0:0|0:0,0:0:0:0:
128,372,104305,2,0,L|240:376,1,90,0|0,0:0|0:0,0:0:0:0:
488,276,104605,6,0,B|494:242|494:242|488:180,1,90,0|0,0:0|0:0,0:0:0:0:
284,92,104905,2,0,B|278:147|278:147|284:181,1,90,0|0,0:0|0:0,0:0:0:0:
467,105,105205,1,0,0:0:0:0:
324,256,105356,1,0,0:0:0:0:
196,92,105506,2,0,P|146:83|100:90,1,90,0|0,0:0|0:0,0:0:0:0:
196,336,105806,6,0,P|240:340|284:331,1,90,0|0,0:0|0:0,0:0:0:0:
475,133,106106,1,0,0:0:0:0:
276,188,106256,1,0,0:0:0:0:
449,232,106407,1,0,0:0:0:0:
301,88,106557,1,8,0:0:0:0:
349,260,106707,1,2,0:0:0:0:
401,60,106857,1,0,0:0:0:0:
276,188,107007,6,0,L|224:191,1,45,0|0,0:0|0:0,0:0:0:0:
76,24,107608,2,0,L|128:27,1,45,0|0,0:0|0:0,0:0:0:0:
57,184,107908,6,0,L|60:216,1,31.4999990386963
231,191,108058,2,0,L|233:152,1,38.2500007295609
196,327,108208,6,0,B|160:331|160:331|84:323,1,90,4|0,0:0|0:0,0:0:0:0:
318,55,108508,2,0,P|325:100|328:160,1,90,2|0,0:0|0:0,0:0:0:0:
158,314,108809,2,0,P|160:270|167:225,1,90,0|8,0:0|0:0,0:0:0:0:
376,288,109109,2,0,B|336:292|336:292|272:284,1,90,0|0,0:0|0:0,0:0:0:0:
68,120,109409,5,8,0:0:0:0:
248,108,109559,1,0,0:0:0:0:
336,264,109709,5,2,0:0:0:0:
156,252,109859,1,0,0:0:0:0:
248,108,110010,2,0,P|256:60|252:8,1,90,0|8,0:0|0:0,0:0:0:0:
396,96,110310,2,0,P|394:141|401:186,1,90,2|0,0:0|0:0,0:0:0:0:
32,36,110611,6,0,B|78:33|78:33|140:40,1,90,0|0,0:0|0:0,0:0:0:0:
280,240,110911,2,0,B|237:244|237:244|191:241,1,90,2|0,0:0|0:0,0:0:0:0:
72,120,111212,1,0,0:0:0:0:
72,120,111362,1,8,0:0:0:0:
399,204,111512,2,0,L|391:320,1,90,2|0,0:0|0:0,0:0:0:0:
232,160,111812,6,0,P|224:114|226:70,1,90,8|0,0:0|0:0,0:0:0:0:
156,256,112113,2,0,P|130:217|113:177,1,90,2|0,0:0|0:0,0:0:0:0:
140,372,112413,2,0,P|100:348|68:319,1,90,0|8,0:0|0:0,0:0:0:0:
264,224,112713,2,0,P|264:270|255:313,1,90,2|0,0:0|0:0,0:0:0:0:
40,188,113013,6,0,L|32:68,1,90,0|0,0:0|0:0,0:0:0:0:
280,8,113314,2,0,L|274:97,1,90,0|0,0:0|0:0,0:0:0:0:
264,224,113614,1,0,0:0:0:0:
184,64,113764,1,0,0:0:0:0:
264,224,113914,1,0,0:0:0:0:
364,76,114064,1,0,0:0:0:0:
436,252,114214,6,0,L|444:360,1,90,0|0,0:0|0:0,0:0:0:0:
257,313,114515,2,0,L|263:223,1,90,0|0,0:0|0:0,0:0:0:0:
512,292,114815,1,0,0:0:0:0:
348,364,114965,1,0,0:0:0:0:
512,292,115115,1,0,0:0:0:0:
263,223,115265,1,0,0:0:0:0:
488,92,115416,6,0,P|491:46|488:0,1,90,8|0,0:0|0:0,0:0:0:0:
344,140,115716,2,0,P|341:94|344:48,1,90,8|0,0:0|0:0,0:0:0:0:
488,181,116016,2,0,P|485:135|488:89,1,90,8|0,0:0|0:0,0:0:0:0:
343,229,116317,2,0,P|346:183|343:137,1,90,8|0,0:0|0:0,0:0:0:0:
487,270,116617,2,0,P|490:224|487:178,1,90,8|0,0:0|0:0,0:0:0:0:
343,318,116917,2,0,P|340:272|343:226,1,90,8|0,0:0|0:0,0:0:0:0:
343,50,117217,2,0,P|304:75|263:96,1,90,8|0,0:0|0:0,0:0:0:0:
112,192,117518,2,0,P|153:212|191:237,1,90,8|0,0:0|0:0,0:0:0:0:
334,383,117818,5,8,0:0:0:0:
484,356,117968,1,8,0:0:0:0:
290,346,118118,5,8,0:0:0:0:
462,283,118268,1,8,0:0:0:0:
226,314,118419,5,8,0:0:0:0:
429,216,118569,1,8,0:0:0:0:
151,300,118719,5,8,0:0:0:0:
379,154,118869,1,8,0:0:0:0:
76,8,119019,6,0,L|73:105,1,90,2|8,0:0|0:0,0:0:0:0:
258,169,119320,2,0,L|256:80,1,90,2|8,0:0|0:0,0:0:0:0:
60,236,119620,6,0,L|56:280,1,45,2|0,0:0|0:0,0:0:0:0:
155,344,119770,2,0,L|151:300,1,45,2|0,0:0|0:0,0:0:0:0:
30,250,119920,2,0,L|26:294,1,45,2|0,0:0|0:0,0:0:0:0:
183,324,120070,2,0,L|179:280,1,45,2|0,0:0|0:0,0:0:0:0:
196,36,120220,6,0,L|52:48,1,125.999996154785,12|0,0:0|0:0,0:0:0:0:
256,288,120521,2,0,B|304:300|304:300|400:296,1,125.999996154785,2|0,0:0|0:0,0:0:0:0:
380,0,120821,1,0,0:0:0:0:
312,224,120971,1,8,0:0:0:0:
277,6,121121,1,2,0:0:0:0:
414,217,121271,1,0,0:0:0:0:
87,330,121422,6,0,P|64:271|75:182,1,125.999996154785,8|0,0:0|0:0,0:0:0:0:
380,0,121722,2,0,L|376:140,1,125.999996154785,2|0,0:0|0:0,0:0:0:0:
368,380,122022,1,0,0:0:0:0:
144,260,122172,1,8,0:0:0:0:
368,380,122323,1,2,0:0:0:0:
280,64,122473,1,0,0:0:0:0:
496,288,122623,6,0,L|368:292,1,125.999996154785,8|0,0:0|0:0,0:0:0:0:
154,60,122923,2,0,L|282:64,1,125.999996154785,2|0,0:0|0:0,0:0:0:0:
496,72,123223,1,0,0:0:0:0:
212,160,123374,1,8,0:0:0:0:
435,354,123524,2,0,B|440:312|440:312|435:206,1,125.999996154785,2|0,0:0|0:0,0:0:0:0:
56,4,123824,6,0,P|40:64|48:136,1,125.999996154785,8|0,0:0|0:0,0:0:0:0:
424,124,124124,1,2,0:0:0:0:
152,76,124274,1,0,0:0:0:0:
398,303,124425,1,0,0:0:0:0:
304,43,124575,1,8,0:0:0:0:
101,245,124725,1,2,0:0:0:0:
424,124,124875,1,0,0:0:0:0:
276,200,125025,6,0,P|268:260|288:332,1,125.999996154785,12|0,0:0|0:0,0:0:0:0:
424,124,125326,2,0,P|376:87|303:68,1,125.999996154785,2|0,0:0|0:0,0:0:0:0:
42,331,125626,2,0,B|88:336|88:336|178:327,1,125.999996154785,0|8,0:0|0:0,0:0:0:0:
464,264,125926,1,2,0:0:0:0:
180,164,126076,1,0,0:0:0:0:
384,384,126226,6,0,L|392:240,1,125.999996154785,8|0,0:0|0:0,0:0:0:0:
173,38,126527,2,0,L|179:163,1,125.999996154785,2|0,0:0|0:0,0:0:0:0:
472,84,126827,1,0,0:0:0:0:
36,144,126977,1,8,0:0:0:0:
480,264,127127,1,2,0:0:0:0:
44,324,127277,1,0,0:0:0:0:
368,12,127428,6,0,P|376:76|362:137,1,125.999996154785,8|0,0:0|0:0,0:0:0:0:
368,371,127728,2,0,P|376:309|362:248,1,125.999996154785,2|0,0:0|0:0,0:0:0:0:
224,16,128028,2,0,P|258:70|271:131,1,125.999996154785,0|8,0:0|0:0,0:0:0:0:
224,368,128329,2,0,P|258:313|271:252,1,125.999996154785,2|0,0:0|0:0,0:0:0:0:
44,60,128629,2,0,P|107:68|163:98,1,125.999996154785,8|0,0:0|0:0,0:0:0:0:
44,324,128929,2,0,P|107:315|163:285,1,125.999996154785,2|0,0:0|0:0,0:0:0:0:
336,52,129229,5,8,0:0:0:0:
256,344,129380,1,0,0:0:0:0:
228,62,129530,5,10,0:0:0:0:
348,273,129681,1,8,0:0:0:0:
136,128,129830,6,0,B|110:142|72:130|72:130|110:142|64:156|38:227|104:284,1,220.499993270874,4|0,0:0|0:0,0:0:0:0:
240,200,130431,2,0,L|184:203,1,45,2|0,0:0|0:0,0:0:0:0:
152,316,130581,2,0,L|208:319,1,45,0|0,0:0|0:0,0:0:0:0:
249,186,130731,2,0,L|193:189,1,45,0|0,0:0|0:0,0:0:0:0:
140,328,130881,2,0,L|196:331,1,45,0|0,0:0|0:0,0:0:0:0:
352,248,131031,2,0,B|343:210|352:180|352:180|343:158|343:158|352:136|352:136|346:106|360:56,1,180,8|0,0:0|0:0,0:0:0:0:
456,160,131482,1,0,0:0:0:0:
220,72,131632,5,2,0:0:0:0:
272,320,131782,1,4,3:0:0:0:
120,120,131932,1,4,3:0:0:0:
108,322,132082,1,4,3:0:0:0:
276,232,132232,6,0,B|308:226|337:254|337:254|372:235|372:235|392:268|429:263|455:247|455:214,1,220.499993270874,4|0,0:0|0:0,0:0:0:0:
448,36,132833,2,0,L|392:39,1,45,0|0,0:0|0:0,0:0:0:0:
360,152,132983,2,0,L|416:155,1,45,0|0,0:0|0:0,0:0:0:0:
457,22,133133,2,0,L|401:25,1,45,0|0,0:0|0:0,0:0:0:0:
348,164,133283,2,0,L|404:167,1,45,0|0,0:0|0:0,0:0:0:0:
320,64,133434,2,0,B|291:73|260:56|260:56|207:105|135:68,1,180,0|0,0:0|0:0,0:0:0:0:
192,0,133884,1,0,0:0:0:0:
156,248,134034,5,2,0:0:0:0:
276,140,134184,1,4,3:0:0:0:
80,239,134335,5,4,3:0:0:0:
332,259,134485,1,4,3:0:0:0:
32,176,134635,6,0,P|64:92|91:170,1,220.499993270874,0|0,0:0|0:0,0:0:0:0:
81,264,135235,2,0,L|78:320,1,45,0|0,0:0|0:0,0:0:0:0:
197,352,135386,2,0,L|194:296,1,45,0|0,0:0|0:0,0:0:0:0:
69,252,135536,2,0,L|66:308,1,45,0|0,0:0|0:0,0:0:0:0:
211,361,135686,2,0,L|208:305,1,45,0|0,0:0|0:0,0:0:0:0:
184,152,135836,6,0,B|178:175|164:188|164:188|231:140|320:200,1,180
228,252,136286,1,0,0:0:0:0:
312,32,136437,1,2,0:0:0:0:
392,244,136587,1,4,3:0:0:0:
142,78,136737,1,4,3:0:0:0:
388,132,136887,1,4,3:0:0:0:
134,306,137037,6,0,B|76:312|34:275|34:275|42:250|28:217|28:217|61:238|98:240,1,216,4|0,0:0|0:0,0:0:0:0:
378,306,137638,2,0,B|436:312|478:275|478:275|470:250|484:217|484:217|451:238|414:240,1,216,2|0,0:0|0:0,0:0:0:0:
236,308,138238,2,0,B|239:278|224:256|224:256|253:215|232:140,1,144,8|0,0:0|0:0,0:0:0:0:
104,188,138689,5,0,0:0:0:0:
308,260,138839,1,2,0:0:0:0:
126,305,138989,5,0,0:0:0:0:
360,193,139139,1,0,0:0:0:0:
242,370,139289,5,0,0:0:0:0:
420,96,139440,5,8,0:0:0:0:
320,108,139590,1,0,0:0:0:0:
260,8,139740,5,0,0:0:0:0:
360,20,139890,1,8,0:0:0:0:
280,184,140041,2,0,P|272:226|283:269,1,80.9999975280763,0|0,0:0|0:0,0:0:0:0:
469,335,140341,2,0,P|477:295|469:256,1,80.9999975280763,0|0,0:0|0:0,0:0:0:0:
196,320,140641,5,8,0:0:0:0:
371,259,140791,1,0,0:0:0:0:
220,135,140942,1,8,0:0:0:0:
302,338,141092,5,8,0:0:0:0:
429,174,141242,1,0,0:0:0:0:
220,135,141392,1,0,0:0:0:0:
371,259,141542,2,0,P|409:278|464:272,1,80.9999975280763,0|0,0:0|0:0,0:0:0:0:
328,136,141842,5,8,0:0:0:0:
200,316,141992,1,0,0:0:0:0:
109,116,142142,1,0,0:0:0:0:
264,226,142292,1,8,0:0:0:0:
45,206,142443,5,0,0:0:0:0:
173,26,142593,1,0,0:0:0:0:
310,325,142743,2,0,B|342:332|342:332|415:329,1,80.9999975280763
366,57,143043,5,8,0:0:0:0:
224,254,143193,1,0,0:0:0:0:
291,110,143344,1,8,0:0:0:0:
390,330,143494,5,8,0:0:0:0:
216,163,143644,1,0,0:0:0:0:
374,148,143794,1,0,0:0:0:0:
233,344,143944,2,0,P|191:339|157:314,1,85,0|0,0:0|0:0,0:0:0:0:
291,110,144244,5,8,0:0:0:0:
224,264,144395,1,0,0:0:0:0:
357,175,144545,5,0,0:0:0:0:
157,198,144696,1,8,0:0:0:0:
233,16,144845,1,0,0:0:0:0:
324,267,144995,1,0,0:0:0:0:
95,129,145145,2,0,P|83:88|97:35,1,80.9999975280763
357,175,145446,6,0,L|253:183,1,80.9999975280763,8|0,0:0|0:0,0:0:0:0:
456,16,145746,2,0,B|424:12|424:12|352:24,1,80.9999975280763,0|8,0:0|0:0,0:0:0:0:
432,256,146046,2,0,B|451:230|451:230|477:161,1,80.9999975280763
233,16,146347,2,0,L|236:104,1,80.9999975280763
51,266,146647,5,8,0:0:0:0:
155,95,146797,1,8,0:0:0:0:
235,356,146947,1,0,0:0:0:0:
6,195,147097,1,8,0:0:0:0:
285,195,147247,5,0,0:0:0:0:
65,359,147397,1,0,0:0:0:0:
155,95,147547,1,0,0:0:0:0:
303,338,147698,1,0,0:0:0:0:
37,259,147848,5,8,0:0:0:0:
296,155,147998,1,0,0:0:0:0:
22,90,148148,1,0,0:0:0:0:
257,31,148298,1,8,0:0:0:0:
324,317,148449,2,0,B|376:324|376:324|418:313|418:313|446:323|476:320,1,144,4|0,0:0|0:0,0:0:0:0:
512,66,148749,2,0,P|435:46|364:104,1,144,4|0,0:0|0:0,0:0:0:0:
256,48,163163,6,0,P|281:39|317:42,1,45
256,48,163464,6,0,P|291:37|364:64,1,90,2|8,0:0|0:0,0:0:0:0:
296,240,163764,1,8,0:0:0:0:
342,47,163914,2,0,P|369:71|382:148,1,90,2|8,0:0|0:0,0:0:0:0:
164,168,164214,1,8,0:0:0:0:
385,121,164365,2,0,P|377:156|317:206,1,90,2|8,0:0|0:0,0:0:0:0:
213,122,164665,6,0,P|220:86|280:36,1,90,2|8,0:0|0:0,0:0:0:0:
416,192,164965,1,8,0:0:0:0:
255,47,165115,2,0,P|290:35|363:62,1,90,2|8,0:0|0:0,0:0:0:0:
296,276,165415,1,8,0:0:0:0:
341,46,165566,1,10,0:0:0:0:
372,77,165641,1,0,0:0:0:0:
384,120,165716,1,8,0:0:0:0:
373,163,165791,1,8,0:0:0:0:
343,196,165866,6,0,P|307:207|234:180,1,90,2|8,0:0|0:0,0:0:0:0:
341,46,166166,1,8,0:0:0:0:
156,188,166317,2,0,P|163:152|223:102,1,90,2|8,0:0|0:0,0:0:0:0:
300,264,166617,1,8,0:0:0:0:
252,36,166767,2,0,P|279:60|292:137,1,90,2|8,0:0|0:0,0:0:0:0:
408,228,167067,6,0,P|420:185|451:153,1,90,2|8,0:0|0:0,0:0:0:0:
428,332,167368,1,8,0:0:0:0:
320,160,167518,2,0,P|307:117|276:85,1,90,2|8,0:0|0:0,0:0:0:0:
300,264,167819,1,8,0:0:0:0:
408,88,167968,1,10,0:0:0:0:
419,46,168043,1,0,0:0:0:0:
460,32,168118,1,8,0:0:0:0:
494,57,168193,1,8,0:0:0:0:
492,101,168268,6,0,B|456:91|426:100|426:100|441:107|448:120,1,90,2|8,0:0|0:0,0:0:0:0:
500,224,168569,1,0,0:0:0:0:
396,348,168719,2,0,B|359:358|329:349|329:349|344:342|351:329,1,90,2|8,0:0|0:0,0:0:0:0:
403,225,169020,1,0,0:0:0:0:
300,100,169169,6,0,B|263:89|233:98|233:98|248:105|255:118,1,90,2|8,0:0|0:0,0:0:0:0:
200,344,169470,2,0,B|163:354|133:345|133:345|148:338|155:325,1,90,2|8,0:0|0:0,0:0:0:0:
307,222,169770,1,8,0:0:0:0:
200,344,169920,2,0,B|163:354|133:345|133:345|148:338|155:325,1,90,2|0,0:0|0:0,0:0:0:0:
207,221,170220,1,0,0:0:0:0:
372,172,170371,1,2,0:0:0:0:
393,211,170446,1,0,0:0:0:0:
390,255,170521,1,0,0:0:0:0:
363,290,170596,1,0,0:0:0:0:
322,306,170671,6,0,B|313:282|313:282|316:216,1,90,2|8,0:0|0:0,0:0:0:0:
192,240,170971,2,0,B|201:215|201:215|198:149,1,90,2|8,0:0|0:0,0:0:0:0:
315,218,171271,2,0,B|317:191|317:191|347:133,1,90,2|8,0:0|0:0,0:0:0:0:
198,151,171572,2,0,B|195:124|195:124|165:66,1,90,2|8,0:0|0:0,0:0:0:0:
48,192,171872,5,2,0:0:0:0:
256,68,172022,1,2,0:0:0:0:
60,184,172172,5,2,0:0:0:0:
348,160,172323,1,2,0:0:0:0:
72,176,172473,5,2,0:0:0:0:
380,296,172623,1,2,0:0:0:0:
84,168,172773,2,0,L|88:232,1,45,2|0,0:0|0:0,0:0:0:0:
376,376,173073,6,0,L|385:214,1,144
76,24,173374,2,0,B|78:42|78:42|71:56|71:56|127:22|207:71,1,144,2|0,0:0|0:0,0:0:0:0:
456,328,173674,2,0,P|384:356|292:324,1,144,0|8,0:0|0:0,0:0:0:0:
320,12,173974,1,2,0:0:0:0:
380,264,174124,1,0,0:0:0:0:
40,380,174274,6,0,P|60:324|48:232,1,144,8|0,0:0|0:0,0:0:0:0:
320,12,174575,2,0,P|310:82|331:150,1,144,2|0,0:0|0:0,0:0:0:0:
496,64,174875,1,0,0:0:0:0:
184,108,175025,1,8,0:0:0:0:
464,216,175175,1,2,0:0:0:0:
192,112,175325,1,0,0:0:0:0:
340,344,175476,6,0,B|296:360|296:360|168:352,1,144,8|0,0:0|0:0,0:0:0:0:
0,52,175776,2,0,P|64:28|156:60,1,144,2|0,0:0|0:0,0:0:0:0:
272,384,176076,1,0,0:0:0:0:
352,48,176226,1,8,0:0:0:0:
135,44,176377,5,2,0:0:0:0:
471,124,176527,1,0,0:0:0:0:
164,284,176677,2,0,P|104:300|16:276,1,144
348,124,176977,2,0,P|391:167|415:256,1,144
80,376,177277,1,0,0:0:0:0:
135,44,177428,1,0,0:0:0:0:
72,368,177578,1,0,0:0:0:0:
348,124,177729,1,0,0:0:0:0:
68,362,177878,6,0,B|56:320|56:320|48:200,1,144
448,16,178178,2,0,L|444:168,1,144
436,320,178479,1,0,0:0:0:0:
252,12,178629,1,0,0:0:0:0:
200,384,178779,1,0,0:0:0:0:
252,24,178929,1,0,0:0:0:0:
20,220,179079,6,0,P|88:240|176:216,1,144
496,28,179380,2,0,B|448:16|448:16|344:20,1,144
92,140,179680,1,0,0:0:0:0:
420,144,179830,1,0,0:0:0:0:
28,324,179980,1,0,0:0:0:0:
486,329,180130,1,0,0:0:0:0:
256,12,180280,6,0,L|248:168,1,144
486,329,180581,2,0,L|478:185,1,144
88,84,180881,1,0,0:0:0:0:
404,256,181031,1,0,0:0:0:0:
80,76,181181,1,0,0:0:0:0:
512,72,181332,1,0,0:0:0:0:
216,376,181482,6,0,P|140:384|51:364,1,144
328,80,181782,2,0,P|372:141|400:228,1,144
8,184,182082,1,0,0:0:0:0:
296,176,182232,1,0,0:0:0:0:
55,228,182383,1,0,0:0:0:0:
248,131,182533,1,0,0:0:0:0:
101,243,182684,6,0,P|128:260|240:256,1,144
408,48,182984,2,0,L|260:36,1,144
128,360,183284,2,0,L|276:348,1,144
383,145,183585,2,0,P|356:128|244:132,1,144
340,372,183885,2,0,P|368:357|420:258,1,144
164,228,184185,2,0,P|162:259|222:354,1,144
308,16,184486,2,0,L|164:24,1,144
20,220,184786,2,0,L|164:228,1,144
340,152,185086,5,0,0:0:0:0:
136,304,185236,1,0,0:0:0:0:
420,188,185386,5,0,0:0:0:0:
92,152,185536,1,0,0:0:0:0:
488,132,185686,5,0,0:0:0:0:
56,232,185836,1,0,0:0:0:0:
360,363,185987,5,0,0:0:0:0:
456,52,186137,1,0,0:0:0:0:
284,324,186287,5,0,0:0:0:0:
240,0,186437,1,0,0:0:0:0:
208,352,186587,5,0,0:0:0:0:
320,20,186737,1,0,0:0:0:0:
16,308,186887,5,0,0:0:0:0:
392,276,187038,1,0,0:0:0:0:
16,92,187188,5,0,0:0:0:0:
404,192,187338,1,0,0:0:0:0:
144,308,187488,6,0,B|128:256|128:256|120:144,1,144
504,36,187788,2,0,L|492:179,1,144
40,68,188088,2,0,B|92:56|92:56|204:64,1,144
460,360,188389,2,0,L|292:372,1,144
121,166,188689,2,0,L|289:178,1,144
72,384,188989,2,0,P|28:321|0:232,1,144
391,249,189289,2,0,P|358:318|295:387,1,144
120,32,189590,2,0,P|196:25|287:45,1,144
241,375,189890,5,0,0:0:0:0:
262,36,190040,1,0,0:0:0:0:
328,288,190190,1,0,0:0:0:0:
144,131,190340,1,0,0:0:0:0:
404,80,190490,1,0,0:0:0:0:
214,339,190640,5,0,0:0:0:0:
262,36,190790,1,0,0:0:0:0:
354,310,190941,1,0,0:0:0:0:
157,25,191091,1,0,0:0:0:0:
445,307,191241,1,0,0:0:0:0:
462,31,191391,1,0,0:0:0:0:
269,383,191541,5,0,0:0:0:0:
299,35,191691,1,0,0:0:0:0:
429,301,191841,1,0,0:0:0:0:
184,81,191992,1,0,0:0:0:0:
237,286,192142,1,0,0:0:0:0:
51,193,192292,6,0,P|8:128|16:36,1,144
408,0,192593,2,0,P|404:70|363:129,1,144
36,180,192893,2,0,P|99:147|170:154,1,144
392,384,193193,2,0,P|332:345|302:280,1,144
512,44,193494,2,0,L|500:196,1,144
128,376,193794,2,0,L|116:232,1,144
368,0,194094,2,0,B|384:48|384:48|375:151,1,144
30,289,194395,2,0,B|14:241|14:241|23:138,1,144
237,286,194695,5,0,0:0:0:0:
184,81,194845,1,0,0:0:0:0:
429,301,194996,1,0,0:0:0:0:
299,35,195146,1,0,0:0:0:0:
269,383,195296,1,0,0:0:0:0:
462,31,195446,5,0,0:0:0:0:
445,307,195596,1,0,0:0:0:0:
157,25,195746,1,0,0:0:0:0:
354,310,195896,1,0,0:0:0:0:
262,36,196047,1,0,0:0:0:0:
214,339,196197,1,0,0:0:0:0:
404,80,196347,5,0,0:0:0:0:
144,131,196497,1,0,0:0:0:0:
328,288,196647,1,0,0:0:0:0:
262,36,196797,1,0,0:0:0:0:
241,375,196947,1,0,0:0:0:0:
164,228,197097,6,0,L|20:220,1,144
164,24,197397,2,0,L|308:16,1,144
218,351,197698,2,0,P|171:298|163:228,1,144
419,260,197998,2,0,P|396:327|340:371,1,144
246,130,198298,2,0,P|316:116|382:144,1,144
271,348,198599,2,0,L|128:360,1,144
264,36,198899,2,0,L|408:48,1,144
236,256,199199,2,0,P|166:270|101:243,1,144
317,261,199500,5,0,0:0:0:0:
184,81,199650,1,0,0:0:0:0:
429,301,199801,1,0,0:0:0:0:
299,35,199951,1,0,0:0:0:0:
269,383,200101,1,0,0:0:0:0:
462,31,200251,5,0,0:0:0:0:
445,307,200401,1,0,0:0:0:0:
157,25,200551,1,0,0:0:0:0:
354,310,200701,1,0,0:0:0:0:
262,36,200852,1,0,0:0:0:0:
214,339,201002,1,0,0:0:0:0:
404,80,201152,5,0,0:0:0:0:
144,131,201302,1,0,0:0:0:0:
328,288,201452,1,0,0:0:0:0:
262,36,201602,1,0,0:0:0:0:
241,375,201752,1,0,0:0:0:0:
244,189,201902,1,0,0:0:0:0:
