osu file format v14

[General]
AudioFilename: audio.mp3
AudioLeadIn: 0
PreviewTime: 38547
Countdown: 0
SampleSet: Normal
StackLeniency: 0.2
Mode: 0
LetterboxInBreaks: 0
EpilepsyWarning: 1
WidescreenStoryboard: 1

[Editor]
Bookmarks: 4913,6114,7316,8517,19328,20228,21730,22931,33742,36144,37346,38096,46955,47856,48156,52961,55364,57766,58967,60168,61970,62571,69177,69778,76985,78186,79388,88997,96204,97406,98607,103412,104613,105814,107916,115424,117826,119027,120228,129237,129838,137045,137646,144252,144703,145454,145904,146655,147105,147856,149057,150258,163472,165574,165649,165724,167976,168051,168126,170379,170454,170529,174282,200709,201309,201460
DistanceSpacing: 0.5
BeatDivisor: 4
GridSize: 4
TimelineZoom: 2.899999

[Metadata]
Title:Say Goodbye (Speed Up Ver.)
TitleUnicode:Say Goodbye (Speed Up Ver.)
Artist:Krewella
ArtistUnicode:Krewella
Creator:saggi
Version:ChuuritsuTv's Distortion
Source:
Tags:LiousPL Melsoon walter85 Megapcmx Minorsonek LukerMaster -NeBu- Broly Envory ChuuritsuTv
BeatmapID:2059975
BeatmapSetID:580821

[Difficulty]
HPDrainRate:5
CircleSize:3.8
OverallDifficulty:8.5
ApproachRate:10
SliderMultiplier:3
SliderTickRate:1

[Events]
//Background and Video events
0,0,"girl.jpg",0,0
//Break Periods
2,149257,162947
//Storyboard Layer 0 (Background)
//Storyboard Layer 1 (Fail)
//Storyboard Layer 2 (Pass)
//Storyboard Layer 3 (Foreground)
Sprite,Foreground,Centre,"sb\highlight.png",421,223 C,0,47856,,242,24,57 F,2,47856,48656,1,0 S,2,47856,48656,0.9,0.18 P,0,47856,48656,A
Sprite,Foreground,Centre,"sb\highlight.png",400,243 C,0,47931,,242,24,57 F,2,47931,48731,1,0 S,2,47931,48731,0.9,0.18 P,0,47931,48731,A
Sprite,Foreground,Centre,"sb\highlight.png",371,250 C,0,48006,,242,24,57 F,2,48006,48806,1,0 S,2,48006,48806,0.9,0.18 P,0,48006,48806,A
Sprite,Foreground,Centre,"sb\highlight.png",344,237 C,0,48081,,242,24,57 F,2,48081,48881,1,0 S,2,48081,48881,0.9,0.18 P,0,48081,48881,A
Sprite,Foreground,Centre,"sb\highlight.png",464,344 C,0,96204,,18,124,255 F,2,96204,97004,1,0 S,2,96204,97004,0.9,0.18 P,0,96204,97004,A
Sprite,Foreground,Centre,"sb\highlight.png",464,344 C,0,96279,,18,124,255 F,2,96279,97079,1,0 S,2,96279,97079,0.9,0.18 P,0,96279,97079,A
Sprite,Foreground,Centre,"sb\highlight.png",464,344 C,0,96355,,18,124,255 F,2,96355,97155,1,0 S,2,96355,97155,0.9,0.18 P,0,96355,97155,A
Sprite,Foreground,Centre,"sb\highlight.png",256,200 C,0,96505,,18,124,255 F,2,96505,97305,1,0 S,2,96505,97305,0.9,0.18 P,0,96505,97305,A
Sprite,Foreground,Centre,"sb\highlight.png",336,376 C,0,96655,,18,124,255 F,2,96655,97455,1,0 S,2,96655,97455,0.9,0.18 P,0,96655,97455,A
Sprite,Foreground,Centre,"sb\highlight.png",368,120 C,0,96805,,18,124,255 F,2,96805,97605,1,0 S,2,96805,97605,0.9,0.18 P,0,96805,97605,A
Sprite,Foreground,Centre,"sb\highlight.png",186,366 C,0,96955,,18,124,255 F,2,96955,97755,1,0 S,2,96955,97755,0.9,0.18 P,0,96955,97755,A
Sprite,Foreground,Centre,"sb\highlight.png",352,238 C,0,97105,,242,24,57 F,2,97105,97905,1,0 S,2,97105,97905,0.9,0.18 P,0,97105,97905,A
Sprite,Foreground,Centre,"sb\highlight.png",352,238 C,0,97180,,242,24,57 F,2,97180,97980,1,0 S,2,97180,97980,0.9,0.18 P,0,97180,97980,A
Sprite,Foreground,Centre,"sb\highlight.png",352,238 C,0,97255,,242,24,57 F,2,97255,98055,1,0 S,2,97255,98055,0.9,0.18 P,0,97255,98055,A
Sprite,Foreground,Centre,"sb\highlight.png",210,169 C,0,97406,,242,24,57 M,0,97406,97443,210,169,185,169 F,2,97406,98356,1,0 S,2,97406,98356,0.9,0.18 P,0,97406,98356,A M,0,97443,97481,185,169,162,176 M,0,97481,97518,162,176,141,189 M,0,97518,97556,141,189,125,207
Sprite,Foreground,Centre,"sb\highlight.png",203,255 C,0,97706,,242,24,57 F,2,97706,98506,1,0 S,2,97706,98506,0.9,0.18 P,0,97706,98506,A
Sprite,Foreground,Centre,"sb\highlight.png",272,216 C,0,97856,,242,24,57 F,2,97856,98656,1,0 S,2,97856,98656,0.9,0.18 P,0,97856,98656,A
Sprite,Foreground,Centre,"sb\highlight.png",332,150 C,0,98006,,242,24,57 M,0,98006,98043,332,150,347,168 F,2,98006,98956,1,0 S,2,98006,98956,0.9,0.18 P,0,98006,98956,A M,0,98043,98081,347,168,357,190 M,0,98081,98118,357,190,358,214 M,0,98118,98156,358,214,351,238
Sprite,Foreground,Centre,"sb\highlight.png",272,296 C,0,98306,,242,24,57 M,0,98306,98343,272,296,292,309 F,2,98306,99256,1,0 S,2,98306,99256,0.9,0.18 P,0,98306,99256,A M,0,98343,98381,292,309,312,323 M,0,98381,98418,312,323,292,309 M,0,98418,98456,292,309,272,296
Sprite,Foreground,Centre,"sb\highlight.png",448,104 C,0,147856,,18,124,255 M,0,147856,147893,448,104,457,120 F,2,147856,148806,1,0 S,2,147856,148806,0.9,0.18 P,0,147856,148806,A M,0,147893,147931,457,120,467,137 M,0,147931,147968,467,137,477,153 M,0,147968,148006,477,153,487,170
Sprite,Foreground,Centre,"sb\highlight.png",304,264 C,0,148156,,18,124,255 F,2,148156,148956,1,0 S,2,148156,148956,0.9,0.18 P,0,148156,148956,A
Sprite,Foreground,Centre,"sb\highlight.png",278,261 C,0,148231,,18,124,255 F,2,148231,149031,1,0 S,2,148231,149031,0.9,0.18 P,0,148231,149031,A
Sprite,Foreground,Centre,"sb\highlight.png",252,248 C,0,148306,,18,124,255 F,2,148306,149106,1,0 S,2,148306,149106,0.9,0.18 P,0,148306,149106,A
Sprite,Foreground,Centre,"sb\highlight.png",224,136 C,0,148457,,242,24,57 M,0,148457,148494,224,136,239,123 F,2,148457,149407,1,0 S,2,148457,149407,0.9,0.18 P,0,148457,149407,A M,0,148494,148532,239,123,254,111 M,0,148532,148569,254,111,269,99 M,0,148569,148607,269,99,284,87
Sprite,Foreground,Centre,"sb\highlight.png",368,216 C,0,148757,,242,24,57 F,2,148757,149557,1,0 S,2,148757,149557,0.9,0.18 P,0,148757,149557,A
Sprite,Foreground,Centre,"sb\highlight.png",368,216 C,0,148832,,242,24,57 F,2,148832,149632,1,0 S,2,148832,149632,0.9,0.18 P,0,148832,149632,A
Sprite,Foreground,Centre,"sb\highlight.png",368,216 C,0,148907,,242,24,57 F,2,148907,149707,1,0 S,2,148907,149707,0.9,0.18 P,0,148907,149707,A
Sprite,Foreground,Centre,"sb\highlight.png",368,216 C,0,148982,,242,24,57 F,2,148982,149782,1,0 S,2,148982,149782,0.9,0.18 P,0,148982,149782,A
Sprite,Foreground,Centre,"sb\highlight.png",368,216 C,0,149057,,242,24,57 F,2,149057,149857,1,0 S,2,149057,149857,0.9,0.18 P,0,149057,149857,A
Sprite,Foreground,Centre,"sb\highlight.png",192,312 C,0,171880,,255,192,0 F,2,171880,172680,1,0 S,2,171880,172680,0.9,0.18 P,0,171880,172680,A
Sprite,Foreground,Centre,"sb\highlight.png",192,312 C,0,172030,,255,192,0 M,0,172030,172067,192,312,205,298 F,2,172030,172905,1,0 S,2,172030,172905,0.9,0.18 P,0,172030,172905,A M,0,172067,172105,205,298,219,284
Sprite,Foreground,Centre,"sb\highlight.png",336,168 C,0,172180,,255,192,0 F,2,172180,172980,1,0 S,2,172180,172980,0.9,0.18 P,0,172180,172980,A
Sprite,Foreground,Centre,"sb\highlight.png",160,120 C,0,172331,,255,192,0 F,2,172331,173131,1,0 S,2,172331,173131,0.9,0.18 P,0,172331,173131,A
Sprite,Foreground,Centre,"sb\highlight.png",326,376 C,0,172481,,255,192,0 F,2,172481,173281,1,0 S,2,172481,173281,0.9,0.18 P,0,172481,173281,A
Sprite,Foreground,Centre,"sb\highlight.png",160,120 C,0,172631,,0,202,0 F,2,172631,173431,1,0 S,2,172631,173431,0.9,0.18 P,0,172631,173431,A
Sprite,Foreground,Centre,"sb\highlight.png",326,376 C,0,172781,,0,202,0 F,2,172781,173581,1,0 S,2,172781,173581,0.9,0.18 P,0,172781,173581,A
Sprite,Foreground,Centre,"sb\highlight.png",160,120 C,0,172931,,0,202,0 F,2,172931,173731,1,0 S,2,172931,173731,0.9,0.18 P,0,172931,173731,A
Sprite,Foreground,Centre,"sb\highlight.png",176,392 C,0,201309,,242,24,57 M,0,201309,201346,176,392,150,385 F,2,201309,202584,1,0 S,2,201309,202584,1,0.2 P,0,201309,202584,A M,0,201346,201384,150,385,125,379
Sprite,Foreground,Centre,"sb\highlight.png",240,312 C,0,201460,,242,24,57 M,0,201460,201497,240,312,213,314 F,2,201460,202735,1,0 S,2,201460,202735,1,0.2 P,0,201460,202735,A M,0,201497,201535,213,314,187,316
Sprite,Foreground,Centre,"sb\highlight.png",128,300 C,0,201610,,255,192,0 F,2,201610,202810,1,0 S,2,201610,202810,1,0.2 P,0,201610,202810,A
Sprite,Foreground,Centre,"sb\highlight.png",99,269 C,0,201685,,255,192,0 F,2,201685,202885,1,0 S,2,201685,202885,1,0.2 P,0,201685,202885,A
Sprite,Foreground,Centre,"sb\highlight.png",95,227 C,0,201760,,255,192,0 F,2,201760,202960,1,0 S,2,201760,202960,1,0.2 P,0,201760,202960,A
Sprite,Foreground,Centre,"sb\highlight.png",120,193 C,0,201835,,255,192,0 F,2,201835,203035,1,0 S,2,201835,203035,1,0.2 P,0,201835,203035,A
Sprite,Foreground,Centre,"sb\highlight.png",176,264 C,0,37346,,242,24,57 F,2,37346,38146,1,0 S,2,37346,38146,0.9,0.18 P,0,37346,38146,A
Sprite,Foreground,Centre,"sb\highlight.png",352,360 C,0,37496,,242,24,57 F,2,37496,38296,1,0 S,2,37496,38296,0.9,0.18 P,0,37496,38296,A
Sprite,Foreground,Centre,"sb\highlight.png",352,360 C,0,37646,,242,24,57 M,0,37646,37683,352,360,360,340 F,2,37646,38596,1,0 S,2,37646,38596,0.9,0.18 P,0,37646,38596,A M,0,37683,37721,360,340,369,321 M,0,37721,37758,369,321,377,302 M,0,37758,37796,377,302,386,283
Sprite,Foreground,Centre,"sb\highlight.png",400,136 C,0,37946,,242,24,57 F,2,37946,38746,1,0 S,2,37946,38746,0.9,0.18 P,0,37946,38746,A
Sprite,Foreground,Centre,"sb\highlight.png",400,136 C,0,38096,,242,24,57 M,0,38096,38133,400,136,387,134 F,2,38096,39196,1,0 S,2,38096,39196,0.9,0.18 P,0,38096,39196,A M,0,38133,38171,387,134,373,133 M,0,38171,38208,373,133,360,135 M,0,38208,38246,360,135,348,138 M,0,38246,38283,348,138,336,143 M,0,38283,38321,336,143,324,150 M,0,38321,38358,324,150,314,158 M,0,38358,38396,314,158,305,167
Sprite,Foreground,Centre,"sb\highlight.png",326,270 C,0,107916,,255,192,0 F,2,107916,108716,1,0 S,2,107916,108716,0.9,0.18 P,0,107916,108716,A
Sprite,Foreground,Centre,"sb\highlight.png",311,245 C,0,107991,,255,192,0 F,2,107991,108791,1,0 S,2,107991,108791,0.9,0.18 P,0,107991,108791,A
Sprite,Foreground,Centre,"sb\highlight.png",283,240 C,0,108066,,255,192,0 F,2,108066,108866,1,0 S,2,108066,108866,0.9,0.18 P,0,108066,108866,A
Sprite,Foreground,Centre,"sb\highlight.png",257,250 C,0,108141,,255,192,0 F,2,108141,108941,1,0 S,2,108141,108941,0.9,0.18 P,0,108141,108941,A
Sprite,Foreground,Centre,"sb\highlight.png",480,88 C,0,117826,,0,202,0 F,2,117826,118626,1,0 S,2,117826,118626,0.9,0.18 P,0,117826,118626,A
Sprite,Foreground,Centre,"sb\highlight.png",368,327 C,0,117976,,0,202,0 F,2,117976,118776,1,0 S,2,117976,118776,0.9,0.18 P,0,117976,118776,A
Sprite,Foreground,Centre,"sb\highlight.png",272,72 C,0,118126,,0,202,0 F,2,118126,118926,1,0 S,2,118126,118926,0.9,0.18 P,0,118126,118926,A
Sprite,Foreground,Centre,"sb\highlight.png",496,216 C,0,118276,,0,202,0 F,2,118276,119076,1,0 S,2,118276,119076,0.9,0.18 P,0,118276,119076,A
Sprite,Foreground,Centre,"sb\highlight.png",234,236 C,0,118427,,0,202,0 F,2,118427,119227,1,0 S,2,118427,119227,0.9,0.18 P,0,118427,119227,A
Sprite,Foreground,Centre,"sb\highlight.png",375,80 C,0,118577,,0,202,0 F,2,118577,119377,1,0 S,2,118577,119377,0.9,0.18 P,0,118577,119377,A
Sprite,Foreground,Centre,"sb\highlight.png",160,120 C,0,118877,,18,124,255 F,2,118877,119677,1,0 S,2,118877,119677,0.9,0.18 P,0,118877,119677,A
Sprite,Foreground,Centre,"sb\highlight.png",480,184 C,0,119027,,18,124,255 F,2,119027,119827,1,0 S,2,119027,119827,0.9,0.18 P,0,119027,119827,A
Sprite,Foreground,Centre,"sb\highlight.png",400,296 C,0,119628,,242,24,57 F,2,119628,120428,1,0 S,2,119628,120428,0.9,0.18 P,0,119628,120428,A
Sprite,Foreground,Centre,"sb\highlight.png",288,376 C,0,120078,,242,24,57 F,2,120078,120878,1,0 S,2,120078,120878,0.9,0.18 P,0,120078,120878,A
Sprite,Foreground,Centre,"sb\highlight.png",240,88 C,0,119928,,242,24,57 F,2,119928,120728,1,0 S,2,119928,120728,0.9,0.18 P,0,119928,120728,A
Sprite,Foreground,Centre,"sb\highlight.png",400,296 C,0,119778,,242,24,57 M,0,119778,119815,400,296,406,268 F,2,119778,120653,1,0 S,2,119778,120653,0.9,0.18 P,0,119778,120653,A M,0,119815,119853,406,268,413,241
Sprite,Foreground,Centre,"sb\highlight.png",273,174 C,0,119478,,242,24,57 F,2,119478,120278,1,0 S,2,119478,120278,0.9,0.18 P,0,119478,120278,A
Sprite,Foreground,Centre,"sb\highlight.png",273,174 C,0,119328,,242,24,57 F,2,119328,120128,1,0 S,2,119328,120128,0.9,0.18 P,0,119328,120128,A
Sprite,Foreground,Centre,"sb\highlight.png",480,184 C,0,119177,,18,124,255 F,2,119177,119977,1,0 S,2,119177,119977,0.9,0.18 P,0,119177,119977,A
Sprite,Foreground,Centre,"sb\highlight.png",296,362 C,0,118727,,18,124,255 F,2,118727,119527,1,0 S,2,118727,119527,0.9,0.18 P,0,118727,119527,A
//Storyboard Sound Samples

[TimingPoints]
1310,300.3003003003,4,1,1,55,1,0
28937,-83.3333333333333,4,1,1,45,0,0
33742,-100,4,1,1,45,0,0
38096,-200,4,1,1,35,0,0
38547,-66.6666666666667,4,1,1,55,0,1
46955,-100,4,1,1,55,0,0
48156,-66.6666666666667,4,1,1,55,0,1
52961,-100,4,1,1,55,0,1
57766,-100,4,1,1,55,0,0
60168,-58.8235294117647,4,1,1,60,0,0
61219,-66.6666666666667,4,1,1,55,0,0
61970,-200,4,1,1,50,0,0
62571,-58.8235294117647,4,1,1,60,0,0
64523,-200,4,1,1,50,0,0
64973,-58.8235294117647,4,1,1,60,0,0
66775,-200,4,1,1,50,0,0
67376,-66.6666666666667,4,1,1,50,0,0
69177,-200,4,1,1,50,0,0
69778,-58.8235294117647,4,1,1,60,0,0
70829,-66.6666666666667,4,1,1,55,0,0
71580,-200,4,1,1,50,0,0
72180,-58.8235294117647,4,1,1,60,0,0
74132,-200,4,1,1,50,0,0
74583,-58.8235294117647,4,1,1,60,0,0
76385,-200,4,1,1,50,0,0
76985,-66.6666666666667,4,1,1,55,0,0
79388,-333.333333333333,4,1,1,35,0,0
88547,-133.333333333333,4,1,1,35,0,0
88697,-50,4,1,1,55,0,0
88997,-100,4,1,1,55,0,0
97406,-1000,4,1,1,50,0,0
98607,-66.6666666666667,4,1,1,60,0,1
107015,-66.6666666666667,4,1,1,60,0,0
108216,-66.6666666666667,4,1,1,55,0,1
115424,-100,4,1,1,55,0,0
117826,-100,4,1,1,52,0,0
120228,-58.8235294117647,4,1,1,60,0,0
121279,-66.6666666666667,4,1,1,55,0,0
122030,-200,4,1,1,50,0,0
122631,-58.8235294117647,4,1,1,60,0,0
124583,-200,4,1,1,50,0,0
125033,-58.8235294117647,4,1,1,60,0,0
126835,-200,4,1,1,50,0,0
127436,-66.6666666666667,4,1,1,55,0,0
129237,-200,4,1,1,50,0,0
129838,-333.333333333333,4,1,1,60,0,0
131640,-200,4,1,1,50,0,0
132240,-333.333333333333,4,1,1,60,0,0
134042,-200,4,1,1,50,0,0
134643,-333.333333333333,4,1,1,60,0,0
136445,-200,4,1,1,50,0,0
137045,-66.6666666666667,4,1,1,55,0,0
139448,-83.3333333333333,4,1,1,45,0,0
148757,-500,4,1,1,55,0,0
170679,-100,4,1,1,55,0,0
173081,-62.5,4,1,1,70,0,1
173982,-166.666666666667,4,1,1,75,0,1
174583,-62.5,4,1,1,70,0,1
175183,-166.666666666667,4,1,1,75,0,1
175484,-62.5,4,1,1,70,0,1
176385,-166.666666666667,4,1,1,75,0,1
176685,-62.5,4,1,1,70,0,1
177586,-166.666666666667,4,1,1,75,0,1
177886,-62.5,4,1,1,70,0,1
178787,-166.666666666667,4,1,1,75,0,1
179388,-62.5,4,1,1,70,0,1
179988,-166.666666666667,4,1,1,75,0,1
180288,-62.5,4,1,1,70,0,1
181189,-166.666666666667,4,1,1,75,0,1
181490,-62.5,4,1,1,70,0,1
182391,-166.666666666667,4,1,1,75,0,1
182691,-62.5,4,1,1,70,0,1
182991,-166.666666666667,4,1,1,75,0,1
183291,-62.5,4,1,1,70,0,1
183592,-166.666666666667,4,1,1,75,0,1
183892,-62.5,4,1,1,70,0,1
184192,-166.666666666667,4,1,1,75,0,1
184493,-62.5,4,1,1,70,0,1
184793,-166.666666666667,4,1,1,75,0,1
185093,-62.5,4,1,1,70,0,1
185994,-166.666666666667,4,1,1,75,0,1
186294,-62.5,4,1,1,70,0,1
187195,-166.666666666667,4,1,1,75,0,1
187496,-62.5,4,1,1,70,0,1
187796,-166.666666666667,4,1,1,75,0,1
188096,-62.5,4,1,1,70,0,1
188397,-166.666666666667,4,1,1,75,0,1
188697,-62.5,4,1,1,70,0,1
188997,-166.666666666667,4,1,1,75,0,1
189297,-62.5,4,1,1,70,0,1
189598,-166.666666666667,4,1,1,75,0,1
189898,-62.5,4,1,1,70,0,1
190198,-166.666666666667,4,1,1,75,0,1
190499,-62.5,4,1,1,70,0,1
190799,-166.666666666667,4,1,1,75,0,1
191099,-62.5,4,1,1,70,0,1
192601,-166.666666666667,4,1,1,75,0,1
192901,-62.5,4,1,1,70,0,1
193201,-166.666666666667,4,1,1,75,0,1
193502,-62.5,4,1,1,70,0,1
193802,-166.666666666667,4,1,1,75,0,1
194102,-62.5,4,1,1,70,0,1
194403,-166.666666666667,4,1,1,75,0,1
194703,-62.5,4,1,1,70,0,1
195153,-166.666666666667,4,1,1,75,0,1
195904,-62.5,4,1,1,70,0,1
196355,-166.666666666667,4,1,1,75,0,1
197105,-62.5,4,1,1,70,0,1
197406,-166.666666666667,4,1,1,75,0,1
197706,-62.5,4,1,1,70,0,1
198006,-166.666666666667,4,1,1,75,0,1
198306,-62.5,4,1,1,70,0,1
198607,-166.666666666667,4,1,1,75,0,1
198907,-62.5,4,1,1,70,0,1
199207,-166.666666666667,4,1,1,75,0,1
199508,-62.5,4,1,1,70,0,1
200409,-166.666666666667,4,1,1,75,0,1
200709,-62.5,4,1,1,70,0,1
201159,-100,4,1,1,75,0,1
201910,-10000000,4,1,1,50,0,0

[Colours]
Combo1 : 255,192,0
Combo2 : 159,120,47
Combo3 : 88,99,129
Combo4 : 49,49,49

[HitObjects]
98,74,4913,5,0,0:0:0:0:
329,76,5138,2,0,L|354:38,5,37.5
277,100,5364,1,0,0:0:0:0:
98,74,6114,5,0,0:0:0:0:
349,44,6565,1,0,0:0:0:0:
98,74,7316,5,0,0:0:0:0:
383,100,7766,1,0,0:0:0:0:
77,340,8517,6,0,B|83:289|54:242|48:241|42:238|3:179|39:114,1,225
98,74,8817,1,0,0:0:0:0:
315,118,8967,2,0,B|293:156|293:156|159:193|159:193|123:172,1,225
190,99,9267,6,0,B|230:89,10,37.5
369,304,9718,6,0,P|403:168|513:224,1,300
343,346,10168,2,0,P|300:222|444:117,1,300
419,373,10619,2,0,L|255:384,1,150
36,277,10919,6,0,B|36:218|36:218|219:218|219:218|219:277,1,300
1,342,11370,2,0,B|1:184|1:184|164:184,1,300
256,236,11820,2,0,B|256:285|256:285|263:308|263:308|256:331|256:331|256:384,1,150
201,73,12120,6,0,B|165:45|129:64|118:89|118:89|155:136|208:96|231:79|289:96|325:109,1,300
243,293,12571,2,0,P|207:204|301:274,1,300
119,323,13021,2,0,P|95:260|104:175,1,150
409,179,13322,6,0,P|418:259|284:388,1,262.5
226,384,13622,1,0,0:0:0:0:
301,136,13772,2,0,B|507:142|507:142|412:95,1,300
196,94,14222,2,0,P|192:162|258:242,1,150
338,36,14523,6,0,B|265:-10|201:39|198:45|197:53|118:117|40:39,1,300
387,99,14973,2,0,P|380:212|217:263,1,300
270,106,15424,2,0,P|311:133|237:144,1,150
57,53,15724,6,0,B|69:161|69:161|89:184|89:184|110:364,1,300
387,300,16174,2,0,B|448:260|448:260|215:264,1,300
362,99,16625,2,0,L|516:97,1,150
203,371,16925,6,0,P|173:230|245:13,1,375
154,22,17376,2,0,P|125:212|175:397,1,375
127,384,17826,2,0,P|92:299|78:220,1,150
243,15,18126,6,0,P|176:183|175:267,1,262.5
187,340,18427,1,0,0:0:0:0:
409,22,18577,2,0,P|267:57|194:184,1,300
512,123,19027,2,0,P|453:81|364:72,1,150
48,341,19328,6,0,B|142:349|142:349|183:383|183:383|229:356|229:356|327:365,1,300
360,182,19778,2,0,B|264:173|264:173|254:285|254:285|346:293,1,300
400,111,20228,2,0,L|248:97,1,150
447,362,20529,6,0,B|453:282|453:282|460:272|460:272|467:202|467:202|472:195|472:195|476:155|476:155|481:149|481:149|490:60,1,300
262,80,20979,2,0,B|189:129|189:129|410:110,1,300
235,0,21430,2,0,L|86:100,1,150
261,352,21730,6,0,P|314:215|261:79,1,300
28,79,22180,2,0,P|-25:215|27:352,1,300
216,218,22631,2,0,P|148:189|80:218,1,150
339,378,22931,6,0,P|389:258|384:98,1,262.5
365,54,23231,1,0,0:0:0:0:
181,378,23382,2,0,P|319:335|367:199,1,300
136,302,23832,2,0,P|205:329|278:314,1,150
107,57,24132,6,0,L|67:355,1,300
280,229,24583,2,0,B|290:151|290:151|236:113|236:113|171:136|171:136|161:222,1,300
312,371,25033,2,0,P|373:339|420:267,1,150
445,39,25334,6,0,P|382:166|510:150,1,300
511,2,25784,2,0,B|355:-36|319:94|210:28,1,300
11,122,26234,2,0,B|53:101|104:74|153:102,1,150
156,384,26535,6,0,P|80:211|130:14,1,375
195,39,26985,2,0,P|124:231|192:383,1,375
234,382,27436,2,0,P|180:314|160:239,1,150
491,211,27736,6,0,P|383:267|237:242,1,262.5
206,181,28074,1,0,0:0:0:0:
512,91,28186,2,0,P|438:200|274:230,1,300
461,13,28637,2,0,P|471:87|416:179,1,150
280,231,28937,5,0,0:0:0:0:
206,181,29087,1,0,0:0:0:0:
132,231,29237,1,0,0:0:0:0:
58,181,29388,1,0,0:0:0:0:
338,110,29538,2,0,L|296:383,1,269.999991760254
352,242,29838,2,0,L|378:64,1,179.999994506836
182,57,30138,5,0,0:0:0:0:
132,131,30288,1,0,0:0:0:0:
206,181,30439,1,0,0:0:0:0:
256,107,30589,1,0,0:0:0:0:
60,158,30739,2,0,L|162:227,1,89.9999972534181
210,257,30889,2,0,L|106:190,1,89.9999972534181
182,57,31039,2,0,P|237:146|153:98,1,269.999991760254
323,31,31340,5,0,0:0:0:0:
399,78,31490,1,0,0:0:0:0:
441,156,31640,1,0,0:0:0:0:
438,244,31790,1,0,0:0:0:0:
481,78,31940,2,0,L|481:186,1,89.9999972534181
512,292,32090,2,0,L|512:202,1,89.9999972534181
458,9,32240,2,0,L|458:297,1,269.999991760254
351,362,32541,5,0,0:0:0:0:
263,339,32691,1,0,0:0:0:0:
175,316,32841,1,0,0:0:0:0:
87,293,32991,1,0,0:0:0:0:
325,287,33141,2,0,L|222:261,1,89.9999972534181
151,243,33291,2,0,L|254:269,1,89.9999972534181
390,229,33442,2,0,L|128:161,1,269.999991760254
72,37,33742,6,0,P|133:26|229:68,1,150
418,96,34042,2,0,P|357:85|261:127,1,150
72,155,34343,2,0,P|133:144|229:186,1,150
418,214,34643,2,0,P|357:203|261:245,1,150
85,384,34943,6,0,L|70:229,1,150
175,64,35243,2,0,L|160:219,1,150
265,384,35544,2,0,L|250:229,1,150
355,64,35844,2,0,L|340:219,1,150
445,384,36144,5,0,0:0:0:0:
259,315,36294,1,0,0:0:0:0:
512,216,36445,5,0,0:0:0:0:
316,249,36595,1,0,0:0:0:0:
486,37,36745,5,0,0:0:0:0:
332,163,36895,1,0,0:0:0:0:
346,23,37045,1,0,0:0:0:0:
472,177,37195,1,0,0:0:0:0:
260,84,37346,5,0,0:0:0:0:
245,85,37496,1,0,0:0:0:0:
230,87,37646,1,0,0:0:0:0:
215,89,37796,1,0,0:0:0:0:
200,91,37946,1,0,0:0:0:0:
185,93,38096,2,0,P|247:83|187:99,1,187.5
122,27,38547,6,0,B|99:57|98:120|125:152|125:152|128:157|128:157|132:162|132:162|175:217|165:311|113:365,1,337.500012874604
64,382,38847,2,0,P|20:317|107:158,2,225.000008583069
22,111,39297,1,0,0:0:0:0:
203,368,39448,2,0,B|240:386|240:386|380:374|380:374|415:349,1,225.000008583069
107,110,39748,6,0,L|131:359,1,225.000008583069
475,291,40048,2,0,L|453:67,1,225.000008583069
107,110,40349,2,0,P|101:234|141:355,1,225.000008583069
475,291,40649,2,0,P|481:167|441:46,1,225.000008583069
294,359,40949,6,0,B|392:410|392:311|534:371,1,225.000008583069
453,71,41249,1,0,0:0:0:0:
348,284,41400,1,0,0:0:0:0:
0,67,41550,2,0,B|98:16|98:115|240:55,1,225.000008583069
159,355,41850,1,0,0:0:0:0:
54,142,42001,1,0,0:0:0:0:
441,247,42150,6,0,B|501:286|501:286|326:283,1,225.000008583069
75,225,42451,2,0,B|15:264|15:264|190:261,1,225.000008583069
458,142,42751,1,0,0:0:0:0:
54,142,42901,1,0,0:0:0:0:
255,377,43051,2,0,B|272:298|272:298|237:127|237:127|256:38,1,337.500012874604
336,0,43352,6,0,P|475:30|403:202,1,337.500012874604
377,225,43652,2,0,P|358:325|471:362,2,225.000008583069
512,0,44102,1,0,0:0:0:0:
431,289,44252,2,0,B|386:309|386:309|262:309|262:309|204:337,1,225.000008583069
256,47,44553,6,0,B|268:220|268:220|222:242,1,225.000008583069
0,384,44853,2,0,B|-12:210|-12:210|33:188,1,225.000008583069
256,47,45153,2,0,L|273:285,1,225.000008583069
1,384,45454,2,0,L|-16:146,1,225.000008583069
316,353,45754,6,0,B|209:393|191:288|67:353,1,225.000008583069
293,128,46054,2,0,B|400:168|418:63|542:128,2,225.000008583069
56,64,46505,1,0,0:0:0:0:
387,324,46655,2,0,P|522:296|424:200,1,337.500012874604
365,249,46955,5,0,0:0:0:0:
365,249,47856,1,0,0:0:0:0:
357,247,47931,1,0,0:0:0:0:
349,245,48006,1,0,0:0:0:0:
341,243,48081,1,0,0:0:0:0:
259,362,48156,6,0,B|279:227|279:227|240:176|240:176|264:9,1,337.500012874604
433,213,48457,2,0,B|446:273|446:273|305:142,2,225.000008583069
372,14,48907,1,0,0:0:0:0:
194,252,49057,2,0,P|98:280|2:185,1,225.000008583069
311,19,49358,6,0,L|344:271,1,225.000008583069
80,384,49658,2,0,L|113:132,1,225.000008583069
412,117,49958,1,0,0:0:0:0:
271,355,50108,1,0,0:0:0:0:
25,53,50259,2,0,P|128:28|227:111,1,225.000008583069
454,306,50559,6,0,P|315:354|162:225,1,337.500012874604
219,182,50859,2,0,P|313:167|442:240,2,225.000008583069
297,384,51310,1,0,0:0:0:0:
375,127,51460,2,0,P|350:43|298:130,1,225.000008583069
500,384,51760,6,0,B|515:265|515:265|459:161,1,225.000008583069
192,138,52060,2,0,B|123:217|123:217|111:337,1,225.000008583069
297,384,52361,1,0,0:0:0:0:
336,91,52511,1,0,0:0:0:0:
0,198,52661,2,0,L|226:245,1,225.000008583069
450,238,52961,6,0,L|288:269,1,150
108,332,53261,2,0,L|270:363,1,150
474,231,53562,2,0,L|289:266,1,150
83,338,53862,2,0,L|268:373,1,150
186,117,54162,6,0,P|164:187|192:277,1,150
327,260,54463,2,0,P|344:187|322:117,1,150
170,101,54763,2,0,P|144:186|178:295,1,150
342,275,55064,2,0,P|362:187|336:101,1,150
173,15,55364,5,0,0:0:0:0:
256,192,55514,1,0,0:0:0:0:
472,82,55664,1,0,0:0:0:0:
277,65,55814,1,0,0:0:0:0:
264,307,55964,5,0,0:0:0:0:
376,147,56114,1,0,0:0:0:0:
97,78,56264,1,0,0:0:0:0:
179,254,56414,1,0,0:0:0:0:
414,12,56565,5,0,0:0:0:0:
180,140,56715,1,0,0:0:0:0:
512,267,56865,1,0,0:0:0:0:
256,192,57015,1,0,0:0:0:0:
401,382,57165,5,0,0:0:0:0:
66,337,57316,1,0,0:0:0:0:
111,2,57466,1,0,0:0:0:0:
446,47,57616,1,0,0:0:0:0:
256,192,57766,1,0,0:0:0:0:
256,192,58967,6,0,L|173:291,1,75
256,192,59117,2,0,L|355:275,1,75
256,192,59267,2,0,L|339:93,1,75
256,192,59418,2,0,L|157:109,1,75
332,304,59568,6,0,P|358:288|381:231,1,75
143,268,59718,2,0,P|160:294|217:317,1,75
180,79,59868,2,0,P|154:96|131:153,1,75
368,116,60018,2,0,P|352:90|295:67,1,75
8,384,60168,6,0,B|-1:275|-1:275|57:216|57:216|41:5,1,382.500007295609
82,99,60469,2,0,L|102:376,1,255.000004863739
498,245,60769,1,0,0:0:0:0:
174,168,60919,1,0,0:0:0:0:
350,371,61069,1,0,0:0:0:0:
313,24,61219,6,0,B|265:73|265:73|288:306,1,225.000008583069
459,384,61520,2,0,B|507:335|507:335|498:245|498:245|516:221|516:221|493:193|493:193|489:138|489:138|469:115|469:115|482:87|482:87|476:15|476:15|437:73,1,450.000017166138
350,371,61970,6,0,L|351:319,1,37.5
382,98,62120,2,0,L|383:150,1,37.5
203,335,62270,2,0,L|204:283,1,37.5
235,62,62421,2,0,L|236:114,1,37.5
13,380,62571,6,0,B|80:294|235:292|237:388|327:405|418:363,1,382.500007295609
391,300,62871,2,0,P|301:246|306:350,1,255.000004863739
512,129,63171,1,0,0:0:0:0:
177,224,63322,1,0,0:0:0:0:
481,315,63472,1,0,0:0:0:0:
297,13,63622,6,0,B|306:111|306:111|336:153|336:153|353:294,1,255.000004863739
170,384,63922,2,0,B|182:279|182:279|212:237|212:237|221:139,1,255.000004863739
43,13,64222,2,0,B|55:117|55:117|85:159|85:159|94:257,1,255.000004863739
392,301,64523,6,0,L|328:299,1,37.5
178,225,64673,2,0,L|242:223,1,37.5
449,210,64823,2,0,L|385:212,1,37.5
27,368,64973,6,0,B|109:328|109:328|174:32,1,382.500007295609
77,52,65273,2,0,P|150:132|259:11,1,255.000004863739
5,213,65574,1,0,0:0:0:0:
352,218,65724,1,0,0:0:0:0:
171,43,65874,1,0,0:0:0:0:
182,384,66024,6,0,B|286:379|286:379|340:365|351:303|318:268|268:265,1,255.000004863739
27,368,66325,2,0,B|25:129|25:129|28:39|117:5|217:40|175:188,1,510.000009727478
426,384,66775,6,0,L|426:333,1,37.5
124,264,66925,2,0,L|124:213,1,37.5
275,324,67075,2,0,L|275:273,1,37.5
426,384,67225,2,0,L|426:333,1,37.5
512,101,67376,6,0,L|373:126,1,112.500004291535
113,0,67526,2,0,L|453:62,1,337.500012874604
414,213,67826,6,0,L|275:238,1,112.500004291535
15,112,67976,2,0,L|347:172,1,337.500012874604
399,357,68276,6,0,L|260:382,1,112.500004291535
0,256,68426,2,0,B|334:317|334:317|499:334|574:149|501:-81|195:10|218:132,1,900.000034332277
56,384,69177,6,0,L|59:319,1,37.5
117,127,69328,2,0,L|120:192,1,37.5
208,362,69478,2,0,L|206:324,1,37.5
256,56,69628,2,0,L|253:121,1,37.5
501,360,69778,6,0,B|357:344|357:344|274:368|274:368|254:366|254:366|251:361|251:361|247:361|247:361|243:365|243:365|195:360|195:360|190:363|190:363|186:363|186:363|183:358|183:358|103:350,1,382.500007295609
82,279,70078,2,0,P|195:242|357:306,1,255.000004863739
512,194,70379,1,0,0:0:0:0:
211,146,70529,1,0,0:0:0:0:
471,13,70679,1,0,0:0:0:0:
312,359,70829,6,0,B|287:309|287:309|321:203|321:203|295:136,1,225.000008583069
8,69,71129,2,0,P|30:258|239:196,1,450.000017166138
379,17,71580,6,0,L|329:20,1,37.5
132,44,71730,2,0,L|182:48,1,37.5
379,192,71880,2,0,L|329:188,1,37.5
132,165,72030,2,0,L|182:161,1,37.5
460,352,72180,6,0,B|365:310|385:166|460:154|466:152|471:151|528:111|505:39|445:0,1,382.500007295609
379,17,72481,2,0,L|114:48,1,255.000004863739
264,352,72781,1,0,0:0:0:0:
339,109,72931,1,0,0:0:0:0:
74,338,73081,1,0,0:0:0:0:
379,193,73231,6,0,P|452:171|392:270,1,255.000004863739
134,132,73532,2,0,P|61:110|121:209,1,255.000004863739
233,364,73832,2,0,B|266:112,1,255.000004863739
428,228,74132,6,0,L|367:223,1,37.5
132,288,74282,2,0,L|193:283,1,37.5
468,136,74433,2,0,L|407:141,1,37.5
0,0,74583,6,0,B|33:89|33:89|327:19,1,382.500007295609
384,41,74883,2,0,B|104:107,1,255.000004863739
0,383,75183,1,0,0:0:0:0:
74,161,75334,1,0,0:0:0:0:
287,384,75484,1,0,0:0:0:0:
326,2,75634,6,0,B|371:120|371:120|448:17,1,255.000004863739
278,277,75934,2,0,P|360:98|414:288,1,510.000009727478
69,41,76385,6,0,L|32:45,1,37.5
76,349,76535,2,0,L|113:345,1,37.5
91,193,76685,2,0,L|54:197,1,37.5
32,45,76835,2,0,L|69:41,1,37.5
512,86,76985,6,0,L|373:111,1,112.500004291535
234,329,77135,2,0,L|452:71,1,337.500012874604
43,0,77436,6,0,L|134:107,1,112.500004291535
392,119,77586,2,0,L|59:58,1,337.500012874604
201,374,77886,6,0,L|248:241,1,112.500004291535
109,105,78036,2,0,L|200:212,1,112.500004291535
512,384,78186,5,0,0:0:0:0:
511,373,78337,1,0,0:0:0:0:
96,250,78487,1,0,0:0:0:0:
91,261,78637,1,0,0:0:0:0:
509,362,78787,1,0,0:0:0:0:
88,273,78937,1,0,0:0:0:0:
455,243,79087,1,0,0:0:0:0:
497,140,79237,1,0,0:0:0:0:
485,113,79388,6,0,P|503:164|511:116,1,134.999995880127
384,208,80589,2,0,P|366:259|358:211,1,134.999995880127
250,119,81790,2,0,P|277:75|281:126,1,134.999995880127
106,195,82991,2,0,P|133:238|137:187,1,134.999995880127
127,215,83592,1,0,0:0:0:0:
137,187,84192,6,0,P|133:238|106:195,1,134.999995880127
226,361,85394,2,0,P|222:310|195:354,1,134.999995880127
246,142,86595,6,0,P|250:187|304:231,1,112.499996566773
354,150,87045,2,0,P|316:132|257:155,1,101.249996910095
322,217,87496,2,0,P|338:205|343:174,1,44.999998626709
305,181,87796,5,0,0:0:0:0:
330,23,88547,5,0,0:0:0:0:
265,363,88697,2,0,B|175:135|175:135|216:40|216:40|268:127|268:127|234:217,1,525
13,375,88997,6,0,B|172:312,1,150
393,114,89297,2,0,B|371:173|371:173|381:215|381:215|347:230|347:230|320:286|320:286|127:361,1,412.5
127,361,89748,1,0,0:0:0:0:
512,384,89898,1,0,0:0:0:0:
31,0,90198,6,0,L|45:152,1,150
131,384,90499,2,0,B|121:296|121:296|108:286|108:286|118:271|118:271|113:216|113:216|139:170|139:170|133:96|133:96|145:80|145:80|129:64|129:64|124:0,1,412.5
124,0,90949,1,0,0:0:0:0:
0,307,91099,1,0,0:0:0:0:
493,52,91400,6,0,P|437:11|356:35,1,150
486,374,91700,2,0,P|327:277|414:110,1,412.5
414,110,92150,1,0,0:0:0:0:
153,337,92300,1,0,0:0:0:0:
494,34,92601,6,0,L|332:37,1,150
41,79,92901,2,0,B|196:82|196:82|234:132|234:132|448:136,1,412.5
428,135,93352,1,0,0:0:0:0:
86,240,93502,1,0,0:0:0:0:
481,384,93802,6,0,L|467:232,1,150
381,0,94103,2,0,B|391:88|391:88|404:98|404:98|394:113|394:113|399:168|399:168|373:214|373:214|379:288|379:288|367:304|367:304|383:320|383:320|388:384,1,412.5
388,384,94553,1,0,0:0:0:0:
512,77,94703,1,0,0:0:0:0:
19,332,95003,6,0,P|75:373|156:349,1,150
26,10,95303,2,0,P|185:107|98:274,1,412.5
98,274,95753,1,0,0:0:0:0:
359,47,95903,1,0,0:0:0:0:
50,144,96204,5,0,0:0:0:0:
239,182,96355,1,0,0:0:0:0:
384,55,96505,1,0,0:0:0:0:
36,156,96655,5,0,0:0:0:0:
196,25,96805,1,0,0:0:0:0:
396,68,96955,1,0,0:0:0:0:
54,145,97105,5,0,0:0:0:0:
215,103,97255,1,0,0:0:0:0:
375,62,97406,2,0,L|483:29,1,112.5
285,19,98607,6,0,P|182:110|316:144,1,337.500012874604
381,193,98907,2,0,P|303:253|181:243,2,225.000008583069
121,185,99358,1,0,0:0:0:0:
447,324,99508,2,0,P|416:178|457:71,1,225.000008583069
293,345,99808,6,0,P|175:346|76:253,1,225.000008583069
54,36,100108,2,0,P|172:35|271:128,1,225.000008583069
213,381,100409,2,0,P|106:330|58:203,1,225.000008583069
133,0,100709,2,0,P|240:50|288:177,1,225.000008583069
0,352,101009,6,0,B|-28:239|-28:239|18:102,1,225.000008583069
269,245,101309,1,0,0:0:0:0:
60,238,101460,1,0,0:0:0:0:
512,32,101610,6,0,B|540:145|540:145|494:282,1,225.000008583069
243,139,101910,1,0,0:0:0:0:
452,146,102061,1,0,0:0:0:0:
180,300,102210,6,0,B|91:370|91:370|159:252,1,225.000008583069
365,110,102511,2,0,B|421:14|421:14|332:84,1,225.000008583069
256,349,102811,1,0,0:0:0:0:
256,35,102961,1,0,0:0:0:0:
481,348,103111,2,0,L|143:115,1,337.500012874604
137,112,103412,6,0,P|62:121|180:204,1,337.500012874604
203,156,103712,2,0,P|273:120|415:172,2,225.000008583069
289,345,104162,1,0,0:0:0:0:
412,65,104313,2,0,P|296:25|178:76,1,225.000008583069
433,318,104613,6,0,B|489:261|489:261|470:64,1,225.000008583069
134,99,104913,2,0,B|108:242|108:242|159:304,1,225.000008583069
511,358,105213,2,0,P|492:243|404:168,1,225.000008583069
188,159,105513,2,0,P|102:228|77:336,1,225.000008583069
416,57,105814,6,0,P|306:96|196:38,1,225.000008583069
293,351,106114,2,0,L|306:101,2,225.000008583069
313,0,106565,1,0,0:0:0:0:
79,213,106715,2,0,P|56:85|150:192,1,337.500012874604
151,235,107015,5,0,0:0:0:0:
151,235,107916,1,0,0:0:0:0:
159,237,107991,1,0,0:0:0:0:
167,239,108066,1,0,0:0:0:0:
175,241,108141,1,0,0:0:0:0:
253,362,108216,6,0,B|233:227|233:227|272:176|272:176|248:9,1,337.500012874604
79,213,108517,2,0,B|66:273|66:273|207:142,2,225.000008583069
140,14,108967,1,0,0:0:0:0:
318,252,109117,2,0,P|414:280|510:185,1,225.000008583069
201,19,109418,6,0,L|168:271,1,225.000008583069
432,384,109718,2,0,L|399:132,1,225.000008583069
100,117,110018,1,0,0:0:0:0:
241,355,110168,1,0,0:0:0:0:
487,53,110319,2,0,P|384:28|285:111,1,225.000008583069
58,306,110619,6,0,P|197:354|350:225,1,337.500012874604
293,182,110919,2,0,P|199:167|70:240,2,225.000008583069
215,384,111370,1,0,0:0:0:0:
137,127,111520,2,0,P|161:43|214:130,1,225.000008583069
12,384,111820,6,0,B|-3:265|-3:265|53:161,1,225.000008583069
319,138,112120,2,0,B|388:217|388:217|401:337,1,225.000008583069
215,384,112421,1,0,0:0:0:0:
176,91,112571,1,0,0:0:0:0:
512,198,112721,2,0,L|286:245,1,225.000008583069
49,273,113021,6,0,P|101:138|212:230,1,337.500012874604
199,339,113322,2,0,B|156:383|156:383|120:216,2,225.000008583069
97,113,113772,1,0,0:0:0:0:
285,327,113922,2,0,P|372:346|484:266,1,225.000008583069
423,59,114222,6,0,P|336:40|224:120,1,225.000008583069
384,301,114523,2,0,L|326:84,2,225.000008583069
304,2,114973,1,0,0:0:0:0:
194,252,115123,2,0,P|107:271|-5:191,1,225.000008583069
269,166,115424,6,0,P|301:233|263:358,1,150
121,151,115724,2,0,P|141:75|210:22,1,150
306,177,116024,2,0,P|319:249|250:360,1,150
97,119,116325,2,0,P|135:50|216:17,1,150
176,241,116625,6,0,L|8:272,1,150
252,97,116925,2,0,L|420:128,1,150
147,265,117225,2,0,L|-21:296,1,150
281,121,117526,2,0,L|449:152,1,150
141,296,117826,5,0,0:0:0:0:
268,144,117976,1,0,0:0:0:0:
473,255,118126,1,0,0:0:0:0:
274,276,118276,1,0,0:0:0:0:
252,0,118427,5,0,0:0:0:0:
334,207,118577,1,0,0:0:0:0:
102,93,118727,1,0,0:0:0:0:
349,122,118877,1,0,0:0:0:0:
76,170,119027,5,0,0:0:0:0:
386,113,119177,1,0,0:0:0:0:
161,359,119328,1,0,0:0:0:0:
167,42,119478,1,0,0:0:0:0:
428,206,119628,5,0,0:0:0:0:
34,327,119778,1,0,0:0:0:0:
460,128,119928,1,0,0:0:0:0:
63,245,120078,1,0,0:0:0:0:
504,0,120228,6,0,B|513:109|513:109|455:168|455:168|471:379,1,382.500007295609
430,285,120529,2,0,L|410:8,1,255.000004863739
14,139,120829,1,0,0:0:0:0:
338,216,120979,1,0,0:0:0:0:
162,13,121129,1,0,0:0:0:0:
199,360,121279,6,0,B|247:311|247:311|224:78,1,225.000008583069
53,0,121580,2,0,B|5:49|5:49|14:163|14:163|-8:198|-8:198|18:231|18:231|29:348|29:348|83:386,1,450.000017166138
162,13,122030,6,0,L|161:65,1,37.5
130,286,122180,2,0,L|129:234,1,37.5
309,49,122330,2,0,L|308:101,1,37.5
277,322,122481,2,0,L|276:270,1,37.5
499,4,122631,6,0,B|432:90|277:92|275:-4|185:-21|94:21,1,382.500007295609
121,84,122931,2,0,P|211:138|206:34,1,255.000004863739
0,255,123231,1,0,0:0:0:0:
335,160,123382,1,0,0:0:0:0:
31,69,123532,1,0,0:0:0:0:
215,371,123682,6,0,B|206:273|206:273|176:231|176:231|159:90,1,255.000004863739
342,0,123982,2,0,B|330:105|330:105|300:147|300:147|291:245,1,255.000004863739
469,371,124282,2,0,B|457:267|457:267|427:225|427:225|418:127,1,255.000004863739
120,83,124583,6,0,L|184:85,1,37.5
334,159,124733,2,0,L|270:161,1,37.5
63,174,124883,2,0,L|127:172,1,37.5
485,16,125033,6,0,B|403:56|403:56|338:352,1,382.500007295609
435,332,125333,2,0,P|362:252|253:373,1,255.000004863739
507,171,125634,1,0,0:0:0:0:
160,166,125784,1,0,0:0:0:0:
341,341,125934,1,0,0:0:0:0:
330,0,126084,6,0,B|226:5|226:5|172:19|161:81|194:116|244:119,1,255.000004863739
485,16,126385,2,0,B|487:255|487:255|484:345|395:379|295:344|337:196,1,510.000009727478
86,0,126835,6,0,L|86:51,1,37.5
388,120,126985,2,0,L|388:171,1,37.5
237,60,127135,2,0,L|237:111,1,37.5
86,0,127285,2,0,L|86:51,1,37.5
0,283,127436,6,0,L|139:258,1,112.500004291535
399,384,127586,2,0,L|59:322,1,337.500012874604
98,171,127886,6,0,L|237:146,1,112.500004291535
497,272,128036,2,0,L|165:212,1,337.500012874604
113,27,128337,6,0,L|252:2,1,112.500004291535
512,128,128487,2,0,B|178:67|178:67|13:50|-62:235|11:465|317:374|294:252,1,900.000034332277
456,0,129237,6,0,L|453:65,1,37.5
395,257,129388,2,0,L|392:192,1,37.5
304,22,129538,2,0,L|306:60,1,37.5
256,328,129688,2,0,L|259:263,1,37.5
5,70,129838,6,0,P|142:206|81:31,1,517.499984207154
87,31,131640,6,0,L|133:60,1,37.5
83,129,131790,2,0,L|129:158,1,37.5
79,227,131940,2,0,L|125:256,1,37.5
75,325,132090,2,0,L|121:354,1,37.5
507,70,132240,6,0,P|370:206|431:31,1,517.499984207154
425,31,134042,6,0,L|379:60,1,37.5
429,129,134192,2,0,L|383:158,1,37.5
433,227,134342,2,0,L|387:256,1,37.5
437,325,134492,2,0,L|391:354,1,37.5
27,177,134643,6,0,B|378:34|135:382|507:164,1,517.499984207154
488,174,136445,6,0,L|446:185,1,37.5
419,291,136595,2,0,L|376:278,1,37.5
300,356,136745,2,0,L|269:324,1,37.5
164,353,136895,2,0,L|153:310,1,37.5
201,5,137045,6,0,L|248:138,1,112.500004291535
85,384,137195,2,0,L|204:68,1,337.500012874604
512,298,137495,6,0,L|373:273,1,112.500004291535
234,55,137645,2,0,L|452:313,1,337.500012874604
43,384,137946,6,0,L|134:277,1,112.500004291535
392,265,138096,2,0,L|221:296,1,112.500004291535
0,143,138246,5,0,0:0:0:0:
18,129,138397,1,0,0:0:0:0:
32,147,138547,1,0,0:0:0:0:
14,161,138697,1,0,0:0:0:0:
16,143,138847,5,0,0:0:0:0:
152,155,138997,1,0,0:0:0:0:
287,166,139147,1,0,0:0:0:0:
422,177,139297,1,0,0:0:0:0:
350,243,139448,5,0,0:0:0:0:
293,176,139598,1,0,0:0:0:0:
360,119,139748,1,0,0:0:0:0:
417,186,139898,1,0,0:0:0:0:
262,260,140048,2,0,B|142:277|209:192|31:166|4:288,1,269.999991760254
236,170,140349,2,0,P|268:93|225:3,1,179.999994506836
97,311,140649,5,0,0:0:0:0:
191,326,140799,1,0,0:0:0:0:
262,260,140949,1,0,0:0:0:0:
356,275,141099,1,0,0:0:0:0:
181,290,141249,2,0,L|155:184,1,89.9999972534181
270,292,141400,2,0,L|296:398,1,89.9999972534181
133,228,141550,2,0,L|83:26,1,179.999994506836
331,75,141850,5,0,0:0:0:0:
256,129,142000,1,0,0:0:0:0:
202,54,142150,1,0,0:0:0:0:
277,0,142300,1,0,0:0:0:0:
298,157,142451,2,0,L|386:216,1,89.9999972534181
206,140,142601,2,0,L|103:167,1,89.9999972534181
246,332,142751,2,0,B|234:244|234:244|183:343,1,179.999994506836
409,376,143051,5,0,0:0:0:0:
437,282,143201,1,0,0:0:0:0:
390,198,143352,1,0,0:0:0:0:
416,105,143502,1,0,0:0:0:0:
354,279,143652,2,0,P|324:300|241:285,1,89.9999972534181
456,263,143802,2,0,P|477:233|462:150,1,89.9999972534181
252,275,143952,2,0,B|146:235|173:317|60:264,1,179.999994506836
23,17,144252,5,0,0:0:0:0:
120,64,144403,1,0,0:0:0:0:
28,126,144553,1,0,0:0:0:0:
126,174,144703,1,0,0:0:0:0:
217,14,144853,2,0,L|115:50,1,89.9999972534181
311,143,145003,2,0,L|349:61,1,89.9999972534181
512,178,145153,2,0,L|489:0,1,179.999994506836
393,335,145454,5,0,0:0:0:0:
512,367,145604,1,0,0:0:0:0:
402,219,145754,1,0,0:0:0:0:
292,280,145904,1,0,0:0:0:0:
78,195,146054,1,0,0:0:0:0:
205,187,146204,1,0,0:0:0:0:
221,384,146355,1,0,0:0:0:0:
149,276,146505,1,0,0:0:0:0:
293,124,146655,5,0,0:0:0:0:
266,279,146805,1,0,0:0:0:0:
367,105,146955,1,0,0:0:0:0:
274,284,147105,1,0,0:0:0:0:
445,112,147255,1,0,0:0:0:0:
283,291,147406,1,0,0:0:0:0:
512,156,147556,1,0,0:0:0:0:
294,298,147706,1,0,0:0:0:0:
207,68,147856,5,0,0:0:0:0:
308,309,148006,1,0,0:0:0:0:
281,114,148156,1,0,0:0:0:0:
168,325,148306,1,0,0:0:0:0:
11,83,148457,2,0,P|71:170|91:66,1,269.999991760254
38,9,148757,5,0,0:0:0:0:
91,240,148907,2,0,L|97:265,2,15
433,107,163472,5,0,0:0:0:0:
271,96,163622,1,0,0:0:0:0:
126,166,163772,1,0,0:0:0:0:
418,116,163922,5,0,0:0:0:0:
273,107,164072,1,0,0:0:0:0:
142,170,164222,1,0,0:0:0:0:
410,124,164373,5,0,0:0:0:0:
279,115,164523,1,0,0:0:0:0:
325,377,164673,5,0,0:0:0:0:
337,212,164823,1,0,0:0:0:0:
349,47,164973,1,0,0:0:0:0:
312,359,165123,5,0,0:0:0:0:
322,210,165273,1,0,0:0:0:0:
333,61,165423,1,0,0:0:0:0:
213,157,165574,1,0,0:0:0:0:
204,164,165649,1,0,0:0:0:0:
197,171,165724,1,0,0:0:0:0:
188,178,165799,1,0,0:0:0:0:
181,185,165874,5,0,0:0:0:0:
338,197,166024,1,0,0:0:0:0:
462,300,166174,1,0,0:0:0:0:
165,199,166325,5,0,0:0:0:0:
325,197,166475,1,0,0:0:0:0:
453,291,166625,1,0,0:0:0:0:
154,210,166775,5,0,0:0:0:0:
312,195,166925,1,0,0:0:0:0:
495,81,167075,5,0,0:0:0:0:
337,66,167225,1,0,0:0:0:0:
179,51,167376,1,0,0:0:0:0:
481,91,167526,5,0,0:0:0:0:
336,77,167676,1,0,0:0:0:0:
192,63,167827,1,0,0:0:0:0:
52,135,167976,1,0,0:0:0:0:
61,133,168051,1,0,0:0:0:0:
70,131,168126,1,0,0:0:0:0:
79,129,168201,1,0,0:0:0:0:
88,127,168276,5,0,0:0:0:0:
122,249,168427,1,0,0:0:0:0:
0,217,168577,1,0,0:0:0:0:
211,159,168727,5,0,0:0:0:0:
155,370,168877,1,0,0:0:0:0:
0,217,169027,1,0,0:0:0:0:
332,191,169178,1,0,0:0:0:0:
122,249,169328,1,0,0:0:0:0:
171,14,169478,5,0,0:0:0:0:
105,266,169628,1,0,0:0:0:0:
355,197,169778,1,0,0:0:0:0:
65,121,169928,5,0,0:0:0:0:
316,53,170078,1,0,0:0:0:0:
250,303,170228,1,0,0:0:0:0:
199,175,170379,1,0,0:0:0:0:
230,166,170454,1,0,0:0:0:0:
194,156,170529,1,0,0:0:0:0:
225,148,170604,1,0,0:0:0:0:
217,179,170679,6,0,L|171:9,1,150
21,304,170979,2,0,L|67:134,1,150
256,323,171279,2,0,L|210:153,1,150
450,189,171580,2,0,L|325:64,1,150
132,360,171880,5,0,0:0:0:0:
377,288,172030,1,0,0:0:0:0:
42,174,172180,5,0,0:0:0:0:
313,212,172331,1,0,0:0:0:0:
18,262,172481,6,0,L|113:249,1,75
414,197,172631,2,0,L|319:210,1,75
18,86,172781,6,0,L|113:99,1,75
493,220,172931,2,0,L|398:207,1,75
16,383,173081,6,0,B|123:368|123:368|159:363|180:348|186:323|186:302|186:302|184:280|184:280|188:273|188:273|180:194|180:194|175:187|175:187|169:117|169:117|173:105|173:105|163:1|163:1|207:91,1,600
246,147,173532,1,0,0:0:0:0:
0,117,173682,2,0,B|41:81|41:81|119:94,1,120
362,144,173832,2,0,B|321:180|321:180|243:167,1,120
442,5,173982,6,0,P|409:129|504:56,1,314.999990386963
505,68,174583,6,0,B|503:105|503:105|507:109|507:109|500:113|500:113|503:120|503:120|500:187,1,120
326,243,174733,2,0,B|328:279|328:279|324:283|324:283|331:287|331:287|328:294|328:294|331:361,1,120
186,119,174883,2,0,B|183:57|183:57|186:50|186:50|179:46|179:46|183:42|183:42|180:5,1,120
23,191,175033,2,0,B|25:129|25:129|22:122|22:122|29:118|29:118|25:114|25:114|28:77,1,120
14,68,175183,6,0,B|9:207,1,134.999995880127
163,382,175484,6,0,B|328:221|357:-20|81:-61|62:181|189:233,1,600
433,154,175934,2,0,B|398:74|350:-23|116:-84|11:85|86:242|176:218,1,600
173,218,176385,6,0,B|234:212|234:212|243:205|243:205|342:192,1,134.999995880127
495,294,176685,6,0,B|390:378|147:401|42:224|265:55|337:203,1,600
20,374,177135,2,0,B|-72:62|284:-3|341:147|318:216,1,600
306,227,177586,6,0,B|244:235|244:235|235:242|235:242|175:249,1,134.999995880127
385,133,177886,6,0,B|452:124|452:124|465:121|479:111|486:97|485:82|485:82|481:45|481:45|479:29|469:15|452:13|441:14|441:14|285:33|285:33|265:41|265:41|42:60,1,600
0,8,178337,1,0,0:0:0:0:
200,240,178487,2,0,B|192:183|192:183|129:130,1,120
0,31,178637,2,0,B|8:88|8:88|71:141,1,120
0,343,178787,6,0,P|90:248|109:376,1,314.999990386963
115,370,179388,6,0,B|99:348|99:321|99:321|94:316|94:316|99:311|99:311|100:279|124:258,1,120
230,150,179538,2,0,B|210:136|179:143|179:143|172:140|172:140|169:146|169:146|143:153|125:175,1,120
308,137,179688,2,0,B|324:119|356:121|356:121|362:116|362:116|366:121|366:121|393:123|415:141,1,120
463,332,179838,2,0,B|474:306|469:279|469:279|473:274|473:274|467:270|467:270|460:238|433:222,1,120
439,226,179988,6,0,P|419:292|466:332,1,134.999995880127
369,20,180288,6,0,B|119:54|68:374|368:392|373:224|322:155,1,600
33,194,180739,2,0,B|37:349|165:407|399:405|430:232|371:138|327:141,1,600
330,141,181189,6,0,B|282:147|282:147|279:142|279:142|278:155|278:155|273:149|273:149|203:158,1,134.999995880127
143,355,181490,6,0,B|-32:164|61:-49|270:-18|345:103|195:210,1,600
0,191,181940,2,0,B|-47:32|67:-59|332:-84|347:99|263:201|229:183,1,600
235,185,182391,6,0,B|186:190|186:190|183:185|183:185|182:198|182:198|177:192|177:192|107:201,1,134.999995880127
310,384,182691,6,0,B|328:275|328:275|323:262|323:262|341:253|341:253|335:239|335:239|377:36,1,360
375,42,182991,6,0,P|406:105|331:100,1,134.999995880127
276,63,183291,6,0,B|234:17|234:17|260:68,1,120
426,204,183442,2,0,B|468:250|468:250|425:166,1,120
309,383,183592,6,0,P|278:320|353:325,1,134.999995880127
388,350,183892,6,0,B|237:332|237:332|174:357|174:357|8:343,1,360
34,345,184192,6,0,P|81:377|164:352,1,134.999995880127
121,177,184493,6,0,B|114:230|114:230|109:237|109:237|116:240|116:240|111:244|111:244|104:288,1,120
239,93,184643,2,0,B|246:145|246:145|251:152|251:152|244:155|244:155|249:159|249:159|256:203,1,120
388,350,184793,6,0,P|341:318|258:343,1,134.999995880127
268,333,185093,6,0,B|319:379|319:379|351:91|351:91|356:43|289:0|230:35|220:87|220:87|212:159,1,600
462,254,185544,2,0,B|480:93|480:93|482:64|478:38|456:25|432:20|432:20|293:10|293:10|264:10|227:13|206:39|202:69|202:69|196:149,1,600
196,149,185994,6,0,B|225:167|255:170|255:170|258:174|258:174|262:171|262:171|296:171|334:154,1,134.999995880127
131,295,186294,6,0,P|107:44|346:127,1,600
131,295,186745,2,0,B|29:164|29:164|243:-2|243:-2|347:129,1,600
345,126,187195,6,0,B|357:152|357:186|357:186|360:190|360:190|356:192|356:192|353:223|335:252,1,134.999995880127
152,177,187496,6,0,L|512:198,1,360
511,197,187796,6,0,B|468:252|468:252|437:190,1,134.999995880127
486,16,188096,6,0,B|481:70|481:70|477:72|477:72|486:78|486:78|481:80|481:80|479:126,1,120
297,302,188246,2,0,B|301:248|301:248|305:246|305:246|296:240|296:240|301:238|301:238|304:192,1,120
272,121,188397,6,0,B|315:66|315:66|346:128,1,134.999995880127
202,384,188697,6,0,B|184:275|184:275|189:262|189:262|171:253|171:253|177:239|177:239|135:36,1,360
137,42,188997,6,0,P|106:105|181:100,1,134.999995880127
236,63,189297,6,0,B|278:17|278:17|252:68,1,120
86,204,189448,2,0,B|44:250|44:250|87:166,1,120
203,383,189598,6,0,P|234:320|159:325,1,134.999995880127
124,350,189898,6,0,B|275:332|275:332|338:357|338:357|504:343,1,360
478,345,190198,6,0,P|431:377|348:352,1,134.999995880127
391,177,190499,6,0,B|398:230|398:230|403:237|403:237|396:240|396:240|401:244|401:244|408:288,1,120
273,93,190649,2,0,B|266:145|266:145|261:152|261:152|268:155|268:155|263:159|263:159|256:203,1,120
124,350,190799,6,0,P|171:318|254:343,1,134.999995880127
243,333,191099,6,0,B|110:395|-72:364|-66:36|224:0|270:219|104:244,1,600
146,229,191550,1,0,0:0:0:0:
60,34,191700,1,0,0:0:0:0:
201,88,191850,1,0,0:0:0:0:
5,175,192000,1,0,0:0:0:0:
201,88,192150,1,0,0:0:0:0:
512,198,192300,6,0,L|152:177,1,360
152,177,192601,6,0,B|195:122|195:122|226:184,1,134.999995880127
177,359,192901,6,0,B|181:305|181:305|185:303|185:303|176:297|176:297|181:295|181:295|184:249,1,120
344,81,193051,2,0,B|339:134|339:134|335:136|335:136|344:142|344:142|339:144|339:144|336:190,1,120
370,263,193201,6,0,B|326:317|326:317|295:255,1,134.999995880127
344,81,193502,6,0,B|407:120|407:120|276:116|276:116|237:100|237:100|198:98|198:98|194:95|194:95|188:98|188:98|104:98,1,360
126,98,193802,6,0,P|120:51|134:96,1,134.999995880127
272,197,194102,6,0,L|419:207,1,120
189,184,194252,2,0,L|42:194,1,120
344,81,194403,6,0,P|350:128|336:83,1,134.999995880127
331,86,194703,6,0,B|169:252|169:252|131:299|148:366|221:375|263:326|263:326|382:207,1,600
379,209,195153,6,0,P|376:310|272:313,1,224.999993133545
261,280,195604,2,0,B|288:216|288:216|358:187,1,134.999995880127
488,38,195904,6,0,B|403:73|403:73|400:87|400:87|387:68|387:68|385:81|385:81|188:162|188:162|145:177|75:136|121:65|152:51|152:51|236:20,1,600
214,28,196355,6,0,B|300:59|300:59|162:112,1,224.999993133545
175,107,196805,6,0,B|123:126|123:126|117:121|117:121|121:135|121:135|113:131|113:131|48:155,1,134.999995880127
8,289,197105,6,0,B|116:292|116:292|120:306|120:306|129:280|129:280|133:294|133:294|416:303,1,360
328,300,197406,6,0,P|271:334|223:292,1,134.999995880127
304,113,197706,6,0,B|296:167|296:167|289:176|289:176|281:230,1,120
156,24,197856,6,0,B|164:78|164:78|171:87|171:87|178:141,1,120
8,289,198006,6,0,P|65:255|113:297,1,134.999995880127
266,378,198306,6,0,B|289:176|289:176|298:167|298:167|314:18,1,360
313,23,198607,6,0,P|345:79|289:130,1,134.999995880127
141,26,198907,6,0,B|184:69|184:69|244:72,1,120
466,228,199057,2,0,B|423:185|423:185|363:182,1,120
295,231,199207,6,0,P|263:175|319:124,1,134.999995880127
487,320,199508,2,0,B|402:390|277:407|130:344|98:115|293:75|345:145,1,600
94,317,199958,2,0,B|11:82|199:-13|346:0|404:95|363:182,1,600
363,181,200409,6,0,B|342:227|342:227|344:233|344:233|335:231|335:231|337:239|337:239|301:305,1,134.999995880127
495,91,200709,6,0,P|241:58|297:307,1,600
297,307,201159,2,0,L|451:298,1,150
57,321,201460,1,0,0:0:0:0:
484,297,201610,1,0,0:0:0:0:
57,321,201760,1,0,0:0:0:0:
41,239,201910,6,0,B|21:107|21:107|16:76|48:35|95:64|101:90|101:90|127:253,1,420
