osu file format v14

[General]
AudioFilename: audio.mp3
AudioLeadIn: 0
PreviewTime: 38547
Countdown: 0
SampleSet: Normal
StackLeniency: 0.2
Mode: 0
LetterboxInBreaks: 0
EpilepsyWarning: 1
WidescreenStoryboard: 1

[Editor]
Bookmarks: 150258,163472
DistanceSpacing: 1.5
BeatDivisor: 4
GridSize: 8
TimelineZoom: 3.399999

[Metadata]
Title:Say Goodbye (Speed Up Ver.)
TitleUnicode:Say Goodbye (Speed Up Ver.)
Artist:Krewella
ArtistUnicode:Krewella
Creator:saggi
Version:Broly's Extra
Source:
Tags:LiousPL Melsoon walter85 Megapcmx Minorsonek LukerMaster -NeBu- Broly Envory ChuuritsuTv
BeatmapID:1445680
BeatmapSetID:580821

[Difficulty]
HPDrainRate:6
CircleSize:4
OverallDifficulty:8.5
ApproachRate:9.5
SliderMultiplier:1.8
SliderTickRate:2

[Events]
//Background and Video events
0,0,"girl.jpg",0,0
//Break Periods
2,29137,33202
2,57966,59643
2,79287,88022
2,150458,162947
//Storyboard Layer 0 (Background)
//Storyboard Layer 1 (Fail)
//Storyboard Layer 2 (Pass)
//Storyboard Layer 3 (Foreground)
//Storyboard Sound Samples

[TimingPoints]
1310,300.3003003003,4,1,1,50,1,0
28937,-100,4,1,1,50,0,0
33742,-90.9090909090909,4,1,1,50,0,0
34343,-83.3333333333333,4,1,1,50,0,0
34943,-76.9230769230769,4,1,1,50,0,0
38547,-66.6666666666667,4,1,1,70,0,1
57766,-66.6666666666667,4,1,1,70,0,0
60168,-80,4,1,1,70,0,0
88997,-83.3333333333333,4,1,1,60,0,0
98607,-66.6666666666667,4,1,1,70,0,1
120228,-66.6666666666667,4,1,1,70,0,0
137045,-83.3333333333333,4,1,1,70,0,0
139448,-100,4,1,1,60,0,0
173081,-66.6666666666667,4,1,1,75,0,1
201910,-66.6666666666667,4,1,1,75,0,0

[HitObjects]
208,176,4913,6,0,L|256:368,1,180,2|0,0:0|0:0,0:0:0:0:
251,129,5364,2,0,L|208:304,1,180,2|0,0:0|0:0,0:0:0:0:
176,48,6114,6,0,L|128:240,1,180,2|0,0:0|0:0,0:0:0:0:
132,1,6565,2,0,L|176:176,1,180,2|0,0:0|0:0,0:0:0:0:
432,48,7316,5,2,0:0:0:0:
376,296,7766,1,8,0:0:0:0:
64,168,8517,6,0,L|224:80,1,180,2|8,0:0|0:0,0:0:0:0:
256,64,8967,1,2,0:0:0:0:
256,192,9117,12,0,9718,0:0:0:0:
336,200,10018,5,8,0:0:0:0:
336,56,10168,1,8,0:0:0:0:
360,60,10619,5,8,0:0:0:0:
24,264,10919,6,0,L|24:56,1,180,2|0,0:0|0:0,0:0:0:0:
144,160,11370,6,0,L|144:368,1,180,2|0,0:0|0:0,0:0:0:0:
144,56,11820,1,0,0:0:0:0:
424,120,12120,5,2,0:0:0:0:
424,144,12571,1,8,0:0:0:0:
88,264,13322,5,2,0:0:0:0:
88,150,13622,1,8,0:0:0:0:
88,248,13772,1,2,0:0:0:0:
88,150,14222,1,0,0:0:0:0:
368,120,14523,5,2,0:0:0:0:
280,120,14973,1,8,0:0:0:0:
368,120,15424,1,0,0:0:0:0:
433,256,15724,6,0,L|224:256,1,180,2|8,0:0|0:0,0:0:0:0:
78,256,16174,1,2,0:0:0:0:
344,88,16925,5,8,0:0:0:0:
360,112,17376,1,8,0:0:0:0:
184,248,18126,6,0,L|24:128,1,180,8|2,0:0|0:0,0:0:0:0:
184,248,18577,1,8,0:0:0:0:
344,296,19328,5,2,0:0:0:0:
360,272,19778,1,8,0:0:0:0:
168,88,20529,5,2,0:0:0:0:
152,112,20979,1,2,0:0:0:0:
344,88,21730,5,8,0:0:0:0:
360,112,22180,1,8,0:0:0:0:
168,296,22931,5,2,0:0:0:0:
152,182,23231,1,8,0:0:0:0:
152,272,23382,1,2,0:0:0:0:
400,176,24132,5,2,0:0:0:0:
272,176,24583,1,8,0:0:0:0:
112,208,25334,5,2,0:0:0:0:
240,208,25784,1,2,0:0:0:0:
272,48,26535,5,8,0:0:0:0:
272,176,26985,1,8,0:0:0:0:
240,336,27736,5,2,0:0:0:0:
240,120,28036,1,8,0:0:0:0:
240,208,28186,1,2,0:0:0:0:
256,192,28261,12,0,28937,0:0:0:0:
376,336,33742,6,0,L|401:240,1,99.0000030212403,8|0,0:0|0:0,0:0:0:0:
110,240,34042,2,0,L|136:336,1,99.0000030212403,8|0,0:0|0:0,0:0:0:0:
401,240,34343,6,0,L|432:120,1,107.999996704102,8|0,0:0|0:0,0:0:0:0:
83,135,34643,2,0,L|111:240,1,107.999996704102,8|0,0:0|0:0,0:0:0:0:
310,14,34943,6,0,L|280:128,1,116.999994644165,8|0,0:0|0:0,0:0:0:0:
201,14,35243,2,0,L|232:128,1,116.999994644165,8|0,0:0|0:0,0:0:0:0:
360,296,35544,6,0,L|390:182,1,116.999994644165,8|0,0:0|0:0,0:0:0:0:
121,182,35844,6,0,L|151:294,1,116.999994644165,8|0,0:0|0:0,0:0:0:0:
208,160,36144,5,8,0:0:0:0:
200,176,36294,1,8,0:0:0:0:
304,160,36445,5,8,0:0:0:0:
312,176,36595,1,8,0:0:0:0:
160,128,36745,5,8,0:0:0:0:
144,159,36895,1,8,0:0:0:0:
352,128,37045,5,8,0:0:0:0:
368,159,37195,1,8,0:0:0:0:
248,128,38547,6,0,L|183:-23,1,135.000005149842,12|0,0:0|0:0,0:0:0:0:
320,296,38847,1,2,0:0:0:0:
200,168,38997,2,0,L|88:48,1,135.000005149842
320,296,39297,1,8,0:0:0:0:
88,296,39448,6,0,P|104:216|280:224,1,270.000010299683,2|8,0:0|0:0,0:0:0:0:
448,72,40048,2,0,L|144:40,1,270.000010299683,2|0,0:0|0:0,0:0:0:0:
448,72,40499,1,8,0:0:0:0:
192,184,40649,2,0,L|170:50,1,135.000005149842,2|0,0:0|0:0,0:0:0:0:
192,184,40949,6,0,L|216:352,1,135.000005149842,8|0,0:0|0:0,0:0:0:0:
344,184,41249,1,2,0:0:0:0:
288,56,41400,1,0,0:0:0:0:
182,153,41550,6,0,L|147:319,1,135.000005149842,0|8,0:0|0:0,0:0:0:0:
325,205,41850,1,2,0:0:0:0:
316,65,42000,1,0,0:0:0:0:
192,200,42150,6,0,L|216:32,1,135.000005149842,8|0,0:0|0:0,0:0:0:0:
344,200,42451,1,2,0:0:0:0:
288,328,42601,1,0,0:0:0:0:
183,231,42751,6,0,L|148:64,1,135.000005149842,0|8,0:0|0:0,0:0:0:0:
326,179,43051,1,2,0:0:0:0:
317,319,43201,1,0,0:0:0:0:
73,346,43352,6,0,P|199:381|316:319,1,270.000010299683,8|2,0:0|0:0,0:0:0:0:
400,160,43802,1,0,0:0:0:0:
400,160,43952,2,0,P|384:240|416:328,1,135.000005149842,0|8,0:0|0:0,0:0:0:0:
496,224,44252,2,0,L|304:224,1,135.000005149842,2|0,0:0|0:0,0:0:0:0:
168,224,44553,5,8,0:0:0:0:
168,224,44703,1,0,0:0:0:0:
184,72,44853,2,0,L|320:112,1,135.000005149842,2|0,0:0|0:0,0:0:0:0:
40,136,45153,1,0,0:0:0:0:
96,240,45303,1,8,0:0:0:0:
184,312,45454,2,0,L|320:272,1,135.000005149842,2|0,0:0|0:0,0:0:0:0:
304,56,45754,5,8,0:0:0:0:
432,160,45904,1,0,0:0:0:0:
216,184,46054,2,0,L|152:40,1,135.000005149842,2|0,0:0|0:0,0:0:0:0:
304,328,46355,5,0,0:0:0:0:
432,224,46505,1,8,0:0:0:0:
216,200,46655,2,0,L|152:344,1,135.000005149842,2|0,0:0|0:0,0:0:0:0:
160,96,46955,5,8,0:0:0:0:
408,112,47856,5,8,0:0:0:0:
408,112,47931,1,8,0:0:0:0:
408,112,48006,1,8,0:0:0:0:
408,112,48081,1,8,0:0:0:0:
408,112,48156,6,0,L|440:264,1,135.000005149842,12|0,0:0|0:0,0:0:0:0:
472,352,48457,1,2,0:0:0:0:
304,272,48607,2,0,P|168:264|128:288,1,135.000005149842
48,328,48907,1,8,0:0:0:0:
232,344,49057,2,0,L|240:152,1,135.000005149842,2|0,0:0|0:0,0:0:0:0:
232,40,49358,6,0,L|240:232,1,135.000005149842,8|0,0:0|0:0,0:0:0:0:
360,152,49658,1,2,0:0:0:0:
237,174,49808,1,0,0:0:0:0:
368,160,49958,2,0,P|384:248|432:296,1,135.000005149842,0|8,0:0|0:0,0:0:0:0:
496,344,50258,1,2,0:0:0:0:
464,200,50409,1,0,0:0:0:0:
251,270,50559,6,0,B|179:270|179:270|96:224,1,135.000005149842,8|0,0:0|0:0,0:0:0:0:
273,135,50859,1,2,0:0:0:0:
184,224,51009,6,0,B|150:160|150:160|152:65,1,135.000005149842
314,180,51309,1,8,0:0:0:0:
380,42,51460,2,0,P|456:53|531:75,1,135.000005149842,2|0,0:0|0:0,0:0:0:0:
421,197,51760,6,0,P|345:186|270:164,1,135.000005149842,8|0,0:0|0:0,0:0:0:0:
176,304,52060,2,0,L|304:264,1,135.000005149842,2|0,0:0|0:0,0:0:0:0:
80,224,52361,2,0,L|40:384,1,135.000005149842,0|8,0:0|0:0,0:0:0:0:
120,64,52661,1,2,0:0:0:0:
120,64,52961,6,0,L|144:232,1,135.000005149842,8|0,0:0|0:0,0:0:0:0:
392,64,53261,2,0,L|368:232,1,135.000005149842,8|0,0:0|0:0,0:0:0:0:
144,42,53562,6,0,L|138:211,1,135.000005149842,8|0,0:0|0:0,0:0:0:0:
367,42,53862,2,0,L|373:211,1,135.000005149842,8|0,0:0|0:0,0:0:0:0:
171,25,54162,6,0,L|137:191,1,135.000005149842,8|0,0:0|0:0,0:0:0:0:
340,25,54463,2,0,L|374:191,1,135.000005149842,8|0,0:0|0:0,0:0:0:0:
256,143,54763,6,0,L|256:8,1,135.000005149842,8|0,0:0|0:0,0:0:0:0:
256,241,55063,2,0,L|256:376,1,135.000005149842,8|0,0:0|0:0,0:0:0:0:
280,120,55364,5,8,0:0:0:0:
288,112,55514,1,8,0:0:0:0:
232,64,55664,5,8,0:0:0:0:
224,56,55814,1,8,0:0:0:0:
296,16,55964,5,8,0:0:0:0:
336,144,56114,1,8,0:0:0:0:
328,280,56264,5,8,0:0:0:0:
336,144,56415,1,8,0:0:0:0:
208,160,56565,5,2,0:0:0:0:
472,128,56715,1,0,0:0:0:0:
208,160,56865,5,2,0:0:0:0:
472,128,57015,1,0,0:0:0:0:
248,280,57165,5,2,0:0:0:0:
245,296,57316,1,2,0:0:0:0:
242,313,57466,1,2,0:0:0:0:
239,329,57616,1,10,0:0:0:0:
272,352,57766,5,4,0:0:0:0:
168,152,60168,6,0,P|264:184|296:320,1,225,12|2,0:0|0:0,0:0:0:0:
192,256,60619,1,0,0:0:0:0:
168,152,60769,1,0,0:0:0:0:
302,293,60919,1,8,0:0:0:0:
360,112,61069,1,2,0:0:0:0:
232,224,61219,1,0,0:0:0:0:
456,200,61370,6,0,L|448:72,1,112.5,8|0,0:0|0:0,0:0:0:0:
352,264,61670,2,0,L|392:384,1,112.5,2|0,0:0|0:0,0:0:0:0:
136,288,61970,6,8,L|72:304,1,56.25
136,288,62120,2,8,L|200:304,1,56.25
240,184,62270,6,8,L|176:168,1,56.25,10|8,0:0|0:0,0:0:0:0:
240,184,62421,2,8,L|304:168,1,56.25
80,96,62571,6,0,L|40:344,1,225,12|2,0:0|0:0,0:0:0:0:
168,264,63021,1,0,0:0:0:0:
168,264,63171,2,0,L|296:296,1,112.5,0|8,0:0|0:0,0:0:0:0:
344,120,63472,1,2,0:0:0:0:
232,200,63622,1,0,0:0:0:0:
114,44,63772,6,0,L|192:152,1,112.5,8|0,0:0|0:0,0:0:0:0:
240,216,64072,1,2,0:0:0:0:
304,104,64222,1,0,0:0:0:0:
352,272,64373,6,8,L|424:280,1,56.25
352,272,64523,2,8,L|256:264,1,56.25
184,256,64673,1,2,0:0:0:0:
352,272,64823,2,8,L|408:276,1,56.25
272,336,64973,6,0,P|96:312|48:344,1,225,12|2,0:0|0:0,0:0:0:0:
16,232,65424,1,0,0:0:0:0:
152,200,65574,2,0,L|168:312,1,112.5,0|8,0:0|0:0,0:0:0:0:
256,192,65874,1,2,0:0:0:0:
136,104,66024,1,0,0:0:0:0:
136,112,66174,6,0,L|152:224,1,112.5,8|0,0:0|0:0,0:0:0:0:
280,128,66475,1,2,0:0:0:0:
280,128,66625,1,0,0:0:0:0:
320,319,66775,6,8,L|368:271,1,56.25
400,240,66925,2,8,L|352:288,1,56.25
360,279,67075,6,8,L|408:231,1,56.25,10|8,0:0|0:0,0:0:0:0:
439,200,67225,2,8,L|391:248,1,56.25
369,131,67376,6,0,L|399:239,1,112.5,12|0,0:0|0:0,0:0:0:0:
224,216,67676,1,2,0:0:0:0:
384,195,67826,6,0,L|356:304,1,112.5
216,196,68126,1,8,0:0:0:0:
356,304,68276,2,0,L|384:195,1,112.5,2|0,0:0|0:0,0:0:0:0:
256,312,68577,5,8,0:0:0:0:
168,192,68727,1,0,0:0:0:0:
344,192,68877,1,2,0:0:0:0:
256,72,69027,1,0,0:0:0:0:
256,192,69177,6,8,L|200:224,1,56.25
256,192,69328,6,8,L|256:256,1,56.25
256,192,69478,6,8,L|328:232,1,56.25,10|8,0:0|0:0,0:0:0:0:
256,192,69628,6,8,L|256:128,1,56.25
152,344,69778,6,0,L|0:176,1,225,12|2,0:0|0:0,0:0:0:0:
344,152,70228,1,8,0:0:0:0:
344,152,70303,1,8,0:0:0:0:
344,152,70379,1,8,0:0:0:0:
176,192,70529,1,8,0:0:0:0:
344,152,70679,1,2,0:0:0:0:
152,344,70829,1,0,0:0:0:0:
344,152,70979,6,0,L|344:32,1,112.5,8|0,0:0|0:0,0:0:0:0:
168,344,71279,1,0,0:0:0:0:
168,104,71430,1,8,0:0:0:0:
168,104,71505,1,8,0:0:0:0:
168,104,71580,6,8,L|72:48,1,56.25
119,75,71730,2,8,L|168:104,1,56.25
192,176,71880,6,8,L|220:127,1,56.25,10|8,0:0|0:0,0:0:0:0:
220,127,72030,2,8,L|192:176,1,56.25
272,40,72180,6,0,P|344:128|284:240,1,225,12|2,0:0|0:0,0:0:0:0:
224,136,72631,1,8,0:0:0:0:
224,136,72706,1,8,0:0:0:0:
224,136,72781,2,0,L|368:136,1,112.5,8|8,0:0|0:0,0:0:0:0:
440,136,73081,1,2,0:0:0:0:
336,136,73231,1,0,0:0:0:0:
328,248,73382,6,8,L|456:248,1,112.5,8|0,0:0|0:0,0:0:0:0:
224,136,73682,1,2,0:0:0:0:
128,96,73832,6,0,L|128:192,1,56.25
128,96,73982,2,8,L|128:24,1,56.25
128,248,74132,1,2,0:0:0:0:
232,128,74282,1,0,0:0:0:0:
232,128,74432,2,8,L|192:48,1,56.25
208,192,74583,6,0,B|288:192|288:192|344:216|344:216|440:216,1,225,12|2,0:0|0:0,0:0:0:0:
368,120,75033,1,8,0:0:0:0:
368,120,75108,1,8,0:0:0:0:
368,120,75183,2,0,L|368:192,1,56.25,8|0,0:0|0:0,0:0:0:0:
368,272,75334,1,8,0:0:0:0:
256,104,75484,1,2,0:0:0:0:
256,104,75634,1,0,0:0:0:0:
200,256,75784,6,0,P|136:256|48:272,1,112.5
200,256,76084,1,2,0:0:0:0:
256,56,76234,1,8,0:0:0:0:
256,56,76309,1,8,0:0:0:0:
256,56,76385,6,8,L|256:112,1,56.25
256,112,76535,2,8,L|256:56,1,56.25,10|8,0:0|0:0,0:0:0:0:
256,328,76685,6,8,L|256:271,1,56.25
256,271,76835,2,8,L|256:328,1,56.25
256,192,76985,6,0,B|320:200|320:200|384:192,1,112.5
472,192,77285,1,2,0:0:0:0:
256,192,77436,6,0,B|192:184|192:184|128:192,1,112.5
40,192,77736,1,8,0:0:0:0:
400,160,77886,6,8,L|376:264,1,56.25,10|8,0:0|0:0,0:0:0:0:
400,160,78036,6,8,L|376:264,1,56.25
280,336,78186,6,8,L|304:232,1,56.25
280,336,78337,6,8,L|304:232,1,56.25
152,176,78487,6,8,L|176:280,1,56.25,10|8,0:0|0:0,0:0:0:0:
152,176,78637,6,8,L|176:280,1,56.25
144,80,78787,5,8,0:0:0:0:
144,80,78937,1,8,0:0:0:0:
120,344,79087,1,2,0:0:0:0:
416,136,88547,5,8,0:0:0:0:
152,96,88697,1,2,0:0:0:0:
152,96,88997,6,0,L|176:208,1,107.999996704102,12|0,0:0|0:0,0:0:0:0:
256,136,89297,1,2,0:0:0:0:
200,304,89448,1,0,0:0:0:0:
80,192,89598,2,0,L|0:112,1,107.999996704102,0|8,0:0|0:0,0:0:0:0:
96,326,89898,2,0,P|148:306|232:310,1,107.999996704102,2|0,0:0|0:0,0:0:0:0:
336,288,90198,5,8,0:0:0:0:
336,288,90348,1,0,0:0:0:0:
352,112,90499,2,0,L|240:80,1,107.999996704102,2|0,0:0|0:0,0:0:0:0:
373,235,90799,5,0,0:0:0:0:
373,235,90949,1,8,0:0:0:0:
299,74,91100,2,0,L|186:103,1,107.999996704102,2|0,0:0|0:0,0:0:0:0:
328,280,91400,6,0,P|215:244|250:183,1,215.999993408203,8|2,0:0|0:0,0:0:0:0:
242,188,92000,2,0,L|234:340,1,107.999996704102,0|8,0:0|0:0,0:0:0:0:
248,80,92300,1,2,0:0:0:0:
440,160,92601,6,0,L|320:112,1,107.999996704102,8|0,0:0|0:0,0:0:0:0:
312,264,92901,1,2,0:0:0:0:
339,119,93051,1,0,0:0:0:0:
320,280,93201,6,0,P|309:222|270:179,1,107.999996704102,0|8,0:0|0:0,0:0:0:0:
232,336,93502,2,0,L|336:376,1,107.999996704102,2|0,0:0|0:0,0:0:0:0:
184,176,93802,6,0,L|128:80,1,107.999996704102,12|0,0:0|0:0,0:0:0:0:
256,56,94102,1,2,0:0:0:0:
272,184,94252,1,0,0:0:0:0:
88,168,94403,2,0,L|16:64,1,107.999996704102,0|8,0:0|0:0,0:0:0:0:
152,256,94703,2,0,L|216:344,1,107.999996704102,2|0,0:0|0:0,0:0:0:0:
176,88,95003,6,0,P|152:152|240:104,1,215.999993408203,8|2,0:0|0:0,0:0:0:0:
248,130,95604,2,0,L|200:226,1,107.999996704102,0|8,0:0|0:0,0:0:0:0:
48,40,95904,1,2,0:0:0:0:
48,56,96204,6,0,L|48:168,1,107.999996704102,2|8,0:0|0:0,0:0:0:0:
256,96,96505,1,8,0:0:0:0:
464,144,96655,2,0,L|464:256,1,107.999996704102,2|8,0:0|0:0,0:0:0:0:
256,192,96956,1,8,0:0:0:0:
48,328,97105,2,0,L|48:216,1,107.999996704102,2|8,0:0|0:0,0:0:0:0:
464,56,97406,6,0,L|464:164,1,107.999996704102,2|0,0:0|0:0,0:0:0:0:
256,288,97707,1,0,0:0:0:0:
256,216,97856,1,0,0:0:0:0:
256,144,98006,1,0,0:0:0:0:
256,72,98156,1,0,0:0:0:0:
256,72,98306,6,0,L|256:288,1,215.999993408203,0|12,0:0|0:0,0:0:0:0:
488,200,98757,1,0,0:0:0:0:
424,16,98907,1,2,0:0:0:0:
360,208,99057,2,0,L|464:320,1,135.000005149842
472,160,99358,1,8,0:0:0:0:
296,304,99508,6,0,P|172:268|25:325,1,270.000010299683,2|8,0:0|0:0,0:0:0:0:
120,88,100108,1,2,0:0:0:0:
304,48,100409,2,0,L|416:176,1,135.000005149842,0|8,0:0|0:0,0:0:0:0:
248,192,100709,1,2,0:0:0:0:
208,24,100859,1,0,0:0:0:0:
136,208,101009,6,0,L|80:336,1,135.000005149842,8|0,0:0|0:0,0:0:0:0:
56,128,101309,1,2,0:0:0:0:
56,128,101460,1,0,0:0:0:0:
376,208,101610,6,0,L|432:336,1,135.000005149842,0|8,0:0|0:0,0:0:0:0:
456,128,101910,1,2,0:0:0:0:
456,128,102061,1,0,0:0:0:0:
256,192,102210,6,0,L|256:352,1,135.000005149842,8|0,0:0|0:0,0:0:0:0:
256,57,102511,1,2,0:0:0:0:
256,57,102661,1,0,0:0:0:0:
256,192,102811,6,0,L|256:32,1,135.000005149842,0|8,0:0|0:0,0:0:0:0:
256,327,103112,1,2,0:0:0:0:
256,327,103262,1,0,0:0:0:0:
256,192,103412,6,0,P|144:208|96:344,1,270.000010299683,12|2,0:0|0:0,0:0:0:0:
56,128,103862,2,0,L|56:-24,1,135.000005149842
56,240,104162,1,8,0:0:0:0:
96,344,104313,2,0,P|160:312|224:304,1,135.000005149842,2|0,0:0|0:0,0:0:0:0:
416,40,104613,6,0,B|360:72|360:72|288:80,1,135.000005149842,8|0,0:0|0:0,0:0:0:0:
376,256,104913,1,2,0:0:0:0:
432,160,105063,1,0,0:0:0:0:
245,223,105213,2,0,L|405:263,1,135.000005149842,0|8,0:0|0:0,0:0:0:0:
245,223,105514,1,2,0:0:0:0:
432,160,105664,1,0,0:0:0:0:
224,128,105814,6,0,P|166:161|144:240,1,135.000005149842,8|0,0:0|0:0,0:0:0:0:
144,320,106114,1,2,0:0:0:0:
232,216,106264,1,0,0:0:0:0:
192,223,106415,6,0,P|225:281|304:303,1,135.000005149842,0|8,0:0|0:0,0:0:0:0:
384,304,106715,1,2,0:0:0:0:
279,216,106865,1,0,0:0:0:0:
287,255,107015,5,8,0:0:0:0:
208,120,107916,5,8,0:0:0:0:
205,136,107991,1,8,0:0:0:0:
198,152,108066,1,8,0:0:0:0:
188,165,108141,1,8,0:0:0:0:
168,176,108216,6,0,P|96:160|32:112,1,135.000005149842,12|0,0:0|0:0,0:0:0:0:
240,112,108517,1,2,0:0:0:0:
328,184,108667,2,0,L|304:344,1,135.000005149842
424,296,108967,1,8,0:0:0:0:
248,176,109117,2,0,P|120:200|104:232,1,135.000005149842,2|0,0:0|0:0,0:0:0:0:
320,112,109418,6,0,P|448:88|464:56,1,135.000005149842,8|0,0:0|0:0,0:0:0:0:
368,40,109718,2,0,L|424:216,1,135.000005149842,2|0,0:0|0:0,0:0:0:0:
464,304,110018,1,0,0:0:0:0:
312,288,110168,1,8,0:0:0:0:
408,168,110319,1,2,0:0:0:0:
464,304,110469,1,0,0:0:0:0:
224,176,110619,6,0,B|144:176|144:176|72:208,1,135.000005149842,8|0,0:0|0:0,0:0:0:0:
64,88,110919,1,2,0:0:0:0:
160,264,111069,1,0,0:0:0:0:
144,64,111219,1,0,0:0:0:0:
160,264,111370,1,8,0:0:0:0:
368,64,111520,2,0,P|288:48|216:64,1,135.000005149842,2|0,0:0|0:0,0:0:0:0:
296,144,111820,6,0,P|376:160|448:144,1,135.000005149842,8|0,0:0|0:0,0:0:0:0:
456,32,112120,1,2,0:0:0:0:
472,240,112270,1,0,0:0:0:0:
296,144,112421,2,0,P|208:168|176:232,1,135.000005149842,0|8,0:0|0:0,0:0:0:0:
150,250,112721,2,0,P|155:184|200:136,1,135.000005149842,2|0,0:0|0:0,0:0:0:0:
280,304,113021,6,0,L|120:344,1,135.000005149842,12|0,0:0|0:0,0:0:0:0:
288,176,113322,2,0,L|472:192,1,135.000005149842,2|0,0:0|0:0,0:0:0:0:
240,305,113622,6,0,L|76:288,1,135.000005149842,0|8,0:0|0:0,0:0:0:0:
291,187,113922,2,0,L|458:265,1,135.000005149842,2|0,0:0|0:0,0:0:0:0:
202,293,114222,6,0,L|54:221,1,135.000005149842,8|0,0:0|0:0,0:0:0:0:
290,200,114523,2,0,L|421:330,1,135.000005149842,2|0,0:0|0:0,0:0:0:0:
171,268,114823,6,0,L|168:112,1,135.000005149842,0|8,0:0|0:0,0:0:0:0:
285,211,115123,1,2,0:0:0:0:
288,240,115424,5,6,0:0:0:0:
152,344,115724,1,8,0:0:0:0:
368,304,116024,1,8,0:0:0:0:
104,232,116325,1,8,0:0:0:0:
408,192,116625,5,8,0:0:0:0:
72,128,116925,1,8,0:0:0:0:
456,80,117225,1,8,0:0:0:0:
32,32,117526,1,8,0:0:0:0:
304,136,117826,5,8,0:0:0:0:
304,144,117976,1,8,0:0:0:0:
200,184,118126,5,8,0:0:0:0:
200,192,118276,1,8,0:0:0:0:
328,272,118427,5,8,0:0:0:0:
328,264,118577,1,8,0:0:0:0:
304,152,118727,5,8,0:0:0:0:
200,208,118877,1,8,0:0:0:0:
336,128,119027,5,2,0:0:0:0:
328,352,119177,1,8,0:0:0:0:
368,104,119328,5,2,0:0:0:0:
112,240,119478,1,8,0:0:0:0:
265,86,119628,5,2,0:0:0:0:
269,67,119779,1,2,0:0:0:0:
272,46,119928,1,2,0:0:0:0:
276,27,120079,1,2,0:0:0:0:
236,0,120228,6,0,P|291:123|355:27,1,270.000010299683,12|2,0:0|0:0,0:0:0:0:
288,48,120679,1,0,0:0:0:0:
288,48,120829,2,0,L|304:200,1,135.000005149842,0|8,0:0|0:0,0:0:0:0:
320,312,121129,1,2,0:0:0:0:
216,232,121279,6,0,P|128:208|64:240,1,135.000005149842,0|8,0:0|0:0,0:0:0:0:
144,296,121580,1,0,0:0:0:0:
208,128,121730,2,0,L|192:-24,1,135.000005149842,2|0,0:0|0:0,0:0:0:0:
352,208,122030,6,8,L|464:168,1,67.5000025749208
256,304,122180,2,8,L|136:312,1,67.5000025749208
352,208,122331,6,8,L|464:168,1,67.5000025749208,10|8,0:0|0:0,0:0:0:0:
256,304,122481,2,8,L|136:312,1,67.5000025749208
320,120,122631,6,0,P|400:80|512:224,1,270.000010299683,12|2,0:0|0:0,0:0:0:0:
320,120,123081,1,0,0:0:0:0:
216,256,123231,1,0,0:0:0:0:
368,320,123382,1,8,0:0:0:0:
216,256,123532,1,2,0:0:0:0:
415,185,123682,1,0,0:0:0:0:
216,256,123832,6,0,L|64:240,1,135.000005149842,8|0,0:0|0:0,0:0:0:0:
304,80,124132,1,2,0:0:0:0:
100,329,124282,2,0,L|33:321,1,67.5000025749208
168,336,124433,1,0,0:0:0:0:
33,321,124583,1,8,0:0:0:0:
192,256,124733,1,2,0:0:0:0:
192,100,124883,2,0,L|192:168,1,67.5000025749208
192,256,125033,6,0,P|288:272|208:376,1,270.000010299683,12|2,0:0|0:0,0:0:0:0:
232,312,125484,1,0,0:0:0:0:
343,235,125634,2,0,L|215:323,1,135.000005149842,0|8,0:0|0:0,0:0:0:0:
328,96,125934,1,2,0:0:0:0:
440,328,126084,1,0,0:0:0:0:
246,140,126234,6,0,L|378:269,1,135.000005149842,8|0,0:0|0:0,0:0:0:0:
246,140,126535,1,2,0:0:0:0:
232,312,126685,1,0,0:0:0:0:
360,128,126835,2,8,L|328:24,1,67.5000025749208
375,167,126985,2,8,L|381:58,1,67.5000025749208
288,216,127135,2,8,L|320:112,1,67.5000025749208,10|8,0:0|0:0,0:0:0:0:
272,255,127285,2,8,L|266:146,1,67.5000025749208
152,168,127436,6,0,P|128:64|104:16,1,135.000005149842,12|0,0:0|0:0,0:0:0:0:
168,288,127736,1,2,0:0:0:0:
320,224,127886,6,0,P|344:120|368:72,1,135.000005149842
304,344,128186,1,8,0:0:0:0:
88,200,128337,6,8,L|72:96,1,67.5000025749208,10|8,0:0|0:0,0:0:0:0:
77,133,128487,2,8,L|61:29,1,67.5000025749208
424,184,128637,6,8,L|440:288,1,67.5000025749208
435,251,128787,2,8,L|451:355,1,67.5000025749208
200,136,128937,6,8,L|220:32,1,67.5000025749208,10|8,0:0|0:0,0:0:0:0:
212,69,129087,2,8,L|232:-34,1,67.5000025749208
256,272,129237,6,8,L|152:304,1,67.5000025749208
256,272,129388,2,8,L|320:291,1,67.5000025749208
104,200,129538,6,8,L|0:168,1,67.5000025749208,10|8,0:0|0:0,0:0:0:0:
104,200,129689,2,8,L|168:180,1,67.5000025749208
64,296,129838,6,0,B|112:272|112:272|208:344|208:344|232:272|232:272|280:240|280:240|288:152|288:152|400:272,1,540.000020599366,12|2,0:0|0:0,0:0:0:0:
384,88,130589,2,8,P|392:128|384:192,1,67.5000025749208
384,256,130739,2,8,P|376:224|384:152,1,67.5000025749208
208,192,130889,2,8,P|240:208|272:216,1,67.5000025749208
384,256,131039,6,8,P|349:238|319:234,1,67.5000025749208
184,112,131189,1,8,0:0:0:0:
195,92,131264,1,8,0:0:0:0:
211,76,131339,1,8,0:0:0:0:
231,66,131414,1,8,0:0:0:0:
253,63,131489,1,8,0:0:0:0:
275,68,131564,1,8,0:0:0:0:
296,80,131640,6,0,P|298:155|296:224,1,135.000005149842,2|0,0:0|0:0,0:0:0:0:
432,176,131940,2,0,P|429:100|432:32,1,135.000005149842
376,256,132240,6,0,P|336:176|416:272,1,540.000020599366,12|2,0:0|0:0,0:0:0:0:
456,200,132991,1,8,0:0:0:0:
456,200,133066,1,8,0:0:0:0:
456,200,133141,1,8,0:0:0:0:
456,200,133216,1,8,0:0:0:0:
456,200,133291,1,8,0:0:0:0:
456,200,133367,1,8,0:0:0:0:
456,200,133442,6,0,B|392:232|392:232|304:232,1,135.000005149842,8|0,0:0|0:0,0:0:0:0:
168,224,133742,1,0,0:0:0:0:
360,152,133892,2,0,L|360:256,1,67.5000025749208
360,320,134042,1,2,0:0:0:0:
360,152,134192,1,0,0:0:0:0:
360,328,134343,1,0,0:0:0:0:
360,152,134493,1,0,0:0:0:0:
480,128,134643,6,0,P|344:32|376:272,1,540.000020599366,12|2,0:0|0:0,0:0:0:0:
80,160,135394,1,8,0:0:0:0:
80,160,135469,2,8,L|80:240,1,67.5000025749208
152,104,135619,1,8,0:0:0:0:
152,104,135694,2,8,L|152:176,1,67.5000025749208
152,264,135844,5,8,0:0:0:0:
80,80,135994,1,8,0:0:0:0:
79,68,136069,1,8,0:0:0:0:
82,57,136144,1,8,0:0:0:0:
87,48,136219,1,8,0:0:0:0:
96,41,136294,1,8,0:0:0:0:
106,36,136370,1,8,0:0:0:0:
117,35,136444,5,10,0:0:0:0:
240,160,136595,1,0,0:0:0:0:
128,40,136745,5,0,0:0:0:0:
128,296,136895,1,0,0:0:0:0:
368,144,137045,6,0,L|368:288,1,107.999996704102,12|0,0:0|0:0,0:0:0:0:
464,56,137346,1,0,0:0:0:0:
368,252,137496,6,0,L|259:346,1,107.999996704102,0|2,0:0|0:0,0:0:0:0:
464,56,137796,1,0,0:0:0:0:
224,136,137946,6,8,L|248:40,1,53.9999983520508
232,152,138096,2,8,L|256:56,1,53.9999983520508
288,248,138246,6,8,L|264:344,1,53.9999983520508
280,232,138396,2,8,L|256:328,1,53.9999983520508
176,56,138547,6,8,L|231:-26,1,53.9999983520508
178,73,138697,2,8,L|233:-9,1,53.9999983520508
136,144,138847,5,2,0:0:0:0:
304,144,138997,1,0,0:0:0:0:
141,172,139147,5,0,0:0:0:0:
298,115,139297,1,0,0:0:0:0:
155,197,139448,5,12,0:0:0:0:
208,320,139748,1,8,0:0:0:0:
155,197,139898,1,8,0:0:0:0:
356,186,140649,5,2,0:0:0:0:
304,64,140949,1,8,0:0:0:0:
356,186,141099,1,2,0:0:0:0:
128,112,141850,5,8,0:0:0:0:
128,144,142300,1,8,0:0:0:0:
384,272,143051,5,8,0:0:0:0:
384,112,143352,1,2,0:0:0:0:
384,240,143501,1,8,0:0:0:0:
128,272,144252,5,2,0:0:0:0:
384,112,144703,1,8,0:0:0:0:
384,272,145454,5,2,0:0:0:0:
128,112,145905,1,8,0:0:0:0:
256,192,146655,5,8,0:0:0:0:
256,192,147105,1,8,0:0:0:0:
448,56,147856,6,0,L|448:248,1,180,8|0,0:0|0:0,0:0:0:0:
448,328,148306,2,0,L|448:208,1,90,8|0,0:0|0:0,0:0:0:0:
256,192,148757,12,0,150258,0:0:0:0:
232,280,163472,5,2,0:0:0:0:
256,192,163622,1,8,0:0:0:0:
280,104,163772,1,8,0:0:0:0:
338,230,163922,5,2,0:0:0:0:
256,192,164072,1,8,0:0:0:0:
173,153,164222,1,8,0:0:0:0:
432,104,164373,2,0,L|432:224,1,90,2|8,0:0|0:0,0:0:0:0:
432,280,164673,5,2,0:0:0:0:
432,194,164823,1,8,0:0:0:0:
432,104,164973,1,8,0:0:0:0:
432,280,165123,1,2,0:0:0:0:
344,192,165273,1,8,0:0:0:0:
432,280,165424,1,8,0:0:0:0:
432,104,165574,5,10,0:0:0:0:
432,149,165649,1,10,0:0:0:0:
432,194,165724,1,8,0:0:0:0:
432,239,165799,1,8,0:0:0:0:
432,284,165874,5,10,0:0:0:0:
256,192,166024,1,8,0:0:0:0:
256,192,166174,1,8,0:0:0:0:
432,100,166325,5,2,0:0:0:0:
256,192,166475,1,8,0:0:0:0:
256,192,166625,1,8,0:0:0:0:
256,40,166775,2,0,L|360:8,1,90,2|8,0:0|0:0,0:0:0:0:
104,192,167075,6,0,L|72:88,1,90,2|8,0:0|0:0,0:0:0:0:
256,192,167376,1,8,0:0:0:0:
77,105,167526,1,2,0:0:0:0:
256,192,167676,2,0,L|256:312,1,90,8|8,0:0|0:0,0:0:0:0:
256,102,167976,5,10,0:0:0:0:
256,147,168051,1,10,0:0:0:0:
256,192,168126,1,8,0:0:0:0:
256,237,168201,1,8,0:0:0:0:
256,282,168276,5,10,0:0:0:0:
352,192,168427,1,8,0:0:0:0:
384,64,168577,1,8,0:0:0:0:
256,282,168727,5,2,0:0:0:0:
352,192,168877,1,8,0:0:0:0:
400,64,169027,1,8,0:0:0:0:
281,135,169177,2,0,L|361:199,1,90,2|8,0:0|0:0,0:0:0:0:
231,249,169478,6,0,L|151:185,1,90,2|8,0:0|0:0,0:0:0:0:
112,64,169778,5,8,0:0:0:0:
160,192,169928,1,2,0:0:0:0:
256,282,170078,1,8,0:0:0:0:
128,64,170228,5,8,0:0:0:0:
160,192,170379,5,10,0:0:0:0:
160,192,170454,1,10,0:0:0:0:
160,192,170529,1,8,0:0:0:0:
160,192,170604,1,8,0:0:0:0:
160,192,170679,6,0,L|160:272,1,45,10|0,0:0|0:0,0:0:0:0:
160,328,170829,1,8,0:0:0:0:
208,144,170979,6,0,L|208:232,1,45,2|0,0:0|0:0,0:0:0:0:
208,280,171129,1,8,0:0:0:0:
256,102,171279,6,0,L|256:190,1,45,2|0,0:0|0:0,0:0:0:0:
256,238,171430,1,8,0:0:0:0:
256,57,171580,2,0,L|256:147,1,90,2|8,0:0|0:0,0:0:0:0:
376,120,171880,5,2,0:0:0:0:
136,264,172030,1,2,0:0:0:0:
136,120,172180,5,2,0:0:0:0:
376,264,172331,1,2,0:0:0:0:
256,32,172481,5,2,0:0:0:0:
256,352,172631,1,2,0:0:0:0:
256,32,172781,5,2,0:0:0:0:
256,352,172931,1,2,0:0:0:0:
256,192,173081,6,0,P|344:200|248:232,1,270.000010299683,12|2,0:0|0:0,0:0:0:0:
88,128,173532,2,8,L|200:192,1,67.5000025749208
120,74,173682,2,8,L|203:172,1,67.5000025749208
168,34,173832,2,8,L|213:156,1,67.5000025749208
227,14,173982,6,0,L|224:304,1,270.000010299683,10|8,0:0|0:0,0:0:0:0:
352,144,174433,1,0,0:0:0:0:
227,14,174583,1,2,0:0:0:0:
352,144,174733,1,0,0:0:0:0:
470,20,174883,2,0,L|440:152,1,135.000005149842,0|8,0:0|0:0,0:0:0:0:
492,276,175183,2,0,L|428:124,1,135.000005149842,2|0,0:0|0:0,0:0:0:0:
176,176,175484,6,0,P|304:192|272:312,1,270.000010299683,8|0,0:0|0:0,0:0:0:0:
232,240,175934,2,8,L|320:168,1,67.5000025749208
145,136,176084,2,8,L|251:264,1,135.000005149842
200,72,176385,6,0,P|72:88|104:208,1,270.000010299683,2|8,0:0|0:0,0:0:0:0:
145,136,176985,2,8,L|57:64,1,67.5000025749208
244,19,177135,2,8,L|169:112,1,67.5000025749208
145,136,177285,1,8,0:0:0:0:
145,136,177436,2,0,P|196:197|296:216,1,135.000005149842,8|2,0:0|0:0,0:0:0:0:
307,60,177886,6,0,P|326:194|312:328,1,270.000010299683,12|2,0:0|0:0,0:0:0:0:
152,56,178337,2,8,L|160:160,1,67.5000025749208
136,112,178487,2,8,L|144:216,1,67.5000025749208
128,224,178637,2,8,L|136:120,1,67.5000025749208
232,136,178787,6,0,P|352:80|440:208,1,270.000010299683,10|8,0:0|0:0,0:0:0:0:
438,164,179237,1,0,0:0:0:0:
232,136,179388,1,2,0:0:0:0:
438,164,179538,1,0,0:0:0:0:
224,176,179688,2,0,P|224:112|240:32,1,135.000005149842,0|8,0:0|0:0,0:0:0:0:
344,272,179988,2,0,L|200:336,1,135.000005149842,2|0,0:0|0:0,0:0:0:0:
336,120,180288,6,0,P|464:152|448:320,1,270.000010299683,8|2,0:0|0:0,0:0:0:0:
336,120,180739,2,8,L|264:40,1,67.5000025749208
240,8,180889,2,8,L|62:27,1,135.000005149842
272,288,181189,2,0,L|424:208,1,135.000005149842,2|0,0:0|0:0,0:0:0:0:
272,288,181490,6,0,P|160:248|40:352,1,270.000010299683,8|2,0:0|0:0,0:0:0:0:
176,352,181940,2,8,L|160:248,1,67.5000025749208
128,86,182090,1,8,0:0:0:0:
128,86,182240,1,8,0:0:0:0:
128,86,182391,6,0,L|178:364,1,270.000010299683,2|12,0:0|0:0,0:0:0:0:
304,176,182841,1,0,0:0:0:0:
232,40,182991,1,2,0:0:0:0:
304,176,183141,1,0,0:0:0:0:
400,80,183291,5,0,0:0:0:0:
168,152,183442,1,8,0:0:0:0:
416,80,183592,5,2,0:0:0:0:
152,152,183743,5,0,0:0:0:0:
336,240,183892,6,0,L|320:64,1,135.000005149842,8|0,0:0|0:0,0:0:0:0:
256,304,184192,1,2,0:0:0:0:
256,304,184343,1,0,0:0:0:0:
416,200,184493,2,0,L|520:304,1,135.000005149842,0|8,0:0|0:0,0:0:0:0:
323,105,184793,1,2,0:0:0:0:
416,200,184943,1,0,0:0:0:0:
224,256,185093,6,0,P|240:184|272:288,1,270.000010299683,8|2,0:0|0:0,0:0:0:0:
242,104,185544,2,8,L|168:152,1,67.5000025749208
120,192,185694,1,8,0:0:0:0:
200,0,185844,1,8,0:0:0:0:
200,0,185994,2,0,L|368:192,1,202.500007724762,2|0,0:0|0:0,0:0:0:0:
416,240,186294,6,0,P|400:168|368:272,1,270.000010299683,8|2,0:0|0:0,0:0:0:0:
176,320,186745,2,8,L|184:216,1,67.5000025749208
200,120,186895,1,8,0:0:0:0:
176,320,187045,1,8,0:0:0:0:
200,112,187195,2,0,P|224:184|192:280,1,135.000005149842,2|0,0:0|0:0,0:0:0:0:
128,192,187496,6,0,B|160:176|160:176|304:176,1,135.000005149842,12|0,0:0|0:0,0:0:0:0:
400,184,187796,1,2,0:0:0:0:
128,192,187946,1,0,0:0:0:0:
384,192,188096,6,0,B|352:176|352:176|208:176,1,135.000005149842,0|8,0:0|0:0,0:0:0:0:
112,184,188396,1,2,0:0:0:0:
384,192,188546,1,0,0:0:0:0:
72,112,188697,6,0,P|44:230|168:248,1,270.000010299683,8|2,0:0|0:0,0:0:0:0:
72,112,189297,2,0,L|49:-21,1,135.000005149842,0|8,0:0|0:0,0:0:0:0:
163,251,189598,2,0,L|185:384,1,135.000005149842,2|0,0:0|0:0,0:0:0:0:
224,152,189898,6,0,P|336:48|464:80,1,270.000010299683,8|2,0:0|0:0,0:0:0:0:
224,152,190349,2,8,L|256:248,1,67.5000025749208
224,152,190499,1,8,0:0:0:0:
447,198,190649,1,8,0:0:0:0:
447,198,190799,2,0,L|441:64,1,135.000005149842,2|0,0:0|0:0,0:0:0:0:
224,152,191099,5,8,0:0:0:0:
448,200,191249,1,8,0:0:0:0:
441,64,191400,5,10,0:0:0:0:
245,216,191550,1,8,0:0:0:0:
440,64,191700,2,0,P|360:40|312:56,1,135.000005149842,0|8,0:0|0:0,0:0:0:0:
268,279,192000,2,0,P|352:304|432:216,1,202.500007724762,2|0,0:0|0:0,0:0:0:0:
336,216,192300,6,0,L|384:352,1,135.000005149842,8|0,0:0|0:0,0:0:0:0:
288,56,192601,1,2,0:0:0:0:
336,215,192751,1,0,0:0:0:0:
414,325,192901,6,0,L|336:216,1,135.000005149842,0|8,0:0|0:0,0:0:0:0:
264,88,193201,1,2,0:0:0:0:
216,248,193352,1,0,0:0:0:0:
146,132,193502,6,0,L|216:248,1,135.000005149842,8|0,0:0|0:0,0:0:0:0:
80,232,193802,1,2,0:0:0:0:
80,232,193952,1,0,0:0:0:0:
59,98,194102,2,0,L|80:232,1,135.000005149842,0|8,0:0|0:0,0:0:0:0:
432,232,194403,2,0,L|452:98,1,135.000005149842,2|0,0:0|0:0,0:0:0:0:
189,91,194703,6,0,P|166:203|280:184,1,270.000010299683,8|2,0:0|0:0,0:0:0:0:
279,184,195153,2,8,L|279:304,1,67.5000025749208
280,336,195303,1,8,0:0:0:0:
279,184,195454,1,8,0:0:0:0:
416,128,195604,2,0,L|368:280,1,135.000005149842,2|0,0:0|0:0,0:0:0:0:
304,136,195904,6,0,L|280:-24,1,135.000005149842,8|0,0:0|0:0,0:0:0:0:
376,256,196204,1,2,0:0:0:0:
416,128,196355,2,8,L|296:128,1,67.5000025749208
96,128,196505,1,8,0:0:0:0:
348,128,196655,1,8,0:0:0:0:
231,128,196805,2,0,L|96:128,1,135.000005149842,2|0,0:0|0:0,0:0:0:0:
200,32,197105,5,8,0:0:0:0:
200,32,197255,1,0,0:0:0:0:
216,248,197406,2,0,L|352:296,1,135.000005149842,2|0,0:0|0:0,0:0:0:0:
200,352,197706,5,0,0:0:0:0:
200,352,197856,1,8,0:0:0:0:
216,136,198007,2,0,L|352:88,1,135.000005149842,2|0,0:0|0:0,0:0:0:0:
112,48,198306,5,8,0:0:0:0:
112,48,198457,1,0,0:0:0:0:
128,224,198607,2,0,L|80:368,1,135.000005149842,2|0,0:0|0:0,0:0:0:0:
288,200,198907,6,0,B|360:184|395:187|467:243,1,135.000005149842,0|8,0:0|0:0,0:0:0:0:
261,67,199207,2,0,L|293:227,1,135.000005149842,2|0,0:0|0:0,0:0:0:0:
432,96,199508,6,0,P|320:184|304:328,1,270.000010299683,8|2,0:0|0:0,0:0:0:0:
176,176,199958,2,8,L|176:56,1,67.5000025749208
176,16,200108,1,8,0:0:0:0:
176,16,200258,1,8,0:0:0:0:
272,72,200409,2,0,L|144:112,1,135.000005149842,2|0,0:0|0:0,0:0:0:0:
240,312,200709,6,0,L|368:272,1,135.000005149842,8|0,0:0|0:0,0:0:0:0:
168,208,201009,1,2,0:0:0:0:
168,208,201159,1,0,0:0:0:0:
376,176,201309,6,8,L|488:136,1,67.5000025749208
136,208,201460,2,8,L|24:248,1,67.5000025749208
374,218,201610,6,8,L|493:218,1,67.5000025749208,10|8,0:0|0:0,0:0:0:0:
137,165,201761,2,8,L|18:165,1,67.5000025749208,10|8,0:0|0:0,0:0:0:0:
256,192,201910,12,8,209117,0:0:0:0:
