osu file format v14

[General]
AudioFilename: audio.mp3
AudioLeadIn: 0
PreviewTime: 38417
Countdown: 0
SampleSet: Soft
StackLeniency: 0.7
Mode: 0
LetterboxInBreaks: 0
WidescreenStoryboard: 1

[Editor]
Bookmarks: 58892
DistanceSpacing: 1.8
BeatDivisor: 4
GridSize: 32
TimelineZoom: 1

[Metadata]
Title:Say Goodbye (Sped Up & Cut Ver.)
TitleUnicode:Say Goodbye (Sped Up & Cut Ver.)
Artist:Krewella
ArtistUnicode:Krewella
Creator:Sotarks
Version:toybot's Insane
Source:
Tags:dubstep nightcore sped speed up drum n and bass dnb english vocalist electronic armin a_r_m_i_n schoolboy komore toybot vikala pepekcz basensorex short ver version
BeatmapID:3320177
BeatmapSetID:1620540

[Difficulty]
HPDrainRate:5
CircleSize:4
OverallDifficulty:8
ApproachRate:9
SliderMultiplier:1.5
SliderTickRate:1

[Events]
//Background and Video events
0,0,"BG.jpg",0,0
//Break Periods
//Storyboard Layer 0 (Background)
//Storyboard Layer 1 (Fail)
//Storyboard Layer 2 (Pass)
//Storyboard Layer 3 (Foreground)
//Storyboard Layer 4 (Overlay)
//Storyboard Sound Samples

[TimingPoints]
92,300,4,2,22,70,1,0
9392,-200,4,2,22,70,0,0
9692,-200,4,2,22,60,0,0
11792,-200,4,2,22,70,0,0
12092,-200,4,2,22,60,0,0
18092,-166.666666666667,4,2,22,60,0,0
18542,-142.857142857143,4,2,22,60,0,0
20492,-100,4,2,22,60,0,0
21242,-100,4,2,22,70,0,0
21692,-142.857142857143,4,2,22,60,0,0
22892,-100,4,2,22,60,0,0
23042,-100,4,2,22,70,0,0
23192,-100,4,2,22,60,0,0
23642,-100,4,2,22,70,0,0
24092,-142.857142857143,4,2,22,60,0,0
25292,-100,4,2,22,60,0,0
28742,-100,4,2,22,70,0,0
28892,-200,4,2,22,65,0,0
29867,-200,4,2,22,70,0,0
30092,-200,4,2,22,65,0,0
31067,-200,4,2,22,70,0,0
31292,-200,4,2,22,65,0,0
32267,-200,4,2,22,70,0,0
32492,-200,4,2,22,65,0,0
33617,-200,4,2,22,70,0,0
33692,-100,4,2,22,70,0,0
36092,-100,4,2,22,75,0,0
37292,-500,4,2,22,75,0,0
37442,-500,4,2,22,70,0,0
38042,-142.857142857143,4,2,22,70,0,0
38416,-142.857142857143,4,2,22,5,0,0
38492,-100,4,2,22,80,0,0
41042,-100,4,2,22,70,0,0
41192,-100,4,2,22,80,0,0
41417,-100,4,2,22,70,0,0
41492,-100,4,2,22,80,0,0
42017,-100,4,2,22,70,0,0
42092,-100,4,2,22,80,0,0
43217,-100,4,2,22,70,0,0
43292,-100,4,2,22,80,0,0
46892,-200,4,2,22,70,0,0
48092,-100,4,2,22,80,0,0
49442,-100,4,2,22,70,0,0
49592,-100,4,2,22,80,0,0
52892,-100,4,2,22,70,0,0
55292,-100,4,2,22,80,0,0
57692,-100,4,2,22,60,0,0
58592,-100,4,2,22,70,0,0
58892,-100,4,2,22,60,0,0
59042,-100,4,2,22,70,0,0

[Colours]
Combo1 : 155,198,196
Combo2 : 252,214,252
Combo3 : 123,164,225

[HitObjects]
43,40,4892,5,8,0:0:0:0:
43,40,5342,1,8,0:3:0:0:
469,344,6092,5,8,0:0:0:0:
469,344,6542,1,8,0:0:0:0:
21,139,7292,5,8,0:0:0:0:
21,139,7742,1,8,0:3:0:0:
491,245,8492,5,8,0:0:0:0:
509,128,8792,1,8,0:0:0:0:
491,245,8942,2,0,B|487:187|474:134|473:95,1,150,8|0,0:3|0:0,0:0:0:0:
417,355,9392,6,0,P|395:337|346:337,1,75,0|4,0:0|3:0,0:0:0:0:
159,328,9992,1,2,2:0:0:0:
159,328,10142,2,0,P|191:322|272:316,1,112.5,0|2,1:2|2:0,0:0:0:0:
95,371,10892,2,0,P|72:371|35:337,1,75,10|2,2:3|2:0,0:0:0:0:
6,266,11342,2,0,P|41:249|52:169,1,112.5,8|0,2:3|0:0,0:0:0:0:
241,30,12092,5,4,2:3:0:0:
178,83,12392,1,2,2:0:0:0:
178,83,12542,2,0,P|189:133|195:197,1,112.5,4|2,2:3|2:0,0:0:0:0:
321,316,13292,2,0,P|357:310|378:280,1,75,8|10,2:3|2:0,0:0:0:0:
431,222,13742,2,0,P|425:186|422:141,1,75,0|0,1:2|2:0,0:0:0:0:
311,203,14192,1,2,2:0:0:0:
311,203,14342,1,2,2:0:0:0:
373,68,14492,6,0,B|312:55|317:73|256:64,1,112.5,8|0,2:3|1:0,0:0:0:0:
43,41,15392,1,2,2:0:0:0:
43,41,15692,2,0,P|59:67|73:119,1,75,10|2,2:3|2:0,0:0:0:0:
99,248,16142,2,0,P|105:211|120:176,1,75,8|0,2:3|2:0,0:0:0:0:
199,145,16592,1,2,2:0:0:0:
199,145,16892,6,0,P|225:144|261:189,1,75,6|0,2:3|2:0,0:0:0:0:
368,198,17342,2,0,P|347:228|311:234,1,75,6|0,2:3|2:0,0:0:0:0:
224,289,17792,2,0,P|223:270|232:254,1,37.5,2|0,2:0|2:0,0:0:0:0:
387,208,18092,6,0,P|355:239|312:239,1,89.9999972534181,10|8,2:3|2:0,0:0:0:0:
195,111,18542,2,0,P|241:132|259:180,1,104.999996795654,2|0,1:2|2:0,0:0:0:0:
160,340,18992,1,2,2:0:0:0:
160,340,19292,6,0,P|104:342|55:348,1,104.999996795654,8|2,2:3|2:0,0:0:0:0:
234,375,19742,2,0,P|267:350|336:347,1,104.999996795654,0|0,1:2|2:0,0:0:0:0:
464,342,20192,2,0,P|410:341|392:339,1,52.4999983978272,2|0,2:0|2:0,0:0:0:0:
250,251,20492,6,0,P|263:205|356:194,1,150,10|2,2:3|2:0,0:0:0:0:
256,254,20942,2,0,P|240:207|143:198,1,150,8|0,2:3|0:0,0:0:0:0:
258,108,21392,1,0,0:0:0:0:
258,108,21692,6,0,B|258:48|268:62|263:-12,1,104.999996795654,4|2,2:3|2:0,0:0:0:0:
340,82,22142,2,0,P|366:85|421:29,1,104.999996795654,4|0,2:3|2:0,0:0:0:0:
481,152,22592,2,0,P|481:129|476:99,1,52.4999983978272,2|0,2:0|2:0,0:0:0:0:
388,212,22892,6,0,P|411:245|465:246,1,75,10|0,2:3|0:0,0:0:0:0:
289,316,23192,1,10,2:0:0:0:
447,257,23342,2,0,P|459:193|371:140,1,150,0|0,1:2|0:0,0:0:0:0:
286,323,23792,2,0,P|310:355|388:357,1,112.5
374,357,24092,6,0,P|294:359|216:364,1,157.499995193482,8|0,2:3|1:0,0:0:0:0:
76,340,24842,1,0,2:0:0:0:
76,340,24992,2,0,P|64:308|72:273,1,52.4999983978272,2|0,2:0|2:0,0:0:0:0:
169,251,25292,6,0,P|100:271|76:340,1,150,10|2,2:3|2:0,0:0:0:0:
246,227,25742,2,0,P|187:223|142:134,1,150,8|0,2:3|2:0,0:0:0:0:
329,197,26192,1,2,2:0:0:0:
329,197,26492,6,0,P|415:218|402:270,1,150,6|0,2:3|2:0,0:0:0:0:
259,143,26942,2,0,P|234:84|321:56,1,150,6|0,2:3|2:0,0:0:0:0:
250,230,27392,2,0,P|215:259|171:251,1,75,2|0,2:0|2:0,0:0:0:0:
31,140,27692,6,0,P|58:183|160:180,1,150,10|8,2:3|2:0,0:0:0:0:
326,262,28142,2,0,P|255:280|223:345,1,150,2|0,1:2|2:0,0:0:0:0:
445,292,28592,2,0,P|464:260|465:223,1,75,2|0,2:0|0:0,0:0:0:0:
486,35,28892,5,2,1:2:0:0:
442,32,29042,1,2,2:0:0:0:
385,45,29192,1,2,2:0:0:0:
318,74,29342,1,2,2:0:0:0:
236,93,29492,1,2,2:0:0:0:
137,86,29642,1,2,2:0:0:0:
26,33,29792,6,0,B|34:29|34:29|36:38,1,18.75,2|0,2:0|0:0,0:0:0:0:
36,38,30092,5,2,2:0:0:0:
20,92,30242,1,2,2:0:0:0:
27,167,30392,1,2,2:0:0:0:
65,229,30542,1,2,2:0:0:0:
130,274,30692,1,2,2:0:0:0:
216,289,30842,1,2,2:0:0:0:
316,236,30992,6,0,B|308:228|308:228|308:241,1,18.75,2|0,2:0|0:0,0:0:0:0:
463,341,31292,5,2,2:0:0:0:
487,289,31442,1,2,2:0:0:0:
442,332,31592,1,2,2:0:0:0:
370,349,31742,1,2,2:0:0:0:
285,342,31892,1,2,2:0:0:0:
190,317,32042,1,2,2:0:0:0:
45,334,32192,6,0,B|38:339|38:339|54:338,1,18.75,2|0,2:0|0:0,0:0:0:0:
155,177,32492,5,2,2:0:0:0:
136,106,32642,1,2,2:0:0:0:
190,51,32792,1,2,2:0:0:0:
279,66,32942,1,2,2:0:0:0:
306,161,33092,1,2,2:0:0:0:
240,250,33242,1,2,2:0:0:0:
71,254,33392,6,0,B|66:243|66:243|97:235|97:235|97:249,1,56.25,2|0,2:0|0:0,0:0:0:0:
87,258,33692,6,0,L|90:168,1,75,2|2,1:2|2:0,0:0:0:0:
216,360,33992,2,0,L|220:286,1,75,2|2,1:2|2:0,0:0:0:0:
356,251,34292,2,0,L|363:155,1,75,2|2,1:2|2:0,0:0:0:0:
506,352,34592,6,0,B|436:341|462:365|366:351,1,112.5,2|0,1:2|0:0,0:0:0:0:
394,354,34892,6,0,P|445:336|458:288,1,75,2|2,1:2|2:0,0:0:0:0:
254,202,35192,2,0,L|249:102,1,75,2|2,1:2|2:0,0:0:0:0:
102,334,35492,2,0,P|42:327|18:290,1,75,2|2,1:2|2:0,0:0:0:0:
216,59,35792,6,0,B|239:38|239:9|239:9|246:39|274:53,1,112.5,2|0,1:2|0:0,0:0:0:0:
254,128,36092,5,2,1:2:0:0:
173,301,36242,1,2,1:2:0:0:
277,243,36392,5,2,1:2:0:0:
89,219,36542,1,2,1:2:0:0:
169,296,36692,5,2,1:2:0:0:
143,111,36842,1,2,1:2:0:0:
89,213,36992,5,0,1:2:0:0:
258,132,37142,1,2,1:2:0:0:
185,206,37292,6,0,L|183:185,3,15,2|2|2|2,2:0|0:0|0:0|0:0,0:0:0:0:
261,341,37892,1,2,0:0:0:0:
267,338,38042,2,0,B|345:331|323:342|418:333,1,131.249995994568,2|0,0:0|2:0,0:0:0:0:
503,235,38492,6,0,P|437:240|386:326,1,150,6|8,1:2|2:0,0:0:0:0:
268,176,38942,2,0,L|362:160,1,75,2|0,2:0|2:0,0:0:0:0:
265,261,39242,1,0,1:2:0:0:
423,148,39392,6,0,P|381:151|311:68,1,150,10|0,2:0|1:2,0:0:0:0:
129,360,39992,2,0,P|125:288|108:187,1,150,10|0,2:0|2:0,0:0:0:0:
223,345,40442,1,0,1:2:0:0:
29,269,40592,1,8,2:0:0:0:
220,72,40892,6,0,P|179:40|131:50,1,75,2|0,1:2|0:0,0:0:0:0:
322,177,41192,2,0,P|349:122|326:55,1,112.5,8|0,2:0|0:0,0:0:0:0:
339,73,41492,1,2,2:0:0:0:
228,166,41642,1,0,1:2:0:0:
343,274,41792,2,0,B|411:263|394:283|476:269,1,112.5,8|0,2:0|0:0,0:0:0:0:
492,338,42092,6,0,P|498:280|519:167,1,150,2|8,1:2|2:0,0:0:0:0:
413,25,42542,1,0,2:0:0:0:
433,119,42692,1,2,2:0:0:0:
509,59,42842,1,0,1:2:0:0:
333,90,42992,2,0,P|352:143|358:226,1,112.5,10|0,2:0|0:0,0:0:0:0:
358,198,43292,6,0,P|336:152|238:145,1,150,2|8,1:2|2:0,0:0:0:0:
126,264,43742,2,0,L|111:355,1,75,2|0,2:0|2:0,0:0:0:0:
247,247,44042,1,0,1:2:0:0:
113,338,44192,6,0,P|155:298|126:186,1,150,10|0,2:0|1:2,0:0:0:0:
182,25,44792,2,0,P|105:37|33:49,1,150,10|0,2:0|2:0,0:0:0:0:
202,116,45242,1,0,1:2:0:0:
340,74,45392,2,0,L|245:58,1,75,10|0,2:0|2:0,0:0:0:0:
71,151,45692,6,0,B|145:136|130:212|219:197,1,150,2|8,1:2|2:0,0:0:0:0:
294,170,46142,1,0,2:0:0:0:
273,259,46292,1,2,2:0:0:0:
202,116,46442,1,0,1:2:0:0:
388,169,46592,2,0,P|410:206|395:260,1,75,8|0,2:0|2:0,0:0:0:0:
493,55,46892,6,0,B|490:41|505:29|505:29|463:8|424:54|450:99,1,150,2|2,1:2|0:0,0:0:0:0:
448,96,47792,1,2,3:2:0:0:
372,132,48092,6,0,P|445:132|498:183,1,150,6|8,1:2|2:0,0:0:0:0:
288,172,48542,2,0,P|281:127|285:68,1,75,2|0,2:0|2:0,0:0:0:0:
332,31,48842,1,0,1:2:0:0:
346,245,48992,6,0,P|285:300|199:272,1,150,10|0,2:0|1:2,0:0:0:0:
263,200,49442,1,0,0:0:0:0:
140,329,49592,2,0,P|139:296|132:254,1,75,10|0,2:0|2:0,0:0:0:0:
89,25,49892,2,0,P|62:57|69:112,1,75,2|0,2:0|1:2,0:0:0:0:
217,119,50192,2,0,P|197:151|163:165,1,75,10|0,2:0|2:0,0:0:0:0:
292,95,50492,6,0,B|208:81|230:109|143:91,1,150,2|10,1:2|2:0,0:0:0:0:
0,220,50942,2,0,P|39:197|84:188,1,75,2|0,2:0|2:0,0:0:0:0:
225,250,51242,1,0,1:2:0:0:
154,371,51392,6,0,P|150:302|141:221,2,150,10|0|10,2:0|1:2|2:0,0:0:0:0:
75,363,52142,2,0,P|69:330|65:288,1,75,0|2,2:0|2:0,0:0:0:0:
141,221,52442,1,0,1:2:0:0:
306,311,52592,2,0,P|275:332|228:328,1,75,10|0,2:0|2:0,0:0:0:0:
79,171,52892,5,6,1:2:0:0:
79,171,53192,1,2,1:2:0:0:
433,213,53492,1,2,1:2:0:0:
433,213,53792,1,2,1:2:0:0:
155,237,54092,5,0,1:2:0:0:
155,237,54392,1,2,1:2:0:0:
357,147,54692,1,2,1:2:0:0:
357,147,54992,1,2,1:2:0:0:
214,166,55292,5,2,1:2:0:0:
302,216,55442,1,0,1:2:0:0:
214,166,55592,2,0,P|207:119|196:75,1,75,2|0,1:2|1:2,0:0:0:0:
302,216,55892,2,0,P|310:269|319:314,1,75,2|0,1:2|1:2,0:0:0:0:
383,50,56192,1,2,1:2:0:0:
383,50,56342,1,0,1:2:0:0:
304,91,56492,5,8,2:0:0:0:
453,119,56642,1,0,1:2:0:0:
304,91,56792,5,8,2:0:0:0:
453,119,56942,1,0,1:2:0:0:
305,221,57092,5,8,2:0:0:0:
418,196,57242,1,8,2:0:0:0:
378,319,57392,5,8,2:0:0:0:
437,273,57542,1,8,2:0:0:0:
488,357,57692,6,0,P|258:343|38:330,1,450,6|2,2:0|0:0,0:0:0:0:
37,329,58892,5,2,2:0:0:0:
29,307,59042,1,2,0:0:0:0:
29,274,59192,1,2,0:0:0:0:
51,229,59342,1,2,0:0:0:0:
117,197,59492,1,2,0:0:0:0:
205,199,59642,1,2,0:0:0:0:
290,254,59792,1,2,0:0:0:0:
330,365,59942,1,2,0:0:0:0:
427,210,60092,6,0,B|419:142|419:142|421:136|421:136|412:49,1,150,4|8,1:2|2:0,0:0:0:0:
319,24,60542,1,0,2:0:0:0:
265,131,60692,2,0,B|290:156|290:156|334:148,1,75,2|6,2:0|1:3,0:0:0:0:
218,61,60992,1,10,2:0:0:0:
120,147,61142,6,0,P|81:143|45:138,1,75,2|0,2:0|1:2,0:0:0:0:
119,325,61442,1,2,2:0:0:0:
0,261,61592,2,0,B|74:275|60:225|157:243,1,150,8|0,2:0|2:0,0:0:0:0:
222,301,62042,1,4,1:3:0:0:
322,299,62192,1,8,2:0:0:0:
376,223,62342,1,0,2:0:0:0:
352,69,62492,6,0,B|275:59|275:59|272:55|272:55|176:44,1,150,4|8,1:2|2:0,0:0:0:0:
205,47,63092,2,0,B|193:83|193:83|216:124,1,75,2|6,2:0|1:3,0:0:0:0:
309,238,63392,1,10,2:0:0:0:
113,268,63542,6,0,P|143:221|250:212,1,150,2|2,2:0|2:0,0:0:0:0:
211,342,63992,1,8,2:0:0:0:
372,329,64142,2,0,P|333:322|297:318,1,75,2|0,2:0|2:0,0:0:0:0:
427,255,64442,1,0,1:0:0:0:
486,187,64592,1,8,0:0:0:0:
457,102,64742,1,0,0:0:0:0:
355,16,64892,6,0,B|363:84|363:84|360:90|360:90|372:196,1,150,4|8,1:2|2:0,0:0:0:0:
457,102,65342,1,0,2:0:0:0:
275,71,65492,2,0,B|229:64|229:64|254:92,1,75,2|6,2:0|1:3,0:0:0:0:
319,233,65792,1,10,2:0:0:0:
165,253,65942,6,0,P|173:216|177:179,1,75,2|0,2:0|1:2,0:0:0:0:
266,165,66242,1,2,2:0:0:0:
245,327,66392,2,0,B|165:313|177:357|91:346,1,150,8|0,2:0|2:0,0:0:0:0:
15,288,66842,1,4,1:3:0:0:
0,195,66992,1,8,2:0:0:0:
56,113,67142,1,0,2:0:0:0:
212,75,67292,6,0,P|216:131|147:95,1,150,6|10,1:2|2:0,0:0:0:0:
416,190,67742,2,0,B|328:172|355:219|252:198,1,150,2|6,2:0|1:3,0:0:0:0:
162,346,68192,2,0,P|165:311|238:326,1,112.5,10|0,2:0|0:0,0:0:0:0:
229,307,68492,5,2,1:2:0:0:
384,293,68642,1,2,1:2:0:0:
250,223,68792,1,2,1:2:0:0:
317,355,68942,1,2,1:2:0:0:
345,214,69092,1,0,1:2:0:0:
235,312,69242,1,4,1:3:0:0:
451,350,69392,2,0,L|467:166,1,150,8|2,0:0|0:0,0:0:0:0:
