osu file format v14

[General]
AudioFilename: audio.mp3
AudioLeadIn: 0
PreviewTime: 38417
Countdown: 0
SampleSet: Soft
StackLeniency: 0.7
Mode: 0
LetterboxInBreaks: 0
WidescreenStoryboard: 1

[Editor]
Bookmarks: 58892
DistanceSpacing: 1.6
BeatDivisor: 4
GridSize: 32
TimelineZoom: 1

[Metadata]
Title:Say Goodbye (Sped Up & Cut Ver.)
TitleUnicode:Say Goodbye (Sped Up & Cut Ver.)
Artist:Krewella
ArtistUnicode:Krewella
Creator:Sotarks
Version:schoolboy's Expert
Source:
Tags:dubstep nightcore sped speed up drum n and bass dnb english vocalist electronic armin a_r_m_i_n schoolboy komore toybot vikala pepekcz basensorex short ver version
BeatmapID:3319172
BeatmapSetID:1620540

[Difficulty]
HPDrainRate:5
CircleSize:3.8
OverallDifficulty:8.5
ApproachRate:9
SliderMultiplier:1.62
SliderTickRate:1

[Events]
//Background and Video events
0,0,"BG.jpg",0,0
//Break Periods
//Storyboard Layer 0 (Background)
//Storyboard Layer 1 (Fail)
//Storyboard Layer 2 (Pass)
//Storyboard Layer 3 (Foreground)
//Storyboard Layer 4 (Overlay)
//Storyboard Sound Samples

[TimingPoints]
92,300,4,2,22,70,1,0
9692,-121.951219512195,4,2,22,60,0,0
11492,-370.37037037037,4,2,22,60,0,0
12092,-121.951219512195,4,2,22,60,0,0
13892,-370.37037037037,4,2,22,60,0,0
14792,-121.951219512195,4,2,22,60,0,0
16292,-370.37037037037,4,2,22,60,0,0
17192,-121.951219512195,4,2,22,60,0,0
18992,-370.37037037037,4,2,22,60,0,0
19292,-121.951219512195,4,2,22,60,0,0
21092,-370.37037037037,4,2,22,60,0,0
21992,-121.951219512195,4,2,22,60,0,0
23492,-370.37037037037,4,2,22,60,0,0
24092,-121.951219512195,4,2,22,60,0,0
25892,-370.37037037037,4,2,22,60,0,0
26792,-121.951219512195,4,2,22,60,0,0
27992,-121.951219512195,4,2,22,60,0,0
28892,-121.951219512195,4,2,22,65,0,0
29792,-83.3333333333333,4,2,22,65,0,0
30092,-161.290322580645,4,2,22,65,0,0
30992,-83.3333333333333,4,2,22,65,0,0
31292,-121.951219512195,4,2,22,65,0,0
32192,-83.3333333333333,4,2,22,65,0,0
32492,-121.951219512195,4,2,22,65,0,0
33392,-83.3333333333333,4,2,22,65,0,0
33692,-192.307692307692,4,2,22,70,0,0
34292,-454.545454545455,4,2,22,70,0,0
34892,-117.647058823529,4,2,22,70,0,0
35192,-83.3333333333333,4,2,22,70,0,0
35492,-117.647058823529,4,2,22,70,0,0
35792,-83.3333333333333,4,2,22,70,0,0
36092,-83.3333333333333,4,2,22,75,0,0
37292,-192.307692307692,4,2,22,75,0,0
38042,-909.090909090909,4,2,22,75,0,0
38417,-909.090909090909,4,2,22,5,0,0
38492,-98.0392156862745,4,2,22,80,0,0
46892,-285.714285714284,4,2,22,70,0,0
48092,-56.4971751412429,4,2,22,80,0,0
50192,-112.359550561798,4,2,22,80,0,0
50492,-56.4971751412429,4,2,22,80,0,0
52892,-42.9184549356223,4,2,22,70,0,0
55292,-42.9184549356223,4,2,22,80,0,0
56492,-33.3333333333333,4,2,22,80,0,0
57692,-133.333333333333,4,2,22,60,0,0
58892,-222.222222222221,4,2,22,60,0,0
59192,-666.666666666658,4,2,22,60,0,0
59417,-222.222222222221,4,2,22,60,0,0
60092,-81.3008130081301,4,2,22,70,0,0
61892,-66.6666666666667,4,2,22,70,0,0
62342,-133.333333333333,4,2,22,70,0,0
62492,-81.3008130081301,4,2,22,70,0,0

[Colours]
Combo1 : 155,198,196
Combo2 : 252,214,252
Combo3 : 123,164,225

[HitObjects]
53,364,4892,6,0,L|60:389,1,20.25,8|0,0:0|0:0,0:0:0:0:
138,328,5342,2,0,L|131:353,1,20.25,8|0,0:3|0:0,0:0:0:0:
459,364,6092,2,0,L|452:389,1,20.25,8|0,0:0|0:0,0:0:0:0:
374,328,6542,2,0,L|381:353,1,20.25,8|0,0:0|0:0,0:0:0:0:
481,33,7292,6,0,L|457:40,1,20.25,8|0,0:0|0:0,0:0:0:0:
509,124,7742,2,0,L|480:118,1,20.25,8|0,0:3|0:0,0:0:0:0:
31,33,8492,2,0,L|55:40,1,20.25,8|0,0:0|0:0,0:0:0:0:
134,61,8792,1,8,0:0:0:0:
3,124,8942,2,0,L|32:118,1,20.25,8|0,0:3|0:0,0:0:0:0:
255,43,9392,6,0,L|254:30,9,13.5
274,291,9692,1,4,3:0:0:0:
285,299,9992,6,0,P|318:298|343:277,1,66.4200010134888,2|0,2:0|1:2,0:0:0:0:
156,267,10292,2,0,P|182:299|183:327,1,66.4200010134888,2|0,2:0|2:0,0:0:0:0:
366,173,10592,2,0,P|340:141|339:113,1,66.4200010134888,2|0,2:0|2:0,0:0:0:0:
171,156,10892,6,0,P|203:157|235:180,1,66.4200010134888,10|0,2:3|0:0,0:0:0:0:
261,69,11192,2,0,P|228:67|200:49,1,66.4200010134888,2|8,2:0|2:3,0:0:0:0:
14,232,11492,6,0,P|42:234|76:208,1,65.6100016018067,2|0,2:0|2:0,0:0:0:0:
200,49,12092,1,4,2:3:0:0:
213,60,12392,6,0,P|211:93|184:132,1,66.4200010134888,2|4,2:0|2:3,0:0:0:0:
295,339,12692,2,0,P|297:306|324:267,1,66.4200010134888,2|0,2:0|2:0,0:0:0:0:
480,211,12992,2,0,P|452:185|416:184,1,66.4200010134888,2|0,2:0|2:0,0:0:0:0:
213,60,13292,6,0,P|185:86|149:87,1,66.4200010134888,8|0,2:3|0:0,0:0:0:0:
0,209,13592,2,0,P|28:235|64:236,1,66.4200010134888,10|0,2:0|1:2,0:0:0:0:
295,339,13892,6,0,P|260:345|236:374,1,65.6100016018067,0|2,0:0|2:0,0:0:0:0:
54,238,14492,1,8,2:3:0:0:
48,225,14792,6,0,P|54:200|103:176,1,66.4200010134888,2|0,2:0|1:0,0:0:0:0:
239,365,15092,2,0,P|214:372|169:341,1,66.4200010134888,2|0,2:0|2:0,0:0:0:0:
375,226,15392,2,0,P|393:243|389:298,1,66.4200010134888,2|0,2:0|2:0,0:0:0:0:
170,96,15692,6,0,P|202:92|227:67,1,66.4200010134888,10|0,2:3|0:0,0:0:0:0:
505,161,15992,2,0,P|473:157|448:132,1,66.4200010134888,2|8,2:0|2:3,0:0:0:0:
239,365,16292,2,0,P|271:361|294:337,1,65.6100016018067,2|0,2:0|2:0,0:0:0:0:
375,85,16892,5,6,2:3:0:0:
384,76,17342,2,0,P|423:79|449:103,1,66.4200010134888,6|0,2:3|0:0,0:0:0:0:
129,356,17717,2,0,P|163:328|171:265,1,99.6300015202332,2|0,0:0|2:0,0:0:0:0:
10,154,18092,6,0,P|11:189|33:213,1,66.4200010134888,10|0,2:3|0:0,0:0:0:0:
190,11,18392,1,8,2:0:0:0:
107,42,18542,2,0,P|85:67|87:112,1,66.4200010134888,2|0,1:2|0:0,0:0:0:0:
300,318,18917,2,0,P|288:261|230:233,1,99.6300015202332,2|0,0:0|0:0,0:0:0:0:
9,362,19292,5,8,2:3:0:0:
17,357,19592,2,0,P|48:356|87:384,1,66.4200010134888,2|0,2:0|1:2,0:0:0:0:
317,253,19892,2,0,P|286:254|247:226,1,66.4200010134888,2|0,2:0|2:0,0:0:0:0:
93,127,20192,2,0,P|112:153|113:190,1,66.4200010134888,2|0,2:0|2:0,0:0:0:0:
451,250,20492,6,0,P|432:224|430:186,1,66.4200010134888,10|0,2:3|0:0,0:0:0:0:
294,13,20792,2,0,P|275:39|273:76,1,66.4200010134888,2|8,2:0|2:3,0:0:0:0:
55,262,21092,6,0,P|33:234|35:197,1,65.6100016018067,2|0,2:0|2:0,0:0:0:0:
243,359,21692,1,4,2:3:0:0:
232,352,21992,6,0,P|200:355|169:384,1,66.4200010134888,2|4,2:0|2:3,0:0:0:0:
128,268,22292,2,0,P|160:265|191:236,1,66.4200010134888,2|0,2:0|2:0,0:0:0:0:
436,170,22592,2,0,P|404:167|373:138,1,66.4200010134888,2|0,2:0|2:0,0:0:0:0:
204,8,22892,6,0,P|225:28|228:73,1,66.4200010134888,10|0,2:3|0:0,0:0:0:0:
5,204,23192,2,0,P|9:171|31:148,1,66.4200010134888,10|0,2:0|1:2,0:0:0:0:
244,324,23492,6,0,P|218:350|184:350,1,65.6100016018067,2|0,2:0|2:0,0:0:0:0:
31,148,24092,1,8,2:3:0:0:
27,138,24392,6,0,P|41:107|72:94,1,66.4200010134888,2|0,2:0|1:0,0:0:0:0:
271,207,24692,2,0,P|239:235|198:226,1,66.4200010134888,2|0,2:0|2:0,0:0:0:0:
453,100,24992,2,0,P|421:72|380:81,1,66.4200010134888,2|0,2:0|2:0,0:0:0:0:
418,305,25292,6,0,P|416:271|382:238,1,66.4200010134888,10|0,2:3|0:0,0:0:0:0:
264,37,25592,2,0,P|262:71|228:104,1,66.4200010134888,2|8,2:0|2:3,0:0:0:0:
0,191,25892,6,0,P|39:196|63:216,1,65.6100016018067,2|0,2:0|2:0,0:0:0:0:
274,380,26492,1,6,2:3:0:0:
267,368,26942,6,0,P|269:330|300:299,1,66.4200010134888,6|0,2:3|0:0,0:0:0:0:
509,72,27317,2,0,P|493:113|419:129,1,99.6300015202332,2|0,0:0|2:0,0:0:0:0:
312,0,27692,6,0,P|343:18|349:52,1,66.4200010134888,10|0,2:3|0:0,0:0:0:0:
189,205,27992,1,8,2:0:0:0:
278,187,28142,2,0,P|302:165|309:133,1,66.4200010134888,2|0,1:2|0:0,0:0:0:0:
26,5,28517,2,0,P|30:61|73:113,1,99.6300015202332,2|0,0:0|0:0,0:0:0:0:
245,349,28892,5,2,1:2:0:0:
327,334,29042,1,2,2:0:0:0:
331,325,29192,1,2,2:0:0:0:
249,340,29342,1,2,2:0:0:0:
428,358,29492,6,0,P|460:352|482:318,1,66.4200010134888,2|2,2:0|2:0,0:0:0:0:
262,89,29792,2,0,P|299:117|292:176,1,97.1999970336915,2|0,2:0|2:0,0:0:0:0:
49,365,30092,5,2,2:0:0:0:
75,284,30242,1,2,2:0:0:0:
200,243,30392,1,2,2:0:0:0:
174,324,30542,1,2,2:0:0:0:
5,175,30692,6,0,P|5:188|14:208,1,25.1099990038147,2|0,2:0|0:0,0:0:0:0:
84,182,30842,2,0,P|84:169|75:149,1,25.1099990038147,2|0,2:0|0:0,0:0:0:0:
16,5,30992,6,0,P|43:43|93:52,1,97.1999970336915,2|0,2:0|2:0,0:0:0:0:
356,185,31292,2,0,P|315:156|282:162,1,66.4200010134888,2|2,2:0|2:0,0:0:0:0:
70,346,31592,5,2,2:0:0:0:
153,330,31742,1,2,2:0:0:0:
161,318,31892,1,2,2:0:0:0:
78,334,32042,1,2,2:0:0:0:
331,384,32192,6,0,P|354:371|366:297,1,97.1999970336915,2|0,2:0|2:0,0:0:0:0:
471,51,32492,2,0,P|499:69|508:107,1,66.4200010134888,2|2,2:0|2:0,0:0:0:0:
208,223,32792,5,2,2:0:0:0:
235,139,32942,1,2,2:0:0:0:
118,0,33092,1,2,2:0:0:0:
91,84,33242,1,2,2:0:0:0:
29,278,33392,6,0,P|47:328|147:307,1,145.799995550537,2|0,2:0|0:0,0:0:0:0:
473,186,33692,6,0,L|429:171,1,42.1199997429199,2|2,1:2|2:0,0:0:0:0:
433,152,33992,2,0,L|389:167,1,42.1199997429199,2|2,1:2|2:0,0:0:0:0:
15,25,34292,6,0,L|19:42,1,17.8200005438233,2|2,1:2|2:0,0:0:0:0:
95,23,34592,2,0,L|91:6,1,17.8200005438233,2|0,1:2|2:0,0:0:0:0:
5,346,34892,6,0,P|38:347|69:388,1,68.8500013132096,2|2,1:2|2:0,0:0:0:0:
325,178,35192,2,0,P|294:212|227:202,1,97.1999970336915,2|2,1:2|2:0,0:0:0:0:
320,163,35492,6,0,P|329:118|352:101,1,68.8500013132096,2|2,1:2|2:0,0:0:0:0:
512,333,35792,2,0,P|469:337|434:399,1,97.1999970336915,2|2,1:2|2:0,0:0:0:0:
10,147,36092,5,2,1:2:0:0:
111,171,36242,1,2,1:2:0:0:
14,134,36392,1,2,1:2:0:0:
115,158,36542,1,2,1:2:0:0:
397,158,36692,5,2,1:2:0:0:
498,134,36842,1,2,1:2:0:0:
401,171,36992,1,0,1:2:0:0:
502,147,37142,1,2,1:2:0:0:
256,45,37292,6,0,L|256:6,1,21.05999987146,0|0,2:0|0:0,0:0:0:0:
221,72,37442,2,0,L|200:57,1,21.05999987146,2|0,0:0|0:0,0:0:0:0:
291,72,37592,2,0,L|312:57,1,21.05999987146,2|0,0:0|0:0,0:0:0:0:
195,142,37742,2,0,L|157:148,1,21.05999987146,2|0,0:0|0:0,0:0:0:0:
317,142,37892,2,0,L|355:148,1,21.05999987146,2|0,0:0|0:0,0:0:0:0:
256,198,38042,6,0,L|256:223,1,22.2750006797791,2|0,0:0|2:0,0:0:0:0:
258,233,38492,6,0,B|275:211|280:169|280:169|305:156|305:156|308:119|337:73,1,165.240001008545,6|8,1:2|2:0,0:0:0:0:
307,313,38942,2,0,B|329:330|371:335|371:335|384:360|384:360|421:363|467:392,1,165.240001008545,2|0,2:0|1:2,0:0:0:0:
205,313,39392,2,0,B|183:330|141:335|141:335|128:360|128:360|91:363|45:392,1,165.240001008545,10|0,2:0|1:2,0:0:0:0:
256,224,39842,1,0,0:0:0:0:
448,381,39992,2,0,B|421:363|384:360|384:360|371:335|371:335|329:330|307:313,1,165.240001008545,10|0,2:0|2:0,0:0:0:0:
256,96,40442,1,0,1:2:0:0:
482,186,40592,2,0,B|456:193|441:212|441:212|415:209|415:209|397:224|373:233,1,123.930000756409,8|0,2:0|0:0,0:0:0:0:
359,227,40892,6,0,B|333:198|328:138|355:109|355:109|346:134|351:150,1,165.240001008545,2|8,1:2|2:0,0:0:0:0:
220,286,41342,1,0,2:0:0:0:
472,373,41492,2,0,B|498:344|503:284|476:255|476:255|485:280|480:296,1,165.240001008545,2|8,2:0|2:0,0:0:0:0:
392,324,41942,1,0,2:0:0:0:
350,146,42092,6,0,B|379:120|439:115|468:142|468:142|443:133|427:138,1,165.240001008545,2|8,1:2|2:0,0:0:0:0:
256,64,42542,1,0,2:0:0:0:
256,160,42692,1,2,2:0:0:0:
256,54,42842,1,0,1:2:0:0:
162,146,42992,2,0,B|134:125|92:123|67:149|67:149|92:140|108:145,1,123.930000756409,10|0,2:0|0:0,0:0:0:0:
95,221,43292,6,0,B|100:203|100:203|49:157|37:99|37:99|41:58,1,165.240001008545,2|8,1:2|2:0,0:0:0:0:
23,361,43742,2,0,B|41:366|41:366|87:315|145:303|145:303|186:307,1,165.240001008545,2|0,2:0|1:2,0:0:0:0:
306,152,44192,2,0,B|323:166|323:166|356:216|352:284|352:284|368:293,1,165.240001008545,10|0,2:0|1:2,0:0:0:0:
235,97,44642,1,0,0:0:0:0:
281,328,44792,2,0,B|263:313|263:313|230:263|234:195|234:195|218:186,1,165.240001008545,10|0,2:0|2:0,0:0:0:0:
353,383,45242,1,0,1:2:0:0:
147,259,45392,2,0,B|130:280|130:280|116:306|120:349|120:349|100:387,1,123.930000756409,10|0,2:0|0:0,0:0:0:0:
98,383,45692,6,0,B|51:340|-14:347|-14:347|11:335|21:301,1,165.240001008545,2|8,1:2|2:0,0:0:0:0:
256,192,46142,1,0,2:0:0:0:
354,255,46292,2,0,B|401:212|466:219|466:219|441:207|431:173,1,165.240001008545,2|8,2:0|2:0,0:0:0:0:
253,349,46742,1,0,2:0:0:0:
256,95,46892,6,0,L|256:29,1,56.6999982696534,2|0,1:2|0:0,0:0:0:0:
253,32,47267,1,0,0:0:0:0:
247,31,47342,1,0,0:0:0:0:
242,33,47417,1,0,0:0:0:0:
239,37,47492,1,2,0:0:0:0:
237,42,47567,1,0,0:0:0:0:
238,47,47642,1,0,0:0:0:0:
241,51,47717,1,0,0:0:0:0:
245,53,47792,5,0,3:0:0:0:
266,126,47867,5,0,3:0:0:0:
285,200,47942,5,0,3:0:0:0:
303,274,48017,5,0,3:0:0:0:
328,349,48092,6,0,B|360:218|360:218|396:200,1,143.370004648762,6|0,1:2|2:0,0:0:0:0:
440,258,48392,1,8,2:0:0:0:
512,143,48542,2,0,B|479:12|479:12|444:-6,1,143.370004648762,2|0,2:0|2:0,0:0:0:0:
440,258,48842,1,0,1:2:0:0:
485,326,48992,2,0,B|493:334|493:334|454:373|454:373|401:350|401:350|411:334,2,143.370004648762,10|0|0,2:0|2:0|1:2,0:0:0:0:
269,194,49442,1,0,0:0:0:0:
233,376,49592,6,0,P|303:361|330:288,1,143.370004648762,10|0,2:0|2:0,0:0:0:0:
91,227,49892,2,0,P|140:251|137:355,1,143.370004648762,2|0,2:0|1:2,0:0:0:0:
0,383,50192,6,0,L|75:370,1,72.0900000550003,10|0,2:0|2:0,0:0:0:0:
484,310,50492,6,0,B|490:304|490:304|453:152,1,143.370004648762,2|0,1:2|0:0,0:0:0:0:
334,370,50792,1,10,2:0:0:0:
408,86,50942,2,0,B|414:92|414:92|377:244,1,143.370004648762,2|0,2:0|2:0,0:0:0:0:
315,275,51242,1,0,1:2:0:0:
273,201,51392,2,0,B|267:195|267:195|304:43,1,143.370004648762,10|0,2:0|2:0,0:0:0:0:
509,11,51692,5,0,1:2:0:0:
441,301,51842,1,0,0:0:0:0:
512,252,51992,2,0,B|517:232|517:232|418:201|418:201|412:223,1,143.370004648762,10|0,2:0|2:0,0:0:0:0:
137,365,52292,2,0,B|132:345|132:345|231:314|231:314|237:336,1,143.370004648762,2|0,2:0|1:2,0:0:0:0:
310,384,52592,2,0,L|327:239,1,143.370004648762,10|0,2:0|2:0,0:0:0:0:
512,70,52892,6,0,L|93:123,4,377.460015118905,6|2|2|2|0,1:2|1:2|1:2|1:2|1:2,0:0:0:0:
3,17,54392,2,0,B|11:25|11:25|84:407,3,377.460015118905,2|2|2|2,1:2|1:2|1:2|1:2,0:0:0:0:
150,337,55442,1,0,1:2:0:0:
260,244,55592,5,2,1:2:0:0:
463,307,55742,1,0,1:2:0:0:
264,227,55892,1,2,1:2:0:0:
467,290,56042,1,0,1:2:0:0:
378,331,56192,5,2,1:2:0:0:
452,100,56342,1,0,1:2:0:0:
188,167,56492,6,0,L|111:184,2,60.7500023174287,8|0|0,2:0|0:0|0:0,0:0:0:0:
452,100,56792,2,0,L|529:83,2,60.7500023174287,8|0|0,2:0|0:0|0:0,0:0:0:0:
207,159,57092,6,0,L|130:142,2,60.7500023174287,8|0|0,2:0|0:0|0:0,0:0:0:0:
437,114,57242,2,0,L|514:131,2,60.7500023174287,8|0|0,2:0|0:0|0:0,0:0:0:0:
256,94,57392,6,0,L|239:-11,2,60.7500023174287,8|0|0,2:0|0:0|0:0,0:0:0:0:
378,170,57542,2,0,L|395:275,2,60.7500023174287,8|0|0,2:0|0:0|0:0,0:0:0:0:
331,116,57692,6,0,B|319:70|417:107|473:306|164:401|97:262|124:211,1,455.625017380715,6|0,2:0|0:0,0:0:0:0:
124,215,58892,6,0,L|164:224,1,36.4499988876343,2|0,2:0|0:0,0:0:0:0:
166,147,59192,2,0,L|153:143,1,12.1499996292114,2|0,0:0|0:0,0:0:0:0:
102,11,59492,6,0,P|88:21|81:37,1,36.4499988876343,2|0,0:0|0:0,0:0:0:0:
7,63,59792,2,0,P|8:82|17:97,1,36.4499988876343,2|0,0:0|0:0,0:0:0:0:
304,304,60092,6,0,L|432:271,1,99.6300015202332,4|0,1:2|2:0,0:0:0:0:
426,22,60392,2,0,P|470:32|486:91,1,99.6300015202332,8|0,2:0|2:0,0:0:0:0:
234,248,60692,6,0,L|242:187,1,49.8150007601166,2|0,2:0|0:0,0:0:0:0:
254,102,60842,1,6,1:3:0:0:
224,253,60992,6,0,L|232:192,1,49.8150007601166,10|0,2:0|0:0,0:0:0:0:
249,93,61142,2,0,P|277:73|349:98,1,99.6300015202332,2|0,2:0|1:2,0:0:0:0:
77,200,61442,2,0,P|56:191|46:109,1,99.6300015202332,2|8,2:0|2:0,0:0:0:0:
327,261,61742,1,0,2:0:0:0:
99,381,61892,6,0,B|113:336|113:336|126:326,1,60.7500023174287,0|0,2:0|0:0,0:0:0:0:
0,258,62042,2,0,B|14:303|14:303|27:313,1,60.7500023174287,4|0,1:3|0:0,0:0:0:0:
213,338,62192,6,0,L|298:348,1,60.7500023174287,8|0,2:0|0:0,0:0:0:0:
356,357,62342,2,0,L|386:360,1,30.3750011587143,0|0,2:0|0:0,0:0:0:0:
488,232,62492,6,0,P|465:156|420:149,1,99.6300015202332,4|0,1:2|2:0,0:0:0:0:
233,0,62792,2,0,L|248:119,1,99.6300015202332,8|0,2:0|2:0,0:0:0:0:
245,98,63092,6,0,L|179:90,1,49.8150007601166,2|0,2:0|0:0,0:0:0:0:
112,83,63242,1,6,1:3:0:0:
386,51,63392,6,0,L|327:59,1,49.8150007601166,10|0,2:0|0:0,0:0:0:0:
100,82,63542,2,0,B|-20:61,1,99.6300015202332,2|0,2:0|1:2,0:0:0:0:
237,267,63842,2,0,P|250:210|197:170,1,99.6300015202332,2|8,2:0|2:0,0:0:0:0:
23,340,64142,2,0,B|73:329|73:329|118:370,1,99.6300015202332,2|0,2:0|2:0,0:0:0:0:
108,361,64442,6,0,L|89:297,1,49.8150007601166,4|0,1:3|0:0,0:0:0:0:
95,186,64592,2,0,L|75:264,1,49.8150007601166,8|0,2:0|0:0,0:0:0:0:
166,129,64742,6,0,B|186:129|186:129|132:120,1,49.8150007601166,0|0,2:0|0:0,0:0:0:0:
0,186,64892,6,0,B|15:197|15:197|119:184,1,99.6300015202332,4|0,1:2|2:0,0:0:0:0:
313,71,65192,2,0,L|190:50,1,99.6300015202332,8|0,2:0|2:0,0:0:0:0:
218,321,65492,6,0,L|282:314,1,49.8150007601166,2|0,2:0|0:0,0:0:0:0:
491,294,65642,1,6,1:3:0:0:
498,306,65792,6,0,L|411:295,1,49.8150007601166,10|0,2:0|0:0,0:0:0:0:
275,287,65942,2,0,B|271:284|271:284|239:175,1,99.6300015202332,2|0,2:0|1:2,0:0:0:0:
357,151,66242,2,0,L|453:175,1,99.6300015202332,2|8,2:0|2:0,0:0:0:0:
99,80,66542,1,0,2:0:0:0:
40,142,66692,6,0,P|48:158|91:154,1,49.8150007601166,0|0,2:0|0:0,0:0:0:0:
73,0,66842,2,0,P|55:-1|37:38,1,49.8150007601166,4|0,1:3|0:0,0:0:0:0:
179,99,66992,2,0,P|188:84|163:48,1,49.8150007601166,8|0,2:0|0:0,0:0:0:0:
99,80,67142,1,0,2:0:0:0:
27,244,67292,5,6,1:2:0:0:
204,352,67442,2,0,P|262:341|287:291,1,99.6300015202332,2|10,2:0|2:0,0:0:0:0:
25,257,67742,5,2,2:0:0:0:
365,298,67892,2,0,P|376:246|347:207,1,99.6300015202332,2|6,2:0|1:3,0:0:0:0:
23,270,68192,5,10,2:0:0:0:
401,145,68342,2,0,P|355:114|311:121,1,99.6300015202332,2|2,2:0|1:2,0:0:0:0:
307,131,68642,5,2,1:2:0:0:
269,369,68792,1,2,1:2:0:0:
271,359,68942,1,2,1:2:0:0:
273,349,69092,1,0,1:2:0:0:
275,339,69242,1,4,1:3:0:0:
206,162,69392,6,0,B|232:195|231:238|231:238|261:260|261:260|258:298|280:353,1,199.260003040466,8|0,2:0|3:0,0:0:0:0:
