osu file format v14

[General]
AudioFilename: audio.mp3
AudioLeadIn: 0
PreviewTime:38417
Countdown: 0
SampleSet: Soft
StackLeniency: 0.7
Mode: 0
LetterboxInBreaks: 0
WidescreenStoryboard: 1

[Editor]
Bookmarks:28892,36092,36692,36992,43292,46892,52892,56492,56792,57092,57392,57692,60092,62492,64892,67292,69392
DistanceSpacing: 1.4
BeatDivisor: 4
GridSize: 32
TimelineZoom: 1.7

[Metadata]
Title:Say Goodbye (Sped Up & Cut Ver.)
TitleUnicode:Say Goodbye (Sped Up & Cut Ver.)
Artist:Krewella
ArtistUnicode:Krewella
Creator:Sotarks
Version:Pepekcz's Hard
Source:
Tags:dubstep nightcore sped speed up drum n and bass dnb english vocalist electronic armin a_r_m_i_n schoolboy komore toybot vikala pepekcz basensorex short ver version
BeatmapID:3308877
BeatmapSetID:1620540

[Difficulty]
HPDrainRate:4.2
CircleSize:3.6
OverallDifficulty:7
ApproachRate:8
SliderMultiplier:1.4
SliderTickRate:1

[Events]
//Background and Video events
0,0,"BG.jpg",0,0
//Break Periods
2,29092,32942
//Storyboard Layer 0 (Background)
//Storyboard Layer 1 (Fail)
//Storyboard Layer 2 (Pass)
//Storyboard Layer 3 (Foreground)
//Storyboard Layer 4 (Overlay)
//Storyboard Sound Samples

[TimingPoints]
92,300,4,2,22,70,1,0
9692,-111.111111111111,4,2,22,60,0,0
28892,-111.111111111111,4,2,22,65,0,0
33692,-111.111111111111,4,2,22,70,0,0
36092,-111.111111111111,4,2,22,75,0,0
38492,-100,4,2,22,80,0,0
46892,-100,4,2,22,70,0,0
48092,-100,4,2,22,80,0,0
52892,-125,4,2,22,70,0,0
55292,-125,4,2,22,80,0,0
55592,-100,4,2,22,80,0,0
57692,-100,4,2,22,60,0,0
58892,-125,4,2,22,60,0,0
60092,-100,4,2,22,70,0,0

[Colours]
Combo1 : 155,198,196
Combo2 : 252,214,252
Combo3 : 123,164,225

[HitObjects]
24,32,9692,6,0,P|83:48|144:68,1,126,4|2,3:0|2:0,2:0:0:0:
220,112,10142,2,0,P|279:92|340:75,1,126,0|0,1:2|2:0,2:0:0:0:
420,36,10592,1,2,2:0:0:0:
488,200,10892,6,0,P|512:252|476:308,1,126,10|2,2:3|2:0,2:0:0:0:
400,344,11342,1,8,2:3:0:0:
400,344,11492,2,0,P|313:319|212:300,1,189,2|0,2:0|2:0,2:0:0:0:
136,340,12092,6,0,B|104:312|104:312|136:232,1,126,4|2,2:3|2:0,2:0:0:0:
196,172,12542,2,0,P|179:109|160:48,1,126,4|0,2:3|2:0,2:0:0:0:
80,16,12992,1,2,2:0:0:0:
0,172,13292,6,0,P|18:232|35:293,1,126,8|10,2:3|2:0,2:0:0:0:
100,352,13742,1,0,1:2:0:0:
100,352,13892,2,0,B|160:360|144:296|208:304,1,126,0|2,2:0|2:0,2:0:0:0:
284,356,14342,5,2,2:0:0:0:
284,356,14492,2,0,P|342:337|404:320,1,126,8|2,2:3|2:0,2:0:0:0:
488,288,14942,2,0,P|504:232|464:176,1,126,0|0,1:0|2:0,2:0:0:0:
396,132,15392,1,2,2:0:0:0:
280,264,15692,6,0,B|220:272|236:208|172:216,1,126,10|2,2:3|2:0,2:0:0:0:
96,260,16142,1,8,2:3:0:0:
96,260,16292,2,0,P|60:204|84:148,1,126,2|2,2:0|2:0,2:0:0:0:
212,40,16892,6,0,P|269:50|344:68,1,126,6|0,2:3|2:0,2:0:0:0:
376,144,17342,2,0,P|318:155|244:172,1,126,6|0,2:3|2:0,2:0:0:0:
180,224,17792,1,2,2:0:0:0:
336,308,18092,6,0,P|368:292|392:256,1,63.0000000000001,10|0,2:3|2:0,2:0:0:0:
472,248,18392,1,8,2:0:0:0:
472,248,18542,2,0,P|460:204|384:176,1,126,2|0,1:2|2:0,2:0:0:0:
316,220,18992,1,2,2:0:0:0:
196,352,19292,6,0,P|138:337|72:324,1,126,8|2,2:3|2:0,2:0:0:0:
28,248,19742,2,0,P|40:186|55:125,1,126,0|0,1:2|2:0,2:0:0:0:
104,52,20192,1,2,2:0:0:0:
216,188,20492,6,0,P|276:192|320:136,1,126,10|2,2:3|2:0,2:0:0:0:
356,68,20942,1,8,2:3:0:0:
356,68,21092,2,0,P|428:52|492:144,1,189,2|0,2:0|2:0,2:0:0:0:
476,220,21692,6,0,P|417:236|356:256,1,126,4|2,2:3|2:0,2:0:0:0:
284,308,22142,2,0,P|223:289|163:271,1,126,4|0,2:3|2:0,2:0:0:0:
80,304,22592,1,2,2:0:0:0:
28,136,22892,6,0,P|24:104|36:76,1,63.0000000000001,10|0,2:3|2:0,2:0:0:0:
108,24,23192,1,10,2:0:0:0:
108,24,23342,1,0,1:2:0:0:
164,92,23492,2,0,B|208:120|264:80|228:52|280:12|332:40,1,189,2|0,2:0|2:0,2:0:0:0:
404,72,24092,6,0,B|436:112|436:112|409:185,1,126,8|2,2:3|2:0,2:0:0:0:
372,260,24542,2,0,P|320:264|276:208,1,126,0|0,1:0|2:0,2:0:0:0:
240,128,24992,1,2,2:0:0:0:
88,36,25292,6,0,P|74:98|60:168,1,126,10|2,2:3|2:0,2:0:0:0:
36,244,25742,1,8,2:3:0:0:
36,244,25892,2,0,P|64:260|104:256,1,63.0000000000001,2|0,2:0|2:0,2:0:0:0:
164,208,26192,2,0,P|195:207|222:223,1,63.0000000000001,2|0,2:0|2:0,2:0:0:0:
252,308,26492,6,0,P|313:325|373:343,1,126,6|0,2:3|2:0,2:0:0:0:
452,300,26942,2,0,P|469:239|487:179,1,126,6|0,2:3|2:0,2:0:0:0:
476,92,27392,1,2,2:0:0:0:
320,172,27692,6,0,P|288:172|260:152,1,63.0000000000001,10|0,2:3|2:0,2:0:0:0:
212,88,27992,1,8,2:0:0:0:
212,88,28142,2,0,P|148:84|108:136,1,126,2|0,1:2|2:0,2:0:0:0:
64,204,28592,2,0,P|74:240|84:280,1,63.0000000000001,2|0,2:0|2:0,2:0:0:0:
144,352,28892,5,2,1:2:0:0:
144,352,33692,6,0,P|201:333|264:316,2,126,2|2|2,1:2|1:2|1:2,2:0:0:0:
56,332,34442,1,2,2:0:0:0:
56,332,34592,2,0,P|48:301|40:268,1,63.0000000000001,2|0,1:2|2:0,2:0:0:0:
32,184,34892,6,0,P|48:152|132:144,1,126,2|2,1:2|1:2,2:0:0:0:
196,204,35342,1,2,2:0:0:0:
196,204,35492,2,0,P|226:192|264:180,1,63.0000000000001,2|2,1:2|2:0,2:0:0:0:
316,120,35792,2,0,P|345:130|375:141,1,63.0000000000001,2|2,1:2|2:0,2:0:0:0:
464,200,36092,5,2,1:2:0:0:
464,200,36242,1,2,1:2:0:0:
512,272,36392,2,0,P|516:308|496:344,1,63.0000000000001,2|2,1:2|1:2,2:0:0:0:
408,368,36692,2,0,P|376:359|348:352,1,63.0000000000001,2|2,1:2|1:2,2:0:0:0:
268,280,36992,1,0,1:2:0:0:
268,280,37142,1,2,1:2:0:0:
204,340,37292,5,2,2:0:0:0:
204,340,38492,6,0,B|168:304|168:304|204:208,1,140,6|8,1:2|2:0,2:0:0:0:
272,152,38942,2,0,P|306:162|344:176,1,70,2|0,2:0|2:0,2:0:0:0:
412,240,39242,1,0,1:2:0:0:
480,168,39392,2,0,P|495:137|489:103,1,70,10|0,2:0|2:0,2:0:0:0:
428,28,39692,6,0,P|397:12|363:18,1,70,0|0,1:2|2:0,2:0:0:0:
280,76,39992,2,0,B|212:84|232:12|160:20,1,140,10|0,2:0|2:0,2:0:0:0:
72,68,40442,1,0,1:2:0:0:
28,156,40592,2,0,P|20:192|32:224,1,70,8|0,2:0|2:0,2:0:0:0:
92,296,40892,6,0,P|124:283|158:272,1,70,2|0,1:2|2:0,2:0:0:0:
236,216,41192,2,0,P|269:226|301:239,1,70,8|0,2:0|2:0,2:0:0:0:
384,304,41492,1,2,2:0:0:0:
384,304,41642,1,0,1:2:0:0:
464,244,41792,2,0,P|474:211|466:177,1,70,8|0,2:0|2:0,2:0:0:0:
400,104,42092,6,0,P|334:83|264:64,1,140,2|8,1:2|2:0,2:0:0:0:
172,100,42542,1,0,2:0:0:0:
92,40,42692,2,0,P|82:76|72:116,1,70,2|0,2:0|1:2,2:0:0:0:
64,204,42992,2,0,P|97:212|131:222,1,70,10|0,2:0|2:0,2:0:0:0:
232,160,43292,6,0,B|300:152|280:224|352:216,1,140,2|8,1:2|2:0,2:0:0:0:
444,184,43742,2,0,P|464:220|460:252,1,70,2|0,2:0|2:0,2:0:0:0:
404,328,44042,1,0,1:2:0:0:
316,372,44192,2,0,P|283:362|244:352,1,70,10|0,2:0|2:0,2:0:0:0:
160,312,44492,6,0,P|126:320|92:330,1,70,0|0,1:2|2:0,2:0:0:0:
8,376,44792,2,0,P|18:313|32:236,1,140,10|0,2:0|2:0,2:0:0:0:
52,140,45242,1,0,1:2:0:0:
108,60,45392,2,0,P|148:60|180:92,1,70,10|0,2:0|2:0,2:0:0:0:
224,160,45692,6,0,P|257:149|292:140,1,70,2|0,1:2|2:0,2:0:0:0:
356,64,45992,2,0,P|389:73|423:83,1,70,8|0,2:0|2:0,2:0:0:0:
504,152,46292,1,2,2:0:0:0:
504,152,46442,1,0,1:2:0:0:
508,248,46592,2,0,P|497:281|488:315,1,70,8|0,2:0|2:0,2:0:0:0:
388,376,46892,5,2,1:2:0:0:
388,376,47792,2,0,L|380:340,3,35,0|0|0|0,3:0|3:0|3:0|3:0,2:0:0:0:
356,300,48092,6,0,P|367:234|384:156,1,140,6|8,1:2|2:0,2:0:0:0:
404,68,48542,2,0,P|376:44|336:44,1,70,2|0,2:0|2:0,2:0:0:0:
260,92,48842,1,0,1:2:0:0:
176,44,48992,2,0,P|168:77|162:114,1,70,10|0,2:0|2:0,2:0:0:0:
96,184,49292,6,0,P|103:217|110:254,1,70,0|0,1:2|2:0,2:0:0:0:
128,348,49592,2,0,B|196:356|176:284|248:292,1,140,10|2,2:0|2:0,2:0:0:0:
328,348,50042,1,0,1:2:0:0:
404,284,50192,2,0,P|410:249|417:215,1,70,10|0,2:0|2:0,2:0:0:0:
436,120,50492,6,0,P|392:72|308:88,1,140,2|10,1:2|2:0,2:0:0:0:
248,140,50942,2,0,B|180:148|200:76|128:84,1,140,2|0,2:0|1:2,2:0:0:0:
44,136,51392,2,0,P|51:170|60:208,1,70,10|0,2:0|2:0,2:0:0:0:
112,288,51692,6,0,P|146:280|184:272,1,70,0|0,1:2|2:0,2:0:0:0:
264,220,51992,2,0,P|298:227|332:235,1,70,10|0,2:0|2:0,2:0:0:0:
412,300,52292,1,2,2:0:0:0:
412,300,52442,1,0,1:2:0:0:
492,244,52592,2,0,P|508:204|500:176,1,70,10|0,2:0|2:0,2:0:0:0:
460,68,52892,6,0,P|408:54|348:40,1,112,6|2,1:2|1:2,2:0:0:0:
216,120,53492,2,0,P|224:151|232:188,1,56,2|0,1:2|2:0,2:0:0:0:
236,252,53792,2,0,P|188:284|136:264,1,112,2|0,1:2|1:2,2:0:0:0:
88,124,54392,6,0,P|119:112|156:100,1,56,2|0,1:2|2:0,2:0:0:0:
216,120,54692,2,0,P|242:110|268:101,1,56,2|0,1:2|2:0,2:0:0:0:
348,116,54992,2,0,P|379:104|416:92,1,56,2|0,1:2|2:0,2:0:0:0:
484,44,55292,5,2,1:2:0:0:
484,44,55442,1,0,1:2:0:0:
512,140,55592,2,0,P|501:173|492:212,1,70,2|0,1:2|1:2,2:0:0:0:
464,304,55892,1,2,1:2:0:0:
464,304,56042,1,0,1:2:0:0:
388,240,56192,2,0,P|357:224|319:231,1,70,2|0,1:2|1:2,2:0:0:0:
236,308,56492,6,0,P|201:297|164:288,1,70,8|0,2:0|1:2,2:0:0:0:
84,208,56792,2,0,P|92:174|102:140,1,70,8|0,2:0|1:2,2:0:0:0:
176,48,57092,1,8,2:0:0:0:
176,48,57242,1,8,2:0:0:0:
252,140,57392,1,8,2:0:0:0:
252,140,57542,1,8,2:0:0:0:
328,48,57692,5,6,2:0:0:0:
328,48,58892,6,0,P|368:32|424:72,1,112,2|0,2:0|2:0,2:0:0:0:
444,224,59492,2,0,P|416:232|388:244,1,56,0|0,2:0|2:0,2:0:0:0:
316,268,59792,2,0,P|289:258|263:249,1,56,0|0,2:0|2:0,2:0:0:0:
176,172,60092,6,0,P|140:184|120:212,1,70,4|0,1:2|2:0,2:0:0:0:
36,160,60392,2,0,P|19:193|24:227,1,70,8|0,2:0|2:0,2:0:0:0:
92,296,60692,2,0,P|125:307|164:324,1,70,2|6,2:0|1:3,2:0:0:0:
248,368,60992,1,10,2:0:0:0:
248,368,61142,2,0,P|280:354|313:343,1,70,2|0,2:0|1:2,2:0:0:0:
400,300,61442,6,0,P|382:236|360:152,1,140,2|0,2:0|2:0,2:0:0:0:
336,68,61892,2,0,P|364:44|404:44,2,70,0|4|8,2:0|1:3|2:0,2:0:0:0:
260,160,62342,5,0,2:0:0:0:
260,160,62492,2,0,P|225:149|188:140,1,70,4|0,1:2|2:0,2:0:0:0:
128,64,62792,2,0,P|94:73|60:82,1,70,8|0,2:0|2:0,2:0:0:0:
8,164,63092,2,0,P|0:204|16:236,1,70,2|6,2:0|1:3,2:0:0:0:
88,300,63392,1,10,2:0:0:0:
88,300,63542,2,0,P|127:308|160:292,1,70,2|0,2:0|1:2,2:0:0:0:
236,248,63842,6,0,P|268:236|304:224,1,70,2|8,2:0|2:0,2:0:0:0:
356,144,64142,1,2,2:0:0:0:
356,144,64292,2,0,P|323:131|290:120,2,70,0|4|8,2:0|1:3|2:0,2:0:0:0:
464,192,64742,5,0,2:0:0:0:
464,192,64892,2,0,P|480:232|472:260,1,70,4|0,1:2|2:0,2:0:0:0:
412,332,65192,2,0,P|372:348|344:340,1,70,8|0,2:0|2:0,2:0:0:0:
260,292,65492,2,0,P|225:303|188:316,1,70,2|6,2:0|1:3,2:0:0:0:
100,308,65792,1,10,2:0:0:0:
100,308,65942,2,0,P|89:273|76:236,1,70,2|0,2:0|1:2,2:0:0:0:
48,148,66242,6,0,B|116:156|96:84|168:92,1,140,2|0,2:0|2:0,2:0:0:0:
248,148,66692,2,0,P|238:178|228:216,2,70,0|4|8,2:0|1:3|2:0,2:0:0:0:
288,56,67142,1,0,2:0:0:0:
384,28,67292,5,6,1:2:0:0:
384,28,67442,2,0,P|417:38|450:49,1,70,2|10,2:0|2:0,2:0:0:0:
508,132,67742,1,2,2:0:0:0:
508,132,67892,2,0,P|496:165|486:198,1,70,2|6,2:0|1:3,2:0:0:0:
456,296,68192,1,10,2:0:0:0:
456,296,68342,1,2,2:0:0:0:
379,231,68492,6,0,P|345:229|314:244,1,70,2|2,1:2|1:2,2:0:0:0:
244,312,68792,2,0,P|209:314|178:299,1,70,2|2,1:2|1:2,2:0:0:0:
104,236,69092,1,0,1:2:0:0:
104,236,69242,1,4,1:3:0:0:
172,164,69392,1,8,2:0:0:0:
28,28,69692,5,0,2:0:0:0:
