osu file format v14

[General]
AudioFilename: audio.mp3
AudioLeadIn: 0
PreviewTime:38417
Countdown: 0
SampleSet: Soft
StackLeniency: 0.7
Mode: 0
LetterboxInBreaks: 0
WidescreenStoryboard: 1

[Editor]
Bookmarks:58892
DistanceSpacing: 1.6
BeatDivisor: 4
GridSize: 32
TimelineZoom: 1

[Metadata]
Title:Say Goodbye (Sped Up & Cut Ver.)
TitleUnicode:Say Goodbye (Sped Up & Cut Ver.)
Artist:Krewella
ArtistUnicode:Krewella
Creator:Sotarks
Version:Extra
Source:
Tags:dubstep nightcore sped speed up drum n and bass dnb english vocalist electronic armin a_r_m_i_n schoolboy komore toybot vikala pepekcz basensorex short ver version
BeatmapID:3308755
BeatmapSetID:1620540

[Difficulty]
HPDrainRate:5.2
CircleSize:3.8
OverallDifficulty:8.8
ApproachRate:9.2
SliderMultiplier:1.82
SliderTickRate:1

[Events]
//Background and Video events
0,0,"BG.jpg",0,0
//Break Periods
//Storyboard Layer 0 (Background)
//Storyboard Layer 1 (Fail)
//Storyboard Layer 2 (Pass)
//Storyboard Layer 3 (Foreground)
//Storyboard Layer 4 (Overlay)
//Storyboard Sound Samples

[TimingPoints]
92,300,4,2,22,70,1,0
9692,-121.951219512195,4,2,22,60,0,0
28892,-161.290322580645,4,2,22,65,0,0
33692,-108.695652173913,4,2,22,70,0,0
36092,-108.695652173913,4,2,22,75,0,0
37292,-192.307692307692,4,2,22,75,0,0
38417,-192.307692307692,4,2,22,5,0,0
38492,-98.0392156862745,4,2,22,80,0,0
46892,-98.0392156862745,4,2,22,70,0,0
48092,-98.0392156862744,4,2,22,80,0,0
52892,-98.0392156862744,4,2,22,70,0,0
55292,-98.0392156862744,4,2,22,80,0,0
57692,-98.0392156862744,4,2,22,60,0,0
58892,-312.5,4,2,22,60,0,0
60092,-98.0392156862745,4,2,22,70,0,0

[Colours]
Combo1 : 155,198,196
Combo2 : 252,214,252
Combo3 : 123,164,225

[HitObjects]
70,279,9692,6,0,B|161:262|125:327|244:298,1,149.24,4|2,3:0|2:0,0:0:0:0:
353,201,10142,1,0,1:2:0:0:
263,172,10292,2,0,P|281:222|286:263,1,74.6200000000001,2|0,2:0|2:0,0:0:0:0:
400,343,10592,2,0,P|423:307|412:257,1,74.6200000000001,2|0,2:0|2:0,0:0:0:0:
303,62,10892,2,0,P|351:94|444:73,1,149.24,10|2,2:3|2:0,0:0:0:0:
353,201,11342,1,8,2:3:0:0:
400,343,11492,2,0,P|387:247|368:109,1,223.86,2|0,2:0|2:0,0:0:0:0:
190,207,12092,6,0,B|99:190|135:255|16:226,1,149.24,4|2,2:3|2:0,0:0:0:0:
124,71,12542,1,4,2:3:0:0:
28,54,12692,2,0,P|41:88|49:125,1,74.6200000000001,2|0,2:0|2:0,0:0:0:0:
190,207,12992,2,0,P|201:175|188:136,1,74.6200000000001,2|0,2:0|2:0,0:0:0:0:
76,327,13292,2,0,P|143:327|208:357,1,111.93,8|0,2:3|2:0,0:0:0:0:
200,352,13592,1,10,2:0:0:0:
393,243,13742,2,0,P|343:221|261:276,1,149.24,0|0,1:2|2:0,0:0:0:0:
417,362,14192,2,0,L|406:313,1,37.31,2|0,2:0|2:0,0:0:0:0:
393,243,14342,2,0,L|382:194,1,37.31,2|0,2:0|2:0,0:0:0:0:
360,60,14492,6,0,B|269:43|305:108|186:79,1,149.24,8|2,2:3|2:0,0:0:0:0:
22,31,14942,1,0,1:0:0:0:
87,105,15092,2,0,P|94:68|108:33,1,74.6200000000001,2|0,2:0|2:0,0:0:0:0:
0,175,15392,2,0,P|-8:210|5:244,1,74.6200000000001,2|0,2:0|2:0,0:0:0:0:
190,335,15692,2,0,B|146:297|107:304|107:304|78:343|31:344,1,149.24,10|2,2:3|2:0,0:0:0:0:
219,225,16142,1,8,2:3:0:0:
127,208,16292,2,0,P|140:242|148:279,1,74.6200000000001,2|0,2:0|2:0,0:0:0:0:
278,384,16592,2,0,P|292:350|283:314,1,74.6200000000001,2|0,2:0|2:0,0:0:0:0:
125,92,16892,6,0,P|166:134|252:120,1,149.24,6|0,2:3|2:0,0:0:0:0:
437,63,17342,2,0,P|380:77|349:158,1,149.24,6|0,2:3|2:0,0:0:0:0:
269,289,17792,2,0,P|279:251|242:206,1,74.6200000000001,2|0,2:0|2:0,0:0:0:0:
183,318,18092,2,0,P|256:326|358:364,1,149.24,10|8,2:3|2:0,0:0:0:0:
105,184,18542,2,0,P|52:202|31:301,1,149.24,2|0,1:2|2:0,0:0:0:0:
80,384,18992,1,2,2:0:0:0:
444,75,19292,6,0,B|353:58|389:123|270:94,1,149.24,8|2,2:3|2:0,0:0:0:0:
122,63,19742,1,0,1:2:0:0:
181,142,19892,2,0,P|188:105|202:70,1,74.6200000000001,2|0,2:0|2:0,0:0:0:0:
27,34,20192,2,0,P|18:69|32:103,1,74.6200000000001,2|0,2:0|2:0,0:0:0:0:
125,279,20492,2,0,P|93:241|-19:250,1,149.24,10|2,2:3|2:0,0:0:0:0:
155,384,20942,1,8,2:3:0:0:
265,340,21092,2,0,P|142:354|36:367,1,223.86,2|0,2:0|2:0,0:0:0:0:
240,237,21692,6,0,B|331:220|295:285|414:256,1,149.24,4|2,2:3|2:0,0:0:0:0:
421,112,22142,1,4,2:3:0:0:
335,98,22292,2,0,P|348:132|356:169,1,74.6200000000001,2|0,2:0|2:0,0:0:0:0:
463,307,22592,2,0,P|477:273|468:237,1,74.6200000000001,2|0,2:0|2:0,0:0:0:0:
240,237,22892,2,0,P|260:285|269:359,1,111.93,10|0,2:3|2:0,0:0:0:0:
268,366,23192,1,10,2:0:0:0:
382,262,23342,1,0,1:2:0:0:
289,143,23492,2,0,P|277:254|267:365,1,223.86,2|0,2:0|2:0,0:0:0:0:
51,77,24092,6,0,B|142:60|106:125|225:96,1,149.24,8|2,2:3|2:0,0:0:0:0:
356,103,24542,1,0,1:0:0:0:
267,71,24692,2,0,P|280:105|288:142,1,74.6200000000001,2|0,2:0|2:0,0:0:0:0:
185,264,24992,2,0,P|179:227|196:195,1,74.6200000000001,2|0,2:0|2:0,0:0:0:0:
392,329,25292,2,0,P|339:376|250:351,1,149.24,10|2,2:3|2:0,0:0:0:0:
387,230,25742,1,8,2:3:0:0:
295,210,25892,2,0,P|308:244|316:281,1,74.6200000000001,2|0,2:0|2:0,0:0:0:0:
429,148,26192,2,0,P|428:110|406:81,1,74.6200000000001,2|0,2:0|2:0,0:0:0:0:
115,19,26492,6,0,P|187:45|280:46,1,149.24,6|0,2:3|2:0,0:0:0:0:
70,167,26942,2,0,P|144:162|214:137,1,149.24,6|0,2:3|2:0,0:0:0:0:
140,269,27392,2,0,P|189:288|222:291,1,74.6200000000001,2|0,2:0|2:0,0:0:0:0:
418,247,27692,2,0,P|354:293|370:382,1,149.24,10|8,2:3|2:0,0:0:0:0:
512,285,28142,2,0,P|502:215|485:126,1,149.24,2|0,1:2|2:0,0:0:0:0:
461,36,28592,1,2,2:0:0:0:
204,208,28892,6,0,P|158:211|136:218,1,56.4200000000001,2|2,1:2|2:0,0:0:0:0:
21,157,29192,1,2,2:0:0:0:
81,113,29342,1,2,2:0:0:0:
61,277,29492,2,0,P|60:314|54:340,1,56.4200000000001,2|2,2:0|2:0,0:0:0:0:
136,352,29792,2,0,P|137:315|143:289,1,56.4200000000001,2|0,2:0|2:0,0:0:0:0:
159,62,30092,5,2,2:0:0:0:
159,62,30242,1,2,2:0:0:0:
306,126,30392,1,2,2:0:0:0:
280,58,30542,1,2,2:0:0:0:
184,179,30692,1,2,2:0:0:0:
388,114,30842,1,2,2:0:0:0:
184,179,30992,2,0,P|136:192|110:207,1,56.4200000000001,2|0,2:0|2:0,0:0:0:0:
325,347,31292,6,0,P|330:309|338:281,1,56.4200000000001,2|2,2:0|2:0,0:0:0:0:
251,268,31592,2,0,P|246:306|238:334,1,56.4200000000001,2|2,2:0|2:0,0:0:0:0:
433,141,31892,1,2,2:0:0:0:
304,184,32042,1,2,2:0:0:0:
436,310,32192,2,0,P|432:265|409:240,1,56.4200000000001,2|0,2:0|2:0,0:0:0:0:
253,42,32492,5,2,2:0:0:0:
253,42,32642,1,2,2:0:0:0:
205,129,32792,1,2,2:0:0:0:
321,103,32942,1,2,2:0:0:0:
166,202,33092,1,2,2:0:0:0:
348,282,33242,1,2,2:0:0:0:
252,384,33392,2,0,P|241:358|242:330,1,56.4200000000001,2|0,2:0|2:0,0:0:0:0:
402,88,33692,6,0,P|343:95|309:108,1,83.72,2|2,1:2|2:0,0:0:0:0:
46,69,33992,2,0,P|105:62|139:49,1,83.72,2|2,1:2|2:0,0:0:0:0:
66,232,34292,1,2,1:2:0:0:
253,42,34442,1,2,2:0:0:0:
216,302,34592,2,0,P|208:352|206:397,1,83.72,2|0,1:2|2:0,0:0:0:0:
454,198,34892,5,2,1:2:0:0:
320,102,35042,1,2,2:0:0:0:
252,229,35192,1,2,1:2:0:0:
368,287,35342,1,2,2:0:0:0:
181,96,35492,1,2,1:2:0:0:
361,189,35642,1,2,2:0:0:0:
158,303,35792,2,0,P|139:259|152:209,1,83.72,2|2,1:2|2:0,0:0:0:0:
304,30,36092,5,2,1:2:0:0:
52,107,36242,1,2,1:2:0:0:
349,95,36392,1,2,1:2:0:0:
64,186,36542,1,2,1:2:0:0:
299,369,36692,1,2,1:2:0:0:
231,201,36842,1,2,1:2:0:0:
76,383,36992,1,0,1:2:0:0:
231,201,37142,1,2,1:2:0:0:
111,108,37292,6,0,B|171:157|230:132|253:96|237:61|156:43|146:111|120:169|129:229|178:273,1,354.900000000001,2|0,2:0|2:0,0:0:0:0:
249,328,38492,6,0,P|314:323|364:310,1,92.82,6|0,1:2|2:0,0:0:0:0:
476,168,38792,1,8,2:0:0:0:
374,180,38942,2,0,P|328:188|282:190,1,92.82,2|0,2:0|2:0,0:0:0:0:
69,290,39242,1,0,1:2:0:0:
153,347,39392,2,0,P|173:291|156:244,1,92.82,10|0,2:0|2:0,0:0:0:0:
0,26,39692,6,0,P|16:85|25:182,1,139.23,0|0,1:2|2:0,0:0:0:0:
27,189,39992,2,0,P|85:208|129:178,1,92.82,10|0,2:0|2:0,0:0:0:0:
293,42,40292,1,0,2:0:0:0:
103,97,40442,1,0,1:2:0:0:
293,42,40592,2,0,P|326:93|310:135,1,92.82,8|0,2:0|2:0,0:0:0:0:
210,384,40892,6,0,P|217:323|228:232,1,139.23,2|0,1:2|2:0,0:0:0:0:
230,213,41192,2,0,P|289:202|331:236,1,92.82,8|0,2:0|2:0,0:0:0:0:
114,350,41492,1,2,2:0:0:0:
305,307,41642,1,0,1:2:0:0:
114,350,41792,2,0,P|93:309|108:266,1,92.82,8|0,2:0|2:0,0:0:0:0:
334,73,42092,6,0,P|243:80|184:97,1,139.23,2|0,1:2|2:0,0:0:0:0:
167,107,42392,2,0,P|134:59|157:16,1,92.82,8|0,2:0|2:0,0:0:0:0:
291,197,42692,1,2,2:0:0:0:
76,148,42842,1,0,1:2:0:0:
291,197,42992,2,0,P|305:239|285:280,1,92.82,10|0,2:0|2:0,0:0:0:0:
63,373,43292,6,0,P|53:306|43:274,1,92.82,2|0,1:2|2:0,0:0:0:0:
196,79,43592,1,8,2:0:0:0:
162,183,43742,2,0,P|150:227|144:273,1,92.82,2|0,2:0|2:0,0:0:0:0:
312,382,44042,1,0,1:2:0:0:
372,297,44192,6,0,P|307:275|265:289,1,92.82,10|0,2:0|2:0,0:0:0:0:
89,173,44492,2,0,P|166:157|245:156,1,139.23,0|0,1:2|2:0,0:0:0:0:
260,159,44792,2,0,P|271:101|249:69,1,92.82,10|0,2:0|2:0,0:0:0:0:
129,268,45092,1,0,2:0:0:0:
159,65,45242,1,0,1:2:0:0:
129,268,45392,2,0,P|77:289|37:274,1,92.82,10|0,2:0|2:0,0:0:0:0:
287,257,45692,6,0,P|366:265|442:290,1,139.23,2|0,1:2|2:0,0:0:0:0:
449,295,45992,2,0,P|466:247|445:204,1,92.82,8|0,2:0|2:0,0:0:0:0:
293,59,46292,1,2,2:0:0:0:
505,111,46442,1,0,1:2:0:0:
293,59,46592,2,0,P|276:107|297:150,1,92.82,8|0,2:0|2:0,0:0:0:0:
356,358,46892,5,2,1:2:0:0:
356,358,47792,1,0,3:0:0:0:
331,358,47867,1,0,3:0:0:0:
309,361,47942,1,0,3:0:0:0:
286,365,48017,1,0,3:0:0:0:
263,371,48092,6,0,P|240:326|253:280,1,92.8200000000001,6|0,1:2|2:0,0:0:0:0:
391,108,48392,1,8,2:0:0:0:
204,132,48542,2,0,P|139:138|103:152,1,92.8200000000001,2|0,2:0|2:0,0:0:0:0:
380,257,48842,1,0,1:2:0:0:
275,56,48992,1,10,2:0:0:0:
159,217,49142,1,0,2:0:0:0:
333,0,49292,6,0,B|370:25|383:66|383:66|344:140,1,139.23,0|0,1:2|2:0,0:0:0:0:
306,176,49592,2,0,P|251:159|211:159,1,92.8200000000001,10|0,2:0|2:0,0:0:0:0:
175,336,49892,2,0,P|211:305|236:266,1,92.8200000000001,2|0,2:0|1:2,0:0:0:0:
95,140,50192,2,0,P|104:186|125:227,1,92.8200000000001,10|0,2:0|2:0,0:0:0:0:
391,349,50492,6,0,P|425:279|395:199,1,139.23,2|0,1:2|2:0,0:0:0:0:
399,204,50792,1,10,2:0:0:0:
236,266,50942,2,0,P|294:269|339:286,1,92.8200000000001,2|0,2:0|2:0,0:0:0:0:
257,109,51242,1,0,1:2:0:0:
125,227,51392,2,0,P|146:296|153:335,1,92.8200000000001,10|0,2:0|2:0,0:0:0:0:
316,177,51692,6,0,B|364:156|363:108|363:108|315:48,1,139.23,0|0,1:2|2:0,0:0:0:0:
262,20,51992,2,0,P|194:26|165:44,1,92.8200000000001,10|0,2:0|2:0,0:0:0:0:
125,226,52292,2,0,P|148:187|154:141,1,92.8200000000001,2|0,2:0|1:2,0:0:0:0:
9,20,52592,2,0,P|31:60|68:87,1,92.8200000000001,10|0,2:0|2:0,0:0:0:0:
285,151,52892,5,6,1:2:0:0:
299,148,53192,1,2,1:2:0:0:
313,145,53492,1,2,1:2:0:0:
327,142,53792,1,2,1:2:0:0:
137,308,54092,5,0,1:2:0:0:
119,304,54392,1,2,1:2:0:0:
102,300,54692,1,2,1:2:0:0:
85,297,54992,1,2,1:2:0:0:
321,367,55292,5,2,1:2:0:0:
300,264,55442,1,0,1:2:0:0:
279,161,55592,1,2,1:2:0:0:
213,331,55742,1,0,1:2:0:0:
385,205,55892,1,2,1:2:0:0:
231,83,56042,1,0,1:2:0:0:
150,204,56192,1,2,1:2:0:0:
300,264,56342,1,0,1:2:0:0:
199,0,56492,5,8,2:0:0:0:
40,234,56642,1,0,1:2:0:0:
279,161,56792,1,8,2:0:0:0:
181,313,56942,1,0,1:2:0:0:
385,384,57092,1,8,2:0:0:0:
343,86,57242,1,8,2:0:0:0:
150,204,57392,1,8,2:0:0:0:
447,294,57542,1,8,2:0:0:0:
134,384,57692,1,6,2:0:0:0:
132,48,58892,6,0,B|188:16|249:60|223:81|273:116|339:91,1,218.4,2|0,2:0|2:0,0:0:0:0:
417,58,60092,6,0,P|408:110|401:153,1,92.82,4|0,1:2|2:0,0:0:0:0:
259,367,60392,2,0,P|251:321|243:275,1,92.82,8|0,2:0|2:0,0:0:0:0:
169,131,60692,1,2,2:0:0:0:
355,213,60842,1,6,1:3:0:0:
153,337,60992,1,10,2:0:0:0:
415,289,61142,6,0,P|407:335|399:381,1,92.82,2|0,2:0|1:2,0:0:0:0:
157,241,61442,1,2,2:0:0:0:
299,106,61592,2,0,P|307:152|315:198,1,92.82,8|0,2:0|2:0,0:0:0:0:
153,337,61892,1,0,2:0:0:0:
434,217,62042,1,4,1:3:0:0:
153,337,62192,1,8,2:0:0:0:
434,217,62342,1,0,2:0:0:0:
90,89,62492,6,0,P|82:135|74:181,1,92.82,4|0,1:2|2:0,0:0:0:0:
252,362,62792,2,0,P|244:316|236:270,1,92.82,8|0,2:0|2:0,0:0:0:0:
319,103,63092,1,2,2:0:0:0:
101,205,63242,1,6,1:3:0:0:
341,298,63392,1,10,2:0:0:0:
209,86,63542,6,0,P|219:134|225:178,1,92.82,2|0,2:0|1:2,0:0:0:0:
385,31,63842,2,0,P|338:15|297:-1,1,92.82,2|8,2:0|2:0,0:0:0:0:
339,218,64142,2,0,P|375:185|410:158,1,92.82,2|0,2:0|2:0,0:0:0:0:
101,205,64442,1,4,1:3:0:0:
319,103,64592,1,8,2:0:0:0:
101,205,64742,1,0,2:0:0:0:
251,384,64892,6,0,P|259:338|267:292,1,92.82,4|0,1:2|2:0,0:0:0:0:
85,113,65192,2,0,P|93:159|101:205,1,92.82,8|0,2:0|2:0,0:0:0:0:
32,384,65492,1,2,2:0:0:0:
242,262,65642,1,6,1:3:0:0:
2,164,65792,1,10,2:0:0:0:
137,356,65942,6,0,P|145:310|153:264,1,92.82,2|0,2:0|1:2,0:0:0:0:
85,113,66242,1,2,2:0:0:0:
253,310,66392,2,0,P|245:264|237:218,1,92.82,8|0,2:0|2:0,0:0:0:0:
345,28,66692,1,0,2:0:0:0:
85,113,66842,1,4,1:3:0:0:
345,28,66992,1,8,2:0:0:0:
85,113,67142,1,0,2:0:0:0:
313,236,67292,5,6,1:2:0:0:
230,0,67442,1,2,2:0:0:0:
150,238,67592,1,10,2:0:0:0:
416,68,67742,1,2,2:0:0:0:
191,160,67892,1,2,2:0:0:0:
429,263,68042,1,6,1:3:0:0:
229,81,68192,1,10,2:0:0:0:
312,317,68342,1,2,2:0:0:0:
487,163,68492,5,2,1:2:0:0:
211,257,68642,1,2,1:2:0:0:
385,373,68792,1,2,1:2:0:0:
394,131,68942,1,2,1:2:0:0:
154,176,69092,1,0,1:2:0:0:
233,375,69242,1,4,1:3:0:0:
354,41,69392,1,8,2:0:0:0:
226,102,69692,5,0,3:0:0:0:
