osu file format v14

[General]
AudioFilename: audio.mp3
AudioLeadIn: 0
PreviewTime:38417
Countdown: 0
SampleSet: Soft
StackLeniency: 0.7
Mode: 0
LetterboxInBreaks: 0
WidescreenStoryboard: 1

[Editor]
Bookmarks: 28892,36092,36692,36992,43292,46892,52892,56492,56792,57092,57392,57692,60092,62492,64892,67292,69392
DistanceSpacing: 1
BeatDivisor: 2
GridSize: 32
TimelineZoom: 1.6

[Metadata]
Title:Say Goodbye (Sped Up & Cut Ver.)
TitleUnicode:Say Goodbye (Sped Up & Cut Ver.)
Artist:Krewella
ArtistUnicode:Krewella
Creator:Sotarks
Version:Basen's Normal
Source:
Tags:dubstep nightcore sped speed up drum n and bass dnb english vocalist electronic armin a_r_m_i_n schoolboy komore toybot vikala pepekcz basensorex short ver version
BeatmapID:3320180
BeatmapSetID:1620540

[Difficulty]
HPDrainRate:3.6
CircleSize:3.5
OverallDifficulty:4.2
ApproachRate:5.9
SliderMultiplier:1
SliderTickRate:1

[Events]
//Background and Video events
0,0,"BG.jpg",0,0
//Break Periods
2,29092,32582
//Storyboard Layer 0 (Background)
//Storyboard Layer 1 (Fail)
//Storyboard Layer 2 (Pass)
//Storyboard Layer 3 (Foreground)
//Storyboard Layer 4 (Overlay)
//Storyboard Sound Samples

[TimingPoints]
92,300,4,2,22,70,1,0
9692,-111.111111111111,4,2,22,60,0,0
28892,-111.111111111111,4,2,22,65,0,0
33692,-100,4,2,22,70,0,0
36092,-100,4,2,22,75,0,0
38417,-100,4,2,22,5,0,0
38492,-90.9090909090909,4,2,22,80,0,1
46892,-90.9090909090909,4,2,22,70,0,0
48092,-90.9090909090909,4,2,22,80,0,1
52892,-90.9090909090909,4,2,22,70,0,1
55292,-90.9090909090909,4,2,22,80,0,1
57692,-100,4,2,22,60,0,0
60092,-100,4,2,22,70,0,0

[Colours]
Combo1 : 155,198,196
Combo2 : 252,214,252
Combo3 : 123,164,225

[HitObjects]
34,217,9692,6,0,P|42:261|49:305,1,89.9999972534181,4|2,3:0|2:0,0:0:0:0:
129,347,10292,1,2,2:0:0:0:
199,291,10592,1,2,2:0:0:0:
274,339,10892,2,0,P|316:353|360:347,1,89.9999972534181,10|2,2:3|2:0,0:0:0:0:
432,294,11492,1,2,2:0:0:0:
453,115,12092,6,0,P|408:106|364:99,1,89.9999972534181,4|2,2:3|2:0,0:0:0:0:
301,34,12692,1,2,2:0:0:0:
231,89,12992,1,2,2:0:0:0:
160,32,13292,2,0,P|117:17|73:23,1,89.9999972534181,8|10,2:3|2:0,0:0:0:0:
12,89,13892,1,0,0:0:0:0:
28,268,14492,6,0,P|72:259|116:252,1,89.9999972534181,8|2,2:3|2:0,0:0:0:0:
205,237,15092,1,2,2:0:0:0:
270,298,15392,1,2,2:0:0:0:
357,277,15692,2,0,P|371:234|365:190,1,89.9999972534181,10|2,2:3|2:0,0:0:0:0:
337,105,16292,1,2,2:0:0:0:
253,71,16592,1,2,2:0:0:0:
177,120,16892,6,0,P|111:104|44:92,2,134.999995880127,6|6|2,2:3|2:3|2:0,0:0:0:0:
226,195,18092,2,0,P|291:179|358:167,2,134.999995880127,10|2|2,2:3|1:2|2:0,0:0:0:0:
162,258,19292,6,0,P|170:302|177:346,1,89.9999972534181,8|2,2:3|2:0,0:0:0:0:
261,380,19892,1,2,2:0:0:0:
349,363,20192,1,2,2:0:0:0:
387,281,20492,2,0,P|392:236|378:194,1,89.9999972534181,10|2,2:3|2:0,0:0:0:0:
327,120,21092,1,2,2:0:0:0:
167,36,21692,6,0,P|122:44|78:51,1,89.9999972534181,4|2,2:3|2:0,0:0:0:0:
20,121,22292,1,2,2:0:0:0:
77,189,22592,1,2,2:0:0:0:
17,256,22892,2,0,P|11:300|25:342,1,89.9999972534181,10|10,2:3|2:0,0:0:0:0:
110,374,23492,1,2,2:0:0:0:
284,331,24092,6,0,P|328:322|372:315,1,89.9999972534181,8|2,2:3|2:0,0:0:0:0:
462,308,24692,1,2,2:0:0:0:
505,229,24992,1,2,2:0:0:0:
471,145,25292,2,0,P|476:100|462:58,1,89.9999972534181,10|2,2:3|2:0,0:0:0:0:
380,20,25892,1,2,2:0:0:0:
320,87,26192,1,2,2:0:0:0:
239,46,26492,6,0,P|177:20|112:35,2,134.999995880127,6|6|2,2:3|2:3|2:0,0:0:0:0:
320,87,27692,2,0,P|381:112|446:97,2,134.999995880127,10|2|2,2:3|1:2|2:0,0:0:0:0:
244,136,28892,5,2,1:2:0:0:
469,337,33692,6,0,L|369:324,1,100,2|2,1:2|1:2,0:0:0:0:
313,241,34292,2,0,L|213:253,1,100,2|2,1:2|1:2,0:0:0:0:
163,260,34742,1,0,2:0:0:0:
163,260,34892,2,0,P|130:223|125:174,1,100,2|2,1:2|1:2,0:0:0:0:
41,120,35492,2,0,P|56:73|96:44,1,100,2|2,1:2|1:2,0:0:0:0:
187,0,36092,5,2,1:2:0:0:
262,65,36392,1,2,1:2:0:0:
346,11,36692,2,0,L|395:17,1,50,2|2,1:2|1:2,0:0:0:0:
416,62,36992,2,0,L|465:55,1,50,0|2,1:2|1:2,0:0:0:0:
501,20,37292,5,2,2:0:0:0:
501,20,38492,6,0,B|477:73|477:73|492:123,1,110.000003356934,6|8,1:2|2:0,0:0:0:0:
454,163,38942,2,0,B|477:216|477:216|462:266,1,110.000003356934,2|0,2:0|1:2,0:0:0:0:
436,314,39392,1,10,2:0:0:0:
348,381,39692,1,0,1:2:0:0:
259,315,39992,2,0,B|164:303|196:363|95:350,1,165.000005035401,10|0,2:0|1:2,0:0:0:0:
49,337,40592,1,8,2:0:0:0:
4,236,40892,6,0,L|17:126,1,110.000003356934,2|8,1:2|2:0,0:0:0:0:
89,43,41492,2,0,P|126:33|151:34,1,55.0000016784668,2|0,2:0|1:2,0:0:0:0:
195,48,41792,1,8,2:0:0:0:
257,138,42092,2,0,B|280:191|280:191|265:241,1,110.000003356934,2|8,1:2|2:0,0:0:0:0:
297,346,42692,2,0,P|334:356|359:355,1,55.0000016784668,2|0,2:0|1:2,0:0:0:0:
403,341,42992,1,10,2:0:0:0:
479,262,43292,6,0,B|502:208|502:208|487:158,1,110.000003356934,2|8,1:2|2:0,0:0:0:0:
457,112,43742,2,0,B|403:88|403:88|353:103,1,110.000003356934,2|0,2:0|1:2,0:0:0:0:
302,124,44192,1,10,2:0:0:0:
236,35,44492,1,0,1:2:0:0:
126,47,44792,2,0,P|60:90|61:169,1,165.000005035401,10|0,2:0|1:2,0:0:0:0:
84,220,45392,1,10,2:0:0:0:
192,203,45692,6,0,L|301:189,1,110.000003356934,2|8,1:2|2:0,0:0:0:0:
405,223,46292,2,0,P|415:260|414:285,1,55.0000016784668,2|0,2:0|1:2,0:0:0:0:
408,331,46592,1,8,2:0:0:0:
310,381,46892,1,2,1:2:0:0:
310,381,47792,2,0,L|246:373,1,55.0000016784668,0|0,3:0|3:0,0:0:0:0:
201,364,48092,6,0,B|177:310|177:310|192:260,1,110.000003356934,6|8,1:2|2:0,0:0:0:0:
148,227,48542,2,0,B|171:173|171:173|156:123,1,110.000003356934,2|0,2:0|1:2,0:0:0:0:
141,70,48992,1,10,2:0:0:0:
227,2,49292,2,0,L|354:17,1,110.000003356934,0|10,1:2|2:0,0:0:0:0:
444,35,49892,1,2,2:0:0:0:
497,131,50192,1,10,2:0:0:0:
449,230,50492,6,0,B|399:244|399:244|345:221,1,110.000003356934,2|10,1:2|2:0,0:0:0:0:
294,202,50942,2,0,B|244:187|244:187|190:210,1,110.000003356934,2|0,2:0|1:2,0:0:0:0:
143,238,51392,1,10,2:0:0:0:
40,198,51692,2,0,L|24:70,1,110.000003356934,0|10,1:2|2:0,0:0:0:0:
115,23,52292,1,2,2:0:0:0:
200,92,52592,1,10,2:0:0:0:
287,25,52892,6,0,B|340:2|340:2|390:17,1,110.000003356934,6|2,1:2|1:2,0:0:0:0:
451,108,53492,2,0,L|438:217,1,110.000003356934,2|2,1:2|1:2,0:0:0:0:
364,299,54092,1,0,1:2:0:0:
262,256,54392,1,2,1:2:0:0:
184,333,54692,2,0,L|74:320,1,110.000003356934,2|2,1:2|1:2,0:0:0:0:
17,226,55292,5,2,1:2:0:0:
47,120,55592,1,2,1:2:0:0:
152,88,55892,1,2,1:2:0:0:
244,147,56192,1,2,1:2:0:0:
339,202,56492,6,0,B|393:225|393:225|443:210,1,110.000003356934,8|8,2:0|2:0,0:0:0:0:
492,112,57092,2,0,L|485:48,1,55.0000016784668,8|8,2:0|2:0,0:0:0:0:
439,28,57392,2,0,L|375:36,1,55.0000016784668,8|8,2:0|2:0,0:0:0:0:
334,41,57692,5,6,2:0:0:0:
334,41,58892,6,0,B|265:-26|136:33|221:129|66:114,1,300,2|0,2:0|0:0,0:0:0:0:
12,191,60092,6,0,L|24:290,1,100,4|8,1:2|2:0,0:0:0:0:
91,363,60692,2,0,P|114:354|139:351,1,50,2|6,2:0|1:3,0:0:0:0:
179,321,60992,1,10,2:0:0:0:
179,321,61142,2,0,P|224:341|274:342,2,100,2|2|0,2:0|2:0|2:0,0:0:0:0:
173,270,61892,1,0,2:0:0:0:
101,199,62192,1,8,2:0:0:0:
165,122,62492,6,0,L|264:109,1,100,4|8,1:2|2:0,0:0:0:0:
324,28,63092,2,0,P|347:19|372:16,1,50,2|6,2:0|1:3,0:0:0:0:
424,33,63392,1,10,2:0:0:0:
424,33,63542,2,0,P|444:78|445:128,1,100,2|2,2:0|2:0,0:0:0:0:
416,224,64142,2,0,B|330:234|359:180|268:192,1,150,2|8,2:0|2:0,0:0:0:0:
227,102,64892,6,0,L|127:89,1,100,4|8,1:2|2:0,0:0:0:0:
40,139,65492,2,0,P|48:162|51:187,1,50,2|6,2:0|1:3,0:0:0:0:
83,226,65792,1,10,2:0:0:0:
83,226,65942,2,0,P|62:271|61:321,2,100,2|2|0,2:0|2:0|2:0,0:0:0:0:
131,212,66692,1,0,2:0:0:0:
213,268,66992,1,8,2:0:0:0:
297,212,67292,5,6,1:2:0:0:
297,212,67442,2,0,P|368:225|399:290,1,150,2|2,2:0|2:0,0:0:0:0:
349,377,68192,1,10,2:0:0:0:
249,366,68492,6,0,L|185:358,1,50,2|2,1:2|1:2,0:0:0:0:
172,317,68792,2,0,L|108:324,1,50,2|2,1:2|1:2,0:0:0:0:
97,366,69092,2,0,L|33:358,1,50,0|4,1:2|1:3,0:0:0:0:
13,322,69392,1,8,2:0:0:0:
37,225,69692,5,0,0:0:0:0:
