osu file format v14

[General]
AudioFilename: audio.mp3
AudioLeadIn: 0
PreviewTime: 38417
Countdown: 0
SampleSet: Soft
StackLeniency: 0.7
Mode: 0
LetterboxInBreaks: 0
WidescreenStoryboard: 1

[Editor]
Bookmarks: 58892
DistanceSpacing: 1.6
BeatDivisor: 4
GridSize: 8
TimelineZoom: 1

[Metadata]
Title:Say Goodbye (Sped Up & Cut Ver.)
TitleUnicode:Say Goodbye (Sped Up & Cut Ver.)
Artist:Krewella
ArtistUnicode:Krewella
Creator:Sotarks
Version:A r M i N's Nightmare
Source:
Tags:dubstep nightcore sped speed up drum n and bass dnb english vocalist electronic armin a_r_m_i_n schoolboy komore toybot vikala pepekcz basensorex short ver version
BeatmapID:3320563
BeatmapSetID:1620540

[Difficulty]
HPDrainRate:5.6
CircleSize:4
OverallDifficulty:9
ApproachRate:9.2
SliderMultiplier:1.8
SliderTickRate:1

[Events]
//Background and Video events
0,0,"BG.jpg",0,0
//Break Periods
//Storyboard Layer 0 (Background)
//Storyboard Layer 1 (Fail)
//Storyboard Layer 2 (Pass)
//Storyboard Layer 3 (Foreground)
//Storyboard Layer 4 (Overlay)
//Storyboard Sound Samples

[TimingPoints]
92,300,4,2,22,70,1,0
92,-125,4,2,22,70,0,0
9692,-125,4,2,22,60,0,0
28892,-111.111111111111,4,2,22,65,0,0
33692,-100,4,2,22,70,0,0
36092,-100,4,2,22,75,0,0
37292,-1000,4,2,22,75,0,0
38417,-1000,4,2,22,5,0,0
38492,-90.9090909090909,4,2,22,80,0,1
46892,-90.9090909090909,4,2,22,70,0,0
48092,-90.9090909090909,4,2,22,80,0,1
52892,-100,4,2,22,70,0,0
55292,-100,4,2,22,80,0,1
57692,-1000,4,2,22,60,0,0
58892,-125,4,2,22,60,0,0
60092,-100,4,2,22,70,0,0
69692,-166.666666666667,4,2,22,50,0,0
76892,-166.666666666667,4,2,1,5,0,0

[Colours]
Combo1 : 155,198,196
Combo2 : 252,214,252
Combo3 : 123,164,225

[HitObjects]
144,338,9692,6,0,L|250:319,1,108,4|0,3:0|0:0,0:0:0:0:
285,314,9992,2,0,L|272:384,1,72,2|0,2:0|1:2,0:0:0:0:
383,294,10292,2,0,L|370:364,1,72,2|0,2:0|2:0,0:0:0:0:
481,275,10592,2,0,L|468:345,1,72,2|0,2:0|2:0,0:0:0:0:
416,198,10892,6,0,P|446:180|481:174,1,72,10|0,2:3|0:0,0:0:0:0:
318,217,11192,2,0,P|286:199|263:172,1,72,2|8,2:0|2:3,0:0:0:0:
137,54,11492,2,0,B|113:162|113:162|160:209|160:209|137:317,1,288,2|4,2:0|2:3,0:0:0:0:
406,229,12392,6,0,L|476:216,1,72,2|4,2:0|2:3,0:0:0:0:
321,176,12692,2,0,L|308:246,1,72,2|0,2:0|2:0,0:0:0:0:
409,128,12992,2,0,L|479:115,1,72,2|0,2:0|2:0,0:0:0:0:
324,75,13292,6,0,B|255:62|255:62|249:63|249:63|181:51,1,144,8|10,2:3|2:0,0:0:0:0:
19,91,13742,1,0,1:2:0:0:
88,19,13892,2,0,P|99:71|112:124,1,108
142,144,14192,2,0,L|129:214,1,72,2|2,2:0|2:0,0:0:0:0:
0,344,14492,1,8,2:3:0:0:
242,145,14792,6,0,P|236:109|218:78,1,72,2|0,2:0|1:0,0:0:0:0:
335,181,15092,2,0,P|368:193|404:193,1,72,2|0,2:0|2:0,0:0:0:0:
258,244,15392,2,0,P|230:266|212:297,1,72,2|0,2:0|2:0,0:0:0:0:
365,350,15692,6,0,L|352:280,1,72,10|0,2:3|0:0,0:0:0:0:
417,122,15992,2,0,L|404:192,1,72,2|8,2:0|2:3,0:0:0:0:
353,45,16292,2,0,P|389:25|441:25,1,72,2|0,2:0|2:0,0:0:0:0:
319,140,16592,2,0,P|283:118|257:73,1,72,2|0,2:0|2:0,0:0:0:0:
105,9,16892,6,0,B|123:46|152:62|152:62|126:166,1,180,6|0,2:3|0:0,0:0:0:0:
105,195,17342,2,0,B|148:336|148:336|167:311|206:294,1,216,6|2,2:3|2:0,0:0:0:0:
448,352,18092,6,0,P|438:298|430:245,1,108,10|0,2:3|0:0,0:0:0:0:
424,210,18392,1,8,2:0:0:0:
284,323,18542,2,0,P|185:348|121:268,1,216,2|2,1:2|2:0,0:0:0:0:
240,114,19292,1,8,2:3:0:0:
9,165,19592,6,0,L|79:178,1,72,2|0,2:0|1:2,0:0:0:0:
107,26,19892,2,0,P|79:49|62:79,1,72,2|0,2:0|2:0,0:0:0:0:
179,180,20192,2,0,P|173:145|156:114,1,72,2|0,2:0|2:0,0:0:0:0:
128,266,20492,6,0,P|161:278|197:278,1,72,10|0,2:3|0:0,0:0:0:0:
344,201,20792,2,0,L|274:214,1,72,2|8,2:0|2:3,0:0:0:0:
417,269,21092,2,0,P|422:137|292:115,1,288,2|4,2:0|2:3,0:0:0:0:
286,336,21992,6,0,L|356:349,1,72,2|4,2:0|2:3,0:0:0:0:
236,249,22292,2,0,L|166:262,1,72,2|0,2:0|2:0,0:0:0:0:
294,166,22592,2,0,L|364:179,1,72,2|0,2:0|2:0,0:0:0:0:
241,80,22892,6,0,P|193:56|141:67,1,108,10|0,2:3|2:0,0:0:0:0:
121,96,23192,2,0,L|51:83,1,72,10|0,2:0|1:2,0:0:0:0:
157,190,23492,2,0,B|189:257|180:330|180:330|225:276|301:257,1,288,2|8,2:0|2:3,0:0:0:0:
474,152,24392,6,0,L|487:222,1,72,2|0,2:0|1:0,0:0:0:0:
389,100,24692,2,0,L|376:170,1,72,2|0,2:0|2:0,0:0:0:0:
476,51,24992,2,0,P|454:23|424:5,1,72,2|0,2:0|2:0,0:0:0:0:
256,9,25292,6,0,L|326:22,1,72,10|0,2:3|0:0,0:0:0:0:
203,121,25592,2,0,L|273:108,1,72,2|8,2:0|2:3,0:0:0:0:
89,18,25892,2,0,L|159:31,1,72,2|0,2:0|2:0,0:0:0:0:
37,130,26192,2,0,L|107:117,1,72,2|0,2:0|2:0,0:0:0:0:
256,9,26492,6,0,P|241:97|236:187,1,180,6|0,2:3|0:0,0:0:0:0:
257,217,26942,2,0,P|353:236|383:141,1,216,6|2,2:3|2:0,0:0:0:0:
166,259,27692,6,0,P|122:228|69:230,1,108,10|0,2:3|0:0,0:0:0:0:
42,253,27992,1,8,2:0:0:0:
195,356,28142,2,0,B|295:333|295:333|298:334|298:334|406:310,1,216,2|2,1:2|2:0,0:0:0:0:
374,6,28892,5,2,1:2:0:0:
276,165,29042,1,2,2:0:0:0:
456,64,29192,1,2,2:0:0:0:
358,223,29342,1,2,2:0:0:0:
284,50,29492,6,0,P|246:34|206:35,1,80.9999975280763,2|2,2:0|2:0,0:0:0:0:
122,232,29792,2,0,L|201:217,1,80.9999975280763,2|0,2:0|2:0,0:0:0:0:
19,147,30092,5,2,2:0:0:0:
110,332,30242,1,2,2:0:0:0:
147,129,30392,1,2,2:0:0:0:
13,266,30542,1,2,2:0:0:0:
92,45,30692,6,0,P|129:29|169:30,1,80.9999975280763,2|2,2:0|2:0,0:0:0:0:
303,193,30992,2,0,L|223:178,1,80.9999975280763,2|0,2:0|2:0,0:0:0:0:
414,69,31292,5,2,2:0:0:0:
349,282,31442,1,2,2:0:0:0:
317,93,31592,1,2,2:0:0:0:
446,258,31742,1,2,2:0:0:0:
257,173,31892,6,0,L|177:187,1,80.9999975280763,2|2,2:0|2:0,0:0:0:0:
36,56,32192,2,0,P|76:55|113:70,1,80.9999975280763,2|0,2:0|2:0,0:0:0:0:
234,271,32492,5,2,2:0:0:0:
59,154,32642,1,2,2:0:0:0:
257,173,32792,1,2,2:0:0:0:
61,254,32942,1,2,2:0:0:0:
202,89,33092,6,0,P|239:73|279:74,1,80.9999975280763,2|2,2:0|2:0,0:0:0:0:
454,185,33392,2,0,L|374:171,1,80.9999975280763,2|0,2:0|2:0,0:0:0:0:
152,384,33692,5,2,1:2:0:0:
359,270,33842,1,2,2:0:0:0:
123,221,33992,1,2,1:2:0:0:
311,358,34142,1,2,2:0:0:0:
300,100,34292,5,2,1:2:0:0:
193,292,34442,1,2,2:0:0:0:
373,169,34592,2,0,P|395:131|399:87,1,90,2|0,1:2|2:0,0:0:0:0:
470,322,34892,5,2,1:2:0:0:
275,198,35042,1,2,2:0:0:0:
497,107,35192,1,2,1:2:0:0:
341,311,35342,1,2,2:0:0:0:
281,78,35492,5,2,1:2:0:0:
489,223,35642,1,2,2:0:0:0:
244,294,35792,1,2,1:2:0:0:
394,58,35942,1,2,2:0:0:0:
341,311,36092,5,2,1:2:0:0:
227,62,36242,1,2,1:2:0:0:
351,335,36392,1,2,1:2:0:0:
216,37,36542,1,2,1:2:0:0:
220,350,36692,5,2,1:2:0:0:
325,77,36842,1,2,1:2:0:0:
210,375,36992,1,0,1:2:0:0:
334,52,37142,1,2,1:2:0:0:
197,193,37292,6,0,P|163:187|130:182,1,67.5,2|0,2:0|2:0,0:0:0:0:
60,132,38492,6,0,P|123:60|217:73,1,198.000006042481,6|8,1:2|2:0,0:0:0:0:
400,228,38942,2,0,P|413:129|428:32,1,198.000006042481,2|0,2:0|1:2,0:0:0:0:
249,175,39392,2,0,P|200:179|159:154,1,99.0000030212403,10|0,2:0|2:0,0:0:0:0:
4,6,39692,6,0,P|19:53|32:101,1,99.0000030212403,0|0,1:2|0:0,0:0:0:0:
106,335,39992,2,0,B|207:304|190:398|292:367,1,198.000006042481,10|0,2:0|2:0,0:0:0:0:
481,227,40442,1,0,1:2:0:0:
310,141,40592,2,0,L|330:239,1,99.0000030212403,8|0,2:0|2:0,0:0:0:0:
452,42,40892,6,0,P|411:14|363:13,1,99.0000030212403,2|0,1:2|0:0,0:0:0:0:
153,96,41192,2,0,P|201:95|241:67,1,99.0000030212403,8|0,2:0|2:0,0:0:0:0:
445,180,41492,6,0,P|436:240|430:289,1,99.0000030212403,2|0,2:0|1:2,0:0:0:0:
239,357,41792,2,0,P|225:287|213:236,1,99.0000030212403,8|0,2:0|2:0,0:0:0:0:
8,153,42092,6,0,B|50:184|50:184|108:160,1,99.0000030212403,2|0,1:2|0:0,0:0:0:0:
245,11,42392,2,0,B|197:31|197:31|191:78,1,99.0000030212403,8|0,2:0|2:0,0:0:0:0:
322,227,42692,6,0,P|370:214|423:199,1,99.0000030212403,2|0,2:0|1:2,0:0:0:0:
239,357,42992,2,0,P|191:344|142:335,1,99.0000030212403,10|0,2:0|2:0,0:0:0:0:
345,128,43292,6,0,P|436:102|509:163,1,198.000006042481,2|8,1:2|2:0,0:0:0:0:
262,252,43742,2,0,B|247:156|247:156|243:154|243:154|226:55,1,198.000006042481,2|0,2:0|1:2,0:0:0:0:
417,200,44192,2,0,P|409:252|404:298,1,99.0000030212403,10|0,2:0|2:0,0:0:0:0:
151,178,44492,6,0,P|92:152|44:168,1,99.0000030212403,0|0,1:2|0:0,0:0:0:0:
238,325,44792,2,0,P|246:226|257:127,1,198.000006042481,10|0,2:0|2:0,0:0:0:0:
142,278,45242,1,0,1:2:0:0:
360,163,45392,2,0,P|350:114|341:66,1,99.0000030212403,10|0,2:0|2:0,0:0:0:0:
332,310,45692,6,0,P|384:334|430:325,1,99.0000030212403,2|0,1:2|0:0,0:0:0:0:
260,161,45992,2,0,P|212:156|169:179,1,99.0000030212403,8|0,2:0|2:0,0:0:0:0:
15,263,46292,6,0,P|22:207|29:155,1,99.0000030212403,2|0,2:0|1:2,0:0:0:0:
231,257,46592,2,0,P|237:306|243:355,1,99.0000030212403,8|0,2:0|2:0,0:0:0:0:
368,105,46892,1,2,1:2:0:0:
368,105,47792,5,0,3:0:0:0:
344,112,47867,1,0,3:0:0:0:
320,111,47942,1,0,3:0:0:0:
297,102,48017,1,0,3:0:0:0:
279,84,48092,6,0,P|191:63|117:140,1,198.000006042481,6|8,1:2|2:0,0:0:0:0:
258,352,48542,1,2,2:0:0:0:
215,161,48692,1,0,2:0:0:0:
163,384,48842,1,0,1:2:0:0:
314,178,48992,2,0,L|411:195,1,99.0000030212403,10|0,2:0|2:0,0:0:0:0:
183,285,49292,6,0,P|139:307|91:302,1,99.0000030212403,0|0,1:2|0:0,0:0:0:0:
196,91,49592,2,0,L|214:189,1,99.0000030212403,10|0,2:0|2:0,0:0:0:0:
79,21,49892,1,2,2:0:0:0:
296,89,50042,1,0,1:2:0:0:
116,205,50192,2,0,L|18:187,1,99.0000030212403,10|0,2:0|2:0,0:0:0:0:
235,9,50492,6,0,P|306:-12|394:71,1,198.000006042481,2|10,1:2|2:0,0:0:0:0:
419,275,50942,1,2,2:0:0:0:
296,89,51092,1,0,2:0:0:0:
487,201,51242,1,0,1:2:0:0:
255,281,51392,2,0,L|157:263,1,99.0000030212403,10|0,2:0|2:0,0:0:0:0:
349,347,51692,6,0,P|371:303|366:255,1,99.0000030212403,0|0,1:2|0:0,0:0:0:0:
203,88,51992,2,0,L|221:186,1,99.0000030212403,10|0,2:0|2:0,0:0:0:0:
56,359,52292,1,2,2:0:0:0:
127,154,52442,1,0,1:2:0:0:
248,343,52592,2,0,L|150:325,1,99.0000030212403,10|0,2:0|2:0,0:0:0:0:
298,121,52892,6,0,B|386:103|386:103|390:106|390:106|475:89,2,180,6|2|2,1:2|1:2|1:2,0:0:0:0:
26,12,53792,6,0,P|111:0|169:63,1,180,2|0,1:2|1:2,0:0:0:0:
55,304,54392,6,0,P|46:259|35:216,1,90,2|0,1:2|0:0,0:0:0:0:
145,347,54692,2,0,P|154:257|164:168,1,180,2|2,1:2|1:2,0:0:0:0:
421,60,55292,5,2,1:2:0:0:
309,274,55442,1,0,1:2:0:0:
226,62,55592,1,2,1:2:0:0:
438,206,55742,1,0,1:2:0:0:
212,295,55892,5,2,1:2:0:0:
324,82,56042,1,0,1:2:0:0:
405,301,56192,1,2,1:2:0:0:
211,157,56342,1,0,1:2:0:0:
421,107,56492,5,8,2:0:0:0:
307,360,56642,1,0,1:2:0:0:
142,85,56792,5,8,2:0:0:0:
387,202,56942,1,0,1:2:0:0:
119,328,57092,5,8,2:0:0:0:
236,51,57242,1,8,2:0:0:0:
213,361,57392,1,8,2:0:0:0:
137,32,57542,1,8,2:0:0:0:
267,276,57692,6,0,P|301:270|334:265,1,67.5,6|0,2:0|0:0,0:0:0:0:
371,260,58892,6,0,P|387:228|385:192,1,72,2|0,2:0|0:0,0:0:0:0:
314,143,59192,2,0,P|297:111|299:75,1,72,2|0,0:0|0:0,0:0:0:0:
176,24,59492,6,0,P|139:35|98:46,1,72,2|0,0:0|0:0,0:0:0:0:
19,168,59792,2,0,P|54:175|89:181,1,72,2|0,0:0|0:0,0:0:0:0:
222,328,60092,6,0,P|139:353|73:297,1,180,4|8,1:2|2:0,0:0:0:0:
219,147,60542,1,0,2:0:0:0:
46,96,60692,6,0,P|35:52|23:8,2,90,2|6|10,2:0|1:3|2:0,0:0:0:0:
161,229,61142,2,0,P|202:248|246:243,1,90,2|0,2:0|1:2,0:0:0:0:
405,127,61442,2,0,P|389:215|381:305,1,180,2|0,2:0|2:0,0:0:0:0:
295,139,61892,5,0,2:0:0:0:
504,221,62042,1,4,1:3:0:0:
295,139,62192,1,8,2:0:0:0:
504,221,62342,1,0,2:0:0:0:
349,22,62492,6,0,B|262:40|262:40|259:44|259:44|175:63,1,180,4|8,1:2|2:0,0:0:0:0:
16,214,62942,1,0,2:0:0:0:
81,11,63092,6,0,P|78:56|76:101,2,90,2|6|10,2:0|1:3|2:0,0:0:0:0:
208,189,63542,2,0,P|174:218|131:226,1,90,2|0,2:0|1:2,0:0:0:0:
237,59,63842,2,0,P|286:71|329:80,1,90,2|8,2:0|2:0,0:0:0:0:
495,136,64142,1,2,2:0:0:0:
327,210,64292,5,0,2:0:0:0:
400,0,64442,1,4,1:3:0:0:
327,210,64592,1,8,2:0:0:0:
400,0,64742,1,0,2:0:0:0:
428,271,64892,6,0,P|367:333|281:323,1,180,4|8,1:2|2:0,0:0:0:0:
156,146,65342,1,0,2:0:0:0:
90,298,65492,6,0,P|45:288|1:280,2,90,2|6|10,2:0|1:3|2:0,0:0:0:0:
255,164,65942,2,0,P|254:119|232:81,1,90,2|0,2:0|1:2,0:0:0:0:
28,16,66242,2,0,P|48:103|66:191,1,180,2|0,2:0|2:0,0:0:0:0:
212,373,66692,5,0,2:0:0:0:
6,284,66842,1,4,1:3:0:0:
212,373,66992,1,8,2:0:0:0:
6,284,67142,1,0,2:0:0:0:
230,173,67292,5,6,1:2:0:0:
91,380,67442,1,2,2:0:0:0:
102,147,67592,1,10,2:0:0:0:
239,278,67742,5,2,2:0:0:0:
9,184,67892,1,2,2:0:0:0:
222,77,68042,1,6,1:3:0:0:
88,247,68192,5,10,2:0:0:0:
156,3,68342,1,2,2:0:0:0:
293,200,68492,5,2,1:2:0:0:
70,54,68642,1,2,1:2:0:0:
318,104,68792,1,2,1:2:0:0:
51,153,68942,1,2,1:2:0:0:
267,18,69092,5,0,1:2:0:0:
234,282,69242,1,4,1:3:0:0:
113,73,69392,2,0,P|72:54|28:55,1,90,8|0,2:0|0:0,0:0:0:0:
293,200,69692,6,0,B|344:186|344:186|347:187|347:187|398:173,1,107.999996704102,2|0,0:0|0:0,0:0:0:0:
512,301,70142,2,0,B|462:287|462:287|459:288|459:288|408:274,1,107.999996704102,2|0,0:0|0:0,0:0:0:0:
358,80,70592,2,0,P|440:81|491:138,1,161.999995056153,2|0,0:0|0:0,0:0:0:0:
368,181,71192,6,0,L|314:171,1,53.9999983520508,2|0,0:0|0:0,0:0:0:0:
252,94,71492,2,0,L|198:103,1,53.9999983520508,2|0,0:0|0:0,0:0:0:0:
139,22,71792,2,0,L|85:12,1,53.9999983520508,2|0,0:0|0:0,0:0:0:0:
13,136,72092,6,0,P|32:186|47:238,1,107.999996704102,2|0,0:0|0:0,0:0:0:0:
161,342,72542,2,0,P|204:312|257:313,1,107.999996704102,2|0,0:0|0:0,0:0:0:0:
375,373,72992,2,0,P|379:346|385:320,1,53.9999983520508,2|0,0:0|0:0,0:0:0:0:
485,187,73292,2,0,P|466:108|450:28,1,161.999995056153,2|2,0:0|0:0,0:0:0:0:
256,192,73892,12,0,76892,0:0:0:0:
