osu file format v14

[General]
AudioFilename: audio.mp3
AudioLeadIn: 0
PreviewTime: 42666
Countdown: 0
SampleSet: Normal
StackLeniency: 0.7
Mode: 0
LetterboxInBreaks: 0
WidescreenStoryboard: 1

[Editor]
Bookmarks: 10666,31999,42666,66666,87999,109333,133333,154666,166666,181333,191999,223999
DistanceSpacing: 1.3
BeatDivisor: 4
GridSize: 8
TimelineZoom: 2.2

[Metadata]
Title:Say Goodbye
TitleUnicode:Say Goodbye
Artist:Krewella
ArtistUnicode:Krewella
Creator:PantyDev
Version:Easy
Source:
Tags:electro, d'n'b, Krewella, Say, Goodbye, Dubstep, PantyDev
BeatmapID:959405
BeatmapSetID:446774

[Difficulty]
HPDrainRate:2
CircleSize:3
OverallDifficulty:2
ApproachRate:3
SliderMultiplier:0.899999999999999
SliderTickRate:1

[Events]
//Background and Video events
0,0,"bg.jpg",0,0
//Break Periods
2,32199,35893
2,166866,179893
//Storyboard Layer 0 (Background)
//Storyboard Layer 1 (Fail)
//Storyboard Layer 2 (Pass)
//Storyboard Layer 3 (Foreground)
//Storyboard Sound Samples

[TimingPoints]
0,333.333333333333,4,1,1,70,1,0
10666,-133.333333333333,4,1,1,70,0,0
42666,-133.333333333333,4,1,1,70,0,1
63999,-133.333333333333,4,1,1,70,0,0
109333,-133.333333333333,4,1,1,70,0,1
130666,-133.333333333333,4,1,1,70,0,0
191999,-133.333333333333,4,1,1,70,0,1
207999,-133.333333333333,4,1,1,70,0,0

[HitObjects]
384,40,10666,6,0,L|368:112,1,67.5000025749207,2|0,0:0|0:0,0:0:0:0:
288,120,11333,2,0,P|264:160|336:192,1,135.000005149841,0|2,0:0|0:0,0:0:0:0:
392,96,12499,2,0,B|344:104|280:56|224:64,1,168.750006437302,2|2,0:0|0:0,0:0:0:0:
152,80,13666,6,0,P|112:120|144:192,1,135.000005149841
216,232,14666,2,0,L|296:248,1,67.5000025749207,2|0,0:0|0:0,0:0:0:0:
344,192,15333,2,0,P|384:216|360:296,1,135.000005149841,0|2,0:0|0:0,0:0:0:0:
288,320,16333,5,0,0:0:0:0:
232,264,16666,2,0,P|216:216|280:152,1,135.000005149841,0|2,0:0|0:0,0:0:0:0:
344,128,17666,1,0,0:0:0:0:
416,168,17999,2,0,P|440:192|456:232,2,67.5000025749207,0|0|2,0:0|0:0|0:0,0:0:0:0:
296,152,19166,6,0,P|224:208|144:200,1,168.750006437302,2|2,0:0|0:0,0:0:0:0:
104,88,20499,2,0,P|72:104|40:224,1,168.750006437302,2|2,0:0|0:0,0:0:0:0:
128,248,21666,5,0,0:0:0:0:
176,176,21999,2,0,L|296:264,1,135.000005149841,0|2,0:0|0:0,0:0:0:0:
368,272,22999,2,0,P|416:240|400:112,1,202.500007724762,0|2,0:0|0:0,0:0:0:0:
320,104,24333,6,0,B|272:120|320:184|240:208,1,135.000005149841
168,224,25333,1,2,0:0:0:0:
120,160,25666,2,0,P|128:120|216:80,1,135.000005149841
288,96,26666,1,2,0:0:0:0:
360,136,26999,2,0,P|392:168|448:72,1,202.500007724762,0|2,0:0|0:0,0:0:0:0:
376,48,28333,2,0,L|240:48,1,135.000005149841
176,96,29333,1,2,0:0:0:0:
112,200,29833,6,0,P|56:128|64:48,1,168.750006437302,2|2,0:0|0:0,0:0:0:0:
176,96,31166,2,0,P|192:64|312:32,1,168.750006437302,2|6,0:0|0:0,0:0:0:0:
152,288,37333,6,0,B|120:248|120:248|104:152,1,135.000005149841,8|8,0:0|0:0,0:0:0:0:
248,88,38666,6,0,B|296:120|296:184|344:192,1,135.000005149841,8|8,0:0|0:0,0:0:0:0:
208,288,39999,6,0,P|224:248|192:152,1,135.000005149841,8|8,0:0|0:0,0:0:0:0:
88,48,41333,6,0,B|152:40|232:144|232:144|312:96,1,270.000010299683,8|12,0:0|0:0,0:0:0:0:
400,152,42999,6,0,P|392:208|336:280,1,135.000005149841,2|2,0:0|0:0,0:0:0:0:
280,224,43999,6,0,P|240:232|208:248,2,67.5000025749207,8|2|0,0:0|0:0|0:0,0:0:0:0:
360,232,44999,1,0,0:0:0:0:
432,264,45333,6,0,P|480:248|472:168,1,135.000005149841,8|0,0:0|0:0,0:0:0:0:
408,128,46333,1,2,0:0:0:0:
336,88,46666,6,0,B|280:88|280:88|224:152,1,135.000005149841,8|0,0:0|0:0,0:0:0:0:
216,232,47666,2,0,P|208:280|128:312,1,135.000005149841,2|2,0:0|0:0,0:0:0:0:
112,192,48999,6,2,B|160:144|232:200|344:144,1,236.250009012222,2|8,0:0|0:0,0:0:0:0:
456,176,50666,6,0,P|432:224|416:232,1,67.5000025749207,8|2,0:0|0:0,0:0:0:0:
368,168,51333,2,0,P|320:160|248:216,1,135.000005149841,0|8,0:0|0:0,0:0:0:0:
176,288,53333,6,0,P|152:248|184:168,1,135.000005149841,12|0,0:0|0:0,0:0:0:0:
256,136,54333,2,0,P|296:176|368:160,1,135.000005149841,2|2,0:0|0:0,0:0:0:0:
336,88,55333,6,0,P|320:56|288:40,1,67.5000025749207,0|2,0:0|0:0,0:0:0:0:
216,72,55999,6,0,P|144:120|160:232,1,202.500007724762,8|2,0:0|0:0,0:0:0:0:
232,208,57333,5,8,0:0:0:0:
288,264,57666,2,0,P|344:280|416:240,1,135.000005149841,2|2,0:0|0:0,0:0:0:0:
432,168,58666,6,0,B|376:136|376:136|320:208|248:176,1,202.500007724762,12|8,0:0|0:0,0:0:0:0:
200,128,59999,6,0,P|160:152|192:280,1,202.500007724762,8|8,0:0|0:0,0:0:0:0:
264,240,61333,6,0,P|312:224|336:224,1,67.5000025749207,8|8,0:0|0:0,0:0:0:0:
408,240,61999,1,8,0:0:0:0:
368,312,62333,2,0,P|320:328|288:328,1,67.5000025749207,8|8,0:0|0:0,0:0:0:0:
248,264,62999,6,0,P|208:232|56:248,1,202.500007724762,2|6,0:0|0:0,0:0:0:0:
256,192,64333,12,0,66333,0:0:0:0:
120,88,66666,6,0,P|160:96|224:176,1,135.000005149841,12|0,0:0|0:0,0:0:0:0:
160,216,67666,1,2,0:0:0:0:
216,272,67999,6,0,P|272:272|328:216,1,135.000005149841,8|0,0:0|0:0,0:0:0:0:
312,136,68999,2,0,L|392:128,1,67.5000025749207,2|12,0:0|0:0,0:0:0:0:
448,88,69666,5,2,0:0:0:0:
496,152,69999,2,0,B|472:208|336:168|336:168|278:228|278:228|216:176,1,337.500012874603,0|2,0:0|0:0,0:0:0:0:
168,112,71999,6,0,P|112:144|120:208,1,135.000005149841,12|0,0:0|0:0,0:0:0:0:
176,264,72999,1,2,0:0:0:0:
240,216,73333,6,0,P|312:192|376:216,1,135.000005149841,8|0,0:0|0:0,0:0:0:0:
416,272,74333,1,2,0:0:0:0:
336,264,74666,6,0,P|288:240|256:160,1,135.000005149841,4|0,0:0|0:0,0:0:0:0:
200,104,75666,2,0,P|136:112|104:176,1,135.000005149841,2|2,0:0|0:0,0:0:0:0:
160,232,76666,5,0,0:0:0:0:
240,248,76999,2,0,L|320:248,1,67.5000025749207,2|12,0:0|0:0,0:0:0:0:
296,168,77666,6,0,P|256:128|176:112,1,135.000005149841,2|2,0:0|0:0,0:0:0:0:
104,136,78666,6,0,P|104:176|120:208,1,67.5000025749207,8|2,0:0|0:0,0:0:0:0:
192,216,79333,2,0,P|216:264|168:336,1,135.000005149841,0|12,0:0|0:0,0:0:0:0:
112,288,80333,5,2,0:0:0:0:
128,208,80666,2,0,P|232:136|280:144,1,168.750006437302
336,176,81833,6,0,P|384:192|408:96,1,168.750006437302,0|12,0:0|0:0,0:0:0:0:
344,64,82999,5,2,0:0:0:0:
304,136,83333,2,0,L|264:192,1,67.5000025749207,0|2,0:0|0:0,0:0:0:0:
216,256,83999,6,0,P|128:248|120:208,1,135.000005149841,8|0,0:0|0:0,0:0:0:0:
136,136,84999,1,2,0:0:0:0:
208,96,85333,6,0,P|264:112|344:88,1,135.000005149841,12|0,0:0|0:0,0:0:0:0:
408,56,86333,2,0,P|448:56|480:80,1,67.5000025749207,2|8,0:0|0:0,0:0:0:0:
424,136,86999,1,8,0:0:0:0:
464,208,87333,2,0,P|392:272|352:256,1,135.000005149841,8|12,0:0|0:0,0:0:0:0:
216,168,88333,6,0,P|264:144|344:152,1,135.000005149841
400,208,89333,1,2,0:0:0:0:
328,248,89666,2,0,B|280:264|280:264|216:208|136:240,1,202.500007724762,0|2,0:0|0:0,0:0:0:0:
64,272,90999,5,0,0:0:0:0:
128,320,91333,2,0,L|208:336,1,67.5000025749207
272,312,91999,1,2,0:0:0:0:
280,232,92333,2,2,B|336:184|416:280|464:184,1,202.500007724762
400,136,93666,5,0,0:0:0:0:
440,64,93999,2,0,P|368:40|312:56,1,135.000005149841,0|2,0:0|0:0,0:0:0:0:
256,112,94999,6,0,L|184:144,2,67.5000025749207
336,128,95999,1,2,0:0:0:0:
448,168,96499,6,0,P|400:240|320:264,1,168.750006437302,2|2,0:0|0:0,0:0:0:0:
304,144,97833,2,0,P|223:113|181:40,1,168.750006437302,2|12,0:0|0:0,0:0:0:0:
264,24,98999,5,2,0:0:0:0:
336,64,99333,2,0,P|360:128|344:200,1,135.000005149841,0|8,0:0|0:0,0:0:0:0:
264,192,100333,5,2,0:0:0:0:
192,240,100666,2,0,P|216:288|240:296,1,67.5000025749207,0|2,0:0|0:0,0:0:0:0:
312,264,101333,6,0,P|360:224|440:216,1,135.000005149841,8|0,0:0|0:0,0:0:0:0:
504,248,102333,1,2,0:0:0:0:
480,328,102666,6,0,P|440:352|408:352,1,67.5000025749207,8|2,0:0|0:0,0:0:0:0:
352,304,103333,2,0,P|280:264|216:256,1,135.000005149841,0|12,0:0|0:0,0:0:0:0:
152,280,104333,5,2,0:0:0:0:
80,320,104666,2,0,P|40:296|48:208,1,135.000005149841,0|8,0:0|0:0,0:0:0:0:
120,192,105666,6,0,P|160:152|144:80,1,135.000005149841,2|2,0:0|0:0,0:0:0:0:
224,56,106666,5,2,0:0:0:0:
304,64,107166,2,0,P|376:112|368:192,1,168.750006437302,8|2,0:0|0:0,0:0:0:0:
376,312,109333,5,8,0:0:0:0:
288,304,109666,2,0,P|259:254|259:163,1,135.000005149841,2|2,0:0|0:0,0:0:0:0:
336,184,110666,6,0,P|376:190|411:187,2,67.5000025749207,8|2|0,0:0|0:0|0:0,0:0:0:0:
304,112,111666,1,0,0:0:0:0:
248,56,112000,6,0,P|200:72|208:152,1,135.000005149841,8|0,0:0|0:0,0:0:0:0:
280,144,113000,1,2,0:0:0:0:
360,144,113333,6,0,B|416:144|416:144|472:208,1,135.000005149841,8|0,0:0|0:0,0:0:0:0:
400,256,114333,2,0,P|356:277|283:231,1,135.000005149841,2|2,0:0|0:0,0:0:0:0:
256,80,115666,6,2,B|208:128|136:72|112:224|240:256,1,270.000010299683
304,208,117333,6,0,P|328:160|344:152,1,67.5000025749207,8|2,0:0|0:0,0:0:0:0:
392,216,118000,2,0,P|440:224|504:160,1,135.000005149841,0|8,0:0|0:0,0:0:0:0:
392,144,120000,6,0,P|352:168|272:136,1,135.000005149841,12|0,0:0|0:0,0:0:0:0:
336,80,121000,2,0,P|296:40|224:56,1,135.000005149841,2|2,0:0|0:0,0:0:0:0:
144,96,122000,6,0,P|160:128|192:144,1,67.5000025749207,0|2,0:0|0:0,0:0:0:0:
264,96,122666,6,0,P|348:79|416:169,1,202.500007724762,8|2,0:0|0:0,0:0:0:0:
352,224,124000,5,8,0:0:0:0:
280,280,124333,2,0,P|224:296|152:256,1,135.000005149841,2|2,0:0|0:0,0:0:0:0:
168,176,125333,6,0,B|224:208|224:208|344:112,1,202.500007724762,12|8,0:0|0:0,0:0:0:0:
384,192,126666,6,0,P|424:168|392:40,1,202.500007724762,8|8,0:0|0:0,0:0:0:0:
328,96,128000,6,0,P|280:112|256:112,1,67.5000025749207,8|8,0:0|0:0,0:0:0:0:
176,112,128666,1,8,0:0:0:0:
136,192,129000,2,0,P|184:208|216:208,1,67.5000025749207,8|8,0:0|0:0,0:0:0:0:
264,152,129666,6,0,P|304:184|456:168,1,202.500007724762,2|6,0:0|0:0,0:0:0:0:
256,192,130999,12,0,132999,0:0:0:0:
88,200,133333,6,0,P|128:176|160:168,1,67.5000025749207,12|2,0:0|0:0,0:0:0:0:
224,216,133999,2,0,P|288:240|360:224,1,135.000005149841,0|8,0:0|0:0,0:0:0:0:
368,144,134999,5,2,0:0:0:0:
304,88,135333,2,0,B|248:64|248:64|224:88|224:88|184:64,1,135.000005149841,0|8,0:0|0:0,0:0:0:0:
128,136,136333,6,0,P|168:192|240:216,1,135.000005149841,2|2,0:0|0:0,0:0:0:0:
296,160,137333,5,8,0:0:0:0:
368,112,137666,2,0,P|416:160|408:232,1,135.000005149841,2|2,0:0|0:0,0:0:0:0:
328,240,138666,5,8,0:0:0:0:
272,168,138999,2,0,P|192:168|144:200,1,135.000005149841,2|2,0:0|0:0,0:0:0:0:
192,272,139999,6,0,P|112:312|80:288,1,135.000005149841,8|0,0:0|0:0,0:0:0:0:
88,208,140999,1,2,0:0:0:0:
128,128,141333,6,0,L|200:144,1,67.5000025749207,8|2,0:0|0:0,0:0:0:0:
256,80,141999,1,0,0:0:0:0:
336,112,142333,2,0,L|416:224,1,135.000005149841,2|2,0:0|0:0,0:0:0:0:
328,232,143333,6,0,L|280:296,1,67.5000025749207,2|8,0:0|0:0,0:0:0:0:
200,264,143999,6,0,P|152:224|160:152,1,135.000005149841
224,104,144999,1,0,0:0:0:0:
304,72,145333,6,0,P|376:80|408:136,1,135.000005149841,8|2,0:0|0:0,0:0:0:0:
320,152,146333,1,0,0:0:0:0:
240,192,146666,6,0,B|168:192|104:240,1,135.000005149841,8|2,0:0|0:0,0:0:0:0:
80,312,147666,1,0,0:0:0:0:
168,336,147999,6,0,P|216:344|240:272,1,135.000005149841,8|2,0:0|0:0,0:0:0:0:
184,208,148999,1,0,0:0:0:0:
144,128,149333,6,0,P|176:80|256:72,1,135.000005149841,8|2,0:0|0:0,0:0:0:0:
320,112,150333,1,0,0:0:0:0:
296,192,150666,6,0,P|320:240|344:248,1,67.5000025749207,8|0,0:0|0:0,0:0:0:0:
416,224,151333,2,0,P|472:264|440:312,1,135.000005149841,2|12,0:0|0:0,0:0:0:0:
360,320,152333,2,0,B|328:288|328:288|336:240|280:216,1,135.000005149841
312,136,153333,6,0,P|368:120|416:176,1,135.000005149841,8|2,0:0|0:0,0:0:0:0:
64,112,154666,6,0,L|136:192,1,101.250003862381,4|8,0:0|0:0,0:0:0:0:
336,256,155999,6,0,L|344:152,1,101.250003862381,2|2,0:0|0:0,0:0:0:0:
184,304,157333,6,0,L|80:328,1,101.250003862381,8|8,0:0|0:0,0:0:0:0:
216,152,158666,6,0,L|320:152,1,101.250003862381,8|2,0:0|0:0,0:0:0:0:
464,312,159999,6,0,L|480:208,1,101.250003862381,2|8,0:0|0:0,0:0:0:0:
280,112,161333,6,0,L|184:72,1,101.250003862381,2|2,0:0|0:0,0:0:0:0:
152,288,162666,6,8,L|248:240,1,101.250003862381
416,112,163999,6,0,L|312:64,1,101.250003862381,8|8,0:0|0:0,0:0:0:0:
256,192,164666,12,0,166666,0:0:0:0:
160,80,181333,5,6,0:0:0:0:
112,152,181666,2,0,P|120:208|176:280,1,135.000005149841,0|2,0:0|0:0,0:0:0:0:
232,224,182666,6,0,P|272:232|304:248,2,67.5000025749207,10|8|8,0:0|0:0|0:0,0:0:0:0:
152,232,183665,1,2,0:0:0:0:
80,264,183999,6,0,P|32:248|40:168,1,135.000005149841,2|8,0:0|0:0,0:0:0:0:
104,128,184999,1,2,0:0:0:0:
176,88,185332,6,0,B|232:88|232:88|288:152,1,135.000005149841,2|8,0:0|0:0,0:0:0:0:
296,232,186332,2,0,P|304:280|384:312,1,135.000005149841,2|8,0:0|0:0,0:0:0:0:
448,264,187333,5,8,0:0:0:0:
400,192,187665,2,0,B|352:144|280:200|224:96|144:96,1,270.000010299683,2|8,0:0|0:0,0:0:0:0:
56,176,189332,6,0,P|80:224|96:232,1,67.5000025749207,8|8,0:0|0:0,0:0:0:0:
144,168,189999,2,0,P|192:160|264:216,1,135.000005149841,8|8,0:0|0:0,0:0:0:0:
336,288,191999,6,0,P|360:248|328:168,1,135.000005149841,12|0,0:0|0:0,0:0:0:0:
256,136,192999,2,0,P|216:176|144:160,1,135.000005149841,2|2,0:0|0:0,0:0:0:0:
176,88,193999,6,0,P|192:56|224:40,1,67.5000025749207,0|2,0:0|0:0,0:0:0:0:
296,72,194665,6,0,P|368:120|352:232,1,202.500007724762,8|2,0:0|0:0,0:0:0:0:
280,208,195999,5,8,0:0:0:0:
224,264,196332,2,0,P|168:280|96:240,1,135.000005149841,2|2,0:0|0:0,0:0:0:0:
80,168,197333,6,0,B|136:136|136:136|192:208|264:176,1,202.500007724762,8|2,0:0|0:0,0:0:0:0:
320,120,198666,6,0,P|360:144|328:272,1,202.500007724762,8|2,0:0|0:0,0:0:0:0:
248,240,199999,6,0,P|200:224|176:224,1,67.5000025749207,8|2,0:0|0:0,0:0:0:0:
104,240,200665,1,0,0:0:0:0:
144,312,200999,2,0,P|192:328|224:328,1,67.5000025749207,2|8,0:0|0:0,0:0:0:0:
264,264,201665,6,0,P|304:232|456:248,1,202.500007724762,2|8,0:0|0:0,0:0:0:0:
472,160,202999,6,0,L|368:56,1,135.000005149841,2|0,0:0|0:0,0:0:0:0:
288,72,203999,1,0,0:0:0:0:
240,144,204333,6,0,L|288:200,2,67.5000025749207,2|0|2,0:0|0:0|0:0,0:0:0:0:
160,176,205333,6,0,P|112:264|120:296,1,135.000005149841,8|0,0:0|0:0,0:0:0:0:
208,288,206333,1,2,0:0:0:0:
256,216,206666,6,0,L|384:168,1,135.000005149841,8|0,0:0|0:0,0:0:0:0:
472,184,207666,2,0,L|432:248,1,67.5000025749207,2|12,0:0|0:0,0:0:0:0:
344,256,208333,6,0,P|280:216|264:152,1,135.000005149841,2|2,0:0|0:0,0:0:0:0:
336,120,209333,1,8,0:0:0:0:
424,128,209666,6,0,L|448:192,2,67.5000025749207,2|0|2,0:0|0:0|0:0,0:0:0:0:
344,104,210666,6,0,P|280:80|208:88,1,135.000005149841,8|0,0:0|0:0,0:0:0:0:
136,128,211666,1,2,0:0:0:0:
184,200,211999,6,0,L|248:232,1,67.5000025749207,8|2,0:0|0:0,0:0:0:0:
320,192,212666,2,0,P|376:152|352:88,1,135.000005149841,0|8,0:0|0:0,0:0:0:0:
272,88,213666,6,0,P|192:136|200:152,1,135.000005149841,2|2,0:0|0:0,0:0:0:0:
248,216,214666,1,8,0:0:0:0:
336,232,214999,6,0,L|336:304,2,67.5000025749207,2|0|2,0:0|0:0|0:0,0:0:0:0:
368,152,215999,6,0,P|400:104|336:64,1,135.000005149841,8|0,0:0|0:0,0:0:0:0:
264,88,216999,2,0,P|216:136|152:152,1,135.000005149841,2|2,0:0|0:0,0:0:0:0:
72,120,217999,2,0,B|40:88|40:88|104:24|104:24,1,135.000005149841,0|12,0:0|0:0,0:0:0:0:
160,104,218999,2,0,L|256:200,1,135.000005149841,2|2,0:0|0:0,0:0:0:0:
328,248,219999,1,8,0:0:0:0:
400,200,220333,6,0,L|456:152,2,67.5000025749207,2|0|2,0:0|0:0|0:0,0:0:0:0:
344,128,221333,6,0,P|272:88|208:88,1,135.000005149841,8|0,0:0|0:0,0:0:0:0:
152,136,222333,1,2,0:0:0:0:
96,208,222666,6,0,L|224:256,1,135.000005149841,8|0,0:0|0:0,0:0:0:0:
304,272,223666,2,4,L|384:272,1,67.5000025749207,2|0,0:0|0:0,0:0:0:0:
