osu file format v14

[General]
AudioFilename: audio.mp3
AudioLeadIn: 0
PreviewTime: 36860
Countdown: 0
SampleSet: Soft
StackLeniency: 0.2
Mode: 0
LetterboxInBreaks: 0
WidescreenStoryboard: 0

[Editor]
Bookmarks: 9683,27777,37002,55096,57367,75532,84615,93697,111792,114133,123216,132299,141452,145923,155005,164159,173383,177925,182537,187078,191336
DistanceSpacing: 1.3
BeatDivisor: 4
GridSize: 16
TimelineZoom: 1.849999

[Metadata]
Title:Say Goodbye (Nightcore Mix)
TitleUnicode:Say Goodbye (Nightcore Mix)
Artist:Krewella
ArtistUnicode:Krewella
Creator:TheShadowOfDark
Version:Our Goodbyes
Source:
Tags:nightcore krewella speed up
BeatmapID:1875478
BeatmapSetID:897745

[Difficulty]
HPDrainRate:5
CircleSize:4
OverallDifficulty:9.5
ApproachRate:9.8
SliderMultiplier:2.50000000596047
SliderTickRate:1

[Events]
//Background and Video events
0,0,"Konachan.com - 250282 sample.jpg",0,0
//Break Periods
2,142517,149329
//Storyboard Layer 0 (Background)
//Storyboard Layer 1 (Fail)
//Storyboard Layer 2 (Pass)
//Storyboard Layer 3 (Foreground)
//Storyboard Sound Samples

[TimingPoints]
600,283.832879200727,4,2,0,100,1,0
600,-200,4,2,0,70,0,0
5142,283.832879200727,4,2,0,100,1,0
5142,-200,4,2,0,80,0,0
9612,-200,4,2,0,5,0,0
9683,-166.666666666667,4,2,0,80,0,0
27848,-142.857142857143,4,2,0,70,0,0
30119,-142.857142857143,4,2,0,80,0,0
32389,-142.857142857143,4,2,0,90,0,0
35795,-200,4,2,0,100,0,0
36434,-200,4,2,0,5,0,0
36505,-333.333333333334,4,2,0,100,0,0
36860,-333.333333333334,4,2,0,5,0,0
36931,-100,4,2,0,100,0,1
55096,-500,4,2,0,90,0,0
57296,-500,4,2,0,5,0,0
57367,-90.9090909090909,4,2,0,100,0,1
75461,-90.9090909090909,4,2,0,5,0,1
75532,-142.857142857143,4,2,0,80,0,0
83479,-333.333333333334,4,2,0,80,0,0
84331,-166.666666666667,4,2,0,80,0,0
84544,-142.857142857143,4,2,0,5,0,0
84615,-111.111111111111,4,2,0,90,0,0
92562,-200,4,2,0,80,0,0
93697,-100,4,2,0,100,0,1
111863,-100,4,2,0,90,0,0
114133,-100,4,2,0,100,0,1
123216,-166.666666666667,4,2,0,90,0,0
123784,-100,4,2,0,100,0,1
125487,-166.666666666667,4,2,0,90,0,0
126054,-100,4,2,0,100,0,1
127757,-166.666666666667,4,2,0,90,0,0
128325,-100,4,2,0,100,0,1
132299,-142.857142857143,4,2,0,60,0,0
134569,-142.857142857143,4,2,0,70,0,0
136840,-142.857142857143,4,2,0,80,0,0
139111,-142.857142857143,4,2,0,90,0,0
140814,-142.857142857143,4,2,0,100,0,0
141381,-142.857142857143,4,2,0,5,0,0
150464,-500.000000000003,4,2,0,40,0,0
155005,-142.857142857143,4,2,0,80,0,0
161817,-125,4,2,0,90,0,0
164088,-83.3333333333333,4,2,0,100,0,1
191336,-66.6666666666667,4,2,0,100,0,0
192471,-66.6666666666667,4,2,0,90,0,0
193465,-66.6666666666667,4,2,0,80,0,0
194458,-66.6666666666667,4,2,0,70,0,0
195451,-66.6666666666667,4,2,0,60,0,0
196303,-66.6666666666667,4,2,0,50,0,0
196871,-66.6666666666667,4,2,0,40,0,0
197296,-66.6666666666667,4,2,0,30,0,0
197580,-66.6666666666667,4,2,0,20,0,0
197864,-66.6666666666667,4,2,0,10,0,0
198148,-66.6666666666667,4,2,0,5,0,0

[Colours]
Combo1 : 197,197,197
Combo2 : 126,126,126
Combo3 : 162,162,162
Combo4 : 85,85,85

[HitObjects]
76,214,600,6,0,L|138:207,1,62.5000001490117
205,129,883,1,0,0:0:0:0:
111,123,1025,1,0,0:0:0:0:
111,123,1167,2,0,L|30:132,1,62.5000001490117
59,40,1451,2,0,L|121:33,1,62.5000001490117
208,66,1735,6,0,L|205:129,1,62.5000001490117
199,216,2019,1,0,0:0:0:0:
286,177,2161,1,0,0:0:0:0:
286,177,2302,2,0,L|363:172,1,62.5000001490117
426,209,2586,1,0,0:0:0:0:
426,209,2728,1,0,0:0:0:0:
471,136,2870,6,0,L|466:57,1,62.5000001490117
401,9,3154,1,0,0:0:0:0:
319,98,3296,1,0,0:0:0:0:
319,98,3438,2,0,L|392:92,1,62.5000001490117
308,6,3722,2,0,L|245:11,1,62.5000001490117
212,107,4005,6,0,L|218:180,1,62.5000001490117
225,259,4289,1,0,0:0:0:0:
310,211,4431,1,0,0:0:0:0:
309,210,4573,2,0,L|303:147,1,62.5000001490117
400,172,4857,1,0,0:0:0:0:
400,172,4999,1,0,0:0:0:0:
462,255,5142,6,0,B|399:288|363:266|323:244|269:278,1,187.500000447035
197,321,5709,2,0,L|201:383,1,62.5000001490117
279,272,5993,1,0,0:0:0:0:
192,229,6135,1,0,0:0:0:0:
115,370,6277,6,0,P|46:346|28:235,1,187.500000447035
59,166,6844,1,0,0:0:0:0:
143,159,6986,1,0,0:0:0:0:
192,229,7128,1,0,0:0:0:0:
108,236,7270,1,0,0:0:0:0:
178,82,7412,6,0,B|236:44|287:108|366:71,1,187.500000447035
444,38,7980,1,0,0:0:0:0:
444,38,8122,1,0,0:0:0:0:
363,135,8264,2,0,L|360:72,1,62.5000001490117
497,129,8547,6,0,L|509:336,1,187.500000447035
428,382,9115,1,0,0:0:0:0:
328,377,9257,1,0,0:0:0:0:
328,377,9399,2,0,P|337:328|379:289,1,93.7500002235176
448,259,9683,6,0,L|293:256,1,149.999995779992
185,253,10109,1,0,0:0:0:0:
164,341,10250,2,0,L|238:342,1,74.9999978899958
249,162,10534,2,0,L|174:160,1,74.9999978899958
114,233,10818,6,0,P|147:251|185:253,1,74.9999978899958
308,88,11102,2,0,P|275:70|237:68,1,74.9999978899958
96,143,11386,2,0,P|144:84|130:2,1,149.999995779992
48,57,11812,1,0,0:0:0:0:
114,233,11953,6,0,B|165:265|209:201|283:253,1,149.999995779992
344,289,12379,1,0,0:0:0:0:
412,215,12521,2,0,L|414:131,1,74.9999978899958
308,88,12805,2,0,L|306:162,1,74.9999978899958
344,289,13089,6,0,P|380:314|421:317,1,74.9999978899958
491,155,13373,2,0,P|463:129|427:121,1,74.9999978899958
306,162,13656,1,0,0:0:0:0:
306,162,13798,1,0,0:0:0:0:
412,215,13940,1,0,0:0:0:0:
371,64,14082,1,0,0:0:0:0:
344,289,14224,6,0,P|266:326|177:300,1,149.999995779992
154,232,14650,1,0,0:0:0:0:
231,162,14792,2,0,L|314:161,1,74.9999978899958
371,64,15076,2,0,L|296:63,1,74.9999978899958
128,164,15359,6,0,P|133:200|153:231,1,74.9999978899958
107,80,15643,2,0,P|71:95|46:133,1,74.9999978899958
150,9,15927,2,0,P|114:-5|69:3,1,74.9999978899958
128,164,16211,2,0,P|162:178|199:173,1,74.9999978899958
352,116,16495,6,0,P|369:36|242:10,2,224.999993669987
252,350,17630,2,0,B|317:333|317:333|397:355|397:355|478:329,2,224.999993669987
37,246,18765,6,0,P|6:164|42:94,1,149.999995779992
101,46,19191,1,0,0:0:0:0:
183,135,19333,2,0,L|104:138,1,74.9999978899958
250,62,19617,1,0,0:0:0:0:
250,62,19759,1,0,0:0:0:0:
290,231,19901,6,0,P|272:170|278:144,1,74.9999978899958
400,40,20185,2,0,P|356:86|330:93,1,74.9999978899958
180,40,20468,2,0,P|241:54|261:73,1,74.9999978899958
369,180,20752,1,0,0:0:0:0:
369,180,20894,1,0,0:0:0:0:
354,303,21036,6,0,P|304:328|203:277,1,149.999995779992
179,193,21462,1,0,0:0:0:0:
286,156,21604,2,0,L|290:249,1,74.9999978899958
77,275,21888,2,0,L|73:182,1,74.9999978899958
175,118,22171,6,0,L|178:192,1,74.9999978899958
185,307,22455,1,0,0:0:0:0:
71,90,22597,1,0,0:0:0:0:
175,118,22739,2,0,L|276:113,1,74.9999978899958
386,107,23023,1,0,0:0:0:0:
311,19,23165,1,0,0:0:0:0:
388,210,23307,6,0,P|454:185|482:111,1,149.999995779992
428,2,23733,1,0,0:0:0:0:
276,124,23874,2,0,L|188:126,1,74.9999978899958
141,251,24158,2,0,L|215:249,1,74.9999978899958
128,55,24442,6,0,P|98:99|95:134,1,74.9999978899958
276,124,24726,2,0,P|306:80|309:45,1,74.9999978899958
183,153,25010,1,0,0:0:0:0:
231,330,25152,1,0,0:0:0:0:
322,202,25294,1,0,0:0:0:0:
141,251,25436,1,0,0:0:0:0:
356,316,25577,6,0,P|411:283|410:128,2,224.999993669987
215,77,26713,2,0,B|110:110|110:110|-19:71,2,224.999993669987
454,30,27848,6,0,P|471:91|461:124,1,87.4999975383284
402,187,28132,1,0,0:0:0:0:
326,138,28274,1,0,0:0:0:0:
326,138,28416,2,0,L|232:143,1,87.4999975383284
398,278,28700,2,0,L|492:273,1,87.4999975383284
465,113,28983,5,0,0:0:0:0:
321,229,29125,1,0,0:0:0:0:
505,196,29267,1,0,0:0:0:0:
338,55,29409,1,0,0:0:0:0:
322,323,29551,1,0,0:0:0:0:
402,187,29693,1,0,0:0:0:0:
238,142,29835,2,0,P|206:191|201:224,1,87.4999975383284
175,79,30119,5,0,0:0:0:0:
321,229,30261,1,0,0:0:0:0:
338,55,30403,1,0,0:0:0:0:
240,271,30545,1,0,0:0:0:0:
326,138,30686,1,0,0:0:0:0:
158,219,30828,1,0,0:0:0:0:
322,323,30970,2,0,L|441:312,1,87.4999975383284
245,180,31254,5,0,0:0:0:0:
245,180,31396,1,0,0:0:0:0:
129,368,31538,1,0,0:0:0:0:
52,195,31680,1,0,0:0:0:0:
240,271,31822,1,0,0:0:0:0:
22,318,31964,1,0,0:0:0:0:
96,106,32106,2,0,L|187:99,1,87.4999975383284
416,278,32389,6,0,L|328:284,1,87.4999975383284
340,101,32673,1,0,0:0:0:0:
504,198,32815,1,0,0:0:0:0:
314,215,32957,1,0,0:0:0:0:
458,91,33099,1,0,0:0:0:0:
421,365,33241,2,0,L|415:270,1,87.4999975383284
242,54,33525,5,0,0:0:0:0:
314,215,33667,1,0,0:0:0:0:
340,101,33809,1,0,0:0:0:0:
223,286,33951,1,0,0:0:0:0:
417,180,34092,1,0,0:0:0:0:
145,124,34234,1,0,0:0:0:0:
323,337,34376,2,0,P|370:353|436:335,1,87.4999975383284
381,63,34660,5,0,0:0:0:0:
456,293,34802,1,0,0:0:0:0:
248,106,34944,1,0,0:0:0:0:
485,156,35086,1,0,0:0:0:0:
218,243,35228,1,0,0:0:0:0:
381,63,35370,1,0,0:0:0:0:
323,337,35512,2,0,P|277:369|226:374,1,87.4999975383284
78,240,35795,6,0,L|72:178,2,62.5000001490117
147,293,36221,1,0,0:0:0:0:
218,243,36363,2,0,L|212:190,1,31.2500000745059
202,138,36505,6,0,L|212:248,1,93.7499973624948
256,320,36931,6,0,P|196:328|147:293,1,125.000000298023
121,121,37215,1,0,0:0:0:0:
286,178,37357,2,0,L|452:162,1,125.000000298023
325,23,37640,1,0,0:0:0:0:
121,121,37782,2,0,P|102:188|124:252,1,125.000000298023
158,7,38066,6,0,L|33:13,1,125.000000298023
218,243,38350,1,0,0:0:0:0:
325,23,38492,1,0,0:0:0:0:
121,121,38634,1,0,0:0:0:0:
410,166,38776,1,0,0:0:0:0:
158,7,38918,2,0,P|124:59|121:121,1,125.000000298023
163,354,39201,6,0,P|271:358|314:321,1,125.000000298023
477,242,39485,1,0,0:0:0:0:
325,23,39627,1,0,0:0:0:0:
284,172,39769,2,0,L|409:166,1,125.000000298023
121,121,40053,1,0,0:0:0:0:
218,243,40195,1,0,0:0:0:0:
158,7,40337,6,0,L|33:13,1,125.000000298023
66,247,40621,1,0,0:0:0:0:
252,83,40763,1,0,0:0:0:0:
314,310,40904,2,0,P|239:277|213:230,1,125.000000298023
408,22,41188,2,0,P|483:55|509:102,1,125.000000298023
409,283,41472,6,0,L|398:140,1,125.000000298023
281,0,41756,1,0,0:0:0:0:
150,185,41898,2,0,L|287:170,1,125.000000298023
121,42,42182,1,0,0:0:0:0:
57,297,42324,2,0,P|127:332|198:322,1,125.000000298023
236,75,42607,6,0,P|166:40|95:50,1,125.000000298023
274,171,42891,1,0,0:0:0:0:
504,89,43033,1,0,0:0:0:0:
409,283,43175,1,0,0:0:0:0:
340,27,43317,1,0,0:0:0:0:
510,231,43459,2,0,P|521:321|482:369,1,125.000000298023
274,171,43743,6,0,L|426:162,1,125.000000298023
504,89,44027,1,0,0:0:0:0:
409,283,44169,1,0,0:0:0:0:
236,75,44310,2,0,P|166:40|95:54,1,125.000000298023
57,297,44594,1,0,0:0:0:0:
151,162,44736,1,0,0:0:0:0:
255,384,44878,5,0,0:0:0:0:
255,384,45730,1,0,0:0:0:0:
288,314,45800,1,0,0:0:0:0:
277,238,45871,1,0,0:0:0:0:
226,181,45942,1,0,0:0:0:0:
151,162,46013,6,0,L|12:172,1,125.000000298023
156,293,46297,1,0,0:0:0:0:
336,153,46439,2,0,P|351:70|322:12,1,125.000000298023
206,92,46723,1,0,0:0:0:0:
288,314,46865,2,0,L|448:304,1,125.000000298023
512,74,47149,6,0,L|352:84,1,125.000000298023
151,162,47433,1,0,0:0:0:0:
412,306,47575,1,0,0:0:0:0:
299,3,47716,2,0,P|268:83|302:156,1,125.000000298023
489,189,48000,2,0,P|520:109|486:36,1,125.000000298023
296,269,48284,6,0,P|362:303|452:295,1,125.000000298023
387,81,48568,1,0,0:0:0:0:
176,215,48710,2,0,P|160:279|188:353,1,125.000000298023
382,205,48994,1,0,0:0:0:0:
155,80,49136,2,0,P|85:116|55:179,1,125.000000298023
296,269,49419,6,0,L|283:122,1,125.000000298023
270,0,49703,1,0,0:0:0:0:
466,267,49845,1,0,0:0:0:0:
176,215,49987,1,0,0:0:0:0:
387,81,50129,1,0,0:0:0:0:
309,351,50271,1,0,0:0:0:0:
155,80,50413,1,0,0:0:0:0:
51,350,50555,6,0,L|195:332,1,125.000000298023
461,34,50839,2,0,L|317:52,1,125.000000298023
336,334,51122,2,0,L|461:350,1,125.000000298023
175,49,51406,2,0,L|51:34,1,125.000000298023
451,152,51690,6,0,P|471:67|429:-5,1,125.000000298023
61,232,51974,2,0,P|41:317|83:389,1,125.000000298023
299,44,52258,2,0,L|143:49,1,125.000000298023
213,340,52542,2,0,L|369:335,1,125.000000298023
451,152,52825,5,0,0:0:0:0:
164,128,52967,1,0,0:0:0:0:
337,335,53109,1,0,0:0:0:0:
299,44,53251,1,0,0:0:0:0:
126,280,53393,1,0,0:0:0:0:
172,0,53535,1,0,0:0:0:0:
337,228,53677,1,0,0:0:0:0:
15,132,53819,1,0,0:0:0:0:
396,3,53961,6,0,P|400:72|369:118,1,125.000000298023
6,371,54245,2,0,P|2:302|33:256,1,125.000000298023
337,228,54528,1,0,0:0:0:0:
15,132,54670,1,0,0:0:0:0:
213,340,54812,1,0,0:0:0:0:
172,0,54954,1,0,0:0:0:0:
484,137,55096,6,0,L|487:191,2,50.0000001192094
479,40,55948,1,0,0:0:0:0:
411,154,56231,2,0,B|359:135|346:68|346:68|351:106|333:147,1,187.500000447035
273,223,57367,6,0,P|205:263|129:248,1,137.500004523993
179,0,57651,2,0,L|186:145,1,137.500004523993
192,350,57934,1,0,0:0:0:0:
9,214,58076,1,0,0:0:0:0:
335,140,58218,1,0,0:0:0:0:
100,292,58360,6,0,L|96:153,1,137.500004523993
407,16,58644,2,0,L|411:155,1,137.500004523993
402,374,58928,1,0,0:0:0:0:
100,292,59070,1,0,0:0:0:0:
445,230,59212,1,0,0:0:0:0:
143,148,59354,1,0,0:0:0:0:
488,86,59495,1,0,0:0:0:0:
186,4,59637,6,0,P|100:3|41:41,1,137.500004523993
315,252,59921,2,0,P|401:253|460:215,1,137.500004523993
358,108,60205,1,0,0:0:0:0:
49,154,60347,1,0,0:0:0:0:
236,384,60489,1,0,0:0:0:0:
280,141,60631,6,0,L|121:149,1,137.500004523993
438,358,60915,2,0,P|460:294|444:229,1,137.500004523993
283,1,61198,1,0,0:0:0:0:
163,353,61340,1,0,0:0:0:0:
101,37,61482,1,0,0:0:0:0:
345,317,61624,1,0,0:0:0:0:
41,212,61766,1,0,0:0:0:0:
405,142,61908,6,0,P|460:88|474:24,1,137.500004523993
24,82,62192,2,0,P|15:158|44:217,1,137.500004523993
163,353,62476,1,0,0:0:0:0:
284,90,62618,1,0,0:0:0:0:
345,317,62760,1,0,0:0:0:0:
40,211,62901,6,0,P|111:188|199:205,1,137.500004523993
477,300,63185,2,0,P|406:323|318:306,1,137.500004523993
284,90,63469,5,0,0:0:0:0:
163,353,63611,1,0,0:0:0:0:
405,142,63753,1,0,0:0:0:0:
40,211,63895,1,0,0:0:0:0:
477,300,64037,1,0,0:0:0:0:
203,155,64179,6,0,L|191:0,1,137.500004523993
405,142,64463,1,0,0:0:0:0:
122,183,64604,2,0,L|110:28,1,137.500004523993
318,179,64888,1,0,0:0:0:0:
40,211,65030,2,0,L|28:56,1,137.500004523993
416,44,65314,6,0,P|487:198|318:179,1,412.500013571979
230,0,65882,1,0,0:0:0:0:
328,376,66024,1,0,0:0:0:0:
29,73,66166,1,0,0:0:0:0:
405,142,66307,1,0,0:0:0:0:
63,338,66449,6,0,P|30:257|43:204,1,137.500004523993
279,50,66733,2,0,L|430:44,1,137.500004523993
145,198,67017,1,0,0:0:0:0:
328,376,67159,1,0,0:0:0:0:
405,142,67301,1,0,0:0:0:0:
196,354,67443,6,0,P|125:360|63:338,1,137.500004523993
279,50,67727,2,0,L|290:206,1,137.500004523993
145,198,68010,1,0,0:0:0:0:
501,44,68152,1,0,0:0:0:0:
418,348,68294,1,0,0:0:0:0:
279,50,68436,1,0,0:0:0:0:
196,354,68578,1,0,0:0:0:0:
57,56,68720,6,0,P|136:9|194:8,1,137.500004523993
512,192,69004,2,0,P|456:231|389:241,1,137.500004523993
213,122,69288,1,0,0:0:0:0:
418,348,69430,1,0,0:0:0:0:
443,44,69572,1,0,0:0:0:0:
129,277,69713,6,0,L|291:266,1,137.500004523993
312,0,69997,2,0,L|150:11,1,137.500004523993
6,146,70281,1,0,0:0:0:0:
266,267,70423,1,0,0:0:0:0:
174,9,70565,1,0,0:0:0:0:
121,375,70707,1,0,0:0:0:0:
463,237,70849,1,0,0:0:0:0:
143,136,70991,6,0,L|-17:147,1,137.500004523993
342,360,71275,2,0,P|384:296|368:203,1,137.500004523993
312,0,71558,1,0,0:0:0:0:
266,267,71700,1,0,0:0:0:0:
486,73,71842,1,0,0:0:0:0:
174,9,71984,6,0,P|138:97|152:159,1,137.500004523993
472,157,72268,2,0,P|383:125|325:141,1,137.500004523993
112,306,72552,1,0,0:0:0:0:
463,237,72694,1,0,0:0:0:0:
174,9,72836,1,0,0:0:0:0:
234,371,72978,1,0,0:0:0:0:
382,57,73119,1,0,0:0:0:0:
16,161,73261,6,0,L|23:301,1,137.500004523993
286,185,73545,1,0,0:0:0:0:
106,169,73687,2,0,L|113:309,1,137.500004523993
376,193,73971,1,0,0:0:0:0:
196,177,74113,2,0,L|203:317,1,137.500004523993
466,201,74397,5,0,0:0:0:0:
265,30,74539,1,0,0:0:0:0:
339,384,74681,1,0,0:0:0:0:
449,40,74822,1,0,0:0:0:0:
106,169,74964,1,0,0:0:0:0:
486,340,75106,1,0,0:0:0:0:
265,30,75248,2,0,P|177:3|107:114,1,206.250006785989
196,177,75532,6,0,L|196:85,1,87.4999975383284
16,161,75816,2,0,L|16:253,1,87.4999975383284
286,185,76100,2,0,L|286:93,1,87.4999975383284
106,169,76384,2,0,L|106:261,1,87.4999975383284
291,297,76667,5,0,0:0:0:0:
196,177,76809,1,0,0:0:0:0:
190,328,76951,1,0,0:0:0:0:
286,185,77093,1,0,0:0:0:0:
286,185,77235,2,0,L|381:193,1,87.4999975383284
106,256,77519,2,0,L|11:248,1,87.4999975383284
196,89,77803,6,0,L|196:177,1,87.4999975383284
18,336,78087,2,0,L|18:248,1,87.4999975383284
111,97,78370,2,0,P|172:84|218:101,1,87.4999975383284
370,177,78654,2,0,P|309:190|263:173,1,87.4999975383284
386,74,78938,5,0,0:0:0:0:
461,252,79080,1,0,0:0:0:0:
472,139,79222,1,0,0:0:0:0:
360,288,79364,1,0,0:0:0:0:
370,177,79506,1,0,0:0:0:0:
370,177,79648,1,0,0:0:0:0:
443,355,79790,1,0,0:0:0:0:
443,355,79931,1,0,0:0:0:0:
272,290,80073,6,0,L|359:287,1,87.4999975383284
284,120,80357,2,0,L|196:122,1,87.4999975383284
370,177,80641,2,0,P|389:120|381:82,1,87.4999975383284
186,233,80925,2,0,P|167:290|175:328,1,87.4999975383284
272,290,81209,5,0,0:0:0:0:
284,120,81351,1,0,0:0:0:0:
369,268,81493,1,0,0:0:0:0:
189,134,81634,1,0,0:0:0:0:
189,134,81776,2,0,L|69:144,1,87.4999975383284
370,177,82060,2,0,L|490:167,1,87.4999975383284
132,248,82344,6,0,P|14:211|8:88,2,262.499992614985
149,51,83479,6,0,P|111:91|108:147,1,112.499996834994
206,356,84189,1,0,0:0:0:0:
276,293,84331,2,0,L|405:290,1,112.499996834994
429,372,84615,6,0,P|477:322|467:250,1,112.499996834994
417,156,84899,1,0,0:0:0:0:
254,210,85040,1,0,0:0:0:0:
352,55,85182,2,0,L|494:47,1,112.499996834994
388,290,85466,2,0,L|246:298,1,112.499996834994
216,97,85750,5,0,0:0:0:0:
338,183,85892,1,0,0:0:0:0:
167,329,86034,2,0,L|156:188,1,112.499996834994
216,97,86318,1,0,0:0:0:0:
24,182,86460,1,0,0:0:0:0:
254,210,86602,1,0,0:0:0:0:
62,295,86743,1,0,0:0:0:0:
292,323,86885,6,0,L|404:316,1,112.499996834994
328,90,87169,2,0,L|215:96,1,112.499996834994
24,182,87453,2,0,P|27:237|64:296,1,112.499996834994
358,194,87737,2,0,P|354:138|318:80,1,112.499996834994
191,193,88021,5,0,0:0:0:0:
292,323,88163,1,0,0:0:0:0:
440,83,88305,2,0,L|327:89,1,112.499996834994
191,193,88588,1,0,0:0:0:0:
452,280,88730,1,0,0:0:0:0:
384,13,88872,5,0,0:0:0:0:
292,323,89014,1,0,0:0:0:0:
100,110,89156,6,0,P|161:75|227:80,1,112.499996834994
447,170,89440,2,0,P|461:224|451:279,1,112.499996834994
173,384,89724,2,0,P|160:319|167:266,1,112.499996834994
400,99,90008,2,0,L|512:91,1,112.499996834994
214,180,90291,6,0,P|194:128|201:73,1,112.499996834994
447,170,90575,2,0,P|415:228|355:258,1,112.499996834994
165,273,90859,1,0,0:0:0:0:
302,63,91001,1,0,0:0:0:0:
397,359,91143,1,0,0:0:0:0:
397,359,91427,5,0,0:0:0:0:
265,123,91569,1,0,0:0:0:0:
165,379,91711,1,0,0:0:0:0:
381,113,91852,5,0,0:0:0:0:
281,369,91994,1,0,0:0:0:0:
149,133,92136,1,0,0:0:0:0:
445,234,92278,5,0,0:0:0:0:
101,258,92420,1,0,0:0:0:0:
342,31,92562,5,0,0:0:0:0:
273,207,92704,1,0,0:0:0:0:
182,45,92846,1,0,0:0:0:0:
354,201,92988,5,0,0:0:0:0:
262,38,93130,1,0,0:0:0:0:
193,214,93272,1,0,0:0:0:0:
348,116,93414,6,0,L|243:124,1,93.7500002235176
149,133,93697,6,0,P|84:73|89:17,1,125.000000298023
262,38,93981,1,0,0:0:0:0:
162,291,94123,2,0,L|7:301,1,125.000000298023
149,133,94407,1,0,0:0:0:0:
332,228,94549,2,0,P|352:298|333:371,1,125.000000298023
137,46,94833,6,0,L|261:37,1,125.000000298023
470,22,95117,1,0,0:0:0:0:
332,228,95258,1,0,0:0:0:0:
304,2,95400,1,0,0:0:0:0:
483,263,95542,1,0,0:0:0:0:
185,238,95684,1,0,0:0:0:0:
404,93,95826,1,0,0:0:0:0:
343,348,95968,6,0,L|204:356,1,125.000000298023
137,46,96252,1,0,0:0:0:0:
332,228,96394,1,0,0:0:0:0:
17,168,96536,2,0,P|117:141|188:156,1,125.000000298023
396,172,96820,1,0,0:0:0:0:
218,355,96961,1,0,0:0:0:0:
290,0,97103,6,0,L|307:132,1,125.000000298023
343,348,97387,1,0,0:0:0:0:
137,142,97529,1,0,0:0:0:0:
450,82,97671,2,0,P|497:151|479:229,1,125.000000298023
218,355,97955,2,0,L|87:353,1,125.000000298023
65,69,98239,6,0,P|177:50|213:78,1,125.000000298023
344,158,98523,1,0,0:0:0:0:
42,204,98664,1,0,0:0:0:0:
290,0,98806,1,0,0:0:0:0:
367,317,98948,1,0,0:0:0:0:
137,142,99090,1,0,0:0:0:0:
433,19,99232,1,0,0:0:0:0:
218,355,99374,6,0,L|210:222,1,125.000000298023
0,0,99658,2,0,L|8:133,1,125.000000298023
23,346,99942,1,0,0:0:0:0:
300,208,100084,1,0,0:0:0:0:
125,97,100226,2,0,P|63:97|6:124,1,125.000000298023
218,355,100509,6,0,P|281:379|366:362,1,125.000000298023
512,108,100793,1,0,0:0:0:0:
300,208,100935,1,0,0:0:0:0:
505,362,101077,2,0,P|512:268|487:225,1,125.000000298023
303,32,101361,1,0,0:0:0:0:
218,355,101503,1,0,0:0:0:0:
1,142,101645,5,0,0:0:0:0:
1,142,102496,1,0,0:0:0:0:
77,121,102567,1,0,0:0:0:0:
157,133,102638,1,0,0:0:0:0:
224,178,102709,1,0,0:0:0:0:
250,254,102780,6,0,P|259:314|232:376,1,125.000000298023
59,197,103064,1,0,0:0:0:0:
242,90,103206,2,0,L|405:78,1,125.000000298023
394,233,103490,1,0,0:0:0:0:
59,197,103632,6,0,P|18:130|30:57,1,125.000000298023
319,0,103915,6,0,P|360:67|348:140,1,125.000000298023
155,308,104199,1,0,0:0:0:0:
242,90,104341,1,0,0:0:0:0:
422,363,104483,2,0,L|289:365,1,125.000000298023
358,111,104767,2,0,L|491:109,1,125.000000298023
242,90,105051,6,0,P|273:23|330:-2,1,125.000000298023
449,203,105335,1,0,0:0:0:0:
168,199,105476,2,0,P|117:142|116:75,1,125.000000298023
358,111,105760,1,0,0:0:0:0:
208,340,105902,2,0,P|126:341|71:308,1,125.000000298023
442,78,106186,6,0,L|449:221,1,125.000000298023
452,365,106470,1,0,0:0:0:0:
168,199,106612,1,0,0:0:0:0:
358,111,106754,1,0,0:0:0:0:
283,382,106896,1,0,0:0:0:0:
111,96,107038,1,0,0:0:0:0:
448,202,107179,1,0,0:0:0:0:
262,1,107321,6,0,P|214:63|211:123,1,125.000000298023
394,308,107605,2,0,P|442:246|445:186,1,125.000000298023
167,200,107889,1,0,0:0:0:0:
283,382,108031,1,0,0:0:0:0:
333,106,108173,2,0,L|170:107,1,125.000000298023
3,352,108457,6,0,L|166:351,1,125.000000298023
311,226,108741,1,0,0:0:0:0:
166,42,108882,1,0,0:0:0:0:
57,149,109024,2,0,P|106:186|167:200,1,125.000000298023
441,121,109308,2,0,P|430:41|388:6,1,125.000000298023
346,342,109592,6,0,L|483:353,1,125.000000298023
166,42,109876,2,0,L|29:31,1,125.000000298023
41,352,110160,2,0,L|166:342,1,125.000000298023
470,31,110444,2,0,L|346:42,1,125.000000298023
57,148,110727,6,0,P|28:209|51:273,1,125.000000298023
455,236,111011,2,0,P|484:175|461:111,1,125.000000298023
51,23,111295,2,0,L|57:155,1,125.000000298023
461,361,111579,2,0,L|455:229,1,125.000000298023
312,18,111863,5,0,0:0:0:0:
199,365,112005,1,0,0:0:0:0:
199,18,112146,1,0,0:0:0:0:
312,365,112288,1,0,0:0:0:0:
108,85,112430,1,0,0:0:0:0:
403,298,112572,1,0,0:0:0:0:
73,191,112714,1,0,0:0:0:0:
438,192,112856,1,0,0:0:0:0:
103,293,112998,6,0,P|141:342|199:365,1,125.000000298023
403,85,113282,2,0,P|371:41|304:14,1,125.000000298023
73,191,113566,1,0,0:0:0:0:
403,298,113708,1,0,0:0:0:0:
199,18,113849,1,0,0:0:0:0:
199,365,113991,1,0,0:0:0:0:
403,85,114133,6,0,L|266:72,1,125.000000298023
74,353,114417,2,0,L|199:365,1,125.000000298023
491,163,114701,1,0,0:0:0:0:
155,247,114843,1,0,0:0:0:0:
403,384,114985,1,0,0:0:0:0:
199,18,115127,6,0,L|206:180,1,125.000000298023
496,287,115411,2,0,L|489:125,1,125.000000298023
324,0,115694,1,0,0:0:0:0:
262,284,115836,1,0,0:0:0:0:
499,65,115978,1,0,0:0:0:0:
131,159,116120,1,0,0:0:0:0:
403,384,116262,1,0,0:0:0:0:
199,18,116404,6,0,P|124:4|31:40,1,125.000000298023
374,282,116688,2,0,P|449:296|542:260,1,125.000000298023
382,92,116972,1,0,0:0:0:0:
268,358,117114,1,0,0:0:0:0:
199,18,117255,1,0,0:0:0:0:
499,65,117397,6,0,P|498:140|465:183,1,125.000000298023
131,159,117681,2,0,P|201:123|267:128,1,125.000000298023
442,280,117965,1,0,0:0:0:0:
137,287,118107,1,0,0:0:0:0:
382,92,118249,1,0,0:0:0:0:
268,358,118391,1,0,0:0:0:0:
113,22,118533,1,0,0:0:0:0:
442,280,118675,6,0,L|302:285,1,125.000000298023
7,155,118958,2,0,L|146:133,1,125.000000298023
382,92,119242,1,0,0:0:0:0:
137,287,119384,1,0,0:0:0:0:
248,19,119526,1,0,0:0:0:0:
364,261,119668,6,0,P|385:318|375:379,1,125.000000298023
18,328,119952,2,0,P|13:269|60:196,1,125.000000298023
248,19,120236,1,0,0:0:0:0:
467,252,120378,1,0,0:0:0:0:
158,183,120520,1,0,0:0:0:0:
512,47,120661,1,0,0:0:0:0:
375,379,120803,1,0,0:0:0:0:
6,154,120945,6,0,L|1:28,1,125.000000298023
309,212,121229,1,0,0:0:0:0:
82,169,121371,2,0,L|77:43,1,125.000000298023
386,225,121655,1,0,0:0:0:0:
158,183,121797,2,0,L|153:57,1,125.000000298023
469,243,122081,6,0,P|290:276|320:201,1,375.00000089407
486,0,122648,1,0,0:0:0:0:
382,267,122790,1,0,0:0:0:0:
223,0,122932,1,0,0:0:0:0:
512,149,123074,1,0,0:0:0:0:
237,326,123216,6,0,B|134:364|76:342|76:342|77:308|108:281,1,224.999993669987
309,212,123784,6,0,P|367:269|382:348,1,125.000000298023
158,211,124067,1,0,0:0:0:0:
249,93,124209,2,0,L|390:82,1,125.000000298023
237,326,124493,2,0,L|96:337,1,125.000000298023
0,166,124777,1,0,0:0:0:0:
249,93,124919,1,0,0:0:0:0:
56,251,125061,1,0,0:0:0:0:
305,178,125203,1,0,0:0:0:0:
112,335,125345,1,0,0:0:0:0:
361,262,125487,6,0,B|428:183|393:87|393:87|338:112,1,224.999993669987
180,190,126054,6,0,L|313:177,1,125.000000298023
252,25,126338,1,0,0:0:0:0:
74,151,126480,2,0,P|62:186|107:286,1,125.000000298023
391,260,126764,2,0,P|357:209|303:177,1,125.000000298023
250,326,127048,1,0,0:0:0:0:
457,157,127190,1,0,0:0:0:0:
180,190,127332,1,0,0:0:0:0:
440,319,127473,1,0,0:0:0:0:
321,80,127615,1,0,0:0:0:0:
88,317,127757,6,0,B|153:354|250:325|250:325|250:296|231:264,1,224.999993669987
180,190,128325,6,0,L|47:201,1,125.000000298023
236,49,128609,1,0,0:0:0:0:
430,202,128751,2,0,P|454:268|425:341,1,125.000000298023
190,307,129035,2,0,P|166:241|195:168,1,125.000000298023
404,68,129318,1,0,0:0:0:0:
310,324,129460,1,0,0:0:0:0:
142,84,129602,1,0,0:0:0:0:
430,202,129744,1,0,0:0:0:0:
139,381,129886,1,0,0:0:0:0:
287,24,130028,6,0,L|299:162,1,125.000000298023
69,114,130312,1,0,0:0:0:0:
373,32,130454,2,0,L|385:170,1,125.000000298023
142,84,130738,1,0,0:0:0:0:
459,40,130879,2,0,L|471:178,1,125.000000298023
235,331,131163,6,0,P|166:302|308:180,1,375.00000089407
364,362,131731,1,0,0:0:0:0:
69,114,131873,1,0,0:0:0:0:
373,32,132015,1,0,0:0:0:0:
236,237,132157,1,0,0:0:0:0:
87,8,132299,6,0,L|187:12,1,87.4999975383284
227,96,132582,1,0,0:0:0:0:
146,155,132724,1,0,0:0:0:0:
146,155,132866,2,0,L|58:151,1,87.4999975383284
236,237,133150,2,0,L|323:240,1,87.4999975383284
153,318,133434,5,0,0:0:0:0:
301,154,133576,1,0,0:0:0:0:
264,341,133718,1,0,0:0:0:0:
146,155,133860,1,0,0:0:0:0:
340,251,134002,1,0,0:0:0:0:
227,96,134144,1,0,0:0:0:0:
153,318,134285,2,0,P|73:330|41:309,1,87.4999975383284
10,62,134569,5,0,0:0:0:0:
46,193,134711,1,0,0:0:0:0:
145,0,134853,1,0,0:0:0:0:
146,155,134995,1,0,0:0:0:0:
10,62,135137,1,0,0:0:0:0:
227,96,135279,1,0,0:0:0:0:
153,318,135421,2,0,L|149:224,1,87.4999975383284
324,44,135705,5,0,0:0:0:0:
301,263,135847,1,0,0:0:0:0:
227,96,135988,1,0,0:0:0:0:
423,114,136130,1,0,0:0:0:0:
198,209,136272,1,0,0:0:0:0:
414,319,136414,1,0,0:0:0:0:
324,44,136556,2,0,P|299:101|317:159,1,87.4999975383284
414,319,136840,6,0,L|509:311,1,87.4999975383284
209,321,137124,1,0,0:0:0:0:
378,194,137266,1,0,0:0:0:0:
324,384,137408,1,0,0:0:0:0:
261,134,137550,1,0,0:0:0:0:
139,239,137691,2,0,L|23:228,1,87.4999975383284
253,48,137975,6,0,P|265:90|260:133,1,87.4999975383284
209,321,138259,1,0,0:0:0:0:
137,111,138401,1,0,0:0:0:0:
367,286,138543,1,0,0:0:0:0:
139,239,138685,1,0,0:0:0:0:
377,195,138827,2,0,L|490:177,1,87.4999975383284
253,48,139111,5,0,0:0:0:0:
367,286,139253,1,0,0:0:0:0:
468,93,139394,1,0,0:0:0:0:
205,169,139536,1,0,0:0:0:0:
470,271,139678,1,0,0:0:0:0:
361,46,139820,1,0,0:0:0:0:
249,320,139962,2,0,P|190:330|146:312,1,87.4999975383284
0,169,140246,5,0,0:0:0:0:
231,106,140388,1,0,0:0:0:0:
61,314,140530,1,0,0:0:0:0:
49,0,140672,1,0,0:0:0:0:
289,226,140814,1,0,0:0:0:0:
289,226,141097,2,0,B|365:196|392:247|461:222,1,174.999995076657
93,246,150180,5,0,0:0:0:0:
93,246,150464,2,0,P|36:239|14:223,2,75.0000001788141
209,227,151883,2,0,B|250:217|269:181|275:138|275:138|301:185|316:259|293:314|226:338,1,350.000000834466
230,336,154721,1,0,0:0:0:0:
230,336,155005,6,0,P|183:355|113:343,1,87.4999975383284
295,189,155289,1,0,0:0:0:0:
158,226,155431,2,0,P|91:188|77:161,1,87.4999975383284
364,271,155715,1,0,0:0:0:0:
185,104,155857,2,0,P|178:54|198:4,1,87.4999975383284
347,24,156141,5,0,0:0:0:0:
295,189,156283,1,0,0:0:0:0:
185,104,156424,1,0,0:0:0:0:
506,140,156566,5,0,0:0:0:0:
364,271,156708,1,0,0:0:0:0:
347,24,156850,1,0,0:0:0:0:
499,238,156992,1,0,0:0:0:0:
499,238,157063,1,0,0:0:0:0:
499,238,157134,1,0,0:0:0:0:
295,189,157276,6,0,P|340:162|379:163,1,87.4999975383284
284,330,157560,1,0,0:0:0:0:
155,181,157702,2,0,P|159:138|184:102,1,87.4999975383284
348,264,157986,1,0,0:0:0:0:
119,303,158127,2,0,P|54:260|42:227,1,87.4999975383284
61,26,158411,5,0,0:0:0:0:
155,181,158553,1,0,0:0:0:0:
0,125,158695,1,0,0:0:0:0:
273,47,158837,5,0,0:0:0:0:
204,265,158979,1,0,0:0:0:0:
61,26,159121,1,0,0:0:0:0:
284,162,159263,1,0,0:0:0:0:
284,162,159334,1,0,0:0:0:0:
284,162,159405,1,0,0:0:0:0:
119,303,159547,6,0,P|51:293|28:272,1,87.4999975383284
189,105,159830,1,0,0:0:0:0:
292,318,159972,2,0,P|233:365|190:362,1,87.4999975383284
75,172,160256,1,0,0:0:0:0:
385,104,160398,2,0,P|405:158|391:210,1,87.4999975383284
204,265,160682,5,0,0:0:0:0:
279,60,160824,1,0,0:0:0:0:
387,293,160966,1,0,0:0:0:0:
189,105,161108,5,0,0:0:0:0:
292,318,161250,1,0,0:0:0:0:
385,104,161392,1,0,0:0:0:0:
122,250,161533,1,0,0:0:0:0:
122,250,161604,1,0,0:0:0:0:
122,250,161675,1,0,0:0:0:0:
202,4,161817,6,0,P|248:21|279:60,1,100.000000238419
292,318,162101,2,0,P|273:242|284:191,1,100.000000238419
475,24,162385,2,0,P|505:73|497:137,1,100.000000238419
122,250,162669,2,0,P|113:184|145:140,1,100.000000238419
385,104,162953,5,0,0:0:0:0:
292,318,163094,1,0,0:0:0:0:
207,8,163236,1,0,0:0:0:0:
505,114,163378,1,0,0:0:0:0:
213,212,163520,1,0,0:0:0:0:
475,24,163662,1,0,0:0:0:0:
453,321,163804,1,0,0:0:0:0:
278,59,163946,1,0,0:0:0:0:
150,330,164088,6,0,P|248:340|307:304,1,149.999995779992
148,34,164372,2,0,P|50:24|-9:60,1,149.999995779992
2,253,164656,1,0,0:0:0:0:
278,59,164797,1,0,0:0:0:0:
150,330,164939,2,0,P|135:228|158:185,1,149.999995779992
459,318,165223,6,0,L|293:335,1,149.999995779992
278,59,165507,1,0,0:0:0:0:
467,209,165649,1,0,0:0:0:0:
154,189,165791,1,0,0:0:0:0:
439,28,165933,1,0,0:0:0:0:
309,333,166075,2,0,P|228:375|146:365,1,149.999995779992
278,59,166359,6,0,P|337:122|335:213,1,149.999995779992
65,350,166642,2,0,P|6:287|8:196,1,149.999995779992
81,19,166926,1,0,0:0:0:0:
201,286,167068,1,0,0:0:0:0:
420,38,167210,2,0,P|321:36|263:70,1,149.999995779992
309,333,167494,6,0,P|408:335|466:301,1,149.999995779992
185,74,167778,1,0,0:0:0:0:
309,333,167920,1,0,0:0:0:0:
420,38,168062,1,0,0:0:0:0:
142,228,168203,1,0,0:0:0:0:
512,235,168345,2,0,L|504:71,1,149.999995779992
42,127,168629,6,0,P|76:193|141:227,1,149.999995779992
420,38,168913,2,0,P|322:23|266:57,1,149.999995779992
309,333,169197,1,0,0:0:0:0:
185,74,169339,1,0,0:0:0:0:
35,365,169481,2,0,L|198:350,1,149.999995779992
504,85,169765,6,0,L|341:97,1,149.999995779992
42,127,170048,1,0,0:0:0:0:
309,333,170190,1,0,0:0:0:0:
214,0,170332,1,0,0:0:0:0:
64,264,170474,1,0,0:0:0:0:
440,200,170616,2,0,P|406:117|329:97,1,149.999995779992
42,127,170900,6,0,P|33:215|77:274,1,149.999995779992
364,12,171184,2,0,L|211:-1,1,149.999995779992
194,292,171468,1,0,0:0:0:0:
354,95,171609,1,0,0:0:0:0:
119,6,171751,2,0,P|63:55|41:126,1,149.999995779992
357,278,172035,6,0,L|529:269,1,149.999995779992
196,132,172319,1,0,0:0:0:0:
442,383,172461,1,0,0:0:0:0:
354,95,172603,1,0,0:0:0:0:
215,373,172745,1,0,0:0:0:0:
90,54,172887,2,0,L|245:49,1,149.999995779992
193,292,173171,2,0,L|41:301,1,149.999995779992
354,95,173454,6,0,P|435:155|444:222,1,149.999995779992
334,363,173738,1,0,0:0:0:0:
196,132,173880,1,0,0:0:0:0:
372,59,174022,6,0,P|453:119|462:186,1,149.999995779992
325,375,174306,1,0,0:0:0:0:
178,134,174448,1,0,0:0:0:0:
390,23,174590,6,0,P|471:83|480:150,1,149.999995779992
193,292,174874,2,0,L|28:301,1,149.999995779992
146,39,175157,1,0,0:0:0:0:
335,310,175299,1,0,0:0:0:0:
390,23,175441,6,0,L|221:23,1,149.999995779992
3,169,175725,2,0,P|-2:242|42:299,1,149.999995779992
335,310,176009,2,0,P|341:237|296:170,1,149.999995779992
187,380,176293,1,0,0:0:0:0:
434,168,176435,1,0,0:0:0:0:
146,39,176577,6,0,P|91:108|108:199,1,149.999995779992
187,380,176860,1,0,0:0:0:0:
329,82,177002,1,0,0:0:0:0:
3,169,177144,1,0,0:0:0:0:
335,310,177286,1,0,0:0:0:0:
164,19,177428,2,0,L|-20:27,1,149.999995779992
335,310,177712,2,0,L|519:302,1,149.999995779992
116,113,177996,6,0,P|72:211|93:266,1,149.999995779992
179,374,178280,1,0,0:0:0:0:
326,154,178421,1,0,0:0:0:0:
77,86,178563,6,0,P|33:184|54:239,1,149.999995779992
190,384,178847,1,0,0:0:0:0:
337,155,178989,1,0,0:0:0:0:
38,59,179131,6,0,P|-6:157|15:212,1,149.999995779992
402,97,179415,2,0,L|253:104,1,149.999995779992
190,384,179699,1,0,0:0:0:0:
466,186,179841,1,0,0:0:0:0:
183,0,179983,6,0,P|122:84|137:158,1,149.999995779992
406,311,180266,2,0,P|467:227|452:153,1,149.999995779992
129,242,180550,1,0,0:0:0:0:
402,97,180692,1,0,0:0:0:0:
190,384,180834,2,0,L|23:361,1,149.999995779992
123,125,181118,6,0,L|290:148,1,149.999995779992
465,185,181402,1,0,0:0:0:0:
189,0,181544,1,0,0:0:0:0:
292,367,181686,1,0,0:0:0:0:
402,97,181827,1,0,0:0:0:0:
129,242,181969,2,0,P|114:306|146:387,1,149.999995779992
213,33,182253,2,0,L|44:41,1,149.999995779992
410,246,182537,6,0,L|401:86,1,149.999995779992
202,126,182821,1,0,0:0:0:0:
292,367,182963,1,0,0:0:0:0:
455,262,183105,6,0,L|446:102,1,149.999995779992
185,126,183389,1,0,0:0:0:0:
283,380,183531,1,0,0:0:0:0:
500,278,183672,6,0,L|491:118,1,149.999995779992
65,173,183956,2,0,P|133:247|215:254,1,149.999995779992
459,42,184240,1,0,0:0:0:0:
185,126,184382,1,0,0:0:0:0:
382,341,184524,6,0,P|455:336|500:279,1,149.999995779992
275,30,184808,2,0,P|190:-1|86:22,1,149.999995779992
52,347,185092,2,0,P|132:375|216:346,1,149.999995779992
357,107,185375,1,0,0:0:0:0:
65,173,185517,1,0,0:0:0:0:
382,341,185659,6,0,P|416:241|383:170,1,149.999995779992
275,30,185943,1,0,0:0:0:0:
193,360,186085,1,0,0:0:0:0:
505,130,186227,1,0,0:0:0:0:
117,191,186369,1,0,0:0:0:0:
466,372,186511,2,0,P|495:270|489:227,1,149.999995779992
275,30,186795,2,0,L|103:37,1,149.999995779992
117,191,187078,6,0,L|134:369,1,149.999995779992
336,323,187362,1,0,0:0:0:0:
252,97,187504,1,0,0:0:0:0:
65,173,187646,6,0,L|82:351,1,149.999995779992
351,327,187930,1,0,0:0:0:0:
266,86,188072,1,0,0:0:0:0:
13,155,188214,6,0,L|30:333,1,149.999995779992
438,172,188498,2,0,L|421:-6,1,149.999995779992
131,98,188781,1,0,0:0:0:0:
230,371,188923,1,0,0:0:0:0:
350,29,189065,6,0,P|267:-9|197:15,1,149.999995779992
2,238,189349,2,0,P|86:280|155:252,1,149.999995779992
438,172,189633,1,0,0:0:0:0:
131,98,189775,1,0,0:0:0:0:
380,384,189917,2,0,P|410:295|383:222,1,149.999995779992
213,4,190201,6,0,L|39:14,1,149.999995779992
2,238,190484,1,0,0:0:0:0:
380,384,190626,1,0,0:0:0:0:
213,4,190768,1,0,0:0:0:0:
98,368,190910,1,0,0:0:0:0:
438,172,191052,5,0,0:0:0:0:
0,17,191194,1,0,0:0:0:0:
256,192,191336,12,0,198148,0:0:0:0:
