osu file format v14

[General]
AudioFilename: audio.mp3
AudioLeadIn: 0
PreviewTime: 38706
Countdown: 1
SampleSet: Normal
StackLeniency: 1
Mode: 0
LetterboxInBreaks: 0
WidescreenStoryboard: 0

[Editor]
DistanceSpacing: 1.2
BeatDivisor: 4
GridSize: 4
TimelineZoom: 2.8

[Metadata]
Title:Say Goodbye (Nightcore Mix)
TitleUnicode:Say Goodbye (Nightcore Mix)
Artist:Krewella
ArtistUnicode:Krewella
Creator:Splinter572
Version:For Haxwell
Source:
Tags:krewella say goodbye nightcore mix speed up version
BeatmapID:1182401
BeatmapSetID:559063

[Difficulty]
HPDrainRate:5
CircleSize:4.1
OverallDifficulty:8.5
ApproachRate:9.7
SliderMultiplier:2
SliderTickRate:1

[Events]
//Background and Video events
0,0,"1280720.png",0,0
//Break Periods
//Storyboard Layer 0 (Background)
//Storyboard Layer 1 (Fail)
//Storyboard Layer 2 (Pass)
//Storyboard Layer 3 (Foreground)
//Storyboard Sound Samples

[TimingPoints]
100,296.970896852109,4,2,0,50,1,0
5445,-100,4,3,0,75,0,0
9751,-66.6666666666667,4,3,0,5,0,0
10197,-66.6666666666667,4,3,0,75,0,0
10493,-125,4,2,0,60,0,0
11978,-200,4,2,0,60,0,0
12572,-125,4,2,0,60,0,0
14354,-200,4,2,0,60,0,0
14948,-125,4,2,0,60,0,0
21481,-142.857142857143,4,2,0,60,0,0
22075,-125,4,2,0,60,0,0
23857,-142.857142857143,4,2,0,60,0,0
24451,-125,4,2,0,60,0,0
26827,-125,4,3,0,75,0,0
29203,-100,4,2,0,50,0,0
30094,-83.3333333333333,4,2,0,50,0,0
30242,-100,4,2,0,50,0,0
31281,-83.3333333333333,4,2,0,50,0,0
31430,-100,4,2,0,50,0,0
32469,-83.3333333333333,4,2,0,50,0,0
32618,-100,4,2,0,50,0,0
33657,-83.3333333333333,4,2,0,50,0,0
33806,-100,4,2,0,50,0,0
34845,-83.3333333333333,4,2,0,50,0,0
34994,-100,4,2,0,50,0,0
36033,-83.3333333333333,4,2,0,50,0,0
36181,-100,4,2,0,50,0,0
37518,-125,4,2,0,30,0,0
38260,-166.666666666667,4,2,0,30,0,0
38706,-83.3333333333333,4,1,0,75,0,1
47169,-83.3333333333333,4,1,0,75,0,0
47615,-100,4,1,0,25,0,0
48209,-83.3333333333333,4,1,0,75,0,1
57712,-83.3333333333333,4,3,0,30,0,0
60088,-71.4285714285714,4,1,0,75,0,0
60236,-100,4,1,0,75,0,0
62463,-71.4285714285714,4,1,0,75,0,0
62612,-100,4,1,0,75,0,0
64839,-71.4285714285714,4,1,0,75,0,0
64988,-100,4,1,0,75,0,0
67215,-71.4285714285714,4,1,0,75,0,0
69888,-100,4,1,0,75,0,0
71966,-71.4285714285714,4,1,0,75,0,0
72263,-100,4,1,0,75,0,0
74342,-71.4285714285714,4,1,0,75,0,0
74639,-100,4,1,0,75,0,0
76718,-71.4285714285714,4,1,0,75,0,0
77015,-100,4,1,0,75,0,0
78797,-125,4,1,0,75,0,0
79391,-125,4,2,0,60,0,0
80876,-200,4,2,0,60,0,0
81766,-125,4,2,0,60,0,0
83251,-200,4,2,0,60,0,0
84142,-125,4,2,0,60,0,0
85627,-200,4,2,0,60,0,0
85924,-125,4,2,0,10,0,0
86221,-125,4,2,0,60,0,0
88300,-66.6666666666667,4,1,0,60,0,0
88597,-100,4,1,0,60,0,0
90973,-100,4,1,0,60,0,0
96912,-100,4,3,0,30,0,0
98100,-83.3333333333333,4,1,0,75,0,1
106415,-83.3333333333333,4,1,0,75,0,0
107009,-100,4,1,0,25,0,0
107603,-83.3333333333333,4,1,0,75,0,1
114730,-83.3333333333333,4,2,0,30,0,1
117106,-83.3333333333333,4,3,0,60,0,0
118294,-83.3333333333333,4,3,0,75,0,0
119482,-71.4285714285714,4,1,0,75,0,0
119779,-100,4,1,0,75,0,0
121858,-71.4285714285714,4,1,0,75,0,0
122155,-100,4,1,0,75,0,0
124233,-71.4285714285714,4,1,0,75,0,0
124530,-100,4,1,0,75,0,0
126609,-71.4285714285714,4,1,0,75,0,0
128985,-200,4,3,0,50,0,0
129579,-100,4,3,0,50,0,0
130173,-133.333333333333,4,3,0,50,0,0
131361,-200,4,3,0,75,0,0
132549,-133.333333333333,4,3,0,50,0,0
133736,-200,4,3,0,75,0,0
134924,-133.333333333333,4,3,0,75,0,0
136112,-100,4,3,0,75,0,0
138488,-100,4,2,0,60,0,0
139379,-71.4285714285714,4,2,0,60,0,0
139973,-100,4,2,0,60,0,0
140567,-71.4285714285714,4,2,0,60,0,0
140864,-100,4,2,0,60,0,0
141755,-71.4285714285714,4,2,0,60,0,0
142052,-100,4,2,0,60,0,0
142943,-71.4285714285714,4,2,0,60,0,0
143239,-100,4,2,0,60,0,0
144130,-71.4285714285714,4,2,0,60,0,0
144427,-100,4,2,0,60,0,0
145318,-71.4285714285714,4,2,0,60,0,0
145615,-100,4,2,0,60,0,0
146209,-80,4,2,0,60,0,0
147397,-66.6666666666667,4,2,0,60,0,0
152743,-200,4,1,0,5,0,0
161949,-133.333333333333,4,1,0,25,0,0
162246,-100,4,1,0,50,0,0
169373,-83.3333333333333,4,1,0,60,0,0
171749,-76.9230769230769,4,1,0,75,0,1
183034,-100,4,1,0,75,0,1
183628,-76.9230769230769,4,1,0,75,0,1
187785,-100,4,1,0,75,0,1
188379,-76.9230769230769,4,1,0,75,0,1
192537,-100,4,1,0,75,0,1
193131,-76.9230769230769,4,1,0,75,0,1
197288,-100,4,1,0,75,0,1
197882,-76.9230769230769,4,1,0,75,0,0

[HitObjects]
110,70,693,6,0,L|246:94,1,100
308,200,990,2,0,L|420:168,1,100
304,75,1287,1,0,0:0:0:0:
184,164,1436,1,0,0:0:0:0:
304,75,1584,1,0,0:0:0:0:
184,164,1733,1,0,0:0:0:0:
48,164,1881,6,0,P|48:228|88:276,1,100
176,344,2178,2,0,L|264:292,1,100
264,159,2475,1,0,0:0:0:0:
156,231,2624,1,0,0:0:0:0:
157,81,2772,1,0,0:0:0:0:
157,81,2921,1,0,0:0:0:0:
264,159,3069,6,0,B|216:187|216:187|128:187,1,100
59,287,3366,2,0,P|127:315|179:315,1,100
303,312,3663,1,0,0:0:0:0:
408,208,3812,1,0,0:0:0:0:
303,312,3960,1,0,0:0:0:0:
408,208,4109,1,0,0:0:0:0:
348,64,4257,6,0,L|220:120,1,100
292,188,4554,2,0,L|180:188,1,100
76,236,4851,1,0,0:0:0:0:
178,338,5000,1,0,0:0:0:0:
28,336,5148,1,0,0:0:0:0:
178,338,5296,1,0,0:0:0:0:
400,96,5445,5,0,0:0:0:0:
400,96,5890,1,0,0:0:0:0:
256,96,6633,5,0,0:0:0:0:
256,96,7078,1,0,0:0:0:0:
111,96,7821,5,0,0:0:0:0:
111,96,8266,1,0,0:0:0:0:
400,96,9009,5,0,0:0:0:0:
111,96,9306,1,0,0:0:0:0:
256,96,9454,1,0,0:0:0:0:
78,170,9751,6,0,B|56:209|132:213|167:175|151:141|125:109|94:86|64:80|16:104|-8:144|-8:212|16:252|80:252|96:252|177:228,1,450.000017166138
169,230,10493,6,0,B|192:230|192:230|214:199|244:199,1,80
272,120,10790,1,0,0:0:0:0:
376,56,11087,1,0,0:0:0:0:
416,192,11384,2,0,P|485:161|472:56,1,160
376,56,11830,1,0,0:0:0:0:
235,125,11978,2,0,B|311:125|308:217|196:217|196:125|244:125|244:161|160:161|140:153,1,200
132,288,12869,6,0,P|186:289|212:296,1,80
297,319,13166,1,0,0:0:0:0:
330,193,13463,1,0,0:0:0:0:
358,71,13760,2,0,B|403:83|435:56|435:56|418:94|445:132,1,160
446,239,14206,1,0,0:0:0:0:
446,239,14354,2,0,B|374:183|374:183|318:235|262:179,1,200
136,164,15245,6,0,P|172:184|212:152,1,80
329,83,15542,2,0,P|401:67|436:143,2,160
222,141,16433,2,0,P|161:126|130:94,1,80
63,40,16730,1,0,0:0:0:0:
104,208,17027,6,0,B|168:204|212:244|212:244|264:204,1,160
352,128,17769,1,0,0:0:0:0:
352,128,18215,1,0,0:0:0:0:
436,296,18512,6,0,B|372:292|328:332|328:332|280:284,1,160
297,301,18957,1,0,0:0:0:0:
192,196,19403,1,0,0:0:0:0:
191,62,19700,1,0,0:0:0:0:
328,60,19997,6,0,B|412:60|412:60|360:104|404:144,2,160
280,180,20887,1,0,0:0:0:0:
257,306,21184,1,0,0:0:0:0:
257,306,21333,1,0,0:0:0:0:
257,306,21481,2,0,B|333:274|333:274|285:194|209:250|209:250|209:178,1,279.999991455078
209,200,22372,6,0,P|271:203|303:182,1,80
376,112,22669,2,0,B|308:92|308:36|308:36|236:36,1,160
209,200,23263,2,0,L|71:118,1,160
44,224,23709,1,0,0:0:0:0:
155,279,23857,2,0,P|267:279|267:123,1,279.999991455078
160,40,24748,6,0,P|121:49|93:77,1,80
64,180,25045,2,0,B|132:180|132:268|188:268,1,160
268,212,25491,1,0,0:0:0:0:
356,268,25639,2,0,B|408:268|408:268|352:192|400:152,1,160
424,56,26084,1,0,0:0:0:0:
424,56,26233,1,0,0:0:0:0:
268,140,26530,1,0,0:0:0:0:
100,320,26827,6,0,L|276:248,1,160
100,320,27272,1,0,0:0:0:0:
172,136,27718,1,0,0:0:0:0:
448,196,28015,6,0,L|272:124,1,160
448,196,28460,1,0,0:0:0:0:
400,16,28906,1,0,0:0:0:0:
240,132,29203,5,0,0:0:0:0:
140,100,29351,1,0,0:0:0:0:
164,208,29500,2,0,L|252:292,1,100
348,324,29797,1,0,0:0:0:0:
424,256,29945,1,0,0:0:0:0:
319,226,30094,2,0,P|267:246|224:308,1,119.999996337891
176,176,30391,6,0,P|236:152|264:120,1,100
161,57,30688,1,0,0:0:0:0:
54,156,30836,1,0,0:0:0:0:
199,138,30984,1,0,0:0:0:0:
72,68,31133,1,0,0:0:0:0:
133,199,31281,2,0,P|168:272|212:300,1,119.999996337891
256,184,31578,6,0,L|352:128,1,100
284,64,31875,1,0,0:0:0:0:
400,196,32024,1,0,0:0:0:0:
256,184,32172,2,0,P|168:208|132:236,1,100
240,308,32469,2,0,L|364:308,1,119.999996337891
448,192,32766,5,0,0:0:0:0:
348,64,32915,1,0,0:0:0:0:
304,160,33063,1,0,0:0:0:0:
452,96,33212,1,0,0:0:0:0:
372,228,33360,1,0,0:0:0:0:
256,96,33509,1,0,0:0:0:0:
104,212,33657,2,0,P|88:276|24:312,1,119.999996337891
192,192,33954,6,0,L|300:192,1,100
376,100,34251,1,0,0:0:0:0:
468,196,34400,1,0,0:0:0:0:
376,288,34548,1,0,0:0:0:0:
376,288,34697,1,0,0:0:0:0:
236,336,34845,2,0,P|168:304|144:256,1,119.999996337891
72,336,35142,6,0,P|40:264|60:208,1,100
108,116,35439,2,0,P|140:188|120:244,1,100
236,336,35736,1,0,0:0:0:0:
372,264,35884,1,0,0:0:0:0:
236,176,36033,2,0,P|236:128|300:92,1,119.999996337891
440,64,36330,5,0,0:0:0:0:
504,248,36478,1,0,0:0:0:0:
280,180,36627,1,0,0:0:0:0:
352,92,36775,1,0,0:0:0:0:
452,308,36924,1,0,0:0:0:0:
232,240,37072,1,0,0:0:0:0:
336,344,37221,1,0,0:0:0:0:
420,156,37369,1,0,0:0:0:0:
248,112,37518,6,0,L|152:96,1,80
64,204,37815,2,0,L|176:184,1,80
288,168,38112,1,0,0:0:0:0:
328,312,38260,2,0,P|384:288|416:220,1,119.999996337891
320,60,38705,5,0,0:0:0:0:
132,208,38854,1,0,0:0:0:0:
376,200,39003,2,0,L|260:248,1,119.999996337891
320,60,39300,1,0,0:0:0:0:
408,260,39448,1,0,0:0:0:0:
181,159,39597,2,0,L|276:257,1,119.999996337891
184,352,39894,1,0,0:0:0:0:
296,152,40042,1,0,0:0:0:0:
104,252,40191,6,0,L|48:132,1,119.999996337891
248,48,40488,1,0,0:0:0:0:
344,248,40636,1,0,0:0:0:0:
140,172,40785,1,0,0:0:0:0:
320,60,40933,1,0,0:0:0:0:
256,304,41081,5,0,0:0:0:0:
208,80,41230,1,0,0:0:0:0:
132,320,41378,1,0,0:0:0:0:
336,140,41527,1,0,0:0:0:0:
400,260,41675,6,0,P|352:304|272:316,1,119.999996337891
152,228,41972,2,0,P|200:184|280:172,1,119.999996337891
132,320,42269,2,0,P|68:256|68:196,1,119.999996337891
176,88,42566,1,0,0:0:0:0:
236,252,42715,1,0,0:0:0:0:
332,116,42863,2,0,L|204:176,1,119.999996337891
44,184,43160,6,0,L|149:240,1,119.999996337891
288,320,43457,1,0,0:0:0:0:
288,320,43606,1,0,0:0:0:0:
77,286,43754,2,0,P|37:234|49:174,1,119.999996337891
208,80,44051,1,0,0:0:0:0:
116,212,44200,1,0,0:0:0:0:
288,320,44348,2,0,B|352:308|352:308|384:252,1,119.999996337891
379,140,44645,6,0,L|379:272,1,119.999996337891
216,320,44942,1,0,0:0:0:0:
124,100,45091,1,0,0:0:0:0:
68,256,45239,1,0,0:0:0:0:
260,128,45388,1,0,0:0:0:0:
48,40,45536,1,0,0:0:0:0:
136,312,45685,1,0,0:0:0:0:
304,188,45833,1,0,0:0:0:0:
216,72,45982,1,0,0:0:0:0:
100,176,46130,6,0,P|56:236|60:304,1,119.999996337891
216,344,46427,1,0,0:0:0:0:
212,144,46575,1,0,0:0:0:0:
128,248,46724,1,0,0:0:0:0:
344,296,46872,1,0,0:0:0:0:
258,247,47021,2,0,P|214:187|218:119,1,119.999996337891
211,143,47615,6,0,P|160:240|204:308,1,200
248,324,47986,1,0,0:0:0:0:
292,324,48060,1,0,0:0:0:0:
336,308,48135,1,0,0:0:0:0:
368,276,48209,1,0,0:0:0:0:
368,32,48357,1,0,0:0:0:0:
280,216,48506,2,0,L|372:320,1,119.999996337891
400,196,48803,1,0,0:0:0:0:
212,144,48951,1,0,0:0:0:0:
164,288,49100,6,0,P|108:328|32:336,1,119.999996337891
52,176,49397,1,0,0:0:0:0:
220,344,49545,1,0,0:0:0:0:
260,192,49694,2,0,P|328:172|392:172,1,119.999996337891
472,84,49991,2,0,P|404:64|340:64,1,119.999996337891
185,97,50288,2,0,L|277:213,1,119.999996337891
368,328,50585,5,0,0:0:0:0:
376,170,50733,1,0,0:0:0:0:
256,288,50882,1,0,0:0:0:0:
460,200,51030,5,0,0:0:0:0:
296,48,51178,1,0,0:0:0:0:
436,272,51327,1,0,0:0:0:0:
488,32,51476,5,0,0:0:0:0:
224,208,51624,1,0,0:0:0:0:
432,116,51772,1,0,0:0:0:0:
456,340,51921,5,0,0:0:0:0:
238,325,52069,2,0,P|223:266|223:207,1,119.999996337891
432,116,52366,2,0,L|288:132,1,119.999996337891
80,116,52663,2,0,L|224:132,1,119.999996337891
344,196,52960,5,0,0:0:0:0:
176,244,53257,1,0,0:0:0:0:
344,308,53554,1,0,0:0:0:0:
176,352,53851,1,0,0:0:0:0:
176,352,54148,5,0,0:0:0:0:
344,308,54445,1,0,0:0:0:0:
176,248,54742,1,0,0:0:0:0:
344,196,55039,1,0,0:0:0:0:
74,109,55336,5,0,0:0:0:0:
269,109,55485,1,0,0:0:0:0:
112,224,55633,1,0,0:0:0:0:
172,39,55782,1,0,0:0:0:0:
232,224,55930,1,0,0:0:0:0:
310,75,56079,5,0,0:0:0:0:
336,232,56227,1,0,0:0:0:0:
191,166,56375,1,0,0:0:0:0:
376,112,56524,5,0,0:0:0:0:
188,264,56672,1,0,0:0:0:0:
436,192,56821,5,0,0:0:0:0:
191,166,56969,1,0,0:0:0:0:
344,312,57118,5,0,0:0:0:0:
304,164,57266,1,0,0:0:0:0:
188,264,57415,1,0,0:0:0:0:
92,144,57563,1,0,0:0:0:0:
36,272,57712,5,0,0:0:0:0:
36,272,58009,1,0,0:0:0:0:
36,272,58306,1,0,0:0:0:0:
256,192,58603,12,0,59791,0:0:0:0:
136,116,60088,6,0,P|168:180|248:212,1,139.999995727539
140,264,60385,2,0,P|96:232|72:184,1,100
184,40,60682,1,0,0:0:0:0:
364,88,60830,1,0,0:0:0:0:
226,210,60979,1,0,0:0:0:0:
184,40,61127,1,0,0:0:0:0:
364,88,61276,6,0,L|364:196,1,100
432,295,61572,2,0,B|368:295|368:295|304:251,1,100
244,116,61869,1,0,0:0:0:0:
244,116,62018,1,0,0:0:0:0:
244,248,62166,2,0,P|300:256|368:300,1,100
180,348,62463,2,0,P|124:340|32:276,1,139.999995727539
244,248,62760,6,0,B|248:136|248:136,1,100
128,48,63057,1,0,0:0:0:0:
73,209,63206,1,0,0:0:0:0:
208,64,63354,1,0,0:0:0:0:
37,116,63503,2,0,L|84:236,1,100
208,64,63800,5,0,0:0:0:0:
284,216,63948,1,0,0:0:0:0:
376,64,64097,1,0,0:0:0:0:
444,216,64245,2,0,P|412:268|360:284,1,100
284,120,64542,1,0,0:0:0:0:
444,216,64691,1,0,0:0:0:0:
284,312,64839,2,0,P|184:312|140:292,1,139.999995727539
48,156,65136,6,0,P|136:168|168:200,1,100
72,280,65433,1,0,0:0:0:0:
196,104,65582,1,0,0:0:0:0:
272,232,65730,2,0,P|348:264|400:256,1,100
468,152,66027,2,0,P|392:120|340:128,1,100
404,36,66324,5,0,0:0:0:0:
292,116,66472,1,0,0:0:0:0:
184,200,66621,2,0,L|80:268,1,100
352,256,66918,1,0,0:0:0:0:
352,256,67066,1,0,0:0:0:0:
292,116,67215,6,0,L|128:68,1,139.999995727539
0,36,67512,1,0,0:0:0:0:
100,254,67660,2,0,L|234:216,1,139.999995727539
408,176,67957,1,0,0:0:0:0:
288,52,68106,6,0,P|212:76|160:136,1,139.999995727539
100,254,68403,1,0,0:0:0:0:
296,336,68551,2,0,P|312:256|288:204,2,139.999995727539
376,176,68997,1,0,0:0:0:0:
216,276,69145,1,0,0:0:0:0:
408,344,69294,1,0,0:0:0:0:
316,120,69442,1,0,0:0:0:0:
132,152,69591,2,0,P|88:184|164:208,1,139.999995727539
324,320,69888,6,0,L|256:224,1,100
164,52,70185,1,0,0:0:0:0:
56,228,70333,1,0,0:0:0:0:
266,238,70482,1,0,0:0:0:0:
108,88,70630,2,0,L|108:204,1,100
220,312,70927,1,0,0:0:0:0:
384,228,71076,1,0,0:0:0:0:
384,228,71224,1,0,0:0:0:0:
292,72,71373,5,0,0:0:0:0:
128,156,71521,1,0,0:0:0:0:
220,312,71669,1,0,0:0:0:0:
384,228,71818,1,0,0:0:0:0:
292,72,71966,2,0,L|248:224,1,139.999995727539
104,304,72263,6,0,B|80:264|80:264|80:184,1,100
196,96,72560,1,0,0:0:0:0:
324,228,72709,1,0,0:0:0:0:
348,48,72857,1,0,0:0:0:0:
256,132,73006,2,0,L|256:252,1,100
256,344,73303,5,0,0:0:0:0:
368,160,73451,1,0,0:0:0:0:
148,160,73600,1,0,0:0:0:0:
396,300,73748,5,0,0:0:0:0:
256,68,73897,1,0,0:0:0:0:
116,300,74045,1,0,0:0:0:0:
256,216,74194,1,0,0:0:0:0:
396,300,74342,6,0,L|476:156,1,139.999995727539
352,56,74639,2,0,L|288:168,1,100
144,64,74936,1,0,0:0:0:0:
60,196,75085,1,0,0:0:0:0:
156,132,75233,1,0,0:0:0:0:
120,296,75382,1,0,0:0:0:0:
208,176,75530,1,0,0:0:0:0:
248,356,75679,1,0,0:0:0:0:
400,248,75827,6,0,B|432:208|432:208|424:156,1,100
148,152,76124,1,0,0:0:0:0:
356,184,76273,1,0,0:0:0:0:
120,240,76421,1,0,0:0:0:0:
368,104,76570,1,0,0:0:0:0:
64,120,76718,6,0,P|124:80|216:80,1,139.999995727539
416,244,77015,1,0,0:0:0:0:
240,300,77163,1,0,0:0:0:0:
368,104,77312,1,0,0:0:0:0:
176,160,77460,1,0,0:0:0:0:
392,308,77609,1,0,0:0:0:0:
228,112,77757,1,0,0:0:0:0:
188,340,77906,5,0,0:0:0:0:
436,128,78054,1,0,0:0:0:0:
164,72,78203,1,0,0:0:0:0:
308,340,78351,1,0,0:0:0:0:
392,52,78500,1,0,0:0:0:0:
164,240,78648,1,0,0:0:0:0:
376,340,78797,2,0,B|484:352|428:280|428:280|468:232,1,160
200,88,79391,6,0,B|124:80|124:80|128:164|80:164,2,160
324,104,80282,1,0,0:0:0:0:
380,208,80579,2,0,P|420:252|420:276,1,80
328,320,80876,2,0,L|104:320,1,200
196,192,81766,6,0,B|216:176|216:176|260:176|260:176|296:144,1,80
344,112,82063,1,0,0:0:0:0:
232,36,82360,1,0,0:0:0:0:
148,136,82657,1,0,0:0:0:0:
176,268,82954,2,0,L|256:268,1,80
388,256,83251,2,0,B|424:220|424:220|392:188|392:188|428:152|428:152|384:108,1,200
276,52,84142,6,0,P|216:40|176:52,1,80
128,112,84439,2,0,B|128:176|64:176|64:176|64:236,1,160
216,280,85033,1,0,0:0:0:0:
264,140,85330,2,0,P|304:92|344:88,1,80
480,124,85627,2,0,L|384:156,1,100
76,256,86221,6,0,P|156:256|236:284,1,160
220,352,86667,2,0,L|248:180,1,160
128,100,87112,1,0,0:0:0:0:
288,96,87409,6,0,B|288:164|288:164|356:244,1,160
284,328,87854,1,0,0:0:0:0:
480,236,88003,2,0,L|416:316,1,80
176,248,88300,2,0,P|272:168|168:72,1,300.000011444092
60,172,88745,1,0,0:0:0:0:
284,328,88894,6,0,P|204:328|148:348,1,100
304,252,89191,2,0,P|384:252|440:232,1,100
348,128,89488,1,0,0:0:0:0:
232,204,89636,1,0,0:0:0:0:
124,132,89785,2,0,B|96:88|96:88|40:76,1,100
28,188,90082,5,0,0:0:0:0:
124,132,90230,1,0,0:0:0:0:
228,76,90379,2,0,B|256:92|284:40|284:40|348:64,1,100
412,100,90676,1,0,0:0:0:0:
508,148,90824,1,0,0:0:0:0:
356,224,90973,2,0,L|356:340,1,100
132,324,91270,6,0,P|140:268|172:228,1,100
240,120,91567,1,0,0:0:0:0:
240,120,91715,1,0,0:0:0:0:
100,88,91864,2,0,L|20:164,1,100
144,264,92160,6,0,B|200:264|200:264|260:240,1,100
376,184,92457,1,0,0:0:0:0:
268,100,92606,1,0,0:0:0:0:
328,248,92754,2,0,B|372:288|372:288|376:344,2,100
200,184,93200,1,0,0:0:0:0:
336,48,93348,6,0,P|364:108|356:152,1,100
360,252,93645,2,0,P|376:308|420:344,1,100
268,196,93942,2,0,P|200:180|136:184,1,100
88,316,94239,1,0,0:0:0:0:
184,108,94388,1,0,0:0:0:0:
244,292,94536,6,0,B|280:328|280:328|356:328,1,100
461,256,94833,2,0,B|425:220|425:220|376:220,1,100
416,108,95130,1,0,0:0:0:0:
280,44,95279,1,0,0:0:0:0:
280,44,95427,2,0,L|168:112,1,100
120,288,95724,5,0,0:0:0:0:
376,220,95873,1,0,0:0:0:0:
124,100,96021,1,0,0:0:0:0:
256,336,96170,5,0,0:0:0:0:
404,84,96318,1,0,0:0:0:0:
96,180,96467,1,0,0:0:0:0:
336,312,96615,5,0,0:0:0:0:
240,28,96764,1,0,0:0:0:0:
120,288,96912,5,0,0:0:0:0:
256,192,97357,1,0,0:0:0:0:
120,96,97803,1,0,0:0:0:0:
380,168,98100,6,0,P|328:256|272:276,1,119.999996337891
196,160,98397,1,0,0:0:0:0:
288,52,98545,1,0,0:0:0:0:
446,263,98694,2,0,P|419:202|371:162,1,119.999996337891
104,120,98991,2,0,B|160:88|160:88|236:88,1,119.999996337891
308,224,99288,2,0,P|264:280|168:300,1,119.999996337891
104,120,99585,5,0,0:0:0:0:
224,216,99733,1,0,0:0:0:0:
100,296,99882,2,0,L|232:368,1,119.999996337891
413,281,100179,2,0,L|281:209,1,119.999996337891
32,116,100476,5,0,0:0:0:0:
166,50,100624,1,0,0:0:0:0:
232,185,100773,1,0,0:0:0:0:
97,250,100921,1,0,0:0:0:0:
95,69,101070,5,0,0:0:0:0:
213,112,101218,1,0,0:0:0:0:
170,231,101367,1,0,0:0:0:0:
52,188,101515,1,0,0:0:0:0:
168,44,101664,5,0,0:0:0:0:
236,188,101812,1,0,0:0:0:0:
92,252,101961,1,0,0:0:0:0:
28,112,102109,1,0,0:0:0:0:
216,108,102257,5,0,0:0:0:0:
172,236,102406,1,0,0:0:0:0:
48,184,102554,1,0,0:0:0:0:
92,64,102703,1,0,0:0:0:0:
304,88,102851,6,0,L|424:56,1,119.999996337891
476,208,103148,2,0,L|336:192,1,119.999996337891
224,168,103445,1,0,0:0:0:0:
136,268,103594,1,0,0:0:0:0:
316,328,103742,2,0,P|312:252|280:204,1,119.999996337891
200,88,104039,1,0,0:0:0:0:
200,88,104188,1,0,0:0:0:0:
140,204,104336,6,0,B|96:260|96:260|36:280,1,119.999996337891
200,160,104633,2,0,L|336:160,1,119.999996337891
380,276,104930,1,0,0:0:0:0:
300,88,105079,1,0,0:0:0:0:
184,324,105227,1,0,0:0:0:0:
28,100,105376,5,0,0:0:0:0:
264,192,105524,1,0,0:0:0:0:
28,192,105673,1,0,0:0:0:0:
264,100,105821,1,0,0:0:0:0:
96,268,105970,1,0,0:0:0:0:
196,28,106118,1,0,0:0:0:0:
196,268,106267,1,0,0:0:0:0:
96,28,106415,1,0,0:0:0:0:
96,28,107009,6,0,B|156:88|220:68|220:68|240:68|272:156,1,200
272,152,107380,1,0,0:0:0:0:
288,188,107454,1,0,0:0:0:0:
304,224,107529,1,0,0:0:0:0:
320,260,107603,1,0,0:0:0:0:
144,268,107751,5,0,0:0:0:0:
100,164,107900,2,0,L|52:284,1,119.999996337891
196,360,108197,2,0,L|240:236,1,119.999996337891
380,108,108494,5,0,0:0:0:0:
436,208,108642,1,0,0:0:0:0:
268,120,108791,1,0,0:0:0:0:
232,296,108939,1,0,0:0:0:0:
400,292,109088,2,0,P|348:264|292:208,1,119.999996337891
104,72,109385,2,0,P|156:100|200:141,1,119.999996337891
168,332,109682,2,0,P|116:304|72:263,1,119.999996337891
128,64,109979,5,0,0:0:0:0:
256,40,110127,1,0,0:0:0:0:
368,100,110276,1,0,0:0:0:0:
144,344,110424,5,0,0:0:0:0:
46,257,110573,1,0,0:0:0:0:
48,130,110721,1,0,0:0:0:0:
384,164,110870,5,0,0:0:0:0:
356,290,111018,1,0,0:0:0:0:
246,352,111167,1,0,0:0:0:0:
160,120,111315,5,0,0:0:0:0:
320,172,111464,1,0,0:0:0:0:
188,288,111612,1,0,0:0:0:0:
56,160,111761,6,0,L|92:46,1,119.999996337891
217,200,112058,2,0,L|248:316,1,119.999996337891
134,333,112354,2,0,P|226:329|282:273,1,119.999996337891
332,168,112651,1,0,0:0:0:0:
396,304,112800,1,0,0:0:0:0:
248,228,112948,2,0,P|168:196|136:160,1,119.999996337891
252,56,113245,1,0,0:0:0:0:
252,56,113394,1,0,0:0:0:0:
372,180,113542,6,0,L|400:312,1,119.999996337891
436,152,113839,2,0,P|368:108|328:124,1,119.999996337891
228,248,114136,2,0,P|164:268|116:236,1,119.999996337891
176,80,114433,2,0,L|176:208,1,119.999996337891
208,324,114730,5,0,0:0:0:0:
260,316,115027,1,0,0:0:0:0:
312,332,115324,1,0,0:0:0:0:
364,324,115621,1,0,0:0:0:0:
412,332,115918,1,0,0:0:0:0:
460,312,116215,1,0,0:0:0:0:
484,264,116512,1,0,0:0:0:0:
480,204,116809,1,0,0:0:0:0:
336,76,117106,5,0,0:0:0:0:
168,172,117255,1,0,0:0:0:0:
340,272,117403,1,0,0:0:0:0:
240,88,117551,1,0,0:0:0:0:
172,272,117700,1,0,0:0:0:0:
104,88,117848,1,0,0:0:0:0:
264,192,117997,1,0,0:0:0:0:
64,192,118145,1,0,0:0:0:0:
212,336,118294,5,0,0:0:0:0:
396,196,118442,1,0,0:0:0:0:
288,348,118591,1,0,0:0:0:0:
228,72,118739,1,0,0:0:0:0:
92,224,118887,1,0,0:0:0:0:
336,76,119036,1,0,0:0:0:0:
361,336,119185,1,0,0:0:0:0:
132,132,119333,1,0,0:0:0:0:
52,336,119482,6,0,L|196:336,1,139.999995727539
444,296,119779,2,0,B|408:336|408:336|356:336,1,100
192,208,120076,1,0,0:0:0:0:
316,80,120224,1,0,0:0:0:0:
372,256,120373,1,0,0:0:0:0:
188,276,120521,2,0,P|136:248|124:208,1,100
316,80,120818,5,0,0:0:0:0:
372,256,120967,2,0,P|352:300|307:320,1,100
188,276,121264,1,0,0:0:0:0:
188,276,121412,1,0,0:0:0:0:
268,156,121561,1,0,0:0:0:0:
268,156,121709,1,0,0:0:0:0:
404,236,121858,6,0,P|435:280|520:324,1,139.999995727539
408,156,122155,2,0,P|344:184|324:224,1,100
188,332,122452,1,0,0:0:0:0:
84,160,122600,1,0,0:0:0:0:
224,276,122748,1,0,0:0:0:0:
64,224,122897,5,0,0:0:0:0:
236,100,123045,1,0,0:0:0:0:
380,224,123194,1,0,0:0:0:0:
184,284,123342,1,0,0:0:0:0:
136,76,123491,1,0,0:0:0:0:
320,148,123639,5,0,0:0:0:0:
200,224,123788,1,0,0:0:0:0:
324,36,123936,1,0,0:0:0:0:
428,256,124085,1,0,0:0:0:0:
256,328,124233,6,0,B|224:308|224:308|144:324|104:232,1,139.999995727539
272,228,124530,2,0,L|380:256,1,100
444,88,124827,2,0,L|336:116,1,100
164,172,125124,1,0,0:0:0:0:
312,304,125273,1,0,0:0:0:0:
348,112,125421,1,0,0:0:0:0:
224,248,125570,1,0,0:0:0:0:
224,248,125718,2,0,B|192:284|192:284|116:284,1,100
116,136,126015,5,0,0:0:0:0:
220,140,126164,1,0,0:0:0:0:
324,140,126312,1,0,0:0:0:0:
268,36,126461,1,0,0:0:0:0:
126,241,126609,6,0,P|192:252|276:236,1,139.999995727539
424,160,126906,1,0,0:0:0:0:
268,36,127055,2,0,P|256:128|268:192,1,139.999995727539
352,328,127352,1,0,0:0:0:0:
424,160,127500,6,0,L|272:172,1,139.999995727539
88,136,127797,1,0,0:0:0:0:
40,312,127945,2,0,B|108:328|108:328|180:320,1,139.999995727539
352,296,128242,1,0,0:0:0:0:
376,132,128391,2,0,L|224:100,1,139.999995727539
144,236,128688,2,0,L|300:204,1,139.999995727539
448,80,128985,6,0,B|368:108|368:-16|276:48,1,175
268,52,129579,1,0,0:0:0:0:
224,172,129727,1,0,0:0:0:0:
88,172,129876,1,0,0:0:0:0:
56,304,130024,1,0,0:0:0:0:
200,304,130173,6,0,B|284:344|216:216|392:124,1,262.500010013581
392,128,130767,1,0,0:0:0:0:
224,172,130915,1,0,0:0:0:0:
448,168,131064,1,0,0:0:0:0:
304,56,131212,1,0,0:0:0:0:
316,288,131361,6,0,P|404:248|368:176,1,175
364,172,131955,1,0,0:0:0:0:
236,220,132103,1,0,0:0:0:0:
176,96,132252,1,0,0:0:0:0:
236,220,132400,1,0,0:0:0:0:
96,92,132549,6,0,B|56:120|56:120|132:192|56:256|56:256|104:296,1,262.500010013581
116,304,133142,1,0,0:0:0:0:
264,336,133291,1,0,0:0:0:0:
384,280,133439,1,0,0:0:0:0:
264,200,133588,1,0,0:0:0:0:
264,336,133736,6,0,L|368:172,1,175
372,168,134330,1,0,0:0:0:0:
284,116,134479,1,0,0:0:0:0:
227,200,134627,1,0,0:0:0:0:
175,284,134776,1,0,0:0:0:0:
72,204,134924,6,0,B|8:156|84:164|84:164|40:44|196:44,1,262.500010013581
184,44,135518,1,0,0:0:0:0:
304,116,135667,1,0,0:0:0:0:
196,216,135815,1,0,0:0:0:0:
356,64,135964,1,0,0:0:0:0:
432,288,136112,6,0,P|447:241|431:194,1,100
304,116,136409,1,0,0:0:0:0:
372,240,136558,1,0,0:0:0:0:
128,168,136706,2,0,P|112:214|128:261,1,100
196,216,137003,1,0,0:0:0:0:
60,304,137152,1,0,0:0:0:0:
248,336,137300,6,0,L|372:336,2,100
56,216,137746,1,0,0:0:0:0:
252,73,137894,1,0,0:0:0:0:
177,304,138042,1,0,0:0:0:0:
102,73,138191,1,0,0:0:0:0:
298,216,138339,1,0,0:0:0:0:
184,104,138488,5,0,0:0:0:0:
160,208,138636,1,0,0:0:0:0:
72,140,138785,1,0,0:0:0:0:
56,244,138933,1,0,0:0:0:0:
177,304,139082,2,0,L|244:220,1,100
296,64,139379,2,0,P|203:147|224:200,1,139.999995727539
300,212,139676,5,0,0:0:0:0:
368,100,139824,1,0,0:0:0:0:
224,48,139973,2,0,L|108:84,1,100
32,168,140270,2,0,L|144:196,1,100
272,288,140567,2,0,P|224:320|200:256,1,139.999995727539
256,72,140864,6,0,P|336:84|368:116,1,100
256,212,141161,1,0,0:0:0:0:
256,212,141309,1,0,0:0:0:0:
104,172,141458,2,0,L|104:68,1,100
256,72,141755,2,0,L|256:252,1,139.999995727539
376,312,142052,5,0,0:0:0:0:
484,244,142200,1,0,0:0:0:0:
412,128,142349,1,0,0:0:0:0:
256,72,142497,5,0,0:0:0:0:
148,140,142645,1,0,0:0:0:0:
220,256,142794,1,0,0:0:0:0:
376,312,142943,2,0,B|432:260|432:260|432:184,1,139.999995727539
192,104,143239,6,0,L|284:152,1,100
192,32,143536,2,0,P|132:64|120:112,1,100
104,252,143833,1,0,0:0:0:0:
104,252,143982,1,0,0:0:0:0:
104,252,144130,2,0,P|172:220|244:220,1,139.999995727539
384,308,144427,6,0,L|272:244,1,100
360,184,144724,2,0,L|252:160,1,100
80,124,145021,1,0,0:0:0:0:
168,52,145170,1,0,0:0:0:0:
192,160,145318,2,0,P|184:224|120:288,1,139.999995727539
268,136,145615,6,0,B|328:120|328:120|396:144,1,100
364,240,145912,2,0,L|252:240,1,100
84,200,146209,1,0,0:0:0:0:
163,66,146358,2,0,B|225:6|285:52|285:52|253:133|363:156|363:156|363:271,1,375
216,352,146952,1,0,0:0:0:0:
44,228,147100,1,0,0:0:0:0:
108,44,147249,1,0,0:0:0:0:
320,44,147397,1,0,0:0:0:0:
256,192,147694,12,0,149179,0:0:0:0:
180,44,152743,6,0,B|240:120|304:64|352:152,1,200
251,176,153633,2,0,B|193:204|114:172|114:172|94:239,1,200
164,324,154376,2,0,B|404:152|256:-24|104:144|360:336,1,550
346,325,157197,5,0,0:0:0:0:
346,325,157494,2,0,P|338:257|378:253,1,125
377,252,157940,2,0,P|324:231|346:179,1,125
346,179,158385,2,0,P|278:183|334:143,1,175
326,138,158979,2,0,P|147:156|366:245,1,650
366,244,161949,5,0,0:0:0:0:
76,232,162246,5,0,0:0:0:0:
152,144,162394,1,0,0:0:0:0:
152,144,162543,1,0,0:0:0:0:
172,28,162691,5,0,0:0:0:0:
264,92,162840,1,0,0:0:0:0:
264,92,162988,1,0,0:0:0:0:
376,112,163137,6,0,P|400:160|392:224,1,100
300,328,163433,2,0,P|276:280|284:216,1,100
372,328,163730,1,0,0:0:0:0:
212,228,163879,1,0,0:0:0:0:
356,180,164027,1,0,0:0:0:0:
356,180,164176,1,0,0:0:0:0:
192,304,164324,5,0,0:0:0:0:
154,303,164398,1,0,0:0:0:0:
121,285,164472,1,0,0:0:0:0:
100,255,164546,1,0,0:0:0:0:
96,220,164621,2,0,P|100:172|148:128,1,100
240,68,164919,1,0,0:0:0:0:
368,200,165067,5,0,0:0:0:0:
240,144,165216,1,0,0:0:0:0:
240,144,165364,1,0,0:0:0:0:
88,196,165512,2,0,P|116:252|172:280,1,100
256,304,165809,2,0,L|143:336,1,100
256,224,166106,2,0,L|372:240,1,100
424,328,166403,6,0,L|304:312,1,100
140,260,166700,1,0,0:0:0:0:
93,242,166774,1,0,0:0:0:0:
64,202,166848,1,0,0:0:0:0:
61,153,166922,1,0,0:0:0:0:
76,108,166997,2,0,P|128:68|168:64,1,100
376,180,167294,5,0,0:0:0:0:
164,168,167443,1,0,0:0:0:0:
336,56,167591,1,0,0:0:0:0:
424,276,167740,1,0,0:0:0:0:
268,180,167888,1,0,0:0:0:0:
440,60,168037,1,0,0:0:0:0:
328,260,168185,1,0,0:0:0:0:
208,96,168334,1,0,0:0:0:0:
392,152,168482,6,0,L|488:228,1,100
440,100,168779,2,0,P|376:80|336:108,1,100
204,180,169076,1,0,0:0:0:0:
178,206,169150,1,0,0:0:0:0:
167,242,169224,1,0,0:0:0:0:
174,278,169298,1,0,0:0:0:0:
192,308,169373,6,0,P|237:348|312:336,1,119.999996337891
400,264,169670,2,0,L|304:172,1,119.999996337891
360,68,169967,2,0,L|448:156,1,119.999996337891
284,256,170264,2,0,B|204:256|204:256|152:192,1,119.999996337891
49,96,170561,5,0,0:0:0:0:
344,192,170709,1,0,0:0:0:0:
49,288,170858,1,0,0:0:0:0:
232,37,171006,1,0,0:0:0:0:
232,348,171155,1,0,0:0:0:0:
144,64,171303,5,0,0:0:0:0:
344,192,171452,1,0,0:0:0:0:
144,324,171600,1,0,0:0:0:0:
380,238,171749,6,0,P|405:157|404:98,1,129.999994049073
252,112,172046,2,0,P|274:172|278:237,1,129.999994049073
168,328,172343,1,0,0:0:0:0:
60,212,172491,1,0,0:0:0:0:
20,348,172640,1,0,0:0:0:0:
128,140,172788,1,0,0:0:0:0:
247,207,172937,6,0,P|293:254|352:280,1,129.999994049073
376,108,173234,2,0,L|224:108,1,129.999994049073
336,188,173531,1,0,0:0:0:0:
184,52,173679,1,0,0:0:0:0:
84,184,173827,2,0,B|112:240|112:240|200:240,1,129.999994049073
264,80,174124,1,0,0:0:0:0:
264,80,174273,1,0,0:0:0:0:
440,96,174421,6,0,L|376:216,1,129.999994049073
224,272,174718,2,0,L|354:272,1,129.999994049073
264,80,175015,2,0,L|296:216,1,129.999994049073
216,336,175312,2,0,P|128:304|88:252,1,129.999994049073
116,80,175609,5,0,0:0:0:0:
260,240,175758,1,0,0:0:0:0:
96,160,175906,1,0,0:0:0:0:
276,160,176055,1,0,0:0:0:0:
168,292,176203,1,0,0:0:0:0:
220,40,176352,1,0,0:0:0:0:
340,204,176500,6,0,P|324:288|288:316,1,129.999994049073
80,312,176797,1,0,0:0:0:0:
232,180,176946,1,0,0:0:0:0:
288,312,177094,1,0,0:0:0:0:
104,240,177243,1,0,0:0:0:0:
139,100,177391,2,0,P|175:156|255:180,1,129.999994049073
364,280,177688,2,0,L|416:144,1,129.999994049073
256,48,177985,2,0,L|312:176,1,129.999994049073
464,248,178282,5,0,0:0:0:0:
308,168,178431,1,0,0:0:0:0:
304,340,178579,1,0,0:0:0:0:
380,168,178727,1,0,0:0:0:0:
236,168,178876,1,0,0:0:0:0:
388,296,179024,1,0,0:0:0:0:
272,104,179173,6,0,B|184:104|184:104|136:140,1,129.999994049073
125,250,179470,2,0,B|125:162|125:162|161:114,1,129.999994049073
252,208,179767,2,0,P|268:276|192:312,1,129.999994049073
72,176,180064,5,0,0:0:0:0:
192,48,180212,1,0,0:0:0:0:
252,208,180361,1,0,0:0:0:0:
76,48,180509,5,0,0:0:0:0:
252,208,180658,1,0,0:0:0:0:
140,24,180806,1,0,0:0:0:0:
196,252,180955,1,0,0:0:0:0:
146,95,181103,5,0,0:0:0:0:
308,80,181252,2,0,P|364:88|404:32,1,129.999994049073
244,168,181549,2,0,L|148:316,1,129.999994049073
146,95,181846,1,0,0:0:0:0:
340,224,181994,1,0,0:0:0:0:
76,180,182143,6,0,L|205:300,1,129.999994049073
146,95,182440,1,0,0:0:0:0:
1,272,182588,1,0,0:0:0:0:
228,336,182737,6,0,P|300:348|360:328,1,129.999994049073
448,268,183034,2,0,P|404:228|344:228,1,100
228,224,183331,2,0,P|264:148|380:120,1,200
448,268,183776,1,0,0:0:0:0:
200,292,183924,2,0,P|112:264|44:288,1,129.999994049073
284,296,184221,2,0,P|289:232|255:178,1,129.999994049073
108,176,184518,1,0,0:0:0:0:
240,356,184667,1,0,0:0:0:0:
404,232,184815,6,0,L|336:92,1,129.999994049073
248,48,185112,2,0,L|220:200,1,129.999994049073
152,304,185409,1,0,0:0:0:0:
152,304,185558,1,0,0:0:0:0:
284,196,185706,1,0,0:0:0:0:
284,196,185855,1,0,0:0:0:0:
64,232,186003,6,0,B|84:148|84:148|176:120,1,129.999994049073
128,56,186300,2,0,B|128:204,1,129.999994049073
152,304,186597,1,0,0:0:0:0:
256,236,186746,1,0,0:0:0:0:
364,176,186894,6,0,L|364:306,1,129.999994049073
296,80,187191,1,0,0:0:0:0:
188,144,187340,1,0,0:0:0:0:
72,204,187488,6,0,L|72:64,1,129.999994049073
28,260,187785,2,0,P|80:276|136:228,1,100
228,144,188081,1,0,0:0:0:0:
348,248,188230,1,0,0:0:0:0:
380,100,188379,1,0,0:0:0:0:
228,144,188528,1,0,0:0:0:0:
112,264,188676,2,0,P|40:284|-16:344,1,129.999994049073
120,164,188973,2,0,P|196:140|260:84,1,129.999994049073
360,28,189270,5,0,0:0:0:0:
452,144,189418,1,0,0:0:0:0:
300,172,189567,1,0,0:0:0:0:
332,100,189715,1,0,0:0:0:0:
432,220,189864,1,0,0:0:0:0:
268,244,190012,1,0,0:0:0:0:
408,292,190161,1,0,0:0:0:0:
256,108,190309,1,0,0:0:0:0:
103,195,190458,6,0,L|47:327,1,129.999994049073
176,316,190755,2,0,L|344:248,1,129.999994049073
140,86,191052,2,0,P|124:182|64:202,1,129.999994049073
56,120,191349,1,0,0:0:0:0:
232,168,191497,1,0,0:0:0:0:
195,277,191646,6,0,P|189:214|231:167,1,129.999994049073
276,248,191943,1,0,0:0:0:0:
112,180,192091,1,0,0:0:0:0:
316,72,192240,6,0,P|392:120|392:184,1,129.999994049073
232,160,192537,2,0,B|207:118|207:118|144:140,1,100
56,236,192834,2,0,P|96:316|224:316,1,200
352,168,193279,1,0,0:0:0:0:
176,56,193428,2,0,B|108:96|108:96|116:168,1,129.999994049073
192,336,193725,2,0,B|276:332|276:332|300:272,1,129.999994049073
304,76,194021,5,0,0:0:0:0:
344,348,194170,1,0,0:0:0:0:
448,192,194318,1,0,0:0:0:0:
176,248,194467,1,0,0:0:0:0:
392,152,194615,5,0,0:0:0:0:
212,112,194764,1,0,0:0:0:0:
360,216,194912,1,0,0:0:0:0:
136,260,195061,1,0,0:0:0:0:
336,140,195209,1,0,0:0:0:0:
116,88,195358,1,0,0:0:0:0:
288,228,195506,6,0,P|264:288|196:324,1,129.999994049073
208,144,195803,2,0,L|348:144,1,129.999994049073
416,284,196100,1,0,0:0:0:0:
200,236,196249,1,0,0:0:0:0:
273,31,196397,6,0,L|343:152,1,129.999994049073
255,281,196694,1,0,0:0:0:0:
189,70,196843,1,0,0:0:0:0:
336,148,196991,6,0,P|264:184|208:172,1,129.999994049073
72,284,197288,2,0,B|188:284|292:192|184:84|76:192|188:284|316:284,1,400
448,264,198031,1,0,0:0:0:0:
356,124,198179,2,0,P|272:144|232:76,1,129.999994049073
128,68,198476,1,0,0:0:0:0:
128,68,198625,1,0,0:0:0:0:
28,188,198773,2,0,B|56:224|56:224|160:224,1,129.999994049073
392,76,199070,5,0,0:0:0:0:
256,264,199218,1,0,0:0:0:0:
392,320,199367,1,0,0:0:0:0:
256,128,199515,1,0,0:0:0:0:
148,328,199664,1,0,0:0:0:0:
352,196,199812,1,0,0:0:0:0:
148,48,199961,6,0,P|72:64|20:120,2,129.999994049073
