osu file format v14

[General]
AudioFilename: audio.mp3
AudioLeadIn: 0
PreviewTime: 38546
Countdown: 1
SampleSet: Soft
StackLeniency: 0.7
Mode: 0
LetterboxInBreaks: 0
WidescreenStoryboard: 0

[Editor]
Bookmarks: 102510
DistanceSpacing: 0.6
BeatDivisor: 4
GridSize: 4
TimelineZoom: 1.5

[Metadata]
Title:Say Goodbye (speed up)
TitleUnicode:Say Goodbye (speed up)
Artist:Krewella
ArtistUnicode:Krewella
Creator:-Smine-
Version:The end
Source:
Tags:eletronic remix
BeatmapID:1808439
BeatmapSetID:864777

[Difficulty]
HPDrainRate:5
CircleSize:4
OverallDifficulty:8
ApproachRate:9.3
SliderMultiplier:2.1
SliderTickRate:1

[Events]
//Background and Video events
0,0,"Anime-Girl-Wallpapers-Images-Desktop.jpg",0,0
//Break Periods
2,79587,87992
//Storyboard Layer 0 (Background)
//Storyboard Layer 1 (Fail)
//Storyboard Layer 2 (Pass)
//Storyboard Layer 3 (Foreground)
//Storyboard Sound Samples

[TimingPoints]
108,300.3003003003,4,2,0,30,1,0
8966,-200,4,2,0,30,0,0
9717,-100,4,2,0,30,0,0
19327,-100,4,2,0,30,0,0
37345,-250,4,2,0,30,0,0
38546,-66.6666666666667,4,2,0,30,0,1
46954,-250,4,2,0,30,0,1
47851,-66.6666666666667,4,2,0,30,0,1
57765,-66.6666666666667,4,2,0,30,0,0
60168,-66.6666666666667,4,2,0,30,0,1
60768,-100,4,2,0,30,0,1
61369,-66.6666666666667,4,2,0,30,0,1
63171,-100,4,2,0,30,0,1
63771,-66.6666666666667,4,2,0,30,0,1
65573,-100,4,2,0,30,0,1
66174,-66.6666666666667,4,2,0,30,0,1
79387,-66.6666666666667,4,2,0,30,0,0
88996,-100,4,2,0,30,0,0
97405,-250,4,2,0,30,0,0
98606,-66.6666666666667,4,2,0,30,0,1

[Colours]
Combo1 : 193,193,0
Combo2 : 128,57,82
Combo3 : 148,194,120
Combo4 : 0,106,157

[HitObjects]
78,274,4912,6,0,L|224:259,1,105,0|0,2:0|2:0,2:0:0:0:
330,246,5363,1,0,2:0:0:0:
81,265,6114,5,0,2:0:0:0:
331,237,6564,1,0,2:0:0:0:
84,255,7315,5,0,2:0:0:0:
84,255,7765,1,0,2:0:0:0:
87,246,8516,6,0,L|233:231,1,105,0|0,2:0|2:0,2:0:0:0:
292,225,8816,1,0,2:0:0:0:
393,198,8966,2,0,P|355:143|232:140,1,183.75,0|0,2:0|2:0,2:0:0:0:
74,88,9717,5,0,2:0:0:0:
231,78,9867,1,0,2:0:0:0:
155,213,10017,2,0,P|101:230|48:220,1,105,0|0,2:0|2:0,2:0:0:0:
265,256,10318,2,0,P|319:239|372:249,2,105,0|0|0,2:0|2:0|2:0,2:0:0:0:
466,295,10768,1,0,2:0:0:0:
322,327,10918,6,0,B|322:216|322:216|355:168,1,157.5,0|0,2:0|2:0,2:0:0:0:
375,144,11219,1,0,2:0:0:0:
207,171,11369,1,0,2:0:0:0:
439,74,11519,2,0,B|335:19|335:105|210:60,1,210,0|0,2:0|2:0,2:0:0:0:
95,43,11969,1,0,2:0:0:0:
207,171,12120,6,0,P|159:235|90:247,1,105,0|0,2:0|2:0,2:0:0:0:
38,255,12420,1,0,2:0:0:0:
94,137,12570,1,0,2:0:0:0:
219,300,12720,2,0,P|283:348|295:417,2,105,0|0|0,2:0|2:0|2:0,2:0:0:0:
430,250,13171,1,0,2:0:0:0:
346,219,13321,6,0,P|355:298|409:343,1,105,0|0,2:0|2:0,2:0:0:0:
486,167,13621,1,0,2:0:0:0:
487,55,13771,2,0,L|330:55,1,157.5,0|0,2:0|2:0,2:0:0:0:
227,57,14071,1,0,2:0:0:0:
73,145,14222,2,0,P|102:139|134:145,1,52.5,0|0,2:0|2:0,2:0:0:0:
182,232,14372,2,0,P|154:237|129:232,1,52.5,0|0,2:0|2:0,2:0:0:0:
179,347,14522,6,0,P|226:318|316:337,1,105,0|0,2:0|2:0,2:0:0:0:
451,363,14822,2,0,P|395:363|327:302,1,105,0|0,2:0|2:0,2:0:0:0:
300,152,15123,2,0,P|328:199|309:289,2,105,0|0|0,2:0|2:0|2:0,2:0:0:0:
247,55,15573,1,0,2:0:0:0:
21,153,15723,6,0,L|138:153,1,105,0|0,2:0|2:0,2:0:0:0:
212,153,16023,1,0,2:0:0:0:
49,273,16174,2,0,L|166:273,1,105,0|0,2:0|2:0,2:0:0:0:
237,274,16474,1,0,2:0:0:0:
241,50,16624,1,0,2:0:0:0:
241,50,16924,6,0,P|185:49|139:90,1,105,0|0,2:0|2:0,2:0:0:0:
101,163,17225,1,0,2:0:0:0:
393,162,17375,2,0,P|349:134|298:137,1,105,0|0,2:0|2:0,2:0:0:0:
246,210,17676,1,0,2:0:0:0:
475,302,17825,2,0,B|398:280|398:280|318:302,1,157.5,0|0,2:0|2:0,2:0:0:0:
194,384,18126,6,0,P|138:354|122:299,1,105,0|0,2:0|2:0,2:0:0:0:
98,234,18426,1,0,2:0:0:0:
181,187,18576,2,0,P|135:162|114:115,1,105,0|0,2:0|2:0,2:0:0:0:
102,38,18876,1,0,2:0:0:0:
307,84,19026,2,0,L|166:109,1,105,0|0,2:0|2:0,2:0:0:0:
329,190,19327,6,0,L|438:170,1,105,0|0,2:0|2:0,2:0:0:0:
437,319,19627,2,0,L|328:299,1,105,0|0,2:0|2:0,2:0:0:0:
217,351,19927,2,0,L|113:332,2,105,0|0|0,2:0|2:0|2:0,2:0:0:0:
17,319,20378,1,0,2:0:0:0:
84,188,20528,6,0,P|75:122|90:75,1,105,0|0,2:0|2:0,2:0:0:0:
276,170,20828,2,0,P|285:236|270:283,1,105,0|0,2:0|2:0,2:0:0:0:
236,61,21129,2,0,B|346:15|346:141|473:78,1,210,0|0,2:0|2:0,2:0:0:0:
406,2,21579,1,0,2:0:0:0:
409,231,21729,6,0,P|350:197|332:141,1,105,0|0,2:0|2:0,2:0:0:0:
426,328,22029,2,0,P|485:294|503:238,1,105,0|0,2:0|2:0,2:0:0:0:
322,303,22330,2,0,P|263:337|245:393,1,105,0|0,2:0|2:0,2:0:0:0:
134,358,22630,1,0,2:0:0:0:
205,253,22780,1,0,2:0:0:0:
74,253,22930,6,0,B|74:196|74:196|95:153|95:153|95:100,1,157.5,0|0,2:0|2:0,2:0:0:0:
96,12,23231,1,0,2:0:0:0:
214,64,23381,2,0,B|321:71|321:71|432:35,1,210,0|0,2:0|2:0,2:0:0:0:
512,17,23831,1,0,2:0:0:0:
508,155,23981,1,0,2:0:0:0:
380,178,24132,6,0,P|410:230|457:258,1,105,0|0,2:0|2:0,2:0:0:0:
327,359,24432,2,0,P|306:311|308:259,1,105,0|0,2:0|2:0,2:0:0:0:
209,224,24732,2,0,P|182:268|177:319,1,105,0|0,2:0|2:0,2:0:0:0:
110,182,25032,2,0,P|141:139|187:115,1,105,0|0,2:0|2:0,2:0:0:0:
303,125,25333,5,0,2:0:0:0:
203,34,25483,1,0,2:0:0:0:
349,26,25633,1,0,2:0:0:0:
182,27,25783,1,0,2:0:0:0:
298,144,25933,2,0,P|245:172|184:170,1,105,0|0,2:0|2:0,2:0:0:0:
365,233,26234,2,0,P|417:261|478:259,1,105,0|0,2:0|2:0,2:0:0:0:
215,350,26534,6,0,B|175:309|175:309|172:261,1,105,0|0,2:0|2:0,2:0:0:0:
170,171,26834,1,0,2:0:0:0:
344,224,26984,2,0,B|384:183|384:183|390:108,1,105,0|0,2:0|2:0,2:0:0:0:
378,40,27284,1,0,2:0:0:0:
172,44,27435,2,0,P|239:70|281:133,1,105,0|0,2:0|2:0,2:0:0:0:
157,162,27735,6,0,P|90:136|48:73,1,105,0|0,2:0|2:0,2:0:0:0:
14,10,28035,1,0,2:0:0:0:
14,207,28186,1,0,2:0:0:0:
256,192,28261,12,0,28786,2:0:0:0:
133,265,28936,5,0,2:0:0:0:
213,339,29086,1,0,2:0:0:0:
281,255,29237,1,0,2:0:0:0:
201,179,29387,1,0,2:0:0:0:
47,287,29537,2,0,B|102:298|102:298|164:278,1,105,0|0,2:0|2:0,2:0:0:0:
292,145,29837,2,0,B|281:200|281:200|301:262,1,105,0|0,2:0|2:0,2:0:0:0:
396,339,30138,5,0,2:0:0:0:
387,192,30288,1,0,2:0:0:0:
376,349,30438,1,0,2:0:0:0:
496,253,30588,1,0,2:0:0:0:
261,298,30738,1,0,2:0:0:0:
479,260,30888,1,0,2:0:0:0:
280,128,31038,2,0,B|225:117|225:117|163:137,1,105,0|0,2:0|2:0,2:0:0:0:
65,258,31339,5,0,2:0:0:0:
251,214,31489,1,0,2:0:0:0:
183,337,31639,1,0,2:0:0:0:
145,189,31789,1,0,2:0:0:0:
275,294,31939,1,0,2:0:0:0:
80,147,32089,1,0,2:0:0:0:
294,306,32240,2,0,B|316:251|316:251|382:207,1,105,0|0,2:0|2:0,2:0:0:0:
436,124,32540,5,0,2:0:0:0:
261,70,32690,1,0,2:0:0:0:
461,134,32840,1,0,2:0:0:0:
238,62,32990,1,0,2:0:0:0:
308,221,33141,1,0,2:0:0:0:
374,36,33291,1,0,2:0:0:0:
298,246,33441,2,0,B|241:230|241:230|207:176,1,105,0|0,2:0|2:0,2:0:0:0:
46,92,33741,6,0,L|155:92,1,105,0|0,2:0|2:0,2:0:0:0:
106,316,34041,2,0,L|215:316,1,105,0|0,2:0|2:0,2:0:0:0:
85,73,34342,2,0,L|194:73,1,105,0|0,2:0|2:0,2:0:0:0:
245,335,34642,2,0,L|136:335,1,105,0|0,2:0|2:0,2:0:0:0:
217,133,34942,6,0,B|211:81|211:81|257:24,1,105,0|0,2:0|2:0,2:0:0:0:
340,258,35243,2,0,B|346:310|346:310|300:367,1,105,0|0,2:0|2:0,2:0:0:0:
207,121,35543,2,0,B|201:69|201:69|247:12,1,105,0|0,2:0|2:0,2:0:0:0:
305,373,35844,2,0,B|338:332|338:332|332:280,1,105,0|0,2:0|2:0,2:0:0:0:
171,303,36144,5,0,2:0:0:0:
264,201,36294,1,0,2:0:0:0:
90,155,36444,1,0,2:0:0:0:
185,317,36594,1,0,2:0:0:0:
321,156,36744,1,0,2:0:0:0:
59,136,36894,1,0,2:0:0:0:
261,364,37044,1,0,2:0:0:0:
246,38,37195,1,0,2:0:0:0:
122,331,37345,6,0,P|166:262|64:309,1,294,0|0,2:0|2:0,2:0:0:0:
249,345,38546,6,0,B|331:346|331:346|398:286,1,157.500006008148,0|0,2:0|2:0,2:0:0:0:
350,143,38846,1,0,2:0:0:0:
194,208,38996,2,0,B|112:209|112:209|45:149,1,157.500006008148,0|0,2:0|2:0,2:0:0:0:
272,27,39297,1,0,2:0:0:0:
180,219,39447,1,0,2:0:0:0:
375,131,39597,1,0,2:0:0:0:
403,354,39747,6,0,P|321:269|321:216,1,157.500006008148,0|0,2:0|2:0,2:0:0:0:
141,76,40047,2,0,P|223:161|223:214,1,157.500006008148,0|0,2:0|2:0,2:0:0:0:
191,303,40348,1,0,2:0:0:0:
330,124,40498,1,0,2:0:0:0:
86,178,40648,1,0,2:0:0:0:
428,258,40798,1,0,2:0:0:0:
126,361,40948,6,0,B|106:276|106:276|169:219,1,157.500006008148,0|0,2:0|2:0,2:0:0:0:
272,149,41249,1,0,2:0:0:0:
55,105,41399,1,0,2:0:0:0:
361,68,41549,2,0,B|292:33|292:33|206:33,1,157.500006008148,0|0,2:0|2:0,2:0:0:0:
224,248,41849,2,0,B|293:283|293:283|379:283,1,157.500006008148,0|0,2:0|2:0,2:0:0:0:
189,37,42150,5,0,2:0:0:0:
262,316,42300,1,0,2:0:0:0:
361,68,42450,1,0,2:0:0:0:
261,334,42600,1,0,2:0:0:0:
197,158,42750,1,0,2:0:0:0:
261,352,42900,1,0,2:0:0:0:
343,237,43050,1,0,2:0:0:0:
126,295,43201,1,0,2:0:0:0:
318,137,43351,6,0,B|221:74|221:74|96:87,1,236.250009012223,0|0,2:0|2:0,2:0:0:0:
54,92,43651,1,0,2:0:0:0:
262,240,43801,2,0,B|198:187|198:187|104:197,1,157.500006008148,0|0,2:0|2:0,2:0:0:0:
169,302,44101,1,0,2:0:0:0:
212,61,44252,1,0,2:0:0:0:
300,296,44402,1,0,2:0:0:0:
381,77,44552,6,0,P|300:95|269:157,1,157.500006008148,0|0,2:0|2:0,2:0:0:0:
385,317,44852,2,0,P|466:299|497:237,1,157.500006008148,0|0,2:0|2:0,2:0:0:0:
266,196,45153,1,0,2:0:0:0:
503,197,45303,1,0,2:0:0:0:
356,309,45453,1,0,2:0:0:0:
410,82,45603,1,0,2:0:0:0:
311,81,45753,6,0,B|274:66|274:66|143:66,1,157.500006008148,0|0,2:0|2:0,2:0:0:0:
46,67,46053,1,0,2:0:0:0:
311,101,46204,1,0,2:0:0:0:
63,205,46354,2,0,B|100:190|100:190|231:190,1,157.500006008148,0|0,2:0|2:0,2:0:0:0:
328,191,46654,1,0,2:0:0:0:
63,225,46805,1,0,2:0:0:0:
338,326,46954,6,0,B|274:325|274:325|222:254|129:284,1,210,0|0,2:0|2:0,2:0:0:0:
187,362,47855,1,0,2:0:0:0:
199,316,47930,1,0,2:0:0:0:
208,269,48005,1,0,2:0:0:0:
220,223,48080,1,0,2:0:0:0:
230,176,48156,6,0,P|139:159|80:102,1,157.500006008148,0|0,2:0|2:0,2:0:0:0:
279,53,48456,1,0,2:0:0:0:
242,190,48606,2,0,P|151:207|92:264,1,157.500006008148,0|0,2:0|2:0,2:0:0:0:
296,278,48906,1,0,2:0:0:0:
200,47,49056,1,0,2:0:0:0:
393,196,49207,1,0,2:0:0:0:
97,122,49357,6,0,L|285:122,1,157.500006008148,0|0,2:0|2:0,2:0:0:0:
372,265,49657,2,0,L|184:265,1,157.500006008148,0|0,2:0|2:0,2:0:0:0:
261,51,49957,1,0,2:0:0:0:
376,197,50107,1,0,2:0:0:0:
265,339,50258,1,0,2:0:0:0:
151,197,50408,1,0,2:0:0:0:
284,62,50558,6,0,P|340:116|343:209,1,157.500006008148,0|0,2:0|2:0,2:0:0:0:
168,272,50858,1,0,2:0:0:0:
336,318,51008,2,0,P|411:299|460:220,1,157.500006008148,0|0,2:0|2:0,2:0:0:0:
230,157,51309,1,0,2:0:0:0:
446,98,51459,2,0,B|343:98|343:98|272:52,1,157.500006008148,0|0,2:0|2:0,2:0:0:0:
94,177,51759,6,0,B|197:177|197:177|268:131,1,157.500006008148,0|0,2:0|2:0,2:0:0:0:
329,254,52059,1,0,2:0:0:0:
163,99,52210,1,0,2:0:0:0:
345,149,52360,1,0,2:0:0:0:
152,296,52510,1,0,2:0:0:0:
250,68,52660,1,0,2:0:0:0:
253,347,52810,1,0,2:0:0:0:
340,316,52960,6,0,B|358:228|358:228|282:245,1,157.500006008148,0|0,2:0|2:0,2:0:0:0:
158,319,53261,2,0,B|140:231|140:231|216:248,1,157.500006008148,0|0,2:0|2:0,2:0:0:0:
347,298,53561,2,0,B|365:210|365:210|281:208,1,157.500006008148,0|0,2:0|2:0,2:0:0:0:
154,301,53862,2,0,B|136:213|136:213|212:211,1,157.500006008148,0|0,2:0|2:0,2:0:0:0:
350,281,54162,6,0,B|368:193|368:193|283:151,1,157.500006008148,0|0,2:0|2:0,2:0:0:0:
151,282,54462,2,0,B|133:194|133:194|218:152,1,157.500006008148,0|0,2:0|2:0,2:0:0:0:
352,263,54762,2,0,B|370:175|370:175|314:87,1,157.500006008148,0|0,2:0|2:0,2:0:0:0:
148,263,55062,2,0,B|130:175|130:175|186:87,1,157.500006008148,0|0,2:0|2:0,2:0:0:0:
354,46,55363,5,0,2:0:0:0:
157,42,55513,1,0,2:0:0:0:
336,140,55663,1,0,2:0:0:0:
194,143,55813,1,0,2:0:0:0:
397,243,55963,1,0,2:0:0:0:
127,241,56114,1,0,2:0:0:0:
348,348,56264,1,0,2:0:0:0:
194,347,56414,1,0,2:0:0:0:
392,65,56564,5,0,2:0:0:0:
203,323,56714,1,0,2:0:0:0:
120,112,56864,1,0,2:0:0:0:
342,335,57014,1,0,2:0:0:0:
105,242,57165,1,0,2:0:0:0:
407,166,57315,1,0,2:0:0:0:
94,102,57465,1,0,2:0:0:0:
435,177,57615,1,0,2:0:0:0:
256,195,57765,5,0,2:0:0:0:
290,325,58966,6,0,B|274:310|274:310|259:318|259:318|263:302|263:302|241:307|241:307|251:291|251:291|225:295|225:295|244:277|244:277|213:276|213:276|238:257|238:257|202:255|202:255|231:240|231:240|194:233|194:233|229:221|229:221|190:213|190:213|226:203|226:203|186:189|186:189|229:186|229:186|184:158|184:158|232:164|232:164|191:129|191:129|237:145|237:145|205:95|205:95|251:121|251:121|222:69|222:69|293:112,1,945.000036048891,0|0,2:0|2:0,2:0:0:0:
91,73,60168,6,0,P|56:154|74:232,1,157.500006008148,0|0,2:0|2:0,2:0:0:0:
303,228,60468,2,0,P|232:167|146:167,1,157.500006008148,0|0,2:0|2:0,2:0:0:0:
265,323,60768,2,0,P|232:351|217:391,1,52.5,0|0,2:0|2:0,2:0:0:0:
368,293,60918,2,0,P|403:268|421:222,1,52.5,0|0,2:0|2:0,2:0:0:0:
248,288,61068,1,0,2:0:0:0:
421,225,61219,1,0,2:0:0:0:
348,101,61369,6,0,B|293:44|293:44|213:74,1,157.500006008148,0|0,2:0|2:0,2:0:0:0:
66,158,61669,2,0,B|121:215|121:215|201:185,1,157.500006008148,0|0,2:0|2:0,2:0:0:0:
236,166,61894,1,0,2:0:0:0:
278,146,61969,1,0,2:0:0:0:
146,103,62120,1,0,2:0:0:0:
243,273,62270,1,0,2:0:0:0:
292,54,62420,1,0,2:0:0:0:
382,226,62570,6,0,B|386:190|433:184|433:184|467:145|431:57,1,157.500006008148,0|0,2:0|2:0,2:0:0:0:
295,370,62870,2,0,B|291:334|244:328|244:328|210:289|246:201,1,157.500006008148,0|0,2:0|2:0,2:0:0:0:
85,129,63171,2,0,P|110:94|155:81,1,52.5,0|0,2:0|2:0,2:0:0:0:
234,118,63321,2,0,P|208:151|176:157,1,52.5,0|0,2:0|2:0,2:0:0:0:
74,157,63471,1,0,2:0:0:0:
248,88,63622,1,0,2:0:0:0:
148,210,63771,6,0,P|105:258|107:350,2,157.500006008148,0|0|0,2:0|2:0|2:0,2:0:0:0:
369,197,64222,1,0,2:0:0:0:
198,298,64372,1,0,2:0:0:0:
385,189,64522,1,0,2:0:0:0:
204,69,64672,1,0,2:0:0:0:
258,183,64822,1,0,2:0:0:0:
84,68,64972,6,0,B|118:131|70:179|70:179|96:204|96:204|55:278|96:356,1,315.000012016297,0|0,2:0|2:0,2:0:0:0:
185,273,65423,1,0,2:0:0:0:
325,220,65573,2,0,P|303:192|251:171,1,52.5,0|0,2:0|2:0,2:0:0:0:
342,312,65723,2,0,P|362:347|406:365,1,52.5,0|0,2:0|2:0,2:0:0:0:
352,212,65873,1,0,2:0:0:0:
400,375,66024,1,0,2:0:0:0:
428,256,66174,6,0,B|437:211|437:211|423:175|423:175|461:143|435:58,1,157.500006008148,0|0,2:0|2:0,2:0:0:0:
241,245,66474,2,0,B|234:197|234:197|246:164|246:164|208:132|234:47,1,157.500006008148,0|0,2:0|2:0,2:0:0:0:
221,53,66699,1,0,2:0:0:0:
217,6,66774,1,0,2:0:0:0:
327,98,66924,1,0,2:0:0:0:
126,192,67074,1,0,2:0:0:0:
119,33,67225,1,0,2:0:0:0:
352,87,67375,6,0,B|374:163|374:163|332:254,1,157.500006008148,0|0,2:0|2:0,2:0:0:0:
276,334,67675,1,0,2:0:0:0:
453,138,67825,2,0,B|414:207|414:207|320:241,1,157.500006008148,0|0,2:0|2:0,2:0:0:0:
223,263,68125,1,0,2:0:0:0:
488,244,68276,2,0,B|412:265|412:265|321:224,1,157.500006008148,0|0,2:0|2:0,2:0:0:0:
235,173,68576,6,0,P|136:163|96:95,1,157.500006008148,0|0,2:0|2:0,2:0:0:0:
220,289,68876,2,0,P|319:299|359:367,1,157.500006008148,0|0,2:0|2:0,2:0:0:0:
116,276,69177,1,0,2:0:0:0:
212,84,69327,1,0,2:0:0:0:
104,299,69477,1,0,2:0:0:0:
222,65,69627,1,0,2:0:0:0:
46,158,69777,6,0,B|137:158|137:158|248:230|248:230|354:230,1,315.000012016297,0|0,2:0|2:0,2:0:0:0:
455,142,70228,1,0,2:0:0:0:
455,142,70303,1,0,2:0:0:0:
455,142,70378,2,0,P|372:142|317:97,1,157.500006008148,0|0,2:0|2:0,2:0:0:0:
85,112,70678,1,0,2:0:0:0:
287,231,70828,1,0,2:0:0:0:
131,350,70978,6,0,P|151:252|209:209,2,157.500006008148,0|0|0,2:0|2:0|2:0,2:0:0:0:
200,130,71429,1,0,2:0:0:0:
245,141,71504,1,0,2:0:0:0:
290,153,71579,1,0,2:0:0:0:
335,166,71654,1,0,2:0:0:0:
379,180,71729,1,0,2:0:0:0:
236,317,71879,1,0,2:0:0:0:
423,333,72029,1,0,2:0:0:0:
398,159,72180,6,0,B|338:114|351:26|351:26|237:68|180:3,1,315.000012016297,0|0,2:0|2:0,2:0:0:0:
54,119,72630,1,0,2:0:0:0:
54,119,72705,1,0,2:0:0:0:
54,119,72780,2,0,B|38:198|38:198|106:270,1,157.500006008148,0|0,2:0|2:0,2:0:0:0:
329,104,73080,1,0,2:0:0:0:
142,164,73231,1,0,2:0:0:0:
306,298,73381,6,0,B|369:345|369:345|463:314,2,157.500006008148,0|0|0,2:0|2:0|2:0,2:0:0:0:
214,137,73831,1,0,2:0:0:0:
210,184,73906,1,0,2:0:0:0:
205,230,73981,1,0,2:0:0:0:
201,277,74056,1,0,2:0:0:0:
196,324,74132,1,0,2:0:0:0:
307,199,74282,1,0,2:0:0:0:
86,315,74432,1,0,2:0:0:0:
50,142,74582,6,0,B|103:110|103:110|126:115|126:115|139:72|193:47,1,157.500006008148,0|0,2:0|2:0,2:0:0:0:
319,6,74882,1,0,2:0:0:0:
409,132,75032,1,0,2:0:0:0:
409,132,75107,1,0,2:0:0:0:
409,132,75183,2,0,P|443:202|373:285,1,157.500006008148,0|0,2:0|2:0,2:0:0:0:
280,191,75483,1,0,2:0:0:0:
170,289,75633,1,0,2:0:0:0:
178,100,75783,6,0,B|216:60|216:60|333:77,2,157.500006008148,0|0|0,2:0|2:0|2:0,2:0:0:0:
410,93,76234,1,0,2:0:0:0:
405,139,76309,1,0,2:0:0:0:
400,185,76384,1,0,2:0:0:0:
395,231,76459,1,0,2:0:0:0:
389,277,76534,1,0,2:0:0:0:
390,89,76684,1,0,2:0:0:0:
249,198,76834,1,0,2:0:0:0:
70,152,76984,6,0,B|116:83|116:83|201:83,2,157.500006008148,0|0|0,2:0|2:0|2:0,2:0:0:0:
222,269,77435,2,0,B|268:338|268:338|353:338,2,157.500006008148,0|0|0,2:0|2:0|2:0,2:0:0:0:
436,98,77885,2,0,B|390:167|390:167|305:167,1,157.500006008148,0|0,2:0|2:0,2:0:0:0:
195,255,78186,5,0,2:0:0:0:
294,97,78336,1,0,2:0:0:0:
300,258,78486,1,0,2:0:0:0:
190,96,78636,1,0,2:0:0:0:
388,273,78786,1,0,2:0:0:0:
89,219,78936,1,0,2:0:0:0:
406,119,79086,1,0,2:0:0:0:
79,329,79237,1,0,2:0:0:0:
283,76,79387,5,0,2:0:0:0:
91,117,88546,5,0,2:0:0:0:
382,54,88696,1,0,2:0:0:0:
382,54,88996,6,0,B|361:103|361:103|377:180,1,105,0|0,2:0|2:0,2:0:0:0:
416,253,89297,1,0,2:0:0:0:
462,128,89447,1,0,2:0:0:0:
307,238,89597,2,0,B|280:223|280:223|183:223,1,105,0|0,2:0|2:0,2:0:0:0:
83,118,89897,2,0,B|110:133|110:133|206:133,1,105,0|0,2:0|2:0,2:0:0:0:
250,24,90198,6,0,P|212:74|212:130,1,105,0|0,2:0|2:0,2:0:0:0:
282,255,90498,1,0,2:0:0:0:
355,85,90648,1,0,2:0:0:0:
275,266,90798,1,0,2:0:0:0:
462,233,90948,1,0,2:0:0:0:
269,278,91098,2,0,L|154:278,1,105,0|0,2:0|2:0,2:0:0:0:
54,114,91399,6,0,B|68:169|68:169|196:169,1,157.5,0|0,2:0|2:0,2:0:0:0:
210,167,91699,1,0,2:0:0:0:
353,84,91849,1,0,2:0:0:0:
189,268,91999,1,0,2:0:0:0:
336,186,92150,2,0,P|387:192|430:222,2,105,0|0|0,2:0|2:0|2:0,2:0:0:0:
290,375,92600,6,0,L|346:286,1,105,0|0,2:0|2:0,2:0:0:0:
147,202,92900,2,0,L|202:291,1,105,0|0,2:0|2:0,2:0:0:0:
337,84,93201,1,0,2:0:0:0:
187,86,93351,1,0,2:0:0:0:
353,86,93501,2,0,L|353:141,1,52.5,0|0,2:0|2:0,2:0:0:0:
447,223,93651,2,0,L|447:170,1,52.5,0|0,2:0|2:0,2:0:0:0:
348,256,93801,6,0,B|292:256|292:256|267:321,1,105,0|0,2:0|2:0,2:0:0:0:
105,278,94101,1,0,2:0:0:0:
259,168,94252,1,0,2:0:0:0:
103,58,94402,1,0,2:0:0:0:
89,279,94552,2,0,B|89:363|89:363|123:392,2,105,0|0|0,2:0|2:0|2:0,2:0:0:0:
271,72,95002,6,0,P|282:125|223:186,1,105,0|0,2:0|2:0,2:0:0:0:
323,320,95303,2,0,P|312:267|371:206,1,105,0|0,2:0|2:0,2:0:0:0:
130,321,95603,1,0,2:0:0:0:
393,283,95753,1,0,2:0:0:0:
168,174,95903,1,0,2:0:0:0:
415,283,96053,1,0,2:0:0:0:
228,282,96204,5,0,2:0:0:0:
76,185,96354,1,0,2:0:0:0:
275,87,96504,1,0,2:0:0:0:
262,346,96654,1,0,2:0:0:0:
105,274,96804,1,0,2:0:0:0:
142,53,96954,1,0,2:0:0:0:
374,166,97104,1,0,2:0:0:0:
19,247,97255,1,0,2:0:0:0:
352,120,97405,6,0,P|418:193|321:163,1,252,0|0,2:0|2:0,2:0:0:0:
88,176,98606,6,0,B|100:99|100:99|172:65,1,157.500006008148,0|0,2:0|2:0,2:0:0:0:
317,41,98906,1,0,2:0:0:0:
363,204,99056,2,0,B|352:282|352:282|280:316,1,157.500006008148,0|0,2:0|2:0,2:0:0:0:
135,276,99357,1,0,2:0:0:0:
362,190,99507,1,0,2:0:0:0:
134,263,99657,1,0,2:0:0:0:
255,342,99807,6,0,B|214:308|214:308|214:170,1,157.500006008148,0|0,2:0|2:0,2:0:0:0:
245,48,100107,2,0,B|286:82|286:82|286:220,1,157.500006008148,0|0,2:0|2:0,2:0:0:0:
133,337,100408,1,0,2:0:0:0:
403,253,100558,1,0,2:0:0:0:
131,176,100708,1,0,2:0:0:0:
371,95,100858,1,0,2:0:0:0:
154,80,101008,6,0,P|78:107|25:240,1,157.500006008148,0|0,2:0|2:0,2:0:0:0:
98,296,101309,1,0,2:0:0:0:
170,75,101459,1,0,2:0:0:0:
261,252,101609,2,0,P|337:225|390:92,1,157.500006008148,0|0,2:0|2:0,2:0:0:0:
293,33,101910,1,0,2:0:0:0:
275,260,102060,1,0,2:0:0:0:
357,362,102210,6,0,L|181:329,1,157.500006008148,0|0,2:0|2:0,2:0:0:0:
128,120,102510,2,0,L|304:153,1,157.500006008148,0|0,2:0|2:0,2:0:0:0:
231,337,102810,1,0,2:0:0:0:
102,216,102960,1,0,2:0:0:0:
404,167,103111,1,0,2:0:0:0:
