osu file format v14

[General]
AudioFilename: audio.mp3
AudioLeadIn: 0
PreviewTime: 4158
Countdown: 0
SampleSet: Soft
StackLeniency: 0.2
Mode: 0
LetterboxInBreaks: 0
WidescreenStoryboard: 1

[Editor]
DistanceSpacing: 1.1
BeatDivisor: 6
GridSize: 16
TimelineZoom: 2.999999

[Metadata]
Title:Rise And Fall (Speed Up Ver.)
TitleUnicode:Rise And Fall (Speed Up Ver.)
Artist:Krewella
ArtistUnicode:Krewella
Creator:DominiGG
Version:Yusomi's wtf am i do
Source:
Tags:high bpm shit krewella kozak - Sana - -NeBu- Akenoi Yusomi fartownik ChuuritsuTv
BeatmapID:1774891
BeatmapSetID:848391

[Difficulty]
HPDrainRate:4.8
CircleSize:4
OverallDifficulty:9.2
ApproachRate:9.7
SliderMultiplier:2
SliderTickRate:1

[Events]
//Background and Video events
0,0,"cute.png",0,0
//Break Periods
//Storyboard Layer 0 (Background)
//Storyboard Layer 1 (Fail)
//Storyboard Layer 2 (Pass)
//Storyboard Layer 3 (Foreground)
//Storyboard Sound Samples

[TimingPoints]
0,378.000378000378,4,2,1,50,1,0
0,-100,4,2,1,50,0,0
4536,-125,4,2,1,50,0,0
6048,-50,4,2,1,50,0,1
6552,-66.6666666666667,4,2,1,50,0,1
7938,-58.8235294117647,4,2,1,50,0,1
8316,-66.6666666666667,4,2,1,50,0,1
9072,-83.3333333333333,4,2,1,50,0,0
9828,-66.6666666666667,4,2,1,50,0,1
12096,-66.6666666666667,4,2,1,50,0,0
12852,-125,4,2,1,50,0,0
13608,-66.6666666666667,4,2,1,50,0,0
13986,-83.3333333333333,4,2,1,50,0,0
15120,-76.9230769230769,4,2,1,50,0,0
15498,-133.333333333333,4,2,1,50,0,0
15876,-100,4,2,1,50,0,0
18144,-55.5555555555556,4,2,1,50,0,0
18522,-133.333333333333,4,2,1,50,0,0
18900,-66.6666666666667,4,2,1,50,0,1
20034,-83.3333333333333,4,2,1,50,0,1
21168,-83.3333333333333,4,2,1,50,0,0
21924,-100,4,2,1,50,0,1
24192,-66.6666666666667,4,2,1,50,0,0
24948,-125,4,2,1,50,0,0
25704,-83.3333333333333,4,2,1,50,0,0
27216,-100,4,2,1,50,0,0
27972,-83.3333333333333,4,2,1,50,0,0

[Colours]
Combo1 : 255,255,255
Combo2 : 69,133,111
Combo3 : 255,113,113

[HitObjects]
111,48,6048,6,0,B|40:71|73:110|-2:141|-2:141|102:126|102:126|123:133|123:133|145:118|145:118|248:105,1,400
480,79,6552,1,0,0:0:0:0:
325,42,6678,1,0,0:0:0:0:
381,208,6804,6,0,P|437:188|462:138,1,100.000003814697
240,97,7056,1,0,0:0:0:0:
345,304,7182,1,0,0:0:0:0:
366,121,7308,1,0,0:0:0:0:
177,191,7434,1,0,0:0:0:0:
352,288,7560,6,0,L|492:297,2,100.000003814697
108,311,7938,2,0,B|59:289|59:289|91:225|184:194|267:255,1,283.333338737488
270,340,8316,5,0,0:0:0:0:
108,311,8442,2,0,L|103:177,1,100.000003814697
94,0,8694,1,0,0:0:0:0:
210,184,8820,1,0,0:0:0:0:
8,119,8946,1,0,0:0:0:0:
204,38,9072,6,0,B|289:-32|404:22|357:73|428:140|428:140|380:104|332:123,1,400
108,183,9828,5,0,0:0:0:0:
342,210,9954,1,0,0:0:0:0:
130,85,10080,1,0,0:0:0:0:
210,347,10206,5,0,0:0:0:0:
218,131,10332,1,0,0:0:0:0:
134,280,10458,1,0,0:0:0:0:
373,216,10584,5,0,0:0:0:0:
146,202,10710,1,0,0:0:0:0:
416,301,10836,1,0,0:0:0:0:
328,81,10962,5,0,0:0:0:0:
349,341,11088,1,0,0:0:0:0:
407,139,11214,1,0,0:0:0:0:
191,270,11340,6,0,L|91:278,2,100.000003814697
404,244,11718,1,0,0:0:0:0:
173,181,11844,1,0,0:0:0:0:
395,94,11970,1,0,0:0:0:0:
322,276,12096,6,0,B|292:290|278:332|278:332|292:255|288:205,1,200.000007629395
206,96,12474,2,0,B|208:63|179:29|179:29|239:80|283:101,1,200.000007629395
443,164,12852,6,0,B|465:204|518:191|518:191|496:117|421:107|375:149,1,266.666666666667
412,267,13608,5,0,0:0:0:0:
405,8,13734,1,0,0:0:0:0:
288,206,13860,1,0,0:0:0:0:
509,65,13986,6,0,P|440:46|355:65,1,159.999995117188
288,119,14364,1,0,0:0:0:0:
508,162,14490,1,0,0:0:0:0:
311,0,14616,1,0,0:0:0:0:
346,291,14742,5,0,0:0:0:0:
300,12,14868,1,0,0:0:0:0:
497,73,14994,1,0,0:0:0:0:
319,204,15120,6,0,L|202:200,2,86.6666626993817
402,238,15498,6,0,P|461:232|488:178,1,125.000004768372
471,161,15876,6,0,L|453:383,1,200
310,276,16380,2,0,L|327:174,1,66.6666666666667
187,221,16632,6,0,B|160:242|107:247|70:197|70:197|89:137|140:131|175:147,1,266.666666666667
495,54,17388,2,0,B|503:43|503:43|371:63,1,133.333333333333
231,316,17766,2,0,P|290:288|320:230,1,133.333333333333
112,72,18144,6,0,B|78:89|40:91|40:91|136:105|136:105|145:113|145:113|184:97|184:97|196:103|196:103|262:111,1,299.999990844727
276,135,18522,6,0,B|314:154|314:154|375:138,1,100.000003814697
447,111,18900,5,0,0:0:0:0:
195,222,19026,1,0,0:0:0:0:
411,220,19152,1,0,0:0:0:0:
293,54,19278,5,0,0:0:0:0:
296,311,19404,1,0,0:0:0:0:
325,135,19530,1,0,0:0:0:0:
165,318,19656,5,0,0:0:0:0:
436,299,19782,1,0,0:0:0:0:
96,251,19908,1,0,0:0:0:0:
250,378,20034,5,0,0:0:0:0:
331,176,20160,1,0,0:0:0:0:
104,232,20286,1,0,0:0:0:0:
380,101,20412,5,0,0:0:0:0:
342,376,20538,1,0,0:0:0:0:
310,33,20664,1,0,0:0:0:0:
465,298,20790,5,0,0:0:0:0:
79,148,20916,1,0,0:0:0:0:
501,147,21042,1,0,0:0:0:0:
249,320,21168,6,0,B|182:387|153:318|62:358|62:358|137:298|78:241|180:205,1,399.999987792969
346,164,21924,5,0,0:0:0:0:
308,384,22050,1,0,0:0:0:0:
251,103,22176,1,0,0:0:0:0:
377,321,22302,5,0,0:0:0:0:
195,283,22428,1,0,0:0:0:0:
421,223,22554,1,0,0:0:0:0:
166,278,22680,5,0,0:0:0:0:
489,316,22806,1,0,0:0:0:0:
250,73,22932,1,0,0:0:0:0:
350,275,23058,5,0,0:0:0:0:
348,67,23184,1,0,0:0:0:0:
278,231,23310,1,0,0:0:0:0:
492,177,23436,5,0,0:0:0:0:
134,147,23562,1,0,0:0:0:0:
417,227,23688,1,0,0:0:0:0:
232,10,23814,5,0,0:0:0:0:
278,231,23940,1,0,0:0:0:0:
297,84,24066,1,0,0:0:0:0:
169,219,24192,6,0,B|141:229|112:223|112:223|118:283|176:305|216:290,1,200.000007629395
335,288,24570,2,0,B|357:307|366:335|366:335|415:300|405:238|372:211,1,200.000007629395
160,102,24948,6,0,B|138:62|85:75|85:75|107:149|182:159|228:117,1,266.666666666667
280,42,25704,5,0,0:0:0:0:
2,86,25830,1,0,0:0:0:0:
349,118,25956,1,0,0:0:0:0:
121,3,26082,5,0,0:0:0:0:
167,325,26208,1,0,0:0:0:0:
216,40,26334,1,0,0:0:0:0:
91,247,26460,5,0,0:0:0:0:
334,262,26586,1,0,0:0:0:0:
162,178,26712,1,0,0:0:0:0:
350,282,26838,5,0,0:0:0:0:
172,305,26964,1,0,0:0:0:0:
301,116,27090,1,0,0:0:0:0:
393,375,27216,6,0,B|339:172|500:268|441:65,1,333.333333333333
184,363,27972,2,0,P|262:336|302:274,1,159.999995117188
203,52,28350,2,0,P|164:33|118:27,2,79.9999975585938
206,264,28728,2,0,P|167:283|121:289,2,79.9999975585938
322,155,29106,2,0,L|431:147,2,79.9999975585938
129,197,29484,2,0,L|20:205,2,79.9999975585938
220,174,29862,2,0,P|243:141|244:98,1,79.9999975585938
164,112,30114,1,0,0:0:0:0:
208,337,30240,5,0,0:0:0:0:
