osu file format v14

[General]
AudioFilename: audio.mp3
AudioLeadIn: 0
PreviewTime: 162678
Countdown: 0
SampleSet: Soft
StackLeniency: 0.2
Mode: 0
LetterboxInBreaks: 0
WidescreenStoryboard: 0

[Editor]
Bookmarks: 13491,25192,36893,48594,60295,71996,83697,95398,107099,118799,130500,142201,153902,165603,212407,224108
DistanceSpacing: 2.6
BeatDivisor: 8
GridSize: 8
TimelineZoom: 1.932

[Metadata]
Title:One Minute [mixed by Culture Code] (Nightcore Vers.)
TitleUnicode:One Minute [mixed by Culture Code] (Nightcore Vers.)
Artist:Krewella
ArtistUnicode:Krewella
Creator:Aro
Version:Legendary
Source:
Tags:
BeatmapID:1714901
BeatmapSetID:817827

[Difficulty]
HPDrainRate:6
CircleSize:4.2
OverallDifficulty:8.5
ApproachRate:9.5
SliderMultiplier:2
SliderTickRate:1

[Events]
//Background and Video events
0,0,"bgi.jpg",0,0
//Break Periods
2,130500,135829
//Storyboard Layer 0 (Background)
//Storyboard Layer 1 (Fail)
//Storyboard Layer 2 (Pass)
//Storyboard Layer 3 (Foreground)
//Storyboard Sound Samples

[TimingPoints]
1794,365.652995307453,4,2,0,50,1,0
13494,-133.333333333333,4,2,0,35,0,0
13860,-133.333333333333,4,2,0,5,0,0
14043,-133.333333333333,4,2,0,35,0,0
14591,-133.333333333333,4,2,0,35,0,0
14957,-133.333333333333,4,2,0,35,0,0
15231,-133.333333333333,4,2,0,5,0,0
15323,-133.333333333333,4,2,0,35,0,0
15688,-133.333333333333,4,2,0,35,0,0
16054,-133.333333333333,4,2,0,35,0,0
16785,-133.333333333333,4,2,0,5,0,0
16968,-133.333333333333,4,2,0,35,0,0
19710,-133.333333333333,4,2,0,5,0,0
19893,-133.333333333333,4,2,0,35,0,0
21082,-133.333333333333,4,2,0,5,0,0
21173,-133.333333333333,4,2,0,35,0,0
23367,-133.333333333333,4,2,0,20,0,0
23733,-133.333333333333,4,2,0,5,0,0
25195,-181.818181818181,4,2,0,15,0,0
36896,-222.222222222221,4,2,0,50,0,0
37627,-222.222222222221,4,2,0,5,0,0
38359,-181.818181818181,4,2,0,50,0,0
39090,-181.818181818181,4,2,0,5,0,0
39821,-153.846153846153,4,2,0,50,0,0
40553,-153.846153846153,4,2,0,5,0,0
41284,-153.846153846153,4,2,0,20,0,0
42015,-153.846153846153,4,2,0,5,0,0
42747,-222.222222222221,4,2,0,50,0,0
43478,-133.333333333333,4,2,0,5,0,0
44209,-181.818181818183,4,2,0,50,0,0
44941,-117.64705882353,4,2,0,5,0,0
45672,-153.846153846154,4,2,0,50,0,0
46403,-105.263157894737,4,2,0,5,0,0
47134,-153.846153846154,4,2,0,20,0,0
47866,-105.263157894737,4,2,0,5,0,0
48597,-100,4,2,0,15,0,0
54448,-100,4,2,0,25,0,0
60298,-100,4,2,0,50,0,0
60481,-100,4,2,0,5,0,0
60664,-100,4,2,0,50,0,0
60846,-100,4,2,0,5,0,0
61029,-200,4,2,0,50,0,0
61761,-100,4,2,0,50,0,0
61943,-100,4,2,0,5,0,0
62126,-100,4,2,0,50,0,0
62309,-100,4,2,0,5,0,0
62492,-200,4,2,0,50,0,0
63223,-100,4,2,0,50,0,0
63406,-100,4,2,0,5,0,0
63589,-100,4,2,0,50,0,0
63772,-100,4,2,0,5,0,0
63955,-100,4,2,0,50,0,0
64046,-100,4,2,0,5,0,0
64137,-100,4,2,0,50,0,0
64229,-100,4,2,0,5,0,0
64320,-100,4,2,0,50,0,0
64869,-100,4,2,0,5,0,0
65051,-100,4,2,0,50,0,0
65234,-100,4,2,0,5,0,0
65417,-100,4,2,0,50,0,0
65509,-100,4,2,0,5,0,0
65600,-100,4,2,0,50,0,0
65691,-100,4,2,0,5,0,0
65783,-100,4,2,0,50,0,0
66148,-83.3333333333333,4,2,0,50,0,0
66331,-83.3333333333333,4,2,0,50,0,0
66514,-83.3333333333333,4,2,0,50,0,0
66697,-83.3333333333333,4,2,0,50,0,0
66880,-83.3333333333333,4,2,0,50,0,0
66971,-83.3333333333333,4,2,0,5,0,0
67063,-83.3333333333333,4,2,0,50,0,0
67154,-83.3333333333333,4,2,0,5,0,0
67245,-83.3333333333333,4,2,0,50,0,0
67611,-83.3333333333333,4,2,0,50,0,0
71999,-50,4,2,0,50,0,1
72273,-50,4,2,0,5,0,1
72365,-50,4,2,0,50,0,1
72639,-50,4,2,0,5,0,1
72730,-1000,4,2,0,50,0,1
73279,-1000,4,2,0,5,0,1
73461,-100,4,2,0,50,0,1
74558,-66.6666666666667,4,2,0,50,0,1
74802,-66.6666666666667,4,2,0,5,0,1
74924,-50,4,2,0,50,0,1
75198,-50,4,2,0,5,0,1
75290,-50,4,2,0,50,0,1
75564,-50,4,2,0,5,0,1
75655,-1000,4,2,0,50,0,1
76204,-1000,4,2,0,5,0,1
76387,-100,4,2,0,50,0,1
77118,-66.6666666666667,4,2,0,50,0,1
77209,-66.6666666666667,4,2,0,5,0,1
77301,-66.6666666666667,4,2,0,50,0,1
77392,-66.6666666666667,4,2,0,5,0,1
77484,-166.666666666667,4,2,0,50,0,1
77727,-166.666666666667,4,2,0,5,0,1
77849,-50,4,2,0,50,0,1
78124,-50,4,2,0,5,0,1
78215,-50,4,2,0,50,0,1
78489,-50,4,2,0,5,0,1
78581,-1000,4,2,0,50,0,1
79129,-1000,4,2,0,5,0,1
79312,-100,4,2,0,50,0,1
80409,-66.6666666666667,4,2,0,50,0,1
80653,-66.6666666666667,4,2,0,5,0,1
80775,-50,4,2,0,50,0,1
81049,-50,4,2,0,5,0,1
81140,-50,4,2,0,50,0,1
81780,-50,4,2,0,5,0,1
81872,-100,4,2,0,50,0,1
83700,-50,4,2,0,50,0,1
83974,-50,4,2,0,5,0,1
84065,-50,4,2,0,50,0,1
84340,-50,4,2,0,5,0,1
84431,-1000,4,2,0,50,0,1
85071,-1000,4,2,0,5,0,1
85162,-100,4,2,0,50,0,1
86259,-66.6666666666667,4,2,0,50,0,1
86503,-66.6666666666667,4,2,0,5,0,1
86625,-50,4,2,0,50,0,1
86899,-50,4,2,0,5,0,1
86991,-50,4,2,0,50,0,1
87265,-50,4,2,0,5,0,1
87356,-1000,4,2,0,50,0,1
87996,-1000,4,2,0,5,0,1
88088,-100,4,2,0,50,0,1
88819,-66.6666666666667,4,2,0,50,0,1
88910,-66.6666666666667,4,2,0,5,0,1
89002,-66.6666666666667,4,2,0,50,0,1
89093,-66.6666666666667,4,2,0,5,0,1
89185,-153.846153846153,4,2,0,50,0,1
89428,-153.846153846153,4,2,0,5,0,1
89550,-50,4,2,0,50,0,1
89824,-50,4,2,0,5,0,1
89916,-50,4,2,0,50,0,1
90190,-50,4,2,0,5,0,1
90282,-1000,4,2,0,50,0,1
90921,-1000,4,2,0,5,0,1
91013,-100,4,2,0,50,0,1
92110,-66.6666666666667,4,2,0,50,0,1
92354,-66.6666666666667,4,2,0,5,0,1
92475,-100,4,2,0,50,0,0
93938,-100,4,2,0,5,0,0
95401,-50,4,2,0,50,0,1
95675,-50,4,2,0,5,0,1
95766,-50,4,2,0,50,0,1
96041,-50,4,2,0,5,0,1
96132,-1000,4,2,0,50,0,1
96772,-1000,4,2,0,5,0,1
96863,-100,4,2,0,50,0,1
98326,-333.333333333333,4,2,0,50,0,1
98631,-333.333333333333,4,2,0,5,0,1
99057,-66.6666666666667,4,2,0,50,0,1
99667,-66.6666666666667,4,2,0,50,0,1
99789,-133.333333333333,4,2,0,50,0,1
100032,-133.333333333333,4,2,0,5,0,1
100154,-133.333333333333,4,2,0,50,0,1
100398,-133.333333333333,4,2,0,5,0,1
100520,-100,4,2,0,50,0,1
100764,-100,4,2,0,5,0,1
100885,-100,4,2,0,50,0,1
101129,-100,4,2,0,5,0,1
101251,-50,4,2,0,50,0,1
101525,-50,4,2,0,5,0,1
101617,-50,4,2,0,50,0,1
101891,-50,4,2,0,5,0,1
101982,-1000,4,2,0,50,0,1
102622,-1000,4,2,0,5,0,1
102714,-100,4,2,0,50,0,1
104176,-333.333333333333,4,2,0,50,0,1
104481,-333.333333333333,4,2,0,5,0,1
104908,-66.6666666666667,4,2,0,50,0,1
105517,-66.6666666666667,4,2,0,5,0,1
105639,-100,4,2,0,40,0,0
107102,-133.333333333333,4,2,0,35,0,0
107467,-133.333333333333,4,2,0,5,0,0
107650,-133.333333333333,4,2,0,35,0,0
108199,-133.333333333333,4,2,0,5,0,0
108564,-133.333333333333,4,2,0,35,0,0
108838,-133.333333333333,4,2,0,5,0,0
108930,-133.333333333333,4,2,0,35,0,0
113318,-133.333333333333,4,2,0,5,0,0
113500,-133.333333333333,4,2,0,35,0,0
114049,-133.333333333333,4,2,0,5,0,0
114415,-133.333333333333,4,2,0,35,0,0
114689,-133.333333333333,4,2,0,5,0,0
114780,-133.333333333333,4,2,0,35,0,0
116974,-133.333333333333,4,2,0,20,0,0
117340,-133.333333333333,4,2,0,5,0,0
118802,-133.333333333333,4,2,0,15,0,0
130503,-222.222222222221,4,2,0,50,0,0
131966,-181.818181818181,4,2,0,50,0,0
133429,-153.846153846153,4,2,0,50,0,0
136354,-222.22222222222,4,2,0,50,0,0
137816,-181.818181818181,4,2,0,50,0,0
139279,-153.846153846153,4,2,0,50,0,0
141473,-153.846153846153,4,2,0,5,0,0
142204,-153.846153846153,4,2,0,25,0,0
142204,-153.846153846153,4,2,0,35,0,0
148055,-153.846153846153,4,2,0,35,0,0
153905,-100,4,2,0,50,0,0
153905,-100,4,2,0,50,0,0
154088,-100,4,2,0,5,0,0
154271,-100,4,2,0,50,0,0
154454,-100,4,2,0,5,0,0
154636,-200,4,2,0,50,0,0
155368,-100,4,2,0,50,0,0
155551,-100,4,2,0,5,0,0
155733,-100,4,2,0,50,0,0
155916,-100,4,2,0,5,0,0
156099,-200,4,2,0,50,0,0
156830,-100,4,2,0,50,0,0
157013,-100,4,2,0,5,0,0
157196,-100,4,2,0,50,0,0
157379,-100,4,2,0,5,0,0
157562,-100,4,2,0,50,0,0
157653,-100,4,2,0,5,0,0
157745,-100,4,2,0,50,0,0
157836,-100,4,2,0,5,0,0
157927,-100,4,2,0,50,0,0
158293,-100,4,2,0,50,0,0
158476,-100,4,2,0,5,0,0
158659,-100,4,2,0,50,0,0
158841,-100,4,2,0,5,0,0
159024,-100,4,2,0,50,0,0
159116,-100,4,2,0,5,0,0
159207,-100,4,2,0,50,0,0
159299,-100,4,2,0,5,0,0
159390,-100,4,2,0,50,0,0
159756,-83.3333333333333,4,2,0,50,0,0
160487,-83.3333333333333,4,2,0,50,0,0
160578,-83.3333333333333,4,2,0,5,0,0
160670,-83.3333333333333,4,2,0,50,0,0
160761,-83.3333333333333,4,2,0,5,0,0
160853,-83.3333333333333,4,2,0,50,0,0
165606,-50,4,2,0,50,0,1
165880,-50,4,2,0,5,0,1
165972,-50,4,2,0,50,0,1
166246,-50,4,2,0,5,0,1
166337,-1000,4,2,0,50,0,1
166977,-1000,4,2,0,5,0,1
167069,-100,4,2,0,50,0,1
168166,-66.6666666666667,4,2,0,50,0,1
168409,-66.6666666666667,4,2,0,5,0,1
168531,-50,4,2,0,50,0,1
168806,-50,4,2,0,5,0,1
168897,-50,4,2,0,50,0,1
169171,-50,4,2,0,5,0,1
169263,-1000,4,2,0,50,0,1
169902,-1000,4,2,0,5,0,1
169994,-100,4,2,0,50,0,1
170725,-66.6666666666667,4,2,0,50,0,1
170817,-66.6666666666667,4,2,0,5,0,1
170908,-66.6666666666667,4,2,0,50,0,1
170999,-66.6666666666667,4,2,0,5,0,1
171091,-153.846153846153,4,2,0,50,0,1
171335,-153.846153846153,4,2,0,5,0,1
171456,-50,4,2,0,50,0,1
171731,-50,4,2,0,5,0,1
171822,-50,4,2,0,50,0,1
172096,-50,4,2,0,5,0,1
172188,-1000,4,2,0,50,0,1
172828,-1000,4,2,0,5,0,1
172919,-100,4,2,0,50,0,1
174016,-66.6666666666667,4,2,0,50,0,1
174382,-50,4,2,0,50,0,1
174656,-50,4,2,0,5,0,1
174747,-50,4,2,0,50,0,1
175387,-50,4,2,0,5,0,1
175479,-50,4,2,0,50,0,1
176027,-100,4,2,0,50,0,1
177307,-50,4,2,0,50,0,1
177581,-50,4,2,0,5,0,1
177673,-50,4,2,0,50,0,1
177947,-50,4,2,0,5,0,1
178038,-1000,4,2,0,50,0,1
178678,-1000,4,2,0,5,0,1
178770,-100,4,2,0,50,0,1
179867,-66.6666666666667,4,2,0,50,0,1
180110,-66.6666666666667,4,2,0,5,0,1
180232,-50,4,2,0,50,0,1
180506,-50,4,2,0,5,0,1
180598,-50,4,2,0,50,0,1
180872,-50,4,2,0,5,0,1
180963,-1000,4,2,0,50,0,1
181603,-1000,4,2,0,5,0,1
181695,-100,4,2,0,50,0,1
182426,-66.6666666666667,4,2,0,50,0,1
182517,-66.6666666666667,4,2,0,5,0,1
182609,-66.6666666666667,4,2,0,50,0,1
182700,-66.6666666666667,4,2,0,5,0,1
182792,-153.846153846153,4,2,0,50,0,1
183036,-153.846153846153,4,2,0,5,0,1
183157,-50,4,2,0,50,0,1
183432,-50,4,2,0,5,0,1
183523,-50,4,2,0,50,0,1
183797,-50,4,2,0,5,0,1
183889,-1000,4,2,0,50,0,1
184529,-1000,4,2,0,5,0,1
184620,-100,4,2,0,50,0,1
185717,-66.6666666666667,4,2,0,50,0,1
185961,-66.6666666666667,4,2,0,5,0,1
186083,-100,4,2,0,50,0,0
187545,-100,4,2,0,5,0,0
189008,-50,4,2,0,50,0,1
189282,-50,4,2,0,5,0,1
189373,-50,4,2,0,50,0,1
189648,-50,4,2,0,5,0,1
189739,-1000,4,2,0,50,0,1
190379,-1000,4,2,0,5,0,1
190470,-100,4,2,0,50,0,1
191933,-333.333333333333,4,2,0,50,0,1
192238,-333.333333333333,4,2,0,5,0,1
192664,-66.6666666666667,4,2,0,50,0,1
193274,-66.6666666666667,4,2,0,5,0,1
193396,-133.333333333333,4,2,0,50,0,1
193639,-133.333333333333,4,2,0,5,0,1
193761,-133.333333333333,4,2,0,50,0,1
194005,-133.333333333333,4,2,0,5,0,1
194127,-100,4,2,0,50,0,1
194371,-100,4,2,0,5,0,1
194493,-100,4,2,0,50,0,1
194736,-100,4,2,0,5,0,1
194858,-50,4,2,0,50,0,1
195133,-50,4,2,0,5,0,1
195224,-50,4,2,0,50,0,1
195498,-50,4,2,0,5,0,1
195590,-1000,4,2,0,50,0,1
196229,-1000,4,2,0,5,0,1
196321,-100,4,2,0,50,0,1
197784,-333.333333333333,4,2,0,50,0,1
198088,-333.333333333333,4,2,0,5,0,1
198515,-66.6666666666667,4,2,0,50,0,1
199124,-66.6666666666667,4,2,0,5,0,1
199246,-133.333333333333,4,2,0,50,0,1
200709,-50,4,2,0,50,0,1
200983,-50,4,2,0,5,0,1
201074,-50,4,2,0,50,0,1
201349,-50,4,2,0,5,0,1
201440,-1000,4,2,0,50,0,1
202080,-1000,4,2,0,5,0,1
202171,-100,4,2,0,50,0,1
203634,-333.333333333333,4,2,0,50,0,1
203939,-333.333333333333,4,2,0,5,0,1
204365,-66.6666666666667,4,2,0,50,0,1
204975,-66.6666666666667,4,2,0,5,0,1
205097,-133.333333333333,4,2,0,50,0,1
205340,-133.333333333333,4,2,0,5,0,1
205462,-133.333333333333,4,2,0,50,0,1
205706,-133.333333333333,4,2,0,5,0,1
205828,-100,4,2,0,50,0,1
206072,-100,4,2,0,5,0,1
206194,-100,4,2,0,50,0,1
206437,-100,4,2,0,5,0,1
206559,-50,4,2,0,50,0,1
206833,-50,4,2,0,5,0,1
206925,-50,4,2,0,50,0,1
207199,-50,4,2,0,5,0,1
207290,-1000,4,2,0,50,0,1
207930,-1000,4,2,0,5,0,1
208022,-100,4,2,0,50,0,1
209484,-333.333333333333,4,2,0,50,0,1
209789,-333.333333333333,4,2,0,5,0,1
210216,-66.6666666666667,4,2,0,50,0,1
210825,-66.6666666666667,4,2,0,5,0,1
210947,-100,4,2,0,30,0,0

[Colours]
Combo1 : 44,23,68
Combo2 : 10,115,154
Combo3 : 182,108,255
Combo4 : 19,41,145

[HitObjects]
15,31,13494,6,0,B|-3:49|-3:49|29:169,1,150.000005722046,0|0,0:0|0:0,0:0:0:0:
117,212,14043,1,0,0:0:0:0:
87,70,14226,2,0,L|128:224,1,150.000005722046,0|0,0:0|0:0,0:0:0:0:
130,1,14957,6,0,B|154:7|154:7|176:91,1,112.500004291535,0|0,0:0|0:0,0:0:0:0:
186,128,15323,1,0,0:0:0:0:
133,216,15505,1,0,0:0:0:0:
275,362,15688,2,0,L|233:207,1,150.000005722046,0|0,0:0|0:0,0:0:0:0:
424,93,16420,6,0,P|351:88|288:128,1,150.000005722046,0|0,0:0|0:0,0:0:0:0:
385,205,16968,1,0,0:0:0:0:
385,205,17060,1,0,0:0:0:0:
385,205,17151,2,0,L|424:351,1,150.000005722046,0|0,0:0|0:0,0:0:0:0:
505,228,17882,6,0,L|465:81,1,150.000005722046,0|0,0:0|0:0,0:0:0:0:
346,60,18431,1,0,0:0:0:0:
280,240,18614,2,0,L|248:117,2,112.500004291535,0|0|0,0:0|0:0|0:0,0:0:0:0:
376,384,19345,6,0,B|394:366|394:366|362:246,1,150.000005722046,0|0,0:0|0:0,0:0:0:0:
266,189,19893,1,0,0:0:0:0:
431,146,20076,2,0,L|277:187,1,150.000005722046,0|0,0:0|0:0,0:0:0:0:
275,0,20807,6,0,B|299:6|299:6|321:90,1,112.500004291535,0|0,0:0|0:0,0:0:0:0:
331,127,21173,1,0,0:0:0:0:
230,64,21356,1,0,0:0:0:0:
392,1,21539,2,0,L|433:155,1,150.000005722046,0|0,0:0|0:0,0:0:0:0:
243,270,22270,6,0,P|316:275|379:235,1,150.000005722046,0|0,0:0|0:0,0:0:0:0:
282,158,22818,1,0,0:0:0:0:
282,158,22910,1,0,0:0:0:0:
282,158,23001,2,0,L|243:12,2,150.000005722046,0|0|0,0:0|0:0|0:0,0:0:0:0:
114,73,25195,5,0,0:0:0:0:
110,167,26657,5,0,0:0:0:0:
153,250,28121,5,0,0:0:0:0:
398,311,31045,5,0,0:0:0:0:
402,217,32508,5,0,0:0:0:0:
359,134,33971,5,0,0:0:0:0:
15,384,36896,6,0,L|233:356,1,179.999994506836,0|0,0:0|0:0,0:0:0:0:
11,307,38359,6,0,L|268:274,1,220.000006713867,0|0,0:0|0:0,0:0:0:0:
7,230,39821,6,0,L|304:192,1,259.999988098145,0|0,0:0|0:0,0:0:0:0:
264,198,41284,6,0,L|7:230,1,259.999988098145,0|0,0:0|0:0,0:0:0:0:
512,159,42747,6,0,L|294:188,1,179.999994506836,0|0,0:0|0:0,0:0:0:0:
495,83,44210,6,0,L|238:117,1,220.000006713867,0|0,0:0|0:0,0:0:0:0:
479,8,45672,6,0,L|182:48,1,259.999988098145,0|0,0:0|0:0,0:0:0:0:
223,43,47135,6,0,L|479:7,1,259.999988098145,0|0,0:0|0:0,0:0:0:0:
318,191,48597,5,0,0:0:0:0:
297,268,50060,5,0,0:0:0:0:
276,345,51522,5,0,0:0:0:0:
194,193,54448,5,0,0:0:0:0:
215,116,55911,5,0,0:0:0:0:
236,39,57373,5,0,0:0:0:0:
292,15,60298,6,0,B|275:35|275:35|294:106,1,100
437,159,60664,2,0,B|412:148|412:148|393:78,1,100,0|0,0:0|0:0,0:0:0:0:
481,3,61029,2,0,L|493:51,2,50,0|0|0,0:0|0:0|0:0,0:0:0:0:
214,368,61761,6,0,P|223:320|192:282,1,100
64,215,62126,2,0,P|103:243|106:291,1,100,0|0,0:0|0:0,0:0:0:0:
14,384,62492,2,0,L|62:371,2,50
413,367,63223,6,0,B|393:350|393:350|322:369,1,100
427,260,63589,2,0,B|407:243|407:243|336:262,1,100
314,362,63955,2,0,L|363:350,1,50
328,255,64138,2,0,L|377:243,1,50
391,136,64320,1,0,0:0:0:0:
104,347,64686,6,0,P|152:338|190:369,1,100
101,243,65052,2,0,P|148:229|188:257,1,100
196,362,65417,2,0,P|183:341|161:331,1,50
194,250,65600,2,0,P|179:230|156:222,1,50
133,117,65783,1,0,0:0:0:0:
311,33,66148,6,0,L|300:152,1,119.999996337891
201,32,66514,2,0,L|210:151,1,119.999996337891
173,234,66880,2,0,L|140:175,1,59.9999981689454,0|0,0:0|0:0,0:0:0:0:
339,234,67063,2,0,L|371:175,1,59.9999981689454,0|0,0:0|0:0,0:0:0:0:
256,256,67245,2,0,L|255:119,1,119.999996337891,0|0,0:0|0:0,0:0:0:0:
202,322,67611,6,0,P|256:342|312:323,1,119.999996337891,0|0,0:0|0:0,0:0:0:0:
310,62,67977,2,0,P|255:41|199:60,1,119.999996337891,0|0,0:0|0:0,0:0:0:0:
256,256,68342,5,0,0:0:0:0:
288,205,68433,1,0,0:0:0:0:
291,164,68524,1,0,0:0:0:0:
273,132,68616,1,0,0:0:0:0:
253,120,68708,6,0,L|211:120,6,29.9999990844727
203,191,69074,5,0,0:0:0:0:
16,96,71999,6,0,B|77:79|77:79|146:27|146:27|232:38|232:38|311:16,1,300,0|0,0:0|0:0,0:0:0:0:
331,160,72365,2,0,B|269:176|269:176|200:228|200:228|114:217|114:217|35:239,1,300,0|0,0:0|0:0,0:0:0:0:
169,112,72730,6,0,L|177:145,1,35,0|0,0:0|0:0,0:0:0:0:
182,155,73461,5,0,0:0:0:0:
121,295,73583,1,0,0:0:0:0:
31,173,73705,1,0,0:0:0:0:
47,298,73827,5,0,0:0:0:0:
108,158,73949,1,0,0:0:0:0:
198,280,74071,1,0,0:0:0:0:
1,97,74193,5,0,0:0:0:0:
120,283,74315,1,0,0:0:0:0:
191,78,74437,1,0,0:0:0:0:
48,276,74558,6,0,P|111:210|188:261,1,200.000007629395,0|0,0:0|0:0,0:0:0:0:
315,367,74924,6,0,B|254:142|254:142|308:186,1,300,0|0,0:0|0:0,0:0:0:0:
420,329,75290,2,0,B|474:373|474:373|414:149,1,300,0|0,0:0|0:0,0:0:0:0:
358,239,75655,6,0,L|366:272,1,35,0|0,0:0|0:0,0:0:0:0:
371,282,76387,5,0,0:0:0:0:
411,140,76509,1,0,0:0:0:0:
269,177,76630,1,0,0:0:0:0:
429,226,76752,5,0,0:0:0:0:
327,121,76873,1,0,0:0:0:0:
287,263,76995,1,0,0:0:0:0:
440,230,77118,6,0,L|511:251,1,75.0000028610231,0|0,0:0|0:0,0:0:0:0:
323,109,77301,2,0,L|305:36,1,75.0000028610231,0|0,0:0|0:0,0:0:0:0:
279,266,77484,6,0,L|221:321,1,79.9999975585938,0|0,0:0|0:0,0:0:0:0:
497,60,77849,6,0,L|280:267,1,300
89,244,78215,2,0,L|305:36,1,300,0|0,0:0|0:0,0:0:0:0:
304,142,78581,6,0,L|279:166,1,35,0|0,0:0|0:0,0:0:0:0:
273,174,79312,5,0,0:0:0:0:
164,277,79434,1,0,0:0:0:0:
129,131,79556,1,0,0:0:0:0:
91,256,79678,5,0,0:0:0:0:
56,110,79800,1,0,0:0:0:0:
200,153,79922,1,0,0:0:0:0:
50,99,80043,5,0,0:0:0:0:
282,168,80165,1,0,0:0:0:0:
107,345,80287,1,0,0:0:0:0:
191,116,80409,6,0,L|124:304,1,200.000007629395,0|0,0:0|0:0,0:0:0:0:
23,211,80775,6,0,P|166:192|263:300,1,300,0|0,0:0|0:0,0:0:0:0:
269,325,81140,5,0,0:0:0:0:
384,73,81262,1,0,0:0:0:0:
264,338,81384,1,0,0:0:0:0:
488,172,81506,6,0,P|345:191|248:83,1,300,0|0,0:0|0:0,0:0:0:0:
243,59,81871,5,0,0:0:0:0:
128,311,81993,1,0,0:0:0:0:
248,46,82115,1,0,0:0:0:0:
123,324,82237,1,0,0:0:0:0:
118,337,82420,6,0,L|158:245,2,100
274,193,82968,5,0,0:0:0:0:
353,234,83151,1,0,0:0:0:0:
376,327,83334,1,0,0:0:0:0:
353,234,83700,6,0,B|296:283|296:283|223:268|223:268|150:253|150:253|94:303,1,300,0|0,0:0|0:0,0:0:0:0:
50,141,84065,2,0,B|124:155|124:155|180:106|180:106|236:55|236:55|309:71,1,300,0|0,0:0|0:0,0:0:0:0:
213,179,84431,6,0,L|246:170,1,35,0|0,0:0|0:0,0:0:0:0:
256,170,85162,5,0,0:0:0:0:
401,135,85284,1,0,0:0:0:0:
360,278,85406,1,0,0:0:0:0:
446,194,85528,5,0,0:0:0:0:
302,231,85650,1,0,0:0:0:0:
343,88,85772,1,0,0:0:0:0:
233,167,85894,5,0,0:0:0:0:
455,108,86016,1,0,0:0:0:0:
390,331,86138,1,0,0:0:0:0:
326,92,86259,6,0,L|374:286,1,200.000007629395,0|0,0:0|0:0,0:0:0:0:
403,101,86625,6,0,P|305:18|265:139,1,300,0|0,0:0|0:0,0:0:0:0:
435,240,86991,2,0,P|393:360|297:277,1,300,0|0,0:0|0:0,0:0:0:0:
346,170,87356,6,0,L|354:204,1,35,0|0,0:0|0:0,0:0:0:0:
357,213,88087,5,0,0:0:0:0:
250,110,88209,1,0,0:0:0:0:
392,69,88331,1,0,0:0:0:0:
273,190,88453,5,0,0:0:0:0:
309,46,88575,1,0,0:0:0:0:
415,149,88697,1,0,0:0:0:0:
163,89,88819,6,0,L|249:110,1,75.0000028610231,0|0,0:0|0:0,0:0:0:0:
436,241,89002,2,0,L|349:219,1,75.0000028610231,0|0,0:0|0:0,0:0:0:0:
201,264,89185,6,0,L|265:198,1,86.6666626993817,0|0,0:0|0:0,0:0:0:0:
243,351,89550,6,0,B|182:332|100:375|100:375|140:292|118:230,1,300,0|0,0:0|0:0,0:0:0:0:
193,142,89916,2,0,B|255:162|337:119|337:119|297:202|319:264,1,300,0|0,0:0|0:0,0:0:0:0:
201,264,90282,6,0,L|223:237,1,35,0|0,0:0|0:0,0:0:0:0:
228,229,91013,5,0,0:0:0:0:
320,115,91135,1,0,0:0:0:0:
175,92,91257,1,0,0:0:0:0:
295,45,91378,5,0,0:0:0:0:
150,22,91500,1,0,0:0:0:0:
203,159,91622,1,0,0:0:0:0:
143,15,91744,5,0,0:0:0:0:
226,244,91866,1,0,0:0:0:0:
384,59,91988,1,0,0:0:0:0:
165,134,92110,6,0,L|354:68,1,200.000007629395
256,192,92475,12,0,93938,0:0:0:0:
312,354,95401,6,0,B|214:380|214:380|131:332|131:332|32:359,1,300,0|0,0:0|0:0,0:0:0:0:
2,252,95766,2,0,B|101:226|101:226|148:142|148:142|246:116,1,300,0|0,0:0|0:0,0:0:0:0:
217,247,96132,6,0,L|182:256,1,35,0|0,0:0|0:0,0:0:0:0:
178,258,96863,5,0,0:0:0:0:
340,277,96985,1,0,0:0:0:0:
167,258,97107,5,0,0:0:0:0:
349,280,97229,1,0,0:0:0:0:
156,258,97351,5,0,0:0:0:0:
359,283,97473,1,0,0:0:0:0:
90,283,97595,5,0,0:0:0:0:
252,257,97717,1,0,0:0:0:0:
81,286,97839,5,0,0:0:0:0:
263,257,97961,1,0,0:0:0:0:
71,289,98083,5,0,0:0:0:0:
273,257,98205,1,0,0:0:0:0:
175,185,98326,6,0,L|169:129,2,49.9999984741211,0|0|0,0:0|0:0|0:0,0:0:0:0:
225,265,99057,6,0,P|165:91|137:271,1,500.000019073487,0|0,0:0|0:0,0:0:0:0:
303,291,99789,6,0,B|327:282|327:282|336:382,1,100.000003814697,0|0,0:0|0:0,0:0:0:0:
69,310,100154,2,0,B|43:306|43:306|51:406,1,100.000003814697,0|0,0:0|0:0,0:0:0:0:
288,163,100520,6,0,L|301:313,1,133.333333333333,0|0,0:0|0:0,0:0:0:0:
63,181,100885,2,0,L|76:331,1,133.333333333333,0|0,0:0|0:0,0:0:0:0:
167,92,101251,6,0,B|200:18|200:18|429:-1,1,300,0|0,0:0|0:0,0:0:0:0:
486,138,101617,2,0,B|452:211|452:211|223:231,1,300,0|0,0:0|0:0,0:0:0:0:
300,119,101982,6,0,L|335:115,1,35,0|0,0:0|0:0,0:0:0:0:
340,115,102714,5,0,0:0:0:0:
178,96,102836,1,0,0:0:0:0:
351,115,102958,5,0,0:0:0:0:
169,93,103080,1,0,0:0:0:0:
362,115,103202,5,0,0:0:0:0:
159,90,103324,1,0,0:0:0:0:
428,90,103446,5,0,0:0:0:0:
266,116,103568,1,0,0:0:0:0:
437,87,103690,5,0,0:0:0:0:
255,116,103812,1,0,0:0:0:0:
447,84,103934,5,0,0:0:0:0:
246,117,104054,1,0,0:0:0:0:
255,253,104176,6,0,P|250:273|261:307,2,49.9999984741211
404,186,104908,6,0,P|370:366|315:191,1,500.000019073487,0|0,0:0|0:0,0:0:0:0:
399,97,105639,6,0,P|459:75|501:21,2,133.333333333333,0|0|0,0:0|0:0|0:0,0:0:0:0:
113,97,106370,2,0,P|53:75|11:21,2,133.333333333333,0|0|0,0:0|0:0|0:0,0:0:0:0:
276,17,107102,6,0,L|237:161,1,150.000005722046,0|0,0:0|0:0,0:0:0:0:
306,230,107650,1,0,0:0:0:0:
375,96,107833,2,0,B|350:102|350:102|318:222,1,150.000005722046,0|0,0:0|0:0,0:0:0:0:
150,35,108564,6,0,B|166:51|166:51|136:164,1,112.500004291535,0|0,0:0|0:0,0:0:0:0:
135,173,108930,1,0,0:0:0:0:
215,236,109113,1,0,0:0:0:0:
31,364,109295,2,0,L|69:219,1,150.000005722046,0|0,0:0|0:0,0:0:0:0:
267,289,110027,6,0,P|197:306|146:255,1,150.000005722046,0|0,0:0|0:0,0:0:0:0:
352,294,110575,1,0,0:0:0:0:
352,294,110667,1,0,0:0:0:0:
352,294,110758,2,0,L|390:149,1,150.000005722046,0|0,0:0|0:0,0:0:0:0:
448,376,111489,6,0,B|429:358|429:358|461:238,1,150.000005722046,0|0,0:0|0:0,0:0:0:0:
390,148,112038,1,0,0:0:0:0:
226,317,112221,2,0,B|250:311|250:311|273:227,2,112.500004291535,0|0|0,0:0|0:0|0:0,0:0:0:0:
224,94,112952,6,0,L|185:238,1,150.000005722046,0|0,0:0|0:0,0:0:0:0:
123,157,113500,1,0,0:0:0:0:
182,15,113683,2,0,B|157:20|157:20|125:141,1,150.000005722046,0|0,0:0|0:0,0:0:0:0:
299,46,114415,6,0,B|315:62|315:62|294:149,1,112.500004291535
284,184,114781,1,0,0:0:0:0:
224,94,114963,1,0,0:0:0:0:
404,50,115146,2,0,L|366:195,1,150.000005722046,0|0,0:0|0:0,0:0:0:0:
164,210,115877,6,0,P|216:259|285:241,1,150.000005722046,0|0,0:0|0:0,0:0:0:0:
87,171,116425,1,0,0:0:0:0:
87,171,116517,1,0,0:0:0:0:
87,171,116608,2,0,L|48:316,2,150.000005722046,0|0|0,0:0|0:0|0:0,0:0:0:0:
126,26,118802,5,0,0:0:0:0:
57,107,120265,5,0,0:0:0:0:
77,211,121728,5,0,0:0:0:0:
5,243,124653,5,0,0:0:0:0:
40,343,126116,5,0,0:0:0:0:
140,377,127579,5,0,0:0:0:0:
256,192,136354,12,0,141473,0:0:0:0:
199,244,142204,5,0,0:0:0:0:
255,300,143667,5,0,0:0:0:0:
312,356,145129,5,0,0:0:0:0:
313,140,148055,5,0,0:0:0:0:
257,84,149518,5,0,0:0:0:0:
200,28,150980,5,0,0:0:0:0:
409,202,153905,6,0,B|427:215|427:215|451:305,1,100,0|0,0:0|0:0,0:0:0:0:
353,381,154271,2,0,B|334:369|334:369|310:279,1,100,0|0,0:0|0:0,0:0:0:0:
305,157,154636,2,0,L|317:206,2,50,0|0|0,0:0|0:0|0:0,0:0:0:0:
103,183,155368,6,0,P|66:149|55:101,1,100,0|0,0:0|0:0,0:0:0:0:
158,3,155734,2,0,P|195:37|206:85,1,100,0|0,0:0|0:0,0:0:0:0:
207,227,156099,2,0,L|194:179,2,50,0|0|0,0:0|0:0|0:0,0:0:0:0:
19,301,156830,6,0,B|35:321|35:321|112:329,1,100,0|0,0:0|0:0,0:0:0:0:
278,267,157196,2,0,B|262:247|262:247|184:240,1,100,0|0,0:0|0:0,0:0:0:0:
68,351,157561,2,0,L|137:360,1,50
229,217,157744,2,0,L|160:208,1,50,0|0,0:0|0:0,0:0:0:0:
148,285,157927,1,0,0:0:0:0:
492,83,158293,6,0,P|456:51|407:52,1,100,0|0,0:0|0:0,0:0:0:0:
234,137,158659,2,0,P|270:170|319:169,1,100,0|0,0:0|0:0,0:0:0:0:
443,34,159024,2,0,P|413:34|380:48,1,50,0|0,0:0|0:0,0:0:0:0:
282,187,159207,2,0,P|312:187|345:173,1,50,0|0,0:0|0:0,0:0:0:0:
360,108,159390,1,0,0:0:0:0:
335,334,159756,6,0,L|452:362,1,119.999996337891
176,334,160121,2,0,L|60:362,1,119.999996337891
312,194,160487,2,0,L|323:252,1,59.9999981689454
200,194,160670,2,0,L|188:252,1,59.9999981689454
256,122,160853,2,0,L|256:2,1,119.999996337891
199,261,161218,6,0,P|252:285|305:260,1,119.999996337891
309,69,161584,2,0,P|255:44|202:69,1,119.999996337891
339,175,161950,5,0,0:0:0:0:
389,206,162041,1,0,0:0:0:0:
436,208,162132,1,0,0:0:0:0:
463,193,162224,1,0,0:0:0:0:
475,173,162315,2,0,L|485:141,6,29.9999990844727
411,111,162681,5,0,0:0:0:0:
464,88,165606,6,0,B|403:74|403:74|367:47|354:2|354:2|367:47|350:89|350:89|305:130,1,300
336,250,165972,2,0,B|395:262|395:262|431:289|444:334|444:334|431:289|447:248|447:248|493:207,1,300
396,148,166337,6,0,L|405:182,1,35
407,189,167069,5,0,0:0:0:0:
363,47,167191,1,0,0:0:0:0:
263,157,167312,1,0,0:0:0:0:
219,14,167435,5,0,0:0:0:0:
188,159,167556,1,0,0:0:0:0:
328,114,167678,1,0,0:0:0:0:
21,51,167800,5,0,0:0:0:0:
85,251,167921,1,0,0:0:0:0:
225,96,168043,1,0,0:0:0:0:
25,206,168166,6,0,B|108:159|108:159|165:247,1,200.000007629395
317,373,168531,6,0,B|305:319|305:319|260:293|260:293|251:246|251:246|277:200|277:200|225:178|225:178|221:142,1,300
407,110,168897,2,0,B|416:145|416:145|374:183|374:183|414:218|414:218|422:265|422:265|389:305|389:305|397:359,1,300
334,248,169263,6,0,L|329:211,1,35
328,205,169994,5,0,0:0:0:0:
354,353,170116,1,0,0:0:0:0:
470,257,170238,1,0,0:0:0:0:
314,136,170360,5,0,0:0:0:0:
339,284,170482,1,0,2:0:0:0:
456,188,170603,1,0,0:0:0:0:
261,87,170725,6,0,L|197:24,1,75.0000028610231
409,248,170908,2,0,L|473:311,1,75.0000028610231
273,228,171091,6,0,L|210:292,1,86.6666626993817
10,341,171456,6,0,B|47:339|47:339|77:314|77:314|100:343|100:343|138:352|138:352|175:361|175:361|200:390|200:390|228:368|228:368|265:364,1,300
279,222,171822,2,0,B|244:212|244:212|220:185|220:185|191:209|191:209|153:212|153:212|115:214|115:214|86:238|86:238|62:208|62:208|25:200,1,300
177,286,172188,6,0,L|211:289,1,35
219,290,172919,5,0,0:0:0:0:
281,149,173041,1,0,0:0:0:0:
373,274,173163,1,0,0:0:0:0:
480,194,173285,5,0,0:0:0:0:
418,335,173407,1,0,0:0:0:0:
326,210,173529,1,0,0:0:0:0:
205,384,173650,5,0,0:0:0:0:
298,172,173772,1,0,0:0:0:0:
436,359,173894,1,0,0:0:0:0:
455,72,174016,6,0,B|442:271,1,200.000007629395
219,139,174382,6,0,B|274:87|274:87|413:124|413:124|441:206,1,300
443,271,174747,1,0,0:0:0:0:
166,196,174869,1,0,0:0:0:0:
453,275,174991,1,0,0:0:0:0:
184,273,175113,6,0,B|210:350|210:350|349:387|349:387|405:336,1,300
443,271,175479,1,0,0:0:0:0:
166,196,175601,1,0,0:0:0:0:
453,275,175723,1,0,0:0:0:0:
156,192,175844,1,0,0:0:0:0:
145,188,176027,6,0,L|48:160,2,100
292,148,176576,5,0,0:0:0:0:
307,234,176758,1,0,0:0:0:0:
241,296,176941,1,0,0:0:0:0:
354,314,177307,6,0,B|363:325|363:325|371:356|371:356|414:260|414:260|423:159|423:159|402:182|402:182|388:187,1,300
241,281,177673,2,0,B|227:285|227:285|205:308|205:308|215:207|215:207|258:111|258:111|265:142|265:142|275:154,1,300,0|0,2:0|2:0,2:0:0:0:
342,243,178038,6,0,L|307:233,1,35
298,230,178770,5,0,0:0:0:0:
439,198,178891,1,0,0:0:0:0:
352,88,179013,1,0,0:0:0:0:
492,57,179135,5,0,0:0:0:0:
384,154,179257,1,0,0:0:0:0:
361,4,179379,1,0,0:0:0:0:
270,165,179501,5,0,0:0:0:0:
432,19,179623,1,0,0:0:0:0:
466,244,179745,1,0,0:0:0:0:
288,80,179867,6,0,B|235:92|235:92|191:81|191:81|203:125|203:125|186:182,1,200.000007629395
72,295,180232,6,0,B|59:222|59:222|70:161|70:161|63:153|63:153|70:146|70:146|84:77|84:77|67:6,1,300
204,4,180598,2,0,B|189:77|189:77|207:144|207:144|214:151|214:151|207:158|207:158|220:220|220:220|209:292,1,300
140,222,180963,6,0,L|139:186,1,35
141,176,181695,5,0,0:0:0:0:
140,324,181817,1,0,0:0:0:0:
269,251,181939,1,0,0:0:0:0:
205,137,182060,5,0,0:0:0:0:
204,285,182182,1,0,0:0:0:0:
333,212,182304,1,0,0:0:0:0:
104,34,182426,6,0,L|147:111,1,75.0000028610231
271,334,182609,2,0,L|228:257,1,75.0000028610231
86,23,182792,6,0,L|129:100,1,86.6666626993817
313,281,183157,6,0,B|294:246|294:246|307:214|307:214|269:205|269:205|235:145|235:145|196:137|196:137|211:100|211:100|193:68,1,300
316,0,183523,2,0,B|333:30|333:30|373:37|373:37|358:74|358:74|394:135|394:135|381:171|381:171|415:176|415:176|435:211,1,300
310,134,183889,6,0,L|291:100,1,35
287,93,184620,5,0,0:0:0:0:
192,208,184742,1,0,0:0:0:0:
340,233,184864,1,0,0:0:0:0:
320,363,184986,5,0,0:0:0:0:
415,248,185108,1,0,0:0:0:0:
267,223,185230,1,0,0:0:0:0:
368,42,185351,5,0,0:0:0:0:
226,214,185473,1,0,0:0:0:0:
445,250,185595,1,0,0:0:0:0:
266,104,185717,6,0,L|463:138,1,200.000007629395,0|0,2:0|2:0,2:0:0:0:
256,192,186083,12,0,187545,0:0:0:0:
201,308,189008,6,0,B|186:281|186:281|205:227|205:227|161:189|161:189|164:138|164:138|136:96|136:96|139:45,1,300
274,9,189373,2,0,B|302:51|302:51|299:102|299:102|327:144|327:144|309:199|309:199|352:237|352:237|352:269,1,300
232,119,189739,6,0,L|223:85,1,35
219,76,190470,5,0,0:0:0:0:
393,108,190592,1,0,0:0:0:0:
211,77,190714,5,0,0:0:0:0:
385,110,190836,1,0,0:0:0:0:
204,78,190958,5,0,0:0:0:0:
379,112,191080,1,0,0:0:0:0:
116,113,191202,5,0,0:0:0:0:
291,79,191324,1,0,0:0:0:0:
123,115,191446,5,0,0:0:0:0:
299,81,191568,1,0,0:0:0:0:
131,117,191690,5,0,0:0:0:0:
305,83,191812,1,0,0:0:0:0:
245,201,191933,6,0,L|249:145,2,49.9999984741211
404,382,192664,6,0,P|240:219|50:349,1,500.000019073487
184,360,193396,6,0,P|182:323|143:251,1,100.000003814697
275,368,193761,2,0,P|283:332|333:267,1,100.000003814697
83,205,194127,6,0,P|113:181|220:194,1,133.333333333333
401,233,194493,2,0,P|375:204|267:199,1,133.333333333333
175,100,194858,6,0,B|231:76|231:76|234:34|234:34|264:-1|264:-1|289:39|289:39|285:81|285:81|335:114,1,300
320,265,195224,2,0,B|263:288|263:288|260:330|260:330|230:366|230:366|205:325|205:325|209:283|209:283|159:250,1,300
256,155,195590,6,0,L|252:189,1,35
249,205,196321,5,0,0:0:0:0:
432,167,196443,1,0,0:0:0:0:
238,201,196565,5,0,0:0:0:0:
425,165,196687,1,0,0:0:0:0:
230,199,196809,5,0,0:0:0:0:
416,164,196931,1,0,0:0:0:0:
138,163,197053,5,0,0:0:0:0:
323,198,197175,1,0,0:0:0:0:
145,161,197297,5,0,0:0:0:0:
330,196,197419,1,0,0:0:0:0:
153,159,197541,5,0,0:0:0:0:
339,194,197663,1,0,0:0:0:0:
279,306,197784,6,0,L|285:363,2,49.9999984741211
47,299,198515,6,0,B|156:347|156:347|415:320|415:320|515:242,1,500.000019073487
362,152,199246,6,0,L|341:55,2,100.000003814697
187,235,199977,6,0,L|207:137,2,100.000003814697
129,347,200709,6,0,B|80:377|80:377|6:314|6:314|36:230|36:230|94:228,1,300
233,312,201074,2,0,B|290:309|290:309|320:225|320:225|246:162|246:162|198:193,1,300
145,277,201440,6,0,L|177:263,1,35
197,260,202171,5,0,0:0:0:0:
1,298,202293,1,0,0:0:0:0:
207,263,202415,5,0,0:0:0:0:
9,300,202537,1,0,0:0:0:0:
215,265,202659,5,0,0:0:0:0:
18,302,202781,1,0,0:0:0:0:
313,303,202903,5,0,0:0:0:0:
117,266,203025,1,0,0:0:0:0:
306,305,203147,5,0,0:0:0:0:
109,268,203269,1,0,0:0:0:0:
296,307,203391,5,0,0:0:0:0:
100,270,203513,1,0,0:0:0:0:
185,160,203634,6,0,L|183:110,2,49.9999984741211
314,174,204365,6,0,B|387:83|387:83|-20:77,1,500.000019073487
98,232,205097,6,0,L|34:128,1,100.000003814697
190,357,205462,2,0,L|186:234,1,100.000003814697
178,4,205828,2,0,L|181:137,1,133.333333333333
276,228,206194,2,0,L|339:110,1,133.333333333333
211,270,206559,6,0,B|97:206|97:206|210:142|210:142|210:181,1,300
344,270,206925,2,0,B|457:206|457:206|344:142|344:142|344:182,1,300
282,311,207290,6,0,L|281:347,1,35
283,367,208022,5,0,0:0:0:0:
495,325,208144,1,0,0:0:0:0:
272,363,208266,5,0,0:0:0:0:
486,323,208388,1,0,0:0:0:0:
263,361,208510,5,0,0:0:0:0:
477,321,208632,1,0,0:0:0:0:
157,320,208754,5,0,0:0:0:0:
369,360,208876,1,0,0:0:0:0:
164,318,208998,5,0,0:0:0:0:
378,358,209120,1,0,0:0:0:0:
175,316,209242,5,0,0:0:0:0:
388,356,209364,1,0,0:0:0:0:
316,286,209484,6,0,L|314:236,2,49.9999984741211
383,193,210216,6,0,P|311:14|249:197,1,500.000019073487
327,138,210947,6,0,P|336:105|306:140,2,133.333333333333
308,275,211678,6,0,P|299:308|329:273,2,133.333333333333
409,196,212410,5,0,0:0:0:0:
