osu file format v14

[General]
AudioFilename: audio.mp3
AudioLeadIn: 0
PreviewTime: 6529
Countdown: 0
SampleSet: Soft
StackLeniency: 0.7
Mode: 0
LetterboxInBreaks: 0
EpilepsyWarning: 1
WidescreenStoryboard: 1

[Editor]
Bookmarks: 7760,22760,30260
DistanceSpacing: 1
BeatDivisor: 4
GridSize: 4
TimelineZoom: 1.1

[Metadata]
Title:Live for the Night
TitleUnicode:Live for the Night
Artist:Krewella
ArtistUnicode:Krewella
Creator:M a r v o l l o
Version:Normal
Source:
Tags:shmiklak marvollo m_a_r_v_o_l_l_o a_r_m_i_n armin get wet jahan yasmine yousaf kris rain man trindl edm electronic dance music rock house progressive dubstep
BeatmapID:1468010
BeatmapSetID:692999

[Difficulty]
HPDrainRate:3
CircleSize:3
OverallDifficulty:4
ApproachRate:4
SliderMultiplier:1.6
SliderTickRate:1

[Events]
//Background and Video events
0,0,"im dying inside dude.jpg",0,0
//Break Periods
2,22960,28940
//Storyboard Layer 0 (Background)
//Storyboard Layer 1 (Fail)
//Storyboard Layer 2 (Pass)
//Storyboard Layer 3 (Foreground)
//Storyboard Sound Samples

[TimingPoints]
260,468.75,4,2,0,60,1,0
6588,-133.333333333333,4,2,0,60,0,0
37760,-100,4,2,0,70,0,1
60260,-100,4,2,0,70,0,0
62135,-100,4,2,0,5,0,0

[Colours]
Combo1 : 89,123,179
Combo2 : 208,143,239
SliderTrackOverride : 100,100,100

[HitObjects]
116,80,6588,5,0,0:0:0:0:
60,135,6822,2,0,P|52:202|63:261,1,120.000004577637,0|0,0:0|0:0,0:0:0:0:
115,308,7525,1,0,0:0:0:0:
182,268,7760,6,0,P|241:266|312:264,1,120.000004577637,6|8,3:2|0:0,0:0:0:0:
412,153,8697,2,0,P|352:151|282:149,1,120.000004577637,2|8,0:0|0:0,0:0:0:0:
236,93,9400,1,0,0:0:0:0:
291,37,9635,6,0,P|356:28|432:56,1,120.000004577637,2|8,0:0|0:0,0:0:0:0:
465,94,10338,1,0,0:0:0:0:
412,153,10572,2,0,P|406:186|411:224,1,60.0000022888184,2|0,0:0|0:0,0:0:0:0:
463,267,11041,2,0,P|469:300|464:338,1,60.0000022888184,8|0,0:0|0:0,0:0:0:0:
400,364,11510,6,0,P|336:358|253:351,1,120.000004577637,2|8,0:0|0:0,0:0:0:0:
200,220,12447,2,0,P|264:214|347:207,1,120.000004577637,2|8,0:0|0:0,0:0:0:0:
374,153,13150,1,0,0:0:0:0:
308,110,13385,6,0,P|241:109|185:135,1,120.000004577637,2|8,0:0|0:0,0:0:0:0:
128,174,14088,1,0,0:0:0:0:
58,139,14322,2,0,P|57:102|67:75,1,60.0000022888184,0|0,0:0|0:0,0:0:0:0:
120,25,14791,2,0,P|149:27|179:28,1,60.0000022888184,8|0,0:0|0:0,0:0:0:0:
237,83,15260,6,0,P|230:139|224:216,1,120.000004577637,2|8,0:0|0:0,0:0:0:0:
335,312,16197,2,0,P|327:252|322:192,1,120.000004577637,2|8,0:0|0:0,0:0:0:0:
378,137,16900,1,0,0:0:0:0:
444,180,17135,6,0,P|445:238|431:316,1,120.000004577637,2|8,0:0|0:0,0:0:0:0:
394,365,17838,1,0,0:0:0:0:
335,312,18072,2,0,P|304:307|261:307,1,60.0000022888184,2|0,0:0|0:0,0:0:0:0:
201,332,18541,2,0,P|170:336|127:337,1,60.0000022888184,8|0,0:0|0:0,0:0:0:0:
86,282,19010,6,0,P|89:218|104:152,1,120.000004577637,2|8,0:0|0:0,0:0:0:0:
211,52,19947,2,0,P|222:110|225:170,1,120.000004577637,2|8,0:0|0:0,0:0:0:0:
281,225,20650,1,0,0:0:0:0:
336,169,20885,6,0,P|391:161|447:197,1,120.000004577637,2|8,0:0|0:0,0:0:0:0:
464,268,21588,1,0,0:0:0:0:
408,324,21822,2,0,P|373:329|344:325,1,60.0000022888184,0|0,0:0|0:0,0:0:0:0:
276,296,22291,2,0,P|241:291|212:295,1,60.0000022888184,8|0,0:0|0:0,0:0:0:0:
161,349,22760,5,14,3:0:0:0:
256,192,30260,12,14,36822,3:0:0:0:
232,93,37760,6,0,P|311:89|392:81,1,160,6|8,0:0|0:0,0:0:0:0:
436,147,38463,1,0,0:0:0:0:
379,203,38697,2,0,P|306:196|217:191,1,160,2|8,0:0|0:0,0:0:0:0:
116,313,39635,6,0,P|192:309|286:310,1,160,2|8,0:0|0:0,0:0:0:0:
344,353,40338,1,0,0:0:0:0:
381,281,40572,2,0,P|387:244|377:198,1,80,2|0,0:0|0:0,0:0:0:0:
322,145,41041,2,0,P|316:108|326:62,1,80,8|0,0:0|0:0,0:0:0:0:
380,9,41510,5,2,0:0:0:0:
228,57,41978,2,0,P|188:52|126:44,1,80,12|0,0:0|0:0,0:0:0:0:
91,104,42447,2,0,P|100:179|84:281,1,160,2|8,0:0|0:0,0:0:0:0:
146,319,43150,1,0,0:0:0:0:
208,269,43385,6,0,P|289:250|369:278,1,160,2|8,0:0|0:0,0:0:0:0:
424,321,44088,1,0,0:0:0:0:
480,265,44322,2,0,P|476:218|468:175,1,80,2|0,0:0|0:0,0:0:0:0:
400,145,44791,2,0,P|403:98|412:55,1,80,8|0,0:0|0:0,0:0:0:0:
464,9,45260,5,2,0:0:0:0:
312,57,45728,2,0,P|273:54|228:53,1,80,12|0,0:0|0:0,0:0:0:0:
175,109,46197,2,0,P|196:153|164:261,1,160,2|8,0:0|0:0,0:0:0:0:
100,297,46900,1,0,0:0:0:0:
31,254,47135,6,0,P|37:176|40:91,1,160,2|8,0:0|0:0,0:0:0:0:
112,61,47838,1,0,0:0:0:0:
175,109,48072,2,0,P|215:107|265:105,1,80,2|0,0:0|0:0,0:0:0:0:
311,162,48541,2,0,P|309:202|307:252,1,80,8|0,0:0|0:0,0:0:0:0:
364,298,49010,5,2,0:0:0:0:
476,185,49478,2,0,P|460:80|408:40,1,160,12|2,0:0|0:0,0:0:0:0:
344,32,50181,1,0,0:0:0:0:
287,88,50416,2,0,P|246:92|204:89,1,80,8|0,0:0|0:0,0:0:0:0:
137,50,50885,6,0,P|94:50|90:150,1,160,2|8,0:0|0:0,0:0:0:0:
146,194,51588,1,0,0:0:0:0:
196,256,51822,2,0,P|193:297|184:343,1,80,2|0,0:0|0:0,0:0:0:0:
104,340,52291,2,0,P|96:301|93:261,1,80,8|0,0:0|0:0,0:0:0:0:
146,194,52760,5,2,0:0:0:0:
282,111,53228,2,0,P|335:115|371:123,1,80,12|0,0:0|0:0,0:0:0:0:
417,177,53697,2,0,P|410:256|405:353,1,160,2|8,0:0|0:0,0:0:0:0:
330,365,54400,1,0,0:0:0:0:
248,372,54635,6,0,P|159:369|76:374,1,160,2|8,0:0|0:0,0:0:0:0:
24,328,55338,1,0,0:0:0:0:
76,268,55572,2,0,P|74:229|67:181,1,80,2|0,0:0|0:0,0:0:0:0:
2,142,56041,2,0,P|4:102|9:62,1,80,8|0,0:0|0:0,0:0:0:0:
80,25,56510,5,2,0:0:0:0:
192,137,56978,2,0,P|278:140|356:149,1,160,8|2,0:0|0:0,0:0:0:0:
408,205,57681,1,0,0:0:0:0:
351,261,57916,2,0,P|299:261|265:252,1,80,8|0,0:0|0:0,0:0:0:0:
198,222,58385,6,0,P|79:226|27:228,1,160,2|0,0:0|0:0,0:0:0:0:
1,298,59088,1,0,0:0:0:0:
60,352,59322,2,0,P|100:354|139:343,1,80,0|0,0:0|0:0,0:0:0:0:
208,304,59791,1,8,0:0:0:0:
360,352,60260,5,14,0:3:0:0:
256,192,60494,12,0,62135,0:0:0:0:
