osu file format v14

[General]
AudioFilename: audio.mp3
AudioLeadIn: 0
PreviewTime: 6529
Countdown: 0
SampleSet: Soft
StackLeniency: 0.6
Mode: 0
LetterboxInBreaks: 0
EpilepsyWarning: 1
WidescreenStoryboard: 1

[Editor]
Bookmarks: 7760,22760,30260,34010,45260
DistanceSpacing: 1.7
BeatDivisor: 4
GridSize: 8
TimelineZoom: 1.1

[Metadata]
Title:Live for the Night
TitleUnicode:Live for the Night
Artist:Krewella
ArtistUnicode:Krewella
Creator:M a r v o l l o
Version:A r M i N's Insane
Source:
Tags:shmiklak marvollo m_a_r_v_o_l_l_o a_r_m_i_n armin get wet jahan yasmine yousaf kris rain man trindl edm electronic dance music rock house progressive dubstep
BeatmapID:1468670
BeatmapSetID:692999

[Difficulty]
HPDrainRate:6
CircleSize:4.5
OverallDifficulty:7
ApproachRate:8
SliderMultiplier:1.8
SliderTickRate:1

[Events]
//Background and Video events
0,0,"im dying inside dude.jpg",0,0
//Break Periods
//Storyboard Layer 0 (Background)
//Storyboard Layer 1 (Fail)
//Storyboard Layer 2 (Pass)
//Storyboard Layer 3 (Foreground)
//Storyboard Sound Samples

[TimingPoints]
260,468.75,4,2,0,60,1,0
6588,-133.333333333333,4,2,0,60,0,0
32135,-117.647058823529,4,2,0,60,0,0
37291,-200,4,2,0,60,0,0
37642,-200,4,2,0,5,0,0
37760,-100,4,2,0,70,0,1
58385,-133.333333333333,4,2,0,70,0,1
59791,-105.263157894737,4,2,0,70,0,1
60260,-133.333333333333,4,2,0,70,0,0
62135,-133.333333333333,4,2,0,5,0,0

[Colours]
Combo1 : 89,123,179
Combo2 : 208,143,239
SliderTrackOverride : 100,100,100

[HitObjects]
0,232,7760,6,0,B|48:228|48:228|88:236|88:236|136:232,1,135.000005149841,6|8,3:2|0:0,0:0:0:0:
210,176,8463,1,0,0:0:0:0:
274,244,8697,2,0,P|271:277|256:307,1,67.5000025749207,2|0,0:0|0:0,0:0:0:0:
133,232,9166,2,0,P|118:201|116:163,1,67.5000025749207,8|0,0:0|0:0,0:0:0:0:
261,63,9635,6,0,P|256:129|208:176,1,135.000005149841,2|8,0:0|0:0,0:0:0:0:
168,89,10338,1,0,0:0:0:0:
115,168,10572,2,0,P|118:201|133:232,1,67.5000025749207,2|0,0:0|0:0,0:0:0:0:
276,181,11041,2,0,L|208:175,1,67.5000025749207,8|0,0:0|0:0,0:0:0:0:
126,326,11510,6,0,P|159:323|189:308,1,67.5000025749207,2|0,0:0|0:0,0:0:0:0:
115,168,11978,2,0,L|47:174,1,67.5000025749207,8|0,0:0|0:0,0:0:0:0:
199,213,12447,2,0,P|210:179|205:137,1,67.5000025749207,2|0,0:0|0:0,0:0:0:0:
53,106,12916,2,0,L|47:174,1,67.5000025749207,8|0,0:0|0:0,0:0:0:0:
182,55,13385,6,0,P|248:59|295:107,1,135.000005149841,2|8,0:0|0:0,0:0:0:0:
465,129,14088,2,0,P|399:133|353:180,1,135.000005149841,0|0,0:0|0:0,0:0:0:0:
268,260,14791,2,0,P|269:226|259:195,1,67.5000025749207,8|0,0:0|0:0,0:0:0:0:
199,326,15260,6,0,P|258:355|322:339,1,135.000005149841,2|8,0:0|0:0,0:0:0:0:
353,179,15963,1,0,0:0:0:0:
268,260,16197,1,2,0:0:0:0:
436,227,16431,1,0,0:0:0:0:
359,111,16666,2,0,L|353:179,1,67.5000025749207,8|0,0:0|0:0,0:0:0:0:
199,326,17135,6,0,L|186:187,1,135.000005149841,2|8,0:0|0:0,0:0:0:0:
63,67,17838,1,0,0:0:0:0:
92,191,18072,1,2,0:0:0:0:
216,67,18306,1,0,0:0:0:0:
187,191,18541,2,0,L|193:259,1,67.5000025749207,8|0,0:0|0:0,0:0:0:0:
309,86,19010,6,0,P|310:52|299:20,1,67.5000025749207,2|0,0:0|0:0,0:0:0:0:
124,47,19478,2,0,P|122:80|133:112,1,67.5000025749207,8|0,0:0|0:0,0:0:0:0:
303,153,19947,2,0,L|309:85,1,67.5000025749207,2|0,0:0|0:0,0:0:0:0:
133,112,20416,2,0,L|139:180,1,67.5000025749207,8|0,0:0|0:0,0:0:0:0:
303,286,20885,6,0,B|307:238|307:238|299:198|299:198|302:152,1,135.000005149841,2|8,0:0|0:0,0:0:0:0:
441,77,21588,2,0,P|437:143|391:190,1,135.000005149841,0|0,0:0|0:0,0:0:0:0:
237,161,22291,2,0,P|268:150|302:151,1,67.5000025749207,8|0,0:0|0:0,0:0:0:0:
448,268,22760,5,14,3:0:0:0:
448,268,23228,5,2,0:0:0:0:
374,328,23463,1,2,0:0:0:0:
301,268,23697,2,2,B|271:275|256:290|256:290|241:275|212:268,2,101.250003862381
256,102,25103,5,2,0:0:0:0:
256,196,25337,1,2,0:0:0:0:
256,290,25572,2,2,B|256:329|256:329|259:337|259:337|252:337|252:337|256:345|256:345|256:380,2,101.250003862381,2|2|2,0:0|0:0|0:0,0:0:0:0:
64,268,26978,5,2,0:0:0:0:
138,328,27213,1,2,0:0:0:0:
211,268,27447,2,2,B|241:275|256:290|256:290|271:275|300:268,2,101.250003862381,2|2|2,0:0|0:0|0:0,0:0:0:0:
256,102,28853,5,2,0:0:0:0:
256,196,29087,1,2,0:0:0:0:
226,285,29322,2,2,B|234:311|257:322|257:322|280:311|287:285,2,101.250003862381,2|2|2,0:0|0:0|0:0,0:0:0:0:
256,102,30260,6,0,L|253:69,3,33.7500012874604,8|0|0|0,3:0|3:0|3:0|3:0,3:0:0:0:
188,161,30728,2,0,L|171:132,3,33.7500012874604,8|0|0|0,3:0|3:0|3:0|3:0,3:0:0:0:
151,243,31197,2,0,L|123:224,3,33.7500012874604,8|0|0|0,3:0|3:0|3:0|3:0,3:0:0:0:
152,332,31666,2,0,L|119:326,3,33.7500012874604,8|0|0|0,3:0|3:0|3:0|3:0,3:0:0:0:
230,287,32135,6,0,P|240:313|243:330,3,38.2500007295609,8|0|0|0,3:0|3:0|3:0|3:0,3:0:0:0:
316,373,32603,2,0,P|320:354|328:336,3,38.2500007295609,8|0|0|0,3:0|3:0|3:0|3:0,3:0:0:0:
333,246,33072,2,0,P|328:227|320:209,3,38.2500007295609,8|0|0|0,3:0|3:0|3:0|3:0,3:0:0:0:
420,260,33541,2,0,P|412:277|407:296,3,38.2500007295609,8|0|0|0,3:0|3:0|3:0|3:0,3:0:0:0:
328,336,34010,5,10,3:0:0:0:
300,323,34127,1,2,3:0:0:0:
269,322,34244,1,2,3:0:0:0:
240,331,34361,1,2,3:0:0:0:
216,350,34478,1,10,3:0:0:0:
193,369,34596,1,2,3:0:0:0:
164,378,34713,1,2,3:0:0:0:
133,377,34830,1,2,3:0:0:0:
106,365,34948,5,10,3:0:0:0:
103,334,35065,1,2,3:0:0:0:
100,304,35182,1,2,3:0:0:0:
97,273,35299,1,2,3:0:0:0:
115,249,35416,1,10,3:0:0:0:
112,218,35533,1,2,3:0:0:0:
109,188,35650,1,2,3:0:0:0:
106,157,35767,1,2,3:0:0:0:
103,127,35885,5,10,3:0:0:0:
141,150,36002,1,2,3:0:0:0:
187,149,36119,1,2,3:0:0:0:
224,123,36236,1,2,3:0:0:0:
242,82,36353,1,10,3:0:0:0:
261,123,36471,1,2,3:0:0:0:
298,149,36588,1,2,3:0:0:0:
344,150,36705,1,2,3:0:0:0:
383,127,36822,5,14,3:0:0:0:
383,127,37291,6,0,P|406:162|409:192,1,67.5,2|0,0:0|0:0,0:0:0:0:
406,200,37760,6,0,B|342:208|342:208|294:192|294:192|230:200,1,180,6|8,0:0|0:0,0:0:0:0:
283,304,38463,1,0,0:0:0:0:
354,96,38697,2,0,L|215:114,1,135,2|0,0:0|0:0,0:0:0:0:
220,113,39166,1,8,0:0:0:0:
406,200,39400,1,0,0:0:0:0:
283,304,39635,6,0,B|238:318|206:294|206:294|206:310|206:310|174:286|126:302,1,180,2|8,0:0|0:0,0:0:0:0:
20,373,40338,1,0,0:0:0:0:
128,180,40572,2,0,B|157:239|157:239|127:300,1,135,2|0,0:0|0:0,0:0:0:0:
127,300,41041,1,8,0:0:0:0:
31,133,41275,1,0,0:0:0:0:
199,133,41510,6,0,P|218:180|127:167,1,180,2|12,0:0|0:0,0:0:0:0:
302,88,42213,1,0,0:0:0:0:
181,0,42447,2,0,L|199:139,1,135,2|0,0:0|0:0,0:0:0:0:
198,132,42916,1,8,0:0:0:0:
405,48,43150,1,0,0:0:0:0:
329,262,43385,6,0,B|326:221|326:221|313:191|313:191|316:158|316:158|303:128|303:128|301:88,1,180,2|8,0:0|0:0,0:0:0:0:
198,132,44088,1,0,0:0:0:0:
419,160,44322,1,2,0:0:0:0:
301,87,44556,1,0,0:0:0:0:
329,262,44791,1,8,0:0:0:0:
405,48,45025,1,0,0:0:0:0:
198,132,45260,6,0,B|161:124|138:102|138:102|116:124|79:132,1,135,2|0,0:0|0:0,0:0:0:0:
78,132,45728,1,12,0:0:0:0:
144,272,45963,2,0,L|141:228,1,45,0|0,0:0|0:0,0:0:0:0:
301,87,46197,2,0,P|310:140|277:213,1,135,2|0,0:0|0:0,0:0:0:0:
277,212,46666,1,8,0:0:0:0:
78,132,46900,1,0,0:0:0:0:
254,15,47135,6,0,P|301:-4|288:87,1,180,2|8,0:0|0:0,0:0:0:0:
78,132,47838,2,0,L|122:135,1,45,0|0,0:0|0:0,0:0:0:0:
276,214,48072,2,0,L|415:196,1,135,2|0,0:0|0:0,0:0:0:0:
410,197,48541,1,8,0:0:0:0:
299,88,48775,1,0,0:0:0:0:
194,283,49010,6,0,P|171:235|171:195,1,90,2|0,0:0|0:0,0:0:0:0:
299,88,49478,1,12,0:0:0:0:
276,214,49713,1,0,0:0:0:0:
102,85,49947,2,0,L|192:93,1,90,2|0,0:0|0:0,0:0:0:0:
292,321,50416,2,0,P|247:318|207:297,1,90,8|0,0:0|0:0,0:0:0:0:
299,88,50885,6,0,L|306:177,1,90,2|0,0:0|0:0,0:0:0:0:
102,85,51353,1,8,0:0:0:0:
224,6,51588,1,0,0:0:0:0:
184,208,51822,2,0,P|239:172|306:177,1,135,2|0,0:0|0:0,0:0:0:0:
306,177,52291,1,8,0:0:0:0:
191,92,52525,1,0,0:0:0:0:
131,303,52760,6,0,B|146:341|185:372|185:372|224:341|239:303,1,180,2|12,0:0|0:0,0:0:0:0:
187,164,53463,2,0,L|184:208,1,45,0|0,0:0|0:0,0:0:0:0:
120,79,53697,2,0,P|184:55|249:75,1,135,2|0,0:0|0:0,0:0:0:0:
245,72,54166,1,8,0:0:0:0:
183,208,54400,1,0,0:0:0:0:
16,56,54635,6,0,B|-26:126|14:184|14:184|47:119,1,180,2|8,0:0|0:0,0:0:0:0:
164,76,55338,2,0,P|141:74|119:78,1,45,0|0,0:0|0:0,0:0:0:0:
32,266,55572,2,0,B|3:207|3:207|33:146,1,135,2|0,0:0|0:0,0:0:0:0:
33,146,56041,1,8,0:0:0:0:
183,208,56275,1,0,0:0:0:0:
249,7,56510,6,0,P|272:55|272:95,1,90,2|0,0:0|0:0,0:0:0:0:
107,192,56978,1,8,0:0:0:0:
164,76,57213,1,0,0:0:0:0:
177,276,57447,2,0,P|137:296|92:299,1,90,2|0,0:0|0:0,0:0:0:0:
74,68,57916,2,0,L|164:76,1,90,8|0,0:0|0:0,0:0:0:0:
301,208,58385,6,0,P|264:158|277:83,1,135.000005149842,2|0,0:0|0:0,0:0:0:0:
349,46,59088,1,0,0:0:0:0:
348,134,59322,1,0,0:0:0:0:
273,89,59556,1,0,0:0:0:0:
428,8,59791,2,0,P|435:50|425:90,1,85.4999977169037,8|0,0:0|0:0,0:0:0:0:
301,208,60260,5,14,0:3:0:0:
256,192,60377,12,0,62135,0:0:0:0:
