osu file format v14

[General]
AudioFilename: audio.mp3
AudioLeadIn: 0
PreviewTime: 6529
Countdown: 0
SampleSet: Soft
StackLeniency: 0.7
Mode: 0
LetterboxInBreaks: 0
EpilepsyWarning: 1
WidescreenStoryboard: 1

[Editor]
Bookmarks: 7760,22760,30260
DistanceSpacing: 1
BeatDivisor: 4
GridSize: 4
TimelineZoom: 1.1

[Metadata]
Title:Live for the Night
TitleUnicode:Live for the Night
Artist:Krewella
ArtistUnicode:Krewella
Creator:M a r v o l l o
Version:Hard
Source:
Tags:shmiklak marvollo m_a_r_v_o_l_l_o a_r_m_i_n armin get wet jahan yasmine yousaf kris rain man trindl edm electronic dance music rock house progressive dubstep
BeatmapID:1466402
BeatmapSetID:692999

[Difficulty]
HPDrainRate:5
CircleSize:4
OverallDifficulty:6
ApproachRate:6
SliderMultiplier:1.8
SliderTickRate:1

[Events]
//Background and Video events
0,0,"im dying inside dude.jpg",0,0
//Break Periods
2,22994,29210
//Storyboard Layer 0 (Background)
//Storyboard Layer 1 (Fail)
//Storyboard Layer 2 (Pass)
//Storyboard Layer 3 (Foreground)
//Storyboard Sound Samples

[TimingPoints]
260,468.75,4,2,0,60,1,0
6588,-133.333333333333,4,2,0,60,0,0
37760,-100,4,2,0,70,0,1
41510,-133.333333333333,4,2,0,70,0,1
41978,-100,4,2,0,70,0,1
45260,-133.333333333333,4,2,0,70,0,1
45728,-100,4,2,0,70,0,1
59791,-200,4,2,0,70,0,1
60260,-100,4,2,0,70,0,0
62135,-100,4,2,0,5,0,0

[Colours]
Combo1 : 89,123,179
Combo2 : 208,143,239
SliderTrackOverride : 100,100,100

[HitObjects]
159,17,6588,5,0,0:0:0:0:
100,64,6822,2,0,P|94:101|92:144,1,67.5000025749208,0|0,0:0|0:0,0:0:0:0:
145,183,7291,2,0,P|150:220|153:263,1,67.5000025749208,0|0,0:0|0:0,0:0:0:0:
207,358,7760,6,0,P|275:350|347:346,1,135.000005149842,6|8,3:2|0:0,0:0:0:0:
412,320,8463,1,0,0:0:0:0:
464,267,8697,2,0,P|461:231|466:186,1,67.5000025749208,2|0,0:0|0:0,0:0:0:0:
439,129,9166,2,0,P|442:93|437:48,1,67.5000025749208,8|0,0:0|0:0,0:0:0:0:
343,28,9635,6,0,P|289:28|207:39,1,135.000005149842,2|8,0:0|0:0,0:0:0:0:
156,91,10338,1,0,0:0:0:0:
179,161,10572,2,0,P|183:193|171:241,1,67.5000025749208,2|0,0:0|0:0,0:0:0:0:
108,252,11041,2,0,P|104:220|116:172,1,67.5000025749208,8|0,0:0|0:0,0:0:0:0:
156,91,11510,6,0,P|200:47|252:103,1,135.000005149842,2|8,0:0|0:0,0:0:0:0:
303,135,12213,1,0,0:0:0:0:
355,187,12447,2,0,P|395:175|431:175,1,67.5000025749208,2|0,0:0|0:0,0:0:0:0:
473,226,12916,2,0,P|471:260|463:298,1,67.5000025749208,8|0,0:0|0:0,0:0:0:0:
366,321,13385,6,0,P|358:247|354:183,1,135.000005149842,2|8,0:0|0:0,0:0:0:0:
301,133,14088,1,0,0:0:0:0:
248,185,14322,2,0,P|212:181|174:177,1,67.5000025749208,0|0,0:0|0:0,0:0:0:0:
156,248,14791,2,0,P|189:249|222:257,1,67.5000025749208,8|0,0:0|0:0,0:0:0:0:
294,329,15260,6,0,P|356:344|431:316,1,135.000005149842,2|8,0:0|0:0,0:0:0:0:
468,264,15963,1,0,0:0:0:0:
415,211,16197,2,0,P|414:172|416:128,1,67.5000025749208,2|0,0:0|0:0,0:0:0:0:
362,90,16666,2,0,P|323:90|279:89,1,67.5000025749208,8|0,0:0|0:0,0:0:0:0:
200,56,17135,6,0,P|138:32|74:60,1,135.000005149842,2|8,0:0|0:0,0:0:0:0:
41,121,17838,1,0,0:0:0:0:
92,176,18072,2,0,P|90:216|84:248,1,67.5000025749208,2|0,0:0|0:0,0:0:0:0:
12,260,18541,2,0,P|6:226|5:193,1,67.5000025749208,8|0,0:0|0:0,0:0:0:0:
53,103,19010,6,0,P|117:100|197:97,1,135.000005149842,2|8,0:0|0:0,0:0:0:0:
262,97,19713,1,0,0:0:0:0:
314,149,19947,2,0,P|321:181|322:217,1,67.5000025749208,2|0,0:0|0:0,0:0:0:0:
393,235,20416,2,0,P|394:201|401:168,1,67.5000025749208,8|0,0:0|0:0,0:0:0:0:
496,136,20885,6,0,P|498:207|477:281,1,135.000005149842,2|8,0:0|0:0,0:0:0:0:
429,321,21588,1,0,0:0:0:0:
376,268,21822,2,0,P|304:256|240:280,1,135.000005149842,0|8,0:0|0:0,0:0:0:0:
24,380,22760,5,14,3:0:0:0:
256,192,30260,12,8,33541,3:0:0:0:
52,332,34010,6,0,P|54:305|56:284,3,33.7500012874604,10|2|2|2,3:0|3:0|3:0|3:0,0:0:0:0:
87,264,34478,2,0,P|89:291|91:312,3,33.7500012874604,10|2|2|2,3:0|3:0|3:0|3:0,0:0:0:0:
123,331,34947,2,0,P|125:304|127:283,3,33.7500012874604,10|2|2|2,3:0|3:0|3:0|3:0,0:0:0:0:
158,263,35415,2,0,P|160:290|162:311,3,33.7500012874604,10|2|2|2,3:0|3:0|3:0|3:0,0:0:0:0:
194,330,35885,5,10,3:0:0:0:
223,346,36002,1,2,3:0:0:0:
256,352,36119,1,2,3:0:0:0:
289,345,36236,1,2,3:0:0:0:
317,326,36353,1,10,3:0:0:0:
336,299,36470,1,2,3:0:0:0:
345,267,36588,1,2,3:0:0:0:
342,234,36705,1,2,3:0:0:0:
327,204,36822,5,14,3:0:0:0:
152,208,37760,6,0,B|208:200|208:200|256:216|256:216|332:204,1,180,6|8,0:0|0:0,0:0:0:0:
391,140,38463,1,0,0:0:0:0:
454,203,38697,2,0,P|449:252|444:304,1,90,2|0,0:0|0:0,0:0:0:0:
356,316,39166,2,0,P|351:271|347:226,1,90,8|0,0:0|0:0,0:0:0:0:
254,92,39635,6,0,B|146:121|180:46|58:92,1,180,2|8,0:0|0:0,0:0:0:0:
15,148,40338,1,0,0:0:0:0:
78,211,40572,2,0,B|139:193|139:193|209:217,1,135,2|0,0:0|0:0,0:0:0:0:
228,232,41041,2,0,P|276:229|327:227,1,90,8|0,0:0|0:0,0:0:0:0:
460,308,41510,6,0,B|444:255|444:255|457:195,1,101.250003862381,2|0,0:0|0:0,0:0:0:0:
468,188,41978,5,12,0:0:0:0:
412,116,42213,1,0,0:0:0:0:
322,130,42447,2,0,P|320:188|328:228,1,90,2|0,0:0|0:0,0:0:0:0:
360,304,42916,2,0,P|315:297|270:300,1,90,8|0,0:0|0:0,0:0:0:0:
136,208,43385,6,0,B|244:237|210:162|332:208,1,180,2|8,0:0|0:0,0:0:0:0:
374,264,44088,1,0,0:0:0:0:
437,200,44322,2,0,P|442:155|432:106,1,90,2|0,0:0|0:0,0:0:0:0:
364,56,44791,2,0,P|355:100|360:144,1,90,8|0,0:0|0:0,0:0:0:0:
268,271,45260,6,0,P|210:275|159:241,1,101.250003862381,2|0,0:0|0:0,0:0:0:0:
156,236,45728,5,12,0:0:0:0:
232,192,45963,1,0,0:0:0:0:
168,128,46197,2,0,P|129:122|75:116,1,90,2|0,0:0|0:0,0:0:0:0:
120,36,46666,2,0,P|159:30|213:24,1,90,8|0,0:0|0:0,0:0:0:0:
324,139,47135,6,0,B|360:147|395:143|425:125|425:125|384:155|385:193,1,180,2|8,0:0|0:0,0:0:0:0:
426,266,47838,1,0,0:0:0:0:
372,336,48072,2,0,P|326:329|280:325,1,90,2|0,0:0|0:0,0:0:0:0:
211,276,48541,1,8,0:0:0:0:
147,339,48775,1,0,0:0:0:0:
88,187,49010,6,0,B|60:135|106:107|106:107|157:117|157:180,1,180,2|12,0:0|0:0,0:0:0:0:
148,260,49713,1,0,0:0:0:0:
136,348,49947,2,0,P|182:342|233:337,1,90,2|0,0:0|0:0,0:0:0:0:
284,272,50416,2,0,P|280:227|290:181,1,90,8|0,0:0|0:0,0:0:0:0:
224,36,50885,6,0,B|213:65|217:97|234:128|234:128|205:110|171:107|140:120,1,180,2|8,0:0|0:0,0:0:0:0:
68,148,51588,1,0,0:0:0:0:
22,225,51822,2,0,P|19:265|30:318,1,90,2|0,0:0|0:0,0:0:0:0:
102,365,52291,2,0,P|111:321|108:276,1,90,8|0,0:0|0:0,0:0:0:0:
104,116,52760,6,0,B|133:105|165:109|196:126|196:126|178:97|175:63|188:32,1,180,2|12,0:0|0:0,0:0:0:0:
272,20,53463,1,0,0:0:0:0:
335,83,53697,2,0,P|381:81|433:80,1,90,2|0,0:0|0:0,0:0:0:0:
464,160,54166,2,0,P|418:158|366:157,1,90,8|0,0:0|0:0,0:0:0:0:
212,184,54635,6,0,B|212:235|161:245|161:245|115:217|143:165,1,180,2|8,0:0|0:0,0:0:0:0:
194,91,55338,1,0,0:0:0:0:
279,126,55572,2,0,P|283:169|289:221,1,90,2|0,0:0|0:0,0:0:0:0:
243,294,56041,1,8,0:0:0:0:
303,358,56275,1,0,0:0:0:0:
140,352,56510,6,0,B|111:341|79:345|48:362|48:362|66:333|69:299|56:268,1,180,2|8,0:0|0:0,0:0:0:0:
124,217,57213,1,0,0:0:0:0:
60,153,57447,2,0,P|64:101|68:57,1,90,2|0,0:0|0:0,0:0:0:0:
150,27,57916,2,0,P|154:78|158:123,1,90,8|0,0:0|0:0,0:0:0:0:
272,231,58385,6,0,P|334:195|449:230,2,180,2|0|0,0:0|0:0|0:0,0:0:0:0:
236,312,59556,1,0,0:0:0:0:
178,250,59791,2,0,B|171:215|171:215|184:169,1,67.5,8|0,0:0|0:0,0:0:0:0:
205,158,60260,5,14,0:3:0:0:
256,192,60377,12,0,62135,0:0:0:0:
