osu file format v14

[General]
AudioFilename: audio.mp3
AudioLeadIn: 0
PreviewTime: 106538
Countdown: 0
SampleSet: Drum
StackLeniency: 0.8
Mode: 0
LetterboxInBreaks: 0
EpilepsyWarning: 1
WidescreenStoryboard: 1

[Editor]
Bookmarks: 11084,21993,32902,43811,65629,87447,98356,109265,131089,152902,174719
DistanceSpacing: 1.5
BeatDivisor: 4
GridSize: 32
TimelineZoom: 3.200001

[Metadata]
Title:Killin' It (Sped Up Ver.)
TitleUnicode:Killin' It (Sped Up Ver.)
Artist:Krewella
ArtistUnicode:Krewella
Creator:h3ct1c
Version:piroshki's Advanced
Source:
Tags:Hectic Daycore Shmiklak piroshki AYE1337 PantyDev h4d0uk3n1 get wet play hard ep monstercat drumstep dubstep edm electronic english Reisen Udongein Inaba touhou pink anime girl killing speed marvollo m_a_r_v_o_l_l_o
BeatmapID:2184571
BeatmapSetID:1029940

[Difficulty]
HPDrainRate:4
CircleSize:2.9
OverallDifficulty:5.5
ApproachRate:6.5
SliderMultiplier:1.1
SliderTickRate:1

[Events]
//Background and Video events
0,0,"killin_it.jpg",0,0
//Break Periods
2,22156,31890
//Storyboard Layer 0 (Background)
//Storyboard Layer 1 (Fail)
//Storyboard Layer 2 (Pass)
//Storyboard Layer 3 (Foreground)
Sprite,Foreground,Centre,"sb/s/b.png",320,435 V,2,69683,69883,3,1.8,1,1.8 F,2,69683,69883,1,0 P,0,69683,69883,A R,0,69683,69883,1.57 C,0,69683,,217,0,124
Sprite,Foreground,Centre,"sb/s/b.png",320,435 V,2,69853,70053,3,1.8,1,1.8 F,2,69853,70053,1,0 P,0,69853,70053,A R,0,69853,70053,1.57 C,0,69853,,217,0,124
Sprite,Foreground,Centre,"sb/s/b.png",0,0 V,2,70024,70394,3,1.8,1,1.8 F,2,70024,70394,1,0 P,0,70024,70394,A R,0,70024,70394,1.57 C,0,70024,,217,0,124 M,0,70024,70066,320,379,320,380.4779 M,0,70066,70109,320,380.4779,320,381.9557 M,0,70109,70151,320,381.9557,320,383.4336 M,0,70151,70194,320,383.4336,320,384.9115
Sprite,Foreground,Centre,"sb/s/b.png",320,436 V,2,70365,70565,3,1.8,1,1.8 F,2,70365,70565,1,0 P,0,70365,70565,A R,0,70365,70565,1.57 C,0,70365,,217,0,124
Sprite,Foreground,Centre,"sb/s/b.png",320,436 V,2,70535,70735,3,1.8,1,1.8 F,2,70535,70735,1,0 P,0,70535,70735,A R,0,70535,70735,1.57 C,0,70535,,217,0,124
Sprite,Foreground,Centre,"sb/s/b.png",0,0 V,2,70706,71076,3,1.8,1,1.8 F,2,70706,71076,1,0 P,0,70706,71076,A R,0,70706,71076,1.57 C,0,70706,,217,0,124 M,0,70706,70748,320,399,320,386.4294 M,0,70748,70791,320,386.4294,320,373.2683 M,0,70791,70833,320,373.2683,320,359.6154 M,0,70833,70876,320,359.6154,320,345.9944
Sprite,Foreground,Centre,"sb/s/b.png",0,0 V,2,71047,71587,3,1.8,1,1.8 F,2,71047,71587,1,0 P,0,71047,71587,A R,0,71047,71587,1.57 C,0,71047,,148,0,204 M,0,71047,71089,320,280,320,267.1484 M,0,71089,71132,320,267.1484,320,254.7559 M,0,71132,71174,320,254.7559,320,243.2696 M,0,71174,71217,320,243.2696,320,232.556 M,0,71217,71260,320,232.556,320,222.7994 M,0,71260,71302,320,222.7994,320,214.5109 M,0,71302,71345,320,214.5109,320,207.2226 M,0,71345,71387,320,207.2226,320,201.2679
Sprite,Foreground,Centre,"sb/s/b.png",320,326 V,2,80592,80792,3,1.8,1,1.8 F,2,80592,80792,1,0 P,0,80592,80792,A R,0,80592,80792,1.57 C,0,80592,,242,0,6
Sprite,Foreground,Centre,"sb/s/b.png",320,326 V,2,80763,80963,3,1.8,1,1.8 F,2,80763,80963,1,0 P,0,80763,80963,A R,0,80763,80963,1.57 C,0,80763,,242,0,6
Sprite,Foreground,Centre,"sb/s/b.png",0,0 V,2,80933,81303,3,1.8,1,1.8 F,2,80933,81303,1,0 P,0,80933,81303,A R,0,80933,81303,1.57 C,0,80933,,242,0,6 M,0,80933,80975,320,340,320,353.7022 M,0,80975,81018,320,353.7022,320,367.3651 M,0,81018,81060,320,367.3651,320,380.9044 M,0,81060,81103,320,380.9044,320,394.364
Sprite,Foreground,Centre,"sb/s/b.png",320,425 V,2,81274,81474,3,1.8,1,1.8 F,2,81274,81474,1,0 P,0,81274,81474,A R,0,81274,81474,1.57 C,0,81274,,242,0,6
Sprite,Foreground,Centre,"sb/s/b.png",320,425 V,2,81444,81644,3,1.8,1,1.8 F,2,81444,81644,1,0 P,0,81444,81644,A R,0,81444,81644,1.57 C,0,81444,,242,0,6
Sprite,Foreground,Centre,"sb/s/b.png",0,0 V,2,81615,81985,3,1.8,1,1.8 F,2,81615,81985,1,0 P,0,81615,81985,A R,0,81615,81985,1.57 C,0,81615,,242,0,6 M,0,81615,81657,320,399,320,385.642 M,0,81657,81700,320,385.642,320,372.1168 M,0,81700,81742,320,372.1168,320,358.478 M,0,81742,81785,320,358.478,320,344.753
Sprite,Foreground,Centre,"sb/s/b.png",0,0 V,2,81956,82496,3,1.8,1,1.8 F,2,81956,82496,1,0 P,0,81956,82496,A R,0,81956,82496,1.57 C,0,81956,,217,0,124 M,0,81956,81998,320,279,320,266.38 M,0,81998,82041,320,266.38,320,254.2447 M,0,82041,82083,320,254.2447,320,243.0493 M,0,82083,82126,320,243.0493,320,232.6272 M,0,82126,82169,320,232.6272,320,223.1584 M,0,82169,82211,320,223.1584,320,215.153 M,0,82211,82254,320,215.153,320,208.1092 M,0,82254,82296,320,208.1092,320,202.3971
Sprite,Foreground,Centre,"sb/s/b.png",0,0 V,2,109228,109768,4,1.8,2,1.8 F,2,109228,109768,1,0 P,0,109228,109768,A R,0,109228,109768,1.57 C,0,109228,,242,0,6 M,0,109228,109270,320,247,320,246.5003 M,0,109270,109313,320,246.5003,320,246.0007 M,0,109313,109355,320,246.0007,320,245.501 M,0,109355,109398,320,245.501,320,245.0013 M,0,109398,109441,320,245.0013,320,244.5016 M,0,109441,109483,320,244.5016,320,244.002 M,0,109483,109526,320,244.002,320,243.5023 M,0,109526,109568,320,243.5023,320,243.0026
Sprite,Foreground,Centre,"sb/s/b.png",0,0 V,2,109910,110791,4,1.8,2,1.8 F,2,109910,110791,1,0 P,0,109910,110791,A R,0,109910,110791,1.57 C,0,109910,,242,0,6 M,0,109910,109952,320,204,320,216.8769 M,0,109952,109995,320,216.8769,320,230.1409 M,0,109995,110037,320,230.1409,320,243.7766 M,0,110037,110080,320,243.7766,320,257.4776 M,0,110080,110123,320,257.4776,320,271.1047 M,0,110123,110165,320,271.1047,320,284.3165 M,0,110165,110208,320,284.3165,320,297.0717 M,0,110208,110250,320,297.0717,320,309 M,0,110250,110293,320,309,320,297.0717 M,0,110293,110336,320,297.0717,320,284.3165 M,0,110336,110378,320,284.3165,320,271.1047 M,0,110378,110421,320,271.1047,320,257.4776 M,0,110421,110463,320,257.4776,320,243.7766 M,0,110463,110506,320,243.7766,320,230.1409 M,0,110506,110549,320,230.1409,320,216.8769 M,0,110549,110591,320,216.8769,320,204
Sprite,Foreground,Centre,"sb/s/b.png",320,67 V,2,110933,111133,4,1.8,2,1.8 F,2,110933,111133,1,0 P,0,110933,111133,A R,0,110933,111133,1.57 C,0,110933,,242,0,6
Sprite,Foreground,Centre,"sb/s/b.png",320,67 V,2,111103,111303,4,1.8,2,1.8 F,2,111103,111303,1,0 P,0,111103,111303,A R,0,111103,111303,1.57 C,0,111103,,242,0,6
Sprite,Foreground,Centre,"sb/s/b.png",0,0 V,2,111274,111644,4,1.8,2,1.8 F,2,111274,111644,1,0 P,0,111274,111644,A R,0,111274,111644,1.57 C,0,111274,,242,0,6 M,0,111274,111316,320,110,320,106.7082 M,0,111316,111359,320,106.7082,320,103.4164 M,0,111359,111401,320,103.4164,320,100.1245 M,0,111401,111444,320,100.1245,320,96.83273
Sprite,Foreground,Centre,"sb/s/b.png",0,0 V,2,111615,111985,4,1.8,2,1.8 F,2,111615,111985,1,0 P,0,111615,111985,A R,0,111615,111985,1.57 C,0,111615,,242,0,6 M,0,111615,111657,320,122,320,118.7082 M,0,111657,111700,320,118.7082,320,115.4164 M,0,111700,111742,320,115.4164,320,112.1245 M,0,111742,111785,320,112.1245,320,108.8327
Sprite,Foreground,Centre,"sb/s/b.png",0,0 V,2,111956,112496,4,1.8,2,1.8 F,2,111956,112496,1,0 P,0,111956,112496,A R,0,111956,112496,1.57 C,0,111956,,217,0,124 M,0,111956,111998,320,64,320,74.98137 M,0,111998,112041,320,74.98137,320,86.82664 M,0,112041,112083,320,86.82664,320,99.72861 M,0,112083,112126,320,99.72861,320,113.0947 M,0,112126,112169,320,113.0947,320,126.7802 M,0,112169,112211,320,126.7802,320,140.3807 M,0,112211,112254,320,140.3807,320,153.6725 M,0,112254,112296,320,153.6725,320,166.347
Sprite,Foreground,Centre,"sb/s/b.png",0,0 V,2,112638,113178,4,1.8,2,1.8 F,2,112638,113178,1,0 P,0,112638,113178,A R,0,112638,113178,1.57 C,0,112638,,217,0,124 M,0,112638,112680,320,239,320,249.923 M,0,112680,112723,320,249.923,320,261.7414 M,0,112723,112765,320,261.7414,320,274.6332 M,0,112765,112808,320,274.6332,320,288.0043 M,0,112808,112851,320,288.0043,320,301.6867 M,0,112851,112893,320,301.6867,320,315.2731 M,0,112893,112936,320,315.2731,320,328.5094 M,0,112936,112978,320,328.5094,320,341
Sprite,Foreground,Centre,"sb/s/b.png",320,392 V,2,113149,113349,4,1.8,2,1.8 F,2,113149,113349,1,0 P,0,113149,113349,A R,0,113149,113349,1.57 C,0,113149,,217,0,124
Sprite,Foreground,Centre,"sb/s/b.png",320,392 V,2,113319,113519,4,1.8,2,1.8 F,2,113319,113519,1,0 P,0,113319,113519,A R,0,113319,113519,1.57 C,0,113319,,217,0,124
Sprite,Foreground,Centre,"sb/s/b.png",0,0 V,2,113490,114030,4,1.8,2,1.8 F,2,113490,114030,1,0 P,0,113490,114030,A R,0,113490,114030,1.57 C,0,113490,,148,0,204 M,0,113490,113532,320,388,320,401.6774 M,0,113532,113575,320,401.6774,320,415.2166 M,0,113575,113617,320,415.2166,320,428.0116 M,0,113617,113660,320,428.0116,320,440 M,0,113660,113703,320,440,320,428.0116 M,0,113703,113745,320,428.0116,320,415.2166 M,0,113745,113788,320,415.2166,320,401.6774 M,0,113788,113830,320,401.6774,320,388
Sprite,Foreground,Centre,"sb/s/b.png",0,0 V,2,114001,114371,4,1.8,2,1.8 F,2,114001,114371,1,0 P,0,114001,114371,A R,0,114001,114371,1.57 C,0,114001,,148,0,204 M,0,114001,114043,320,312,320,300.9874 M,0,114043,114086,320,300.9874,320,288.7227 M,0,114086,114128,320,288.7227,320,275.6454 M,0,114128,114171,320,275.6454,320,261.9904
Sprite,Foreground,Centre,"sb/s/b.png",0,0 V,2,114342,114712,4,1.8,2,1.8 F,2,114342,114712,1,0 P,0,114342,114712,A R,0,114342,114712,1.57 C,0,114342,,148,0,204 M,0,114342,114384,320,220,320,207.5974 M,0,114384,114427,320,207.5974,320,196.31 M,0,114427,114469,320,196.31,320,186.4186 M,0,114469,114512,320,186.4186,320,178.1441
Sprite,Foreground,Centre,"sb/s/b.png",0,0 V,2,114683,115223,4,1.8,2,1.8 F,2,114683,115223,1,0 P,0,114683,115223,A R,0,114683,115223,1.57 C,0,114683,,242,0,6 M,0,114683,114725,320,109,320,100.755 M,0,114725,114768,320,100.755,320,93.3571 M,0,114768,114810,320,93.3571,320,87.43746 M,0,114810,114853,320,87.43746,320,82.564 M,0,114853,114896,320,82.564,320,79.20065 M,0,114896,114938,320,79.20065,320,77.05403 M,0,114938,114981,320,77.05403,320,76.20033 M,0,114981,115023,320,76.20033,320,76.83752
Sprite,Foreground,Centre,"sb/s/b.png",0,0 V,2,115365,116246,4,1.8,2,1.8 F,2,115365,116246,1,0 P,0,115365,116246,A R,0,115365,116246,1.57 C,0,115365,,242,0,6 M,0,115365,115407,320,62,320,70.22243 M,0,115407,115450,320,70.22243,320,77.57591 M,0,115450,115492,320,77.57591,320,83.4189 M,0,115492,115535,320,83.4189,320,88.1858 M,0,115535,115578,320,88.1858,320,91.41191 M,0,115578,115620,320,91.41191,320,93.38573 M,0,115620,115663,320,93.38573,320,94.03563 M,0,115663,115705,320,94.03563,320,93.17789 M,0,115705,115748,320,93.17789,320,94.03563 M,0,115748,115791,320,94.03563,320,93.38573 M,0,115791,115833,320,93.38573,320,91.41191 M,0,115833,115876,320,91.41191,320,88.1858 M,0,115876,115918,320,88.1858,320,83.4189 M,0,115918,115961,320,83.4189,320,77.57591 M,0,115961,116004,320,77.57591,320,70.22243 M,0,116004,116046,320,70.22243,320,62
Sprite,Foreground,Centre,"sb/s/b.png",320,215 V,2,116388,116588,4,1.8,2,1.8 F,2,116388,116588,1,0 P,0,116388,116588,A R,0,116388,116588,1.57 C,0,116388,,242,0,6
Sprite,Foreground,Centre,"sb/s/b.png",320,215 V,2,116558,116758,4,1.8,2,1.8 F,2,116558,116758,1,0 P,0,116558,116758,A R,0,116558,116758,1.57 C,0,116558,,242,0,6
Sprite,Foreground,Centre,"sb/s/b.png",0,0 V,2,116728,117098,4,1.8,2,1.8 F,2,116728,117098,1,0 P,0,116728,117098,A R,0,116728,117098,1.57 C,0,116728,,242,0,6 M,0,116728,116770,320,287,320,300.4077 M,0,116770,116813,320,300.4077,320,313.3605 M,0,116813,116855,320,313.3605,320,325.2033 M,0,116855,116898,320,325.2033,320,335.9722
Sprite,Foreground,Centre,"sb/s/b.png",0,0 V,2,117069,117439,4,1.8,2,1.8 F,2,117069,117439,1,0 P,0,117069,117439,A R,0,117069,117439,1.57 C,0,117069,,242,0,6 M,0,117069,117111,320,413,320,416.9975 M,0,117111,117154,320,416.9975,320,419.4782 M,0,117154,117196,320,419.4782,320,419.4334 M,0,117196,117239,320,419.4334,320,417.6692
Sprite,Foreground,Centre,"sb/s/b.png",0,0 V,2,117410,117950,4,1.8,2,1.8 F,2,117410,117950,1,0 P,0,117410,117950,A R,0,117410,117950,1.57 C,0,117410,,217,0,124 M,0,117410,117452,320,436,320,422.2889 M,0,117452,117495,320,422.2889,320,408.5545 M,0,117495,117537,320,408.5545,320,394.8083 M,0,117537,117580,320,394.8083,320,381.0744 M,0,117580,117623,320,381.0744,320,367.3687 M,0,117623,117665,320,367.3687,320,353.7361 M,0,117665,117708,320,353.7361,320,340.1668 M,0,117708,117750,320,340.1668,320,326.6937
Sprite,Foreground,Centre,"sb/s/b.png",0,0 V,2,118092,118632,4,1.8,2,1.8 F,2,118092,118632,1,0 P,0,118092,118632,A R,0,118092,118632,1.57 C,0,118092,,217,0,124 M,0,118092,118134,320,201,320,187.3177 M,0,118134,118177,320,187.3177,320,173.5992 M,0,118177,118219,320,173.5992,320,159.8541 M,0,118219,118262,320,159.8541,320,146.1158 M,0,118262,118305,320,146.1158,320,132.4028 M,0,118305,118347,320,132.4028,320,118.7678 M,0,118347,118390,320,118.7678,320,105.2028 M,0,118390,118432,320,105.2028,320,91.7472
Sprite,Foreground,Centre,"sb/s/b.png",320,113 V,2,118603,118803,4,1.8,2,1.8 F,2,118603,118803,1,0 P,0,118603,118803,A R,0,118603,118803,1.57 C,0,118603,,217,0,124
Sprite,Foreground,Centre,"sb/s/b.png",0,0 V,2,118774,119144,4,1.8,2,1.8 F,2,118774,119144,1,0 P,0,118774,119144,A R,0,118774,119144,1.57 C,0,118774,,217,0,124 M,0,118774,118816,320,113,320,101.0605 M,0,118816,118859,320,101.0605,320,90.56089 M,0,118859,118901,320,90.56089,320,81.82848 M,0,118901,118944,320,81.82848,320,75.1336
Sprite,Foreground,Centre,"sb/s/b.png",0,0 V,2,119115,119485,4,1.8,2,1.8 F,2,119115,119485,1,0 P,0,119115,119485,A R,0,119115,119485,1.57 C,0,119115,,217,0,124 M,0,119115,119157,320,65,320,65.13258 M,0,119157,119200,320,65.13258,320,67.11234 M,0,119200,119242,320,67.11234,320,72.47237 M,0,119242,119285,320,72.47237,320,79
Sprite,Foreground,Centre,"sb/s/b.png",0,0 V,2,119456,119996,4,1.8,2,1.8 F,2,119456,119996,1,0 P,0,119456,119996,A R,0,119456,119996,1.57 C,0,119456,,217,0,124 M,0,119456,119498,320,139,320,151.1108 M,0,119498,119541,320,151.1108,320,163.9454 M,0,119541,119583,320,163.9454,320,177.5222 M,0,119583,119626,320,177.5222,320,190 M,0,119626,119669,320,190,320,177.5222 M,0,119669,119711,320,177.5222,320,163.9454 M,0,119711,119754,320,163.9454,320,151.1108 M,0,119754,119796,320,151.1108,320,139
Sprite,Foreground,Centre,"sb/s/b.png",320,76 V,2,119967,120167,4,1.8,2,1.8 F,2,119967,120167,1,0 P,0,119967,120167,A R,0,119967,120167,1.57 C,0,119967,,217,0,124
Sprite,Foreground,Centre,"sb/s/b.png",320,76 V,2,120138,120338,4,1.8,2,1.8 F,2,120138,120338,1,0 P,0,120138,120338,A R,0,120138,120338,1.57 C,0,120138,,217,0,124
Sprite,Foreground,Centre,"sb/s/b.png",0,0 V,2,120819,121359,4,1.8,2,1.8 F,2,120819,121359,1,0 P,0,120819,121359,A R,0,120819,121359,1.57 C,0,120819,,148,0,204 M,0,120819,120861,320,389,320,396.8054 M,0,120861,120904,320,396.8054,320,403.7668 M,0,120904,120946,320,403.7668,320,409.2676 M,0,120946,120989,320,409.2676,320,413.7382 M,0,120989,121032,320,413.7382,320,416.7325 M,0,121032,121074,320,416.7325,320,418.5376 M,0,121074,121117,320,418.5376,320,419.0842 M,0,121117,121159,320,419.0842,320,418.1898
Sprite,Foreground,Centre,"sb/s/b.png",0,0 V,2,121501,122041,4,1.8,2,1.8 F,2,121501,122041,1,0 P,0,121501,122041,A R,0,121501,122041,1.57 C,0,121501,,148,0,204 M,0,121501,121543,320,356,320,346.0753 M,0,121543,121586,320,346.0753,320,336.8244 M,0,121586,121628,320,336.8244,320,328.7327 M,0,121628,121671,320,328.7327,320,321.515 M,0,121671,121714,320,321.515,320,315.3197 M,0,121714,121756,320,315.3197,320,310.5688 M,0,121756,121799,320,310.5688,320,306.7428 M,0,121799,121841,320,306.7428,320,304.1246
Sprite,Foreground,Centre,"sb/s/b.png",320,324 V,2,122013,122213,4,1.8,2,1.8 F,2,122013,122213,1,0 P,0,122013,122213,A R,0,122013,122213,1.57 C,0,122013,,148,0,204
Sprite,Foreground,Centre,"sb/s/b.png",0,0 V,2,122183,122553,4,1.8,2,1.8 F,2,122183,122553,1,0 P,0,122183,122553,A R,0,122183,122553,1.57 C,0,122183,,148,0,204 M,0,122183,122225,320,324,320,311.8029 M,0,122225,122268,320,311.8029,320,299.0084 M,0,122268,122310,320,299.0084,320,285.513 M,0,122310,122353,320,285.513,320,271.8282
Sprite,Foreground,Centre,"sb/s/b.png",0,0 V,2,122524,122894,4,1.8,2,1.8 F,2,122524,122894,1,0 P,0,122524,122894,A R,0,122524,122894,1.57 C,0,122524,,148,0,204 M,0,122524,122566,320,191,320,179.36 M,0,122566,122609,320,179.36,320,168.5226 M,0,122609,122651,320,168.5226,320,159.4986 M,0,122651,122694,320,159.4986,320,151.5824
Sprite,Foreground,Centre,"sb/s/b.png",0,0 V,2,122865,123405,4,1.8,2,1.8 F,2,122865,123405,1,0 P,0,122865,123405,A R,0,122865,123405,1.57 C,0,122865,,242,0,6 M,0,122865,122907,320,70,320,71.62543 M,0,122907,122950,320,71.62543,320,73.25085 M,0,122950,122992,320,73.25085,320,74.87628 M,0,122992,123035,320,74.87628,320,76.50171 M,0,123035,123078,320,76.50171,320,78.12714 M,0,123078,123120,320,78.12714,320,79.75256 M,0,123120,123163,320,79.75256,320,81.37799 M,0,123163,123205,320,81.37799,320,83.00342
Sprite,Foreground,Centre,"sb/s/b.png",0,0 V,2,123547,124087,4,1.8,2,1.8 F,2,123547,124087,1,0 P,0,123547,124087,A R,0,123547,124087,1.57 C,0,123547,,242,0,6 M,0,123547,123589,320,69,320,81.99461 M,0,123589,123632,320,81.99461,320,95.1316 M,0,123632,123674,320,95.1316,320,108.4643 M,0,123674,123717,320,108.4643,320,121.9115 M,0,123717,123760,320,121.9115,320,135.4692 M,0,123760,123802,320,135.4692,320,149.131 M,0,123802,123845,320,149.131,320,162.8366 M,0,123845,123887,320,162.8366,320,176.5776
Sprite,Foreground,Centre,"sb/s/b.png",320,250 V,2,124058,124258,4,1.8,2,1.8 F,2,124058,124258,1,0 P,0,124058,124258,A R,0,124058,124258,1.57 C,0,124058,,242,0,6
Sprite,Foreground,Centre,"sb/s/b.png",320,250 V,2,124228,124428,4,1.8,2,1.8 F,2,124228,124428,1,0 P,0,124228,124428,A R,0,124228,124428,1.57 C,0,124228,,242,0,6
Sprite,Foreground,Centre,"sb/s/b.png",0,0 V,2,124399,124939,4,1.8,2,1.8 F,2,124399,124939,1,0 P,0,124399,124939,A R,0,124399,124939,1.57 C,0,124399,,217,0,124 M,0,124399,124441,320,321,320,320.394 M,0,124441,124484,320,320.394,320,319.7879 M,0,124484,124526,320,319.7879,320,319.1819 M,0,124526,124569,320,319.1819,320,318.5759 M,0,124569,124612,320,318.5759,320,319.1819 M,0,124612,124654,320,319.1819,320,319.7879 M,0,124654,124697,320,319.7879,320,320.394 M,0,124697,124739,320,320.394,320,321
Sprite,Foreground,Centre,"sb/s/b.png",0,0 V,2,124910,125280,4,1.8,2,1.8 F,2,124910,125280,1,0 P,0,124910,125280,A R,0,124910,125280,1.57 C,0,124910,,217,0,124 M,0,124910,124952,320,377,320,371.0092 M,0,124952,124995,320,371.0092,320,366.349 M,0,124995,125037,320,366.349,320,363.8322 M,0,125037,125080,320,363.8322,320,362.9329
Sprite,Foreground,Centre,"sb/s/b.png",0,0 V,2,125251,125621,4,1.8,2,1.8 F,2,125251,125621,1,0 P,0,125251,125621,A R,0,125251,125621,1.57 C,0,125251,,217,0,124 M,0,125251,125293,320,295,320,302.5168 M,0,125293,125336,320,302.5168,320,311.2344 M,0,125336,125378,320,311.2344,320,321.6081 M,0,125378,125421,320,321.6081,320,332.9893
Sprite,Foreground,Centre,"sb/s/b.png",0,0 V,2,125592,126132,4,1.8,2,1.8 F,2,125592,126132,1,0 P,0,125592,126132,A R,0,125592,126132,1.57 C,0,125592,,148,0,204 M,0,125592,125634,320,371,320,359.2537 M,0,125634,125677,320,359.2537,320,347.0814 M,0,125677,125719,320,347.0814,320,334.3291 M,0,125719,125762,320,334.3291,320,321.254 M,0,125762,125805,320,321.254,320,307.8755 M,0,125805,125847,320,307.8755,320,294.2446 M,0,125847,125890,320,294.2446,320,280.5354 M,0,125890,125932,320,280.5354,320,266.7963
Sprite,Foreground,Centre,"sb/s/b.png",0,0 V,2,126274,127155,4,1.8,2,1.8 F,2,126274,127155,1,0 P,0,126274,127155,A R,0,126274,127155,1.57 C,0,126274,,148,0,204 M,0,126274,126316,320,167,320,160.6499 M,0,126316,126359,320,160.6499,320,155.3089 M,0,126359,126401,320,155.3089,320,151.616 M,0,126401,126444,320,151.616,320,149.1434 M,0,126444,126487,320,149.1434,320,148.0497 M,0,126487,126529,320,148.0497,320,148.7761 M,0,126529,126572,320,148.7761,320,150.6728 M,0,126572,126614,320,150.6728,320,153.9574 M,0,126614,126657,320,153.9574,320,150.6728 M,0,126657,126700,320,150.6728,320,148.7761 M,0,126700,126742,320,148.7761,320,148.0497 M,0,126742,126785,320,148.0497,320,149.1434 M,0,126785,126827,320,149.1434,320,151.616 M,0,126827,126870,320,151.616,320,155.3089 M,0,126870,126913,320,155.3089,320,160.6499 M,0,126913,126955,320,160.6499,320,167
Sprite,Foreground,Centre,"sb/s/b.png",320,94 V,2,127297,127497,4,1.8,2,1.8 F,2,127297,127497,1,0 P,0,127297,127497,A R,0,127297,127497,1.57 C,0,127297,,148,0,204
Sprite,Foreground,Centre,"sb/s/b.png",320,94 V,2,127467,127667,4,1.8,2,1.8 F,2,127467,127667,1,0 P,0,127467,127667,A R,0,127467,127667,1.57 C,0,127467,,148,0,204
Sprite,Foreground,Centre,"sb/s/b.png",0,0 V,2,127638,128008,4,1.8,2,1.8 F,2,127638,128008,1,0 P,0,127638,128008,A R,0,127638,128008,1.57 C,0,127638,,148,0,204 M,0,127638,127680,320,59,320,60.07095 M,0,127680,127723,320,60.07095,320,61.14191 M,0,127723,127765,320,61.14191,320,62.21287 M,0,127765,127808,320,62.21287,320,63.28382
Sprite,Foreground,Centre,"sb/s/b.png",0,0 V,2,127978,128348,4,1.8,2,1.8 F,2,127978,128348,1,0 P,0,127978,128348,A R,0,127978,128348,1.57 C,0,127978,,148,0,204 M,0,127978,128020,320,69,320,70.07095 M,0,128020,128063,320,70.07095,320,71.14191 M,0,128063,128105,320,71.14191,320,72.21287 M,0,128105,128148,320,72.21287,320,73.28382
Sprite,Foreground,Centre,"sb/s/b.png",0,0 V,2,135138,135678,4,1.8,2,1.8 F,2,135138,135678,1,0 P,0,135138,135678,A R,0,135138,135678,1.57 C,0,135138,,148,0,204 M,0,135138,135180,320,230,320,243.5563 M,0,135180,135223,320,243.5563,320,257.2576 M,0,135223,135265,320,257.2576,320,270.8956 M,0,135265,135308,320,270.8956,320,284 M,0,135308,135351,320,284,320,270.8956 M,0,135351,135393,320,270.8956,320,257.2576 M,0,135393,135436,320,257.2576,320,243.5563 M,0,135436,135478,320,243.5563,320,230
Sprite,Foreground,Centre,"sb/s/b.png",320,172 V,2,135649,135849,4,1.8,2,1.8 F,2,135649,135849,1,0 P,0,135649,135849,A R,0,135649,135849,1.57 C,0,135649,,148,0,204
Sprite,Foreground,Centre,"sb/s/b.png",0,0 V,2,135819,136189,4,1.8,2,1.8 F,2,135819,136189,1,0 P,0,135819,136189,A R,0,135819,136189,1.57 C,0,135819,,148,0,204 M,0,135819,135861,320,172,320,164.022 M,0,135861,135904,320,164.022,320,157.6036 M,0,135904,135946,320,157.6036,320,153.2027 M,0,135946,135989,320,153.2027,320,151.1219
Sprite,Foreground,Centre,"sb/s/b.png",0,0 V,2,136160,136530,4,1.8,2,1.8 F,2,136160,136530,1,0 P,0,136160,136530,A R,0,136160,136530,1.57 C,0,136160,,148,0,204 M,0,136160,136202,320,86,320,88.17964 M,0,136202,136245,320,88.17964,320,92.12892 M,0,136245,136287,320,92.12892,320,98.14666 M,0,136287,136330,320,98.14666,320,106.2243
Sprite,Foreground,Centre,"sb/s/b.png",0,0 V,2,136501,137041,4,1.8,2,1.8 F,2,136501,137041,1,0 P,0,136501,137041,A R,0,136501,137041,1.57 C,0,136501,,242,0,6 M,0,136501,136543,320,171,320,169.5663 M,0,136543,136586,320,169.5663,320,168.1327 M,0,136586,136628,320,168.1327,320,166.699 M,0,136628,136671,320,166.699,320,165.2653 M,0,136671,136714,320,165.2653,320,163.8316 M,0,136714,136756,320,163.8316,320,162.3979 M,0,136756,136799,320,162.3979,320,160.9643 M,0,136799,136841,320,160.9643,320,159.5306
Sprite,Foreground,Centre,"sb/s/b.png",0,0 V,2,146047,146587,4,1.8,2,1.8 F,2,146047,146587,1,0 P,0,146047,146587,A R,0,146047,146587,1.57 C,0,146047,,217,0,124 M,0,146047,146089,320,296,320,284.9046 M,0,146089,146132,320,284.9046,320,272.7995 M,0,146132,146174,320,272.7995,320,259.7475 M,0,146174,146217,320,259.7475,320,246.1203 M,0,146217,146260,320,246.1203,320,259.7475 M,0,146260,146302,320,259.7475,320,272.7995 M,0,146302,146345,320,272.7995,320,284.9046 M,0,146345,146387,320,284.9046,320,296
Sprite,Foreground,Centre,"sb/s/b.png",320,366 V,2,146558,146758,4,1.8,2,1.8 F,2,146558,146758,1,0 P,0,146558,146758,A R,0,146558,146758,1.57 C,0,146558,,217,0,124
Sprite,Foreground,Centre,"sb/s/b.png",0,0 V,2,146728,147098,4,1.8,2,1.8 F,2,146728,147098,1,0 P,0,146728,147098,A R,0,146728,147098,1.57 C,0,146728,,217,0,124 M,0,146728,146770,320,366,320,379.5241 M,0,146770,146813,320,379.5241,320,393.2015 M,0,146813,146855,320,393.2015,320,406.8212 M,0,146855,146898,320,406.8212,320,419.8478
Sprite,Foreground,Centre,"sb/s/b.png",0,0 V,2,147069,147439,4,1.8,2,1.8 F,2,147069,147439,1,0 P,0,147069,147439,A R,0,147069,147439,1.57 C,0,147069,,217,0,124 M,0,147069,147111,320,437,320,437.1885 M,0,147111,147154,320,437.1885,320,436.6769 M,0,147154,147196,320,436.6769,320,434.8053 M,0,147196,147239,320,434.8053,320,432.2419
Sprite,Foreground,Centre,"sb/s/b.png",0,0 V,2,147410,147950,4,1.8,2,1.8 F,2,147410,147950,1,0 P,0,147410,147950,A R,0,147410,147950,1.57 C,0,147410,,148,0,204 M,0,147410,147452,320,381,320,367.2506 M,0,147452,147495,320,367.2506,320,353.5011 M,0,147495,147537,320,353.5011,320,339.7517 M,0,147537,147580,320,339.7517,320,326.0023 M,0,147580,147623,320,326.0023,320,312.2528 M,0,147623,147665,320,312.2528,320,298.5034 M,0,147665,147708,320,298.5034,320,284.754 M,0,147708,147750,320,284.754,320,271.0045
Sprite,Foreground,Centre,"sb/s/w.png",69,174 V,2,141956,142456,0.3,0.3,0.5,0.5 F,2,141956,142456,1,0 P,0,141956,142456,A R,0,141956,142456,0 C,0,141956,,217,0,124
Sprite,Foreground,Centre,"sb/s/w.png",0,0 V,2,142638,143478,0.3,0.3,0.5,0.5 F,2,142638,143478,1,0 P,0,142638,143478,A R,0,142638,143478,0 C,0,142638,,148,0,204 M,0,142638,142680,283,423,292.2067,412.7964 M,0,142680,142723,292.2067,412.7964,300.9302,402.1788 M,0,142723,142765,300.9302,402.1788,308.8818,390.9707 M,0,142765,142808,308.8818,390.9707,316.2317,379.3636 M,0,142808,142851,316.2317,379.3636,322.9038,367.3489 M,0,142851,142893,322.9038,367.3489,328.686,354.882 M,0,142893,142936,328.686,354.882,333.8285,342.1415 M,0,142936,142978,333.8285,342.1415,338,330
Sprite,Foreground,Centre,"sb/s/w.png",123,327 V,2,76501,77001,0.3,0.3,0.5,0.5 F,2,76501,77001,1,0 P,0,76501,77001,A R,0,76501,77001,0 C,0,76501,,242,0,6
Sprite,Foreground,Centre,"sb/s/w.png",0,0 V,2,77183,78194,0.3,0.3,0.5,0.5 F,2,77183,78194,1,0 P,0,77183,78194,A R,0,77183,78194,0 C,0,77183,,217,0,124 M,0,77183,77225,320,62,321.8675,75.6217 M,0,77225,77268,321.8675,75.6217,323.4875,89.27463 M,0,77268,77310,323.4875,89.27463,324.8067,102.9604 M,0,77310,77353,324.8067,102.9604,325.7557,116.6767 M,0,77353,77396,325.7557,116.6767,326.441,130.4081 M,0,77396,77438,326.441,130.4081,326.8241,144.1518 M,0,77438,77481,326.8241,144.1518,326.8503,157.9007 M,0,77481,77523,326.8503,157.9007,326.5978,171.6469 M,0,77523,77566,326.5978,171.6469,326.0429,185.3844 M,0,77566,77609,326.0429,185.3844,325.1858,199.1069 M,0,77609,77651,325.1858,199.1069,323.9571,212.8009 M,0,77651,77694,323.9571,212.8009,322.4669,226.4685
Sprite,Foreground,Centre,"sb/s/w.png",506,263 V,2,54683,55183,0.3,0.3,0.5,0.5 F,2,54683,55183,1,0 P,0,54683,55183,A R,0,54683,55183,0 C,0,54683,,242,0,6
Sprite,Foreground,Centre,"sb/s/w.png",0,0 V,2,55365,56376,0.3,0.3,0.5,0.5 F,2,55365,56376,1,0 P,0,55365,56376,A R,0,55365,56376,0 C,0,55365,,217,0,124 M,0,55365,55407,235,64,233.9114,77.70682 M,0,55407,55450,233.9114,77.70682,232.779,91.41006 M,0,55450,55492,232.779,91.41006,231.5928,105.1088 M,0,55492,55535,231.5928,105.1088,230.3414,118.8017 M,0,55535,55578,230.3414,118.8017,229.0432,132.4902 M,0,55578,55620,229.0432,132.4902,227.6915,146.1736 M,0,55620,55663,227.6915,146.1736,226.2864,159.8516 M,0,55663,55705,226.2864,159.8516,224.8139,173.5225 M,0,55705,55748,224.8139,173.5225,223.2967,187.1885 M,0,55748,55791,223.2967,187.1885,221.7263,200.8485 M,0,55791,55833,221.7263,200.8485,220.0914,214.5009 M,0,55833,55876,220.0914,214.5009,218.409,228.1476
Sprite,Foreground,Centre,"sb/s/b.png",0,0 V,2,58944,59484,3,1.8,1,1.8 F,2,58944,59484,1,0 P,0,58944,59484,A R,0,58944,59484,1.57 C,0,58944,,242,0,6 M,0,58944,58986,320,234,320,220.8242 M,0,58986,59029,320,220.8242,320,207.2847 M,0,59029,59071,320,207.2847,320,193.6243 M,0,59071,59114,320,193.6243,320,180.1477 M,0,59114,59157,320,180.1477,320,193.6243 M,0,59157,59199,320,193.6243,320,207.2847 M,0,59199,59242,320,207.2847,320,220.8242 M,0,59242,59284,320,220.8242,320,234
Sprite,Foreground,Centre,"sb/s/b.png",0,0 V,2,59456,59826,3,1.8,1,1.8 F,2,59456,59826,1,0 P,0,59456,59826,A R,0,59456,59826,1.57 C,0,59456,,242,0,6 M,0,59456,59498,320,298,320,306.8679 M,0,59498,59541,320,306.8679,320,314.3798 M,0,59541,59583,320,314.3798,320,319.04 M,0,59583,59626,320,319.04,320,322
Sprite,Foreground,Centre,"sb/s/b.png",0,0 V,2,59797,60167,3,1.8,1,1.8 F,2,59797,60167,1,0 P,0,59797,60167,A R,0,59797,60167,1.57 C,0,59797,,242,0,6 M,0,59797,59839,320,401,320,396.2115 M,0,59839,59882,320,396.2115,320,389.5313 M,0,59882,59924,320,389.5313,320,381.1399 M,0,59924,59967,320,381.1399,320,371.1327
Sprite,Foreground,Centre,"sb/s/b.png",0,0 V,2,60138,60849,3,1.8,1,1.8 F,2,60138,60849,1,0 P,0,60138,60849,A R,0,60138,60849,1.57 C,0,60138,,217,0,124 M,0,60138,60180,320,314,320,300.2709 M,0,60180,60223,320,300.2709,320,286.5419 M,0,60223,60265,320,286.5419,320,272.8128 M,0,60265,60308,320,272.8128,320,259.0837 M,0,60308,60351,320,259.0837,320,245.3547 M,0,60351,60393,320,245.3547,320,231.6256 M,0,60393,60436,320,231.6256,320,217.8966 M,0,60436,60478,320,217.8966,320,204.1675 M,0,60478,60521,320,204.1675,320,190.4384 M,0,60521,60564,320,190.4384,320,176.7094 M,0,60564,60606,320,176.7094,320,162.9803 M,0,60606,60649,320,162.9803,320,149.2512
Sprite,Foreground,Centre,"sb/s/b.png",0,0 V,2,48035,48575,3,1.8,1,1.8 F,2,48035,48575,1,0 P,0,48035,48575,A R,0,48035,48575,1.57 C,0,48035,,217,0,124 M,0,48035,48077,320,272,320,285.4879 M,0,48077,48120,320,285.4879,320,299.0849 M,0,48120,48162,320,299.0849,320,312.2517 M,0,48162,48205,320,312.2517,320,324.5954 M,0,48205,48248,320,324.5954,320,312.2517 M,0,48248,48290,320,312.2517,320,299.0849 M,0,48290,48333,320,299.0849,320,285.4879 M,0,48333,48375,320,285.4879,320,272
Sprite,Foreground,Centre,"sb/s/b.png",0,0 V,2,48547,48917,3,1.8,1,1.8 F,2,48547,48917,1,0 P,0,48547,48917,A R,0,48547,48917,1.57 C,0,48547,,217,0,124 M,0,48547,48589,320,189,320,186.3497 M,0,48589,48632,320,186.3497,320,183.6995 M,0,48632,48674,320,183.6995,320,181.0493 M,0,48674,48717,320,181.0493,320,178.399
Sprite,Foreground,Centre,"sb/s/b.png",0,0 V,2,48888,49258,3,1.8,1,1.8 F,2,48888,49258,1,0 P,0,48888,49258,A R,0,48888,49258,1.57 C,0,48888,,217,0,124 M,0,48888,48930,320,128,320,130.5493 M,0,48930,48973,320,130.5493,320,133.0987 M,0,48973,49015,320,133.0987,320,135.6481 M,0,49015,49058,320,135.6481,320,138
Sprite,Foreground,Centre,"sb/s/b.png",0,0 V,2,49228,49939,3,1.8,1,1.8 F,2,49228,49939,1,0 P,0,49228,49939,A R,0,49228,49939,1.57 C,0,49228,,148,0,204 M,0,49228,49270,320,188,320,186.124 M,0,49270,49313,320,186.124,320,184.248 M,0,49313,49355,320,184.248,320,182.372 M,0,49355,49398,320,182.372,320,180.496 M,0,49398,49441,320,180.496,320,178.62 M,0,49441,49483,320,178.62,320,176.744 M,0,49483,49526,320,176.744,320,174.868 M,0,49526,49568,320,174.868,320,172.992 M,0,49568,49611,320,172.992,320,171.116 M,0,49611,49654,320,171.116,320,169.24 M,0,49654,49696,320,169.24,320,167.364 M,0,49696,49739,320,167.364,320,165.4879
Sprite,Foreground,Centre,"sb/s/b.png",0,0 V,2,11047,11587,3,1,1.5,1 F,2,11047,11587,1,0 P,0,11047,11587,A R,0,11047,11587,0 C,0,11047,,148,0,204 M,0,11047,11089,75,240,88.5727,240 M,0,11089,11132,88.5727,240,102.1454,240 M,0,11132,11174,102.1454,240,115.7181,240 M,0,11174,11217,115.7181,240,129.2908,240 M,0,11217,11260,129.2908,240,142.8635,240 M,0,11260,11302,142.8635,240,156.4362,240 M,0,11302,11345,156.4362,240,170.0089,240 M,0,11345,11387,170.0089,240,183.5816,240
Sprite,Foreground,Centre,"sb/s/b.png",267,240 V,2,11558,11758,3,1,1.5,1 F,2,11558,11758,1,0 P,0,11558,11758,A R,0,11558,11758,0 C,0,11558,,148,0,204
Sprite,Foreground,Centre,"sb/s/b.png",0,0 V,2,11728,12268,3,1,1.5,1 F,2,11728,12268,1,0 P,0,11728,12268,A R,0,11728,12268,0 C,0,11728,,148,0,204 M,0,11728,11770,266,240,272.3484,240 M,0,11770,11813,272.3484,240,277.5425,240 M,0,11813,11855,277.5425,240,280.8144,240 M,0,11855,11898,280.8144,240,282.691,240 M,0,11898,11941,282.691,240,282.9791,240 M,0,11941,11983,282.9791,240,281.1472,240 M,0,11983,12026,281.1472,240,278.0217,240 M,0,12026,12068,278.0217,240,273.2798,240
Sprite,Foreground,Centre,"sb/s/b.png",198,240 V,2,12240,12440,3,1,1.5,1 F,2,12240,12440,1,0 P,0,12240,12440,A R,0,12240,12440,0 C,0,12240,,148,0,204
Sprite,Foreground,Centre,"sb/s/b.png",0,0 V,2,12410,12780,3,1,1.5,1 F,2,12410,12780,1,0 P,0,12410,12780,A R,0,12410,12780,0 C,0,12410,,148,0,204 M,0,12410,12452,198,240,188.8567,240 M,0,12452,12495,188.8567,240,180.6457,240 M,0,12495,12537,180.6457,240,174.0272,240 M,0,12537,12580,174.0272,240,168.4838,240
Sprite,Foreground,Centre,"sb/s/b.png",0,0 V,2,12751,13121,3,1,1.5,1 F,2,12751,13121,1,0 P,0,12751,13121,A R,0,12751,13121,0 C,0,12751,,148,0,204 M,0,12751,12793,106,240,110.4316,240 M,0,12793,12836,110.4316,240,115.9348,240 M,0,12836,12878,115.9348,240,122.9681,240 M,0,12878,12921,122.9681,240,130.9667,240
Sprite,Foreground,Centre,"sb/s/b.png",0,0 V,2,13092,13632,3,1,1.5,1 F,2,13092,13632,1,0 P,0,13092,13632,A R,0,13092,13632,0 C,0,13092,,148,0,204 M,0,13092,13134,210,240,223.6141,240 M,0,13134,13177,223.6141,240,237.2466,240 M,0,13177,13219,237.2466,240,250.9042,240 M,0,13219,13262,250.9042,240,264.5788,240 M,0,13262,13305,264.5788,240,278.2701,240 M,0,13305,13347,278.2701,240,291.979,240 M,0,13347,13390,291.979,240,305.6986,240 M,0,13390,13432,305.6986,240,319.4283,240
Sprite,Foreground,Centre,"sb/s/b.png",0,0 V,2,13774,14314,3,1,1.5,1 F,2,13774,14314,1,0 P,0,13774,14314,A R,0,13774,14314,0 C,0,13774,,242,0,6 M,0,13774,13816,480,240,481.107,240 M,0,13816,13859,481.107,240,482.2667,240 M,0,13859,13901,482.2667,240,483.4907,240 M,0,13901,13944,483.4907,240,484.7955,240 M,0,13944,13987,484.7955,240,486.1552,240 M,0,13987,14029,486.1552,240,487.5789,240 M,0,14029,14072,487.5789,240,489.0815,240 M,0,14072,14114,489.0815,240,490.6406,240
Sprite,Foreground,Centre,"sb/s/b.png",548,240 V,2,14285,14485,3,1,1.5,1 F,2,14285,14485,1,0 P,0,14285,14485,A R,0,14285,14485,0 C,0,14285,,242,0,6
Sprite,Foreground,Centre,"sb/s/b.png",0,0 V,2,14456,14826,3,1,1.5,1 F,2,14456,14826,1,0 P,0,14456,14826,A R,0,14456,14826,0 C,0,14456,,242,0,6 M,0,14456,14498,548,240,548.4297,240 M,0,14498,14541,548.4297,240,548.2738,240 M,0,14541,14583,548.2738,240,547.4015,240 M,0,14583,14626,547.4015,240,545.6177,240
Sprite,Foreground,Centre,"sb/s/b.png",0,0 V,2,14797,15167,3,1,1.5,1 F,2,14797,15167,1,0 P,0,14797,15167,A R,0,14797,15167,0 C,0,14797,,242,0,6 M,0,14797,14839,559,240,545.4305,240 M,0,14839,14882,545.4305,240,531.861,240 M,0,14882,14924,531.861,240,518.2914,240 M,0,14924,14967,518.2914,240,504.7219,240
Sprite,Foreground,Centre,"sb/s/b.png",437,240 V,2,15138,15338,3,1,1.5,1 F,2,15138,15338,1,0 P,0,15138,15338,A R,0,15138,15338,0 C,0,15138,,242,0,6
Sprite,Foreground,Centre,"sb/s/b.png",0,0 V,2,15308,15848,3,1,1.5,1 F,2,15308,15848,1,0 P,0,15308,15848,A R,0,15308,15848,0 C,0,15308,,242,0,6 M,0,15308,15350,437,240,425.4211,240 M,0,15350,15393,425.4211,240,413.4592,240 M,0,15393,15435,413.4592,240,400.9634,240 M,0,15435,15478,400.9634,240,388.1477,240 M,0,15478,15521,388.1477,240,375.0183,240 M,0,15521,15563,375.0183,240,361.5817,240 M,0,15563,15606,361.5817,240,348.0064,240 M,0,15606,15648,348.0064,240,334.3092,240
Sprite,Foreground,Centre,"sb/s/b.png",0,0 V,2,15819,16359,3,1,1.5,1 F,2,15819,16359,1,0 P,0,15819,16359,A R,0,15819,16359,0 C,0,15819,,242,0,6 M,0,15819,15861,254,240,246.0338,240 M,0,15861,15904,246.0338,240,239.0441,240 M,0,15904,15946,239.0441,240,233.6667,240 M,0,15946,15989,233.6667,240,229.5204,240 M,0,15989,16032,229.5204,240,226.7737,240 M,0,16032,16074,226.7737,240,225.887,240 M,0,16074,16117,225.887,240,226.241,240 M,0,16117,16159,226.241,240,228,240
Sprite,Foreground,Centre,"sb/s/b.png",0,0 V,2,16501,17041,3,1,1.5,1 F,2,16501,17041,1,0 P,0,16501,17041,A R,0,16501,17041,0 C,0,16501,,217,0,124 M,0,16501,16543,316,240,329.5937,240 M,0,16543,16586,329.5937,240,343.2017,240 M,0,16586,16628,343.2017,240,356.8308,240 M,0,16628,16671,356.8308,240,370.4739,240 M,0,16671,16714,370.4739,240,384.1317,240 M,0,16714,16756,384.1317,240,397.8071,240 M,0,16756,16799,397.8071,240,411.4927,240 M,0,16799,16841,411.4927,240,425.1919,240
Sprite,Foreground,Centre,"sb/s/b.png",508,240 V,2,17013,17213,3,1,1.5,1 F,2,17013,17213,1,0 P,0,17013,17213,A R,0,17013,17213,0 C,0,17013,,217,0,124
Sprite,Foreground,Centre,"sb/s/b.png",0,0 V,2,17183,17723,3,1,1.5,1 F,2,17183,17723,1,0 P,0,17183,17723,A R,0,17183,17723,0 C,0,17183,,217,0,124 M,0,17183,17225,508,240,506.4792,240 M,0,17225,17268,506.4792,240,503.4026,240 M,0,17268,17310,503.4026,240,497.9388,240 M,0,17310,17353,497.9388,240,490.9176,240 M,0,17353,17396,490.9176,240,482.2493,240 M,0,17396,17438,482.2493,240,471.7146,240 M,0,17438,17481,471.7146,240,460.2203,240 M,0,17481,17523,460.2203,240,447.6939,240
Sprite,Foreground,Centre,"sb/s/b.png",372,240 V,2,17694,17894,3,1,1.5,1 F,2,17694,17894,1,0 P,0,17694,17894,A R,0,17694,17894,0 C,0,17694,,217,0,124
Sprite,Foreground,Centre,"sb/s/b.png",0,0 V,2,17865,18235,3,1,1.5,1 F,2,17865,18235,1,0 P,0,17865,18235,A R,0,17865,18235,0 C,0,17865,,217,0,124 M,0,17865,17907,372,240,358.3932,240 M,0,17907,17950,358.3932,240,344.7864,240 M,0,17950,17992,344.7864,240,331.1796,240 M,0,17992,18035,331.1796,240,317.5728,240
Sprite,Foreground,Centre,"sb/s/b.png",0,0 V,2,18206,18576,3,1,1.5,1 F,2,18206,18576,1,0 P,0,18206,18576,A R,0,18206,18576,0 C,0,18206,,217,0,124 M,0,18206,18248,244,240,230.4305,240 M,0,18248,18291,230.4305,240,216.8609,240 M,0,18291,18333,216.8609,240,203.2914,240 M,0,18333,18376,203.2914,240,189.7219,240
Sprite,Foreground,Centre,"sb/s/b.png",0,0 V,2,18547,19087,3,1,1.5,1 F,2,18547,19087,1,0 P,0,18547,19087,A R,0,18547,19087,0 C,0,18547,,217,0,124 M,0,18547,18589,110,240,102.5446,240 M,0,18589,18632,102.5446,240,96.41417,240 M,0,18632,18674,96.41417,240,92.5381,240 M,0,18674,18717,92.5381,240,90.32164,240 M,0,18717,18760,90.32164,240,90.00558,240 M,0,18760,18802,90.00558,240,92.22961,240 M,0,18802,18845,92.22961,240,95.98903,240 M,0,18845,18887,95.98903,240,101.6547,240
Sprite,Foreground,Centre,"sb/s/b.png",0,0 V,2,19228,19768,3,1,1.5,1 F,2,19228,19768,1,0 P,0,19228,19768,A R,0,19228,19768,0 C,0,19228,,148,0,204 M,0,19228,19270,213,240,222.3202,240 M,0,19270,19313,222.3202,240,232.5906,240 M,0,19313,19355,232.5906,240,244.1638,240 M,0,19355,19398,244.1638,240,256.4683,240 M,0,19398,19441,256.4683,240,269.4544,240 M,0,19441,19483,269.4544,240,282.9858,240 M,0,19483,19526,282.9858,240,296.6668,240 M,0,19526,19568,296.6668,240,310.3676,240
Sprite,Foreground,Centre,"sb/s/b.png",388,240 V,2,19740,19940,3,1,1.5,1 F,2,19740,19940,1,0 P,0,19740,19940,A R,0,19740,19940,0 C,0,19740,,148,0,204
Sprite,Foreground,Centre,"sb/s/b.png",0,0 V,2,19910,20280,3,1,1.5,1 F,2,19910,20280,1,0 P,0,19910,20280,A R,0,19910,20280,0 C,0,19910,,148,0,204 M,0,19910,19952,387,240,396.6364,240 M,0,19952,19995,396.6364,240,405.1841,240 M,0,19995,20037,405.1841,240,412.5865,240 M,0,20037,20080,412.5865,240,418.6962,240
Sprite,Foreground,Centre,"sb/s/b.png",0,0 V,2,20251,20621,3,1,1.5,1 F,2,20251,20621,1,0 P,0,20251,20621,A R,0,20251,20621,0 C,0,20251,,148,0,204 M,0,20251,20293,490,240,486.7605,240 M,0,20293,20336,486.7605,240,483.521,240 M,0,20336,20378,483.521,240,480.2815,240 M,0,20378,20421,480.2815,240,477.042,240
Sprite,Foreground,Centre,"sb/s/b.png",0,0 V,2,20592,20962,3,1,1.5,1 F,2,20592,20962,1,0 P,0,20592,20962,A R,0,20592,20962,0 C,0,20592,,148,0,204 M,0,20592,20634,416,240,402.3932,240 M,0,20634,20677,402.3932,240,388.7864,240 M,0,20677,20719,388.7864,240,375.1796,240 M,0,20719,20762,375.1796,240,361.5728,240
Sprite,Foreground,Centre,"sb/s/b.png",293,240 V,2,20933,21133,3,1,1.5,1 F,2,20933,21133,1,0 P,0,20933,21133,A R,0,20933,21133,0 C,0,20933,,148,0,204
Sprite,Foreground,Centre,"sb/s/b.png",0,0 V,2,21274,21644,3,1,1.5,1 F,2,21274,21644,1,0 P,0,21274,21644,A R,0,21274,21644,0 C,0,21274,,148,0,204 M,0,21274,21316,135,240,127.9687,240 M,0,21316,21359,127.9687,240,122.7397,240 M,0,21359,21401,122.7397,240,119.3612,240 M,0,21401,21444,119.3612,240,118.0284,240
Sprite,Foreground,Centre,"sb/s/b.png",0,0 V,2,21615,21985,3,1,1.5,1 F,2,21615,21985,1,0 P,0,21615,21985,A R,0,21615,21985,0 C,0,21615,,148,0,204 M,0,21615,21657,77,240,83.93571,240 M,0,21657,21700,83.93571,240,92.29433,240 M,0,21700,21742,92.29433,240,101.9206,240 M,0,21742,21785,101.9206,240,112.7517,240
Sprite,Foreground,Centre,"sb/s/b.png",113,240 V,2,21956,22156,3,1,1.5,1 F,2,21956,22156,1,0 P,0,21956,22156,A R,0,21956,22156,0 C,0,21956,,242,0,6
//Storyboard Sound Samples

[TimingPoints]
138,340.909090909091,4,3,3,85,1,0
138,-100,4,3,4,85,0,0
180,-100,4,3,3,85,0,0
11004,-100,4,3,3,5,0,0
11047,-100,4,3,4,85,0,0
11089,-100,4,3,3,85,0,0
13689,-100,4,3,3,5,0,0
13774,-100,4,3,3,85,0,0
18802,-100,4,3,3,5,0,0
18888,-100,4,3,3,85,0,0
21956,-100,4,3,2,85,0,0
32865,-100,4,3,4,40,0,0
32907,-100,4,3,3,40,0,0
35592,-100,4,3,3,45,0,0
36274,-100,4,3,3,50,0,0
36956,-100,4,3,3,55,0,0
37638,-100,4,3,3,60,0,0
38319,-100,4,3,3,65,0,0
39001,-100,4,3,3,70,0,0
39683,-100,4,3,3,75,0,0
40365,-100,4,3,3,80,0,0
41047,-100,4,3,3,85,0,0
41728,-100,4,3,3,85,0,0
42410,-100,4,3,3,85,0,0
43689,-100,4,3,3,5,0,0
43774,-100,4,3,3,100,0,1
43816,-100,4,3,3,100,0,1
44456,-100,4,3,3,100,0,0
49228,-100,4,3,4,100,0,0
49271,-100,4,3,3,100,0,0
54683,-100,4,3,3,85,0,0
55024,-100,4,3,3,85,0,0
55280,-100,4,3,3,5,0,0
55365,-100,4,3,4,100,0,1
55407,-100,4,3,3,100,0,1
56047,-100,4,3,3,100,0,0
60138,-100,4,3,4,100,0,0
60180,-100,4,3,3,100,0,0
62865,-100,4,3,3,85,0,0
63888,-100,4,3,3,40,0,0
64228,-100,4,3,3,50,0,0
64569,-100,4,3,3,60,0,0
64910,-100,4,3,3,85,0,0
65592,-100,4,3,4,100,0,1
65635,-100,4,3,3,100,0,1
66274,-100,4,3,3,100,0,0
71047,-100,4,3,4,100,0,0
71089,-100,4,3,3,100,0,0
76501,-100,4,3,3,85,0,0
76842,-100,4,3,3,85,0,0
77098,-100,4,3,3,5,0,0
77183,-100,4,3,4,100,0,1
77226,-100,4,3,3,100,0,1
77865,-100,4,3,3,100,0,0
81956,-100,4,3,4,100,0,0
81998,-100,4,3,3,100,0,0
84683,-100,4,3,4,85,0,0
87410,-100,4,3,4,85,0,0
87453,-100,4,3,3,85,0,0
90052,-100,4,3,3,5,0,0
90138,-100,4,3,3,85,0,0
92865,-100,4,3,4,85,0,0
92907,-100,4,3,3,85,0,0
98319,-100,4,3,4,85,0,0
98362,-100,4,3,3,50,0,0
101047,-100,4,3,3,55,0,0
101728,-100,4,3,3,60,0,0
102410,-100,4,3,3,65,0,0
103092,-100,4,3,3,70,0,0
103774,-100,4,3,3,75,0,0
104456,-100,4,3,3,80,0,0
105138,-100,4,3,3,85,0,0
105819,-100,4,3,3,85,0,0
106501,-100,4,3,3,85,0,0
107183,-100,4,3,3,85,0,0
107865,-100,4,3,3,85,0,0
109228,-100,4,3,3,100,0,1
114683,-100,4,3,4,100,0,1
114726,-100,4,3,3,100,0,1
120138,-100,4,3,3,85,0,0
120819,-100,4,3,4,100,0,1
120862,-100,4,3,3,100,0,1
125592,-100,4,3,4,100,0,1
125635,-100,4,3,3,100,0,1
128319,-100,4,3,3,85,0,0
131047,-100,4,3,4,100,0,0
131089,-100,4,3,3,100,0,1
131728,-100,4,3,3,100,0,0
136501,-100,4,3,4,100,0,0
136544,-100,4,3,3,100,0,0
141956,-100,4,3,3,85,0,0
142638,-100,4,3,4,100,0,1
142680,-100,4,3,3,100,0,1
143319,-100,4,3,3,100,0,0
147410,-100,4,3,4,100,0,0
147453,-100,4,3,3,100,0,0
150138,-100,4,3,4,85,0,0
152865,-100,4,3,4,85,0,0

[Colours]
Combo1 : 242,0,6
Combo2 : 217,0,124
Combo3 : 148,0,204

[HitObjects]
256,192,138,5,6,0:1:0:0:
256,192,308,12,0,10365,0:0:0:0:
11,328,11047,6,0,L|122:310,1,110,6|0,0:1|0:0,0:0:0:0:
203,335,11558,1,0,0:0:0:0:
202,335,11728,2,0,P|219:282|209:229,1,110,8|0,0:0|0:0,0:0:0:0:
134,203,12240,1,4,0:0:0:0:
134,203,12410,2,0,P|116:181|103:153,1,55,0|4,0:0|0:0,0:0:0:0:
42,102,12751,2,0,P|52:76|69:51,1,55,4|0,0:0|0:0,0:0:0:0:
146,29,13092,2,0,P|203:36|262:40,1,110,8|0,0:0|0:0,0:0:0:0:
416,10,13774,6,0,P|421:67|428:131,1,110,4|0,0:0|0:0,0:0:0:0:
484,183,14285,1,0,0:0:0:0:
484,183,14456,2,0,P|484:217|480:248,1,55,8|0,0:0|0:0,0:0:0:0:
495,316,14797,2,0,L|440:325,1,55,0|4,0:0|0:0,0:0:0:0:
373,373,15138,1,0,0:0:0:0:
373,373,15308,2,0,P|324:348|270:338,1,110,4|0,0:0|0:0,0:0:0:0:
190,361,15819,2,0,P|166:315|164:258,1,110,8|0,0:0|0:0,0:0:0:0:
252,118,16501,6,0,P|310:126|387:133,1,110,4|0,0:0|0:0,0:0:0:0:
444,124,17013,1,0,0:0:0:0:
444,124,17183,2,0,P|426:71|383:40,1,110,8|0,0:0|0:0,0:0:0:0:
308,5,17694,1,4,0:0:0:0:
308,5,17865,2,0,L|253:13,1,55,0|4,0:0|0:0,0:0:0:0:
180,51,18206,2,0,L|125:42,1,55,4|0,0:0|0:0,0:0:0:0:
46,18,18547,2,0,P|26:69|38:122,1,110,8|0,0:0|0:0,0:0:0:0:
149,243,19228,6,0,P|193:210|247:204,1,110,4|0,0:0|0:0,0:0:0:0:
324,173,19740,1,0,0:0:0:0:
323,172,19910,2,0,P|342:193|355:217,1,55,8|0,0:0|0:0,0:0:0:0:
426,260,20251,2,0,L|410:326,1,55,0|4,0:0|0:0,0:0:0:0:
352,370,20592,2,0,L|297:362,1,55,0|4,0:0|0:0,0:0:0:0:
229,315,20933,1,4,0:0:0:0:
71,362,21274,2,0,P|58:337|54:310,1,55,8|0,0:0|0:0,0:0:0:0:
13,238,21615,2,0,P|28:215|49:197,1,55,0|0,0:0|0:0,0:0:0:0:
49,114,21956,5,6,0:1:0:0:
422,1,32865,5,14,0:1:0:0:
377,70,33035,2,0,L|383:135,1,55,8|12,0:0|0:0,0:0:0:0:
454,171,33376,1,8,0:0:0:0:
454,171,33547,2,0,L|448:236,1,55,12|8,0:0|0:0,0:0:0:0:
479,303,33888,2,0,L|359:319,1,110,4|4,0:0|0:0,0:0:0:0:
311,376,34399,1,8,0:0:0:0:
311,376,34569,2,0,L|195:349,1,110,4|4,0:0|0:0,0:0:0:0:
121,363,35081,1,8,0:0:0:0:
121,363,35251,2,0,P|108:338|105:311,1,55,4|8,0:0|0:0,0:0:0:0:
74,234,35592,6,0,P|129:224|195:219,1,110,4|4,0:0|0:0,0:0:0:0:
263,248,36103,1,8,0:0:0:0:
263,248,36274,2,0,P|279:217|284:184,1,55,4|8,0:0|0:0,0:0:0:0:
333,135,36615,2,0,P|290:111|263:106,1,55,4|8,0:0|0:0,0:0:0:0:
209,75,36956,2,0,P|166:99|139:104,1,55,4|8,0:0|0:0,0:0:0:0:
85,64,37297,2,0,P|54:110|46:164,1,110,4|4,0:0|0:0,0:0:0:0:
6,236,37808,1,8,0:0:0:0:
6,236,37978,2,0,L|23:301,1,55,4|8,0:0|0:0,0:0:0:0:
41,369,38319,6,0,P|100:363|166:346,1,110,12|8,0:0|0:0,0:0:0:0:
290,267,39001,2,0,P|330:230|384:219,1,110,12|8,0:0|0:0,0:0:0:0:
464,240,39513,1,8,0:0:0:0:
463,240,39683,2,0,P|476:215|480:188,1,55,12|12,0:0|0:0,0:0:0:0:
512,113,40024,2,0,P|497:89|476:72,1,55,12|8,0:0|0:0,0:0:0:0:
421,10,40365,2,0,L|350:19,2,55,12|12|12,0:0|0:0|0:0,0:0:0:0:
288,108,41047,6,0,L|171:87,1,110,8|8,0:0|0:0,0:0:0:0:
130,21,41558,1,8,0:0:0:0:
130,21,41728,2,0,P|110:40|99:66,1,55,8|8,0:0|0:0,0:0:0:0:
30,111,42069,2,0,P|41:162|61:222,1,110,12|0,0:0|0:0,0:0:0:0:
146,357,42751,2,0,P|94:352|19:373,2,110,0|0|2,0:0|0:0|0:2,0:0:0:0:
310,379,43774,6,0,L|294:197,1,165,6|0,0:1|0:0,0:0:0:0:
228,166,44456,2,0,P|300:131|369:175,1,165,8|0,0:0|0:0,0:0:0:0:
447,190,45138,1,4,0:0:0:0:
491,31,45478,1,0,0:0:0:0:
491,31,45649,1,6,0:0:0:0:
419,71,45819,2,0,L|354:62,1,55,10|6,0:0|0:0,0:0:0:0:
298,13,46160,2,0,L|233:22,1,55,2|2,0:0|0:0,0:0:0:0:
160,21,46501,6,0,L|176:200,1,165,4|4,0:0|0:0,0:0:0:0:
249,219,47183,2,0,P|213:260|160:266,1,110,8|0,0:0|0:0,0:0:0:0:
84,233,47694,1,4,0:0:0:0:
84,233,47865,1,4,0:0:0:0:
3,216,48035,6,0,P|1:244|11:269,2,55,2|2|2,0:2|0:2|0:2,0:0:0:0:
5,133,48547,2,0,L|61:122,1,55,2|2,0:2|0:2,0:0:0:0:
124,72,48888,2,0,L|177:82,1,55,2|2,0:2|0:2,0:0:0:0:
243,132,49228,6,0,L|410:109,1,165,6|0,0:1|0:0,0:0:0:0:
454,41,49910,2,0,P|489:113|450:181,1,165,8|0,0:0|0:0,0:0:0:0:
471,261,50592,1,4,0:0:0:0:
339,361,50933,1,0,0:0:0:0:
339,361,51103,1,6,0:0:0:0:
264,324,51274,2,0,L|192:331,1,55,10|6,0:0|0:0,0:0:0:0:
131,356,51615,2,0,L|59:349,1,55,2|6,0:0|0:0,0:0:0:0:
19,290,51956,6,0,P|27:227|32:165,1,110,4|0,0:0|0:0,0:0:0:0:
138,54,52638,2,0,P|145:108|150:163,1,110,8|0,0:0|0:0,0:0:0:0:
136,245,53149,1,8,0:0:0:0:
136,245,53319,2,0,P|166:251|197:249,1,55,8|4,0:0|0:0,0:0:0:0:
272,253,53660,2,0,P|292:230|305:202,1,55,8|4,0:0|0:0,0:0:0:0:
369,158,54001,2,0,P|359:129|341:103,2,55,8|4|8,0:0|0:0|0:0,0:0:0:0:
442,207,54513,1,4,0:0:0:0:
442,207,54683,1,4,0:0:0:0:
171,8,55365,6,0,P|163:97|152:191,1,165,10|0,0:1|0:0,0:0:0:0:
89,223,56047,2,0,P|94:281|100:332,1,110,4|0,0:0|0:0,0:0:0:0:
174,376,56558,1,4,0:0:0:0:
174,376,56728,2,0,L|243:366,1,55,10|6,0:0|0:0,0:0:0:0:
292,317,57069,2,0,L|356:327,1,55,2|2,0:0|0:0,0:0:0:0:
414,372,57410,6,0,P|449:299|426:222,1,165,4|4,0:0|0:0,0:0:0:0:
452,143,58092,2,0,P|406:113|352:109,1,110,0|0,0:0|0:0,0:0:0:0:
282,154,58603,1,4,0:0:0:0:
282,154,58774,1,4,0:0:0:0:
203,178,58944,6,0,P|197:146|203:117,2,55,2|2|4,0:2|0:2|0:0,0:0:0:0:
149,242,59456,2,0,P|170:258|196:266,1,55,8|2,0:0|0:2,0:0:0:0:
221,345,59797,2,8,P|246:334|266:315,1,55,2|2,0:2|0:2,0:0:0:0:
326,258,60138,6,0,L|316:77,1,165,6|0,0:1|0:0,0:0:0:0:
374,34,60819,2,0,P|298:12|237:64,1,165,8|0,0:0|0:0,0:0:0:0:
168,109,61501,1,4,0:0:0:0:
17,42,61842,1,0,0:0:0:0:
16,42,62013,2,0,P|11:68|12:96,1,55,6|10,0:0|0:0,0:0:0:0:
59,169,62353,1,6,0:0:0:0:
59,169,62524,2,0,P|64:195|63:223,1,55,2|6,0:0|0:0,0:0:0:0:
15,290,62865,1,4,0:0:0:0:
256,192,63035,12,8,64910,0:0:0:0:
481,380,65592,6,0,P|475:322|473:258,1,110,6|0,0:1|0:0,0:0:0:0:
420,206,66103,2,0,P|423:173|424:144,1,55,0|8,0:0|0:0,0:0:0:0:
456,75,66444,1,0,0:0:0:0:
456,75,66615,2,0,P|433:59|408:47,1,55,0|0,0:0|0:0,0:0:0:0:
333,12,66956,2,0,L|211:30,1,110,4|0,0:0|0:0,0:0:0:0:
143,7,67467,1,4,0:0:0:0:
143,6,67638,2,0,P|130:31|125:58,1,55,10|6,0:0|0:0,0:0:0:0:
74,123,67978,2,0,P|88:146|109:164,1,55,2|2,0:0|0:0,0:0:0:0:
177,211,68319,6,0,L|290:194,2,110,4|0|8,0:0|0:0|0:0,0:0:0:0:
113,264,69172,1,0,0:0:0:0:
113,264,69342,2,0,P|104:296|106:332,1,55,0|0,0:0|0:0,0:0:0:0:
167,379,69683,5,4,0:0:0:0:
167,379,69853,1,2,0:2:0:0:
227,323,70024,2,0,L|301:331,1,55,2|4,0:2|0:0,0:0:0:0:
353,380,70365,1,8,0:0:0:0:
353,380,70535,1,2,0:2:0:0:
426,343,70706,2,0,P|436:313|432:277,1,55,2|2,0:2|0:2,0:0:0:0:
485,224,71047,6,0,P|458:176|413:145,1,110,6|0,0:1|0:0,0:0:0:0:
343,100,71558,1,0,0:0:0:0:
343,100,71728,2,0,L|279:113,1,55,8|0,0:0|0:0,0:0:0:0:
219,155,72069,2,0,L|155:142,1,55,0|0,0:0|0:0,0:0:0:0:
95,188,72410,2,0,P|64:143|61:88,1,110,4|0,0:0|0:0,0:0:0:0:
110,21,72922,1,6,0:0:0:0:
110,21,73092,2,0,L|190:30,1,55,10|6,0:0|0:0,0:0:0:0:
235,69,73433,2,0,L|315:60,1,55,2|2,0:0|0:3,0:0:0:0:
358,18,73774,6,0,P|394:60|401:114,1,110,4|0,0:0|0:0,0:0:0:0:
462,177,74285,1,4,0:0:0:0:
462,177,74456,2,0,P|443:228|400:261,1,110,8|4,0:0|0:0,0:0:0:0:
348,323,74967,1,4,0:0:0:0:
348,323,75138,2,0,L|288:317,1,55,8|4,0:0|0:0,0:0:0:0:
213,337,75478,2,0,L|153:331,1,55,8|4,0:0|0:0,0:0:0:0:
78,353,75819,2,0,L|18:347,2,55,8|4|8,0:0|0:0|0:0,0:0:0:0:
59,271,76331,1,4,0:0:0:0:
59,271,76501,1,2,0:2:0:0:
256,6,77183,6,0,P|262:64|257:182,1,165,10|0,0:1|0:0,0:0:0:0:
206,234,77865,2,0,P|255:255|309:237,1,110,4|0,0:0|0:0,0:0:0:0:
389,222,78376,1,4,0:0:0:0:
389,222,78547,2,0,P|377:184|379:148,1,55,10|6,0:0|0:0,0:0:0:0:
336,96,78888,2,0,P|363:67|395:50,1,55,2|2,0:0|0:0,0:0:0:0:
451,25,79228,6,0,P|467:83|468:151,1,110,4|0,0:0|0:0,0:0:0:0:
510,210,79740,1,0,0:0:0:0:
510,210,79910,2,0,P|513:239|509:281,1,55,8|0,0:0|0:0,0:0:0:0:
459,327,80251,2,0,L|404:321,1,55,0|0,0:0|0:0,0:0:0:0:
340,270,80592,5,4,0:0:0:0:
340,270,80763,1,2,0:2:0:0:
255,284,80933,2,0,P|252:314|245:347,1,55,2|4,0:2|0:0,0:0:0:0:
171,369,81274,1,8,0:0:0:0:
171,369,81444,1,2,0:2:0:0:
88,343,81615,2,0,P|82:315|80:288,1,55,2|2,0:2|0:2,0:0:0:0:
28,223,81956,6,0,P|57:176|103:146,1,110,6|0,0:1|0:0,0:0:0:0:
153,81,82467,1,0,0:0:0:0:
153,81,82638,2,0,L|226:84,1,55,8|0,0:0|0:0,0:0:0:0:
275,129,82978,1,0,0:0:0:0:
425,197,83319,2,0,P|461:142|459:79,1,110,4|0,0:0|0:0,0:0:0:0:
434,21,83831,1,4,0:0:0:0:
434,21,84001,2,0,L|361:26,1,55,10|6,0:0|0:0,0:0:0:0:
297,13,84342,2,0,L|224:18,1,55,2|2,0:0|0:0,0:0:0:0:
160,5,84683,6,0,P|150:124|148:242,1,220,6|0,0:1|0:0,0:0:0:0:
439,380,86047,2,0,P|435:270|427:160,2,220,0|0|6,0:0|0:0|0:1,0:0:0:0:
277,371,87751,5,0,0:0:0:0:
277,371,87922,1,4,0:0:0:0:
202,326,88092,2,0,L|135:340,1,55,8|0,0:0|0:0,0:0:0:0:
73,373,88433,2,0,P|53:353|44:328,1,55,0|4,0:0|0:0,0:0:0:0:
83,255,88774,2,0,P|95:201|80:149,1,110,4|0,0:0|0:0,0:0:0:0:
26,86,89285,1,4,0:0:0:0:
25,86,89456,2,0,P|45:66|69:53,1,55,8|0,0:0|0:0,0:0:0:0:
148,28,89797,2,0,P|167:47|191:60,2,55,0|0|4,0:0|0:0|0:0,0:0:0:0:
313,31,90478,5,0,0:0:0:0:
313,31,90649,1,4,0:0:0:0:
373,86,90819,2,0,P|368:120|354:152,1,55,8|8,0:0|0:0,0:0:0:0:
305,200,91160,2,0,P|309:228|322:252,1,55,0|8,0:0|0:0,0:0:0:0:
381,309,91501,2,0,P|343:348|289:349,1,110,4|4,0:0|0:0,0:0:0:0:
207,360,92013,1,4,0:0:0:0:
207,360,92183,2,0,P|168:329|148:322,1,55,8|0,0:0|0:0,0:0:0:0:
81,315,92524,2,0,L|70:394,2,55,0|4|6,0:0|0:0|0:1,0:0:0:0:
91,149,93206,6,0,P|152:153|219:153,2,110,0|8|0,0:0|0:0|0:0,0:0:0:0:
20,105,94058,1,8,0:0:0:0:
20,105,94228,2,0,P|36:82|60:70,1,55,4|8,0:0|0:0,0:0:0:0:
126,20,94569,2,0,P|155:21|180:26,1,55,0|4,0:0|0:0,0:0:0:0:
243,79,94910,2,0,P|289:93|365:84,1,110,8|4,0:0|0:0,0:0:0:0:
410,32,95422,1,8,0:0:0:0:
475,82,95592,6,0,L|465:200,1,110,4|4,0:0|0:0,0:0:0:0:
501,353,96274,2,0,L|437:337,1,55,8|0,0:0|0:0,0:0:0:0:
366,324,96615,2,0,L|302:340,1,55,4|4,0:0|0:0,0:0:0:0:
238,374,96956,2,0,L|129:360,1,110,8|4,0:0|0:0,0:0:0:0:
75,296,97467,1,8,0:0:0:0:
75,296,97638,2,0,L|89:228,1,55,8|4,0:0|0:0,0:0:0:0:
44,170,97978,2,0,P|95:156|147:181,1,110,4|6,0:0|0:1,0:0:0:0:
237,316,98660,6,0,L|299:326,1,55,4|8,0:0|0:0,0:0:0:0:
365,362,99001,2,0,P|395:318|382:251,1,110,4|4,0:0|0:0,0:0:0:0:
322,214,99513,1,8,0:0:0:0:
322,214,99683,2,0,P|311:188|310:161,1,55,4|8,0:0|0:0,0:0:0:0:
377,112,100024,2,0,P|356:62|309:34,1,110,4|4,0:0|0:0,0:0:0:0:
231,6,100535,1,8,0:0:0:0:
231,6,100706,2,0,L|105:34,1,110,4|4,0:0|0:0,0:0:0:0:
36,170,101388,6,0,P|31:197|38:224,1,55,4|8,0:0|0:0,0:0:0:0:
98,280,101728,2,0,P|53:315|0:321,2,110,4|4|4,0:0|0:0|0:0,0:0:0:0:
203,152,102751,2,0,L|272:138,1,55,4|8,0:0|0:0,0:0:0:0:
322,90,103092,2,0,L|391:104,1,55,4|8,0:0|0:0,0:0:0:0:
448,62,103433,2,0,P|475:109|462:161,1,110,4|12,0:0|0:0,0:0:0:0:
418,320,104115,6,0,L|341:308,1,55,8|8,0:0|0:0,0:0:0:0:
286,281,104456,2,0,L|209:293,1,55,12|12,0:0|0:0,0:0:0:0:
171,345,104797,1,12,0:0:0:0:
171,345,104967,1,12,0:0:0:0:
98,305,105138,2,0,L|105:184,1,110,12|8,0:0|0:0,0:0:0:0:
53,130,105649,1,8,0:0:0:0:
53,130,105819,2,0,P|96:93|152:92,1,110,12|8,0:0|0:0,0:0:0:0:
305,43,106501,6,0,P|339:86|389:110,1,110,12|12,0:0|0:0,0:0:0:0:
470,90,107013,1,8,0:0:0:0:
469,89,107183,2,0,P|480:115|485:142,1,55,12|8,0:0|0:0,0:0:0:0:
507,220,107524,2,0,P|469:261|420:283,1,110,12|4,0:0|0:0,0:0:0:0:
268,349,108206,6,0,L|133:344,2,110,8|4|8,0:0|0:0|0:1,0:0:0:0:
317,191,109228,6,0,L|207:187,1,110,6|8,0:1|0:0,0:0:0:0:
46,148,109910,2,0,P|36:201|53:253,2,110,0|8|4,0:0|0:0|0:0,0:0:0:0:
139,11,110933,1,8,0:0:0:0:
139,11,111103,1,0,0:0:0:0:
209,54,111274,2,0,L|282:36,1,55,2|6,0:0|0:0,0:0:0:0:
340,66,111615,2,0,L|413:48,1,55,10|2,0:0|0:0,0:0:0:0:
463,8,111956,6,0,P|486:58|476:111,1,110,4|8,0:0|0:0,0:0:0:0:
327,183,112638,2,0,P|304:232|314:285,1,110,0|8,0:0|0:0,0:0:0:0:
383,336,113149,1,0,0:0:0:0:
383,336,113319,1,4,0:0:0:0:
465,332,113490,6,0,P|462:359|451:384,2,55,2|8|2,0:2|0:0|0:2,0:0:0:0:
500,256,114001,2,0,P|485:232|481:205,1,55,2|4,0:2|0:0,0:0:0:0:
409,164,114342,2,0,P|422:140|443:122,1,55,8|2,0:0|0:2,0:0:0:0:
488,53,114683,6,0,P|439:26|384:21,1,110,6|8,0:1|0:0,0:0:0:0:
221,6,115365,2,0,P|171:33|117:37,2,110,0|8|4,0:0|0:0|0:0,0:0:0:0:
283,159,116388,1,8,0:0:0:0:
283,159,116558,1,2,0:0:0:0:
322,231,116728,2,0,P|311:265|290:289,1,55,2|6,0:0|0:0,0:0:0:0:
269,357,117069,2,0,P|234:364|202:358,1,55,10|6,0:0|0:0,0:0:0:0:
134,380,117410,6,0,P|135:325|127:270,1,110,4|8,0:0|0:0,0:0:0:0:
20,145,118092,2,0,P|18:90|26:35,1,110,8|4,0:0|0:0,0:0:0:0:
109,57,118603,1,8,0:0:0:0:
109,57,118774,2,0,P|124:34|147:19,1,55,8|4,0:0|0:0,0:0:0:0:
228,9,119115,2,0,P|255:11|279:23,1,55,8|4,0:0|0:0,0:0:0:0:
337,83,119456,2,0,P|348:107|350:134,2,55,8|4|8,0:0|0:0|0:0,0:0:0:0:
391,20,119967,1,4,0:0:0:0:
391,20,120138,1,0,0:0:0:0:
490,333,120819,6,0,P|441:358|385:362,1,110,2|8,0:1|0:0,0:0:0:0:
233,300,121501,2,0,P|190:265|138:248,1,110,4|8,0:0|0:0,0:0:0:0:
57,268,122013,1,0,0:0:0:0:
57,268,122183,2,0,P|43:229|43:208,1,55,2|6,0:0|0:0,0:0:0:0:
20,135,122524,2,0,P|46:103|64:92,1,55,10|2,0:0|0:0,0:0:0:0:
66,14,122865,6,0,L|192:29,1,110,4|8,0:0|0:0,0:0:0:0:
340,13,123547,2,0,P|325:67|320:121,1,110,0|8,0:0|0:0,0:0:0:0:
282,194,124058,1,0,0:0:0:0:
282,194,124228,1,4,0:0:0:0:
323,265,124399,6,0,L|391:262,2,55,2|8|2,0:2|0:0|0:2,0:0:0:0:
262,321,124910,2,0,P|232:309|189:309,1,55,2|4,0:2|0:0,0:0:0:0:
161,239,125251,2,0,P|136:258|114:296,1,55,8|2,0:0|0:2,0:0:0:0:
49,315,125592,6,0,P|26:265|21:210,1,110,6|8,0:1|0:0,0:0:0:0:
153,111,126274,2,0,P|204:93|259:98,2,110,0|8|4,0:0|0:0|0:0,0:0:0:0:
4,38,127297,1,8,0:0:0:0:
4,38,127467,1,2,0:0:0:0:
79,3,127638,2,0,L|143:8,1,55,2|6,0:0|0:0,0:0:0:0:
215,13,127978,2,0,L|279:18,1,55,10|2,0:0|0:0,0:0:0:0:
256,192,128319,12,4,130365,0:0:0:0:
415,384,131047,6,0,L|422:274,1,110,6|0,0:1|0:0,0:0:0:0:
481,216,131558,1,0,0:0:0:0:
481,215,131728,2,0,P|470:162|429:123,1,110,8|0,0:0|0:0,0:0:0:0:
306,17,132410,2,0,L|197:35,1,110,4|0,0:0|0:0,0:0:0:0:
119,6,132922,1,8,0:0:0:0:
119,5,133092,2,0,P|106:30|103:57,1,55,6|10,0:0|0:0,0:0:0:0:
131,135,133433,2,0,P|143:159|146:186,1,55,10|6,0:0|0:0,0:0:0:0:
210,238,133774,6,0,L|189:366,2,110,4|0|8,0:0|0:0|0:0,0:0:0:0:
275,188,134626,1,0,0:0:0:0:
275,188,134797,2,0,L|339:198,1,55,0|0,0:0|0:0,0:0:0:0:
409,174,135138,6,0,P|412:201|408:228,2,55,4|2|2,0:0|0:2|0:2,0:0:0:0:
468,116,135649,1,4,0:0:0:0:
468,116,135819,2,0,P|444:101|417:95,1,55,8|2,0:0|0:2,0:0:0:0:
366,30,136160,2,0,P|339:36|315:51,1,55,2|2,0:2|0:2,0:0:0:0:
265,115,136501,6,0,L|141:102,1,110,2|4,0:1|0:0,0:0:0:0:
89,53,137013,1,0,0:0:0:0:
89,52,137183,2,0,P|70:103|87:155,1,110,8|0,0:0|0:0,0:0:0:0:
130,315,137865,2,0,L|238:331,1,110,4|0,0:0|0:0,0:0:0:0:
315,362,138376,1,8,0:0:0:0:
315,362,138547,2,0,L|368:348,1,55,6|10,0:0|0:0,0:0:0:0:
452,369,138888,1,10,0:0:0:0:
452,369,139058,1,6,0:0:0:0:
494,299,139228,6,0,P|485:242|484:189,1,110,4|0,0:0|0:0,0:0:0:0:
492,24,139910,2,0,P|435:33|372:38,1,110,8|4,0:0|0:0,0:0:0:0:
315,86,140422,1,4,0:0:0:0:
315,86,140592,2,0,P|289:75|262:70,1,55,8|4,0:0|0:0,0:0:0:0:
198,18,140933,2,0,P|176:34|158:55,1,55,8|4,0:0|0:0,0:0:0:0:
81,85,141274,2,0,L|91:138,2,55,8|4|8,0:0|0:0|0:0,0:0:0:0:
5,118,141785,1,4,0:0:0:0:
5,118,141956,1,2,0:2:0:0:
219,367,142638,6,0,P|252:324|274:274,1,110,10|0,0:1|0:0,0:0:0:0:
167,148,143319,2,0,P|153:94|152:40,1,110,4|0,0:0|0:0,0:0:0:0:
226,2,143831,1,0,0:0:0:0:
226,2,144001,2,0,P|251:14|292:25,1,55,10|2,0:0|0:0,0:0:0:0:
340,74,144342,2,0,P|365:62|406:51,1,55,2|2,0:0|0:0,0:0:0:0:
468,25,144683,6,0,L|477:160,1,110,4|0,0:0|0:0,0:0:0:0:
485,216,145194,1,4,0:0:0:0:
485,216,145365,2,0,L|418:204,1,55,8|0,0:0|0:0,0:0:0:0:
353,178,145706,2,0,L|286:190,1,55,0|0,0:0|0:0,0:0:0:0:
234,240,146047,6,0,P|219:216|214:181,2,55,4|2|2,0:0|0:2|0:2,0:0:0:0:
290,310,146558,1,2,0:2:0:0:
290,310,146728,2,0,P|293:336|283:373,1,55,8|2,0:0|0:2,0:0:0:0:
208,381,147069,2,0,P|174:380|145:374,1,55,2|2,0:2|0:2,0:0:0:0:
88,325,147410,6,0,L|89:215,1,110,6|4,0:1|0:0,0:0:0:0:
40,147,147922,1,0,0:0:0:0:
39,147,148092,2,0,P|81:111|134:101,1,110,8|0,0:0|0:0,0:0:0:0:
278,18,148774,2,0,L|387:28,1,110,4|0,0:0|0:0,0:0:0:0:
467,8,149285,1,0,0:0:0:0:
466,7,149456,2,0,P|472:33|470:62,1,55,10|2,0:0|0:0,0:0:0:0:
498,139,149797,2,0,P|483:163|461:178,1,55,2|2,0:0|0:0,0:0:0:0:
423,251,150138,6,0,P|319:287|206:333,1,220,6|0,0:1|0:0,0:0:0:0:
13,103,151501,2,0,P|116:66|229:20,2,220,0|0|2,0:0|0:0|0:1,0:0:0:0:
