osu file format v14

[General]
AudioFilename: audio.mp3
AudioLeadIn: 0
PreviewTime: 106538
Countdown: 0
SampleSet: Drum
StackLeniency: 0.5
Mode: 0
LetterboxInBreaks: 0
EpilepsyWarning: 1
WidescreenStoryboard: 1

[Editor]
Bookmarks: 11084,21993,32902,43811,65629,87447,98356,109265,131089,152902,174719
DistanceSpacing: 1.6
BeatDivisor: 4
GridSize: 4
TimelineZoom: 2.200001

[Metadata]
Title:Killin' It (Sped Up Ver.)
TitleUnicode:Killin' It (Sped Up Ver.)
Artist:Krewella
ArtistUnicode:Krewella
Creator:h3ct1c
Version:Shmiklak's Hyper
Source:
Tags:Hectic Daycore Shmiklak piroshki AYE1337 PantyDev h4d0uk3n1 get wet play hard ep monstercat drumstep dubstep edm electronic english Reisen Udongein Inaba touhou pink anime girl killing speed marvollo m_a_r_v_o_l_l_o
BeatmapID:2189738
BeatmapSetID:1029940

[Difficulty]
HPDrainRate:4.5
CircleSize:3.8
OverallDifficulty:7
ApproachRate:8
SliderMultiplier:1.3
SliderTickRate:1

[Events]
//Background and Video events
0,0,"killin_it.jpg",0,0
//Break Periods
2,22155,32115
2,87610,97569
//Storyboard Layer 0 (Background)
//Storyboard Layer 1 (Fail)
//Storyboard Layer 2 (Pass)
//Storyboard Layer 3 (Foreground)
Sprite,Foreground,Centre,"sb/s/b.png",0,0 V,2,69683,70053,3,1.8,1,1.8 F,2,69683,70053,1,0 P,0,69683,70053,A R,0,69683,70053,1.57 C,0,69683,,242,0,6 M,0,69683,69725,320,292,320,299.4342 M,0,69725,69768,320,299.4342,320,305.8265 M,0,69768,69810,320,305.8265,320,310.9728 M,0,69810,69853,320,310.9728,320,314.8382
Sprite,Foreground,Centre,"sb/s/b.png",0,0 V,2,70024,70394,3,1.8,1,1.8 F,2,70024,70394,1,0 P,0,70024,70394,A R,0,70024,70394,1.57 C,0,70024,,242,0,6 M,0,70024,70066,320,383,320,386.1917 M,0,70066,70109,320,386.1917,320,391.1545 M,0,70109,70151,320,391.1545,320,397.8253 M,0,70151,70194,320,397.8253,320,406
Sprite,Foreground,Centre,"sb/s/b.png",0,0 V,2,70365,70735,3,1.8,1,1.8 F,2,70365,70735,1,0 P,0,70365,70735,A R,0,70365,70735,1.57 C,0,70365,,242,0,6 M,0,70365,70407,320,388,320,371.8094 M,0,70407,70450,320,371.8094,320,355.6187 M,0,70450,70492,320,355.6187,320,339.4281 M,0,70492,70535,320,339.4281,320,323.2375
Sprite,Foreground,Centre,"sb/s/b.png",0,0 V,2,70706,71076,3,1.8,1,1.8 F,2,70706,71076,1,0 P,0,70706,71076,A R,0,70706,71076,1.57 C,0,70706,,242,0,6 M,0,70706,70748,320,264,320,247.8094 M,0,70748,70791,320,247.8094,320,231.6187 M,0,70791,70833,320,231.6187,320,215.4281 M,0,70833,70876,320,215.4281,320,199.2375
Sprite,Foreground,Centre,"sb/s/b.png",0,0 V,2,71047,71587,3,1.8,1,1.8 F,2,71047,71587,1,0 P,0,71047,71587,A R,0,71047,71587,1.57 C,0,71047,,217,0,124 M,0,71047,71089,320,243,320,259.0858 M,0,71089,71132,320,259.0858,320,275.2404 M,0,71132,71174,320,275.2404,320,291.0611 M,0,71174,71217,320,291.0611,320,306.07 M,0,71217,71260,320,306.07,320,319.8132 M,0,71260,71302,320,319.8132,320,331.8752 M,0,71302,71345,320,331.8752,320,341.8906 M,0,71345,71387,320,341.8906,320,349.5558
Sprite,Foreground,Centre,"sb/s/b.png",0,0 V,2,80592,80962,3,1.8,1,1.8 F,2,80592,80962,1,0 P,0,80592,80962,A R,0,80592,80962,1.57 C,0,80592,,242,0,6 M,0,80592,80634,320,307,320,313.5392 M,0,80634,80677,320,313.5392,320,321.0841 M,0,80677,80719,320,321.0841,320,329.7607 M,0,80719,80762,320,329.7607,320,339.5135
Sprite,Foreground,Centre,"sb/s/b.png",0,0 V,2,80933,81303,3,1.8,1,1.8 F,2,80933,81303,1,0 P,0,80933,81303,A R,0,80933,81303,1.57 C,0,80933,,242,0,6 M,0,80933,80975,320,391,320,384.4608 M,0,80975,81018,320,384.4608,320,376.9159 M,0,81018,81060,320,376.9159,320,368.2393 M,0,81060,81103,320,368.2393,320,358.4865
Sprite,Foreground,Centre,"sb/s/b.png",0,0 V,2,81274,81644,3,1.8,1,1.8 F,2,81274,81644,1,0 P,0,81274,81644,A R,0,81274,81644,1.57 C,0,81274,,242,0,6 M,0,81274,81316,320,280,320,273.4608 M,0,81316,81359,320,273.4608,320,265.9159 M,0,81359,81401,320,265.9159,320,257.2393 M,0,81401,81444,320,257.2393,320,247.4866
Sprite,Foreground,Centre,"sb/s/b.png",0,0 V,2,81615,81985,3,1.8,1,1.8 F,2,81615,81985,1,0 P,0,81615,81985,A R,0,81615,81985,1.57 C,0,81615,,242,0,6 M,0,81615,81657,320,196,320,202.5392 M,0,81657,81700,320,202.5392,320,210.0841 M,0,81700,81742,320,210.0841,320,218.7607 M,0,81742,81785,320,218.7607,320,228.5134
Sprite,Foreground,Centre,"sb/s/b.png",0,0 V,2,81956,82496,3,1.8,1,1.8 F,2,81956,82496,1,0 P,0,81956,82496,A R,0,81956,82496,1.57 C,0,81956,,217,0,124 M,0,81956,81998,320,125,320,118.7172 M,0,81998,82041,320,118.7172,320,115.2231 M,0,82041,82083,320,115.2231,320,115.0625 M,0,82083,82126,320,115.0625,320,118.2434 M,0,82126,82169,320,118.2434,320,124.6298 M,0,82169,82211,320,124.6298,320,133.9475 M,0,82211,82254,320,133.9475,320,145.7956 M,0,82254,82296,320,145.7956,320,159.5935
Sprite,Foreground,Centre,"sb/s/b.png",0,0 V,2,109228,109683,4,1.8,2,1.8 F,2,109228,109683,1,0 P,0,109228,109683,A R,0,109228,109683,1.57 C,0,109228,,242,0,6 M,0,109228,109270,320,127,320,126.205 M,0,109270,109313,320,126.205,320,126.483 M,0,109313,109355,320,126.483,320,127.9013 M,0,109355,109398,320,127.9013,320,130.4566 M,0,109398,109441,320,130.4566,320,134.1434 M,0,109441,109483,320,134.1434,320,138.9259
Sprite,Foreground,Centre,"sb/s/b.png",0,0 V,2,109569,109939,4,1.8,2,1.8 F,2,109569,109939,1,0 P,0,109569,109939,A R,0,109569,109939,1.57 C,0,109569,,242,0,6 M,0,109569,109611,320,160,320,179.1522 M,0,109611,109654,320,179.1522,320,198.5877 M,0,109654,109696,320,198.5877,320,217.7729 M,0,109696,109739,320,217.7729,320,236.0318
Sprite,Foreground,Centre,"sb/s/b.png",320,304 V,2,109910,110110,4,1.8,2,1.8 F,2,109910,110110,1,0 P,0,109910,110110,A R,0,109910,110110,1.57 C,0,109910,,242,0,6
Sprite,Foreground,Centre,"sb/s/b.png",320,376 V,2,110081,110281,4,1.8,2,1.8 F,2,110081,110281,1,0 P,0,110081,110281,A R,0,110081,110281,1.57 C,0,110081,,242,0,6
Sprite,Foreground,Centre,"sb/s/b.png",0,0 V,2,110251,110621,4,1.8,2,1.8 F,2,110251,110621,1,0 P,0,110251,110621,A R,0,110251,110621,1.57 C,0,110251,,242,0,6 M,0,110251,110293,320,316,320,318.087 M,0,110293,110336,320,318.087,320,321.835 M,0,110336,110378,320,321.835,320,327.0678 M,0,110378,110421,320,327.0678,320,334.1428
Sprite,Foreground,Centre,"sb/s/b.png",0,0 V,2,110592,111132,4,1.8,2,1.8 F,2,110592,111132,1,0 P,0,110592,111132,A R,0,110592,111132,1.57 C,0,110592,,217,0,124 M,0,110592,110634,320,404,320,384.5574 M,0,110634,110677,320,384.5574,320,365.1149 M,0,110677,110719,320,365.1149,320,345.6723 M,0,110719,110762,320,345.6723,320,326.2297 M,0,110762,110805,320,326.2297,320,306.7872 M,0,110805,110847,320,306.7872,320,287.3446 M,0,110847,110890,320,287.3446,320,267.9021 M,0,110890,110932,320,267.9021,320,248.4595
Sprite,Foreground,Centre,"sb/s/b.png",320,196 V,2,111103,111303,4,1.8,2,1.8 F,2,111103,111303,1,0 P,0,111103,111303,A R,0,111103,111303,1.57 C,0,111103,,217,0,124
Sprite,Foreground,Centre,"sb/s/b.png",320,260 V,2,111274,111474,4,1.8,2,1.8 F,2,111274,111474,1,0 P,0,111274,111474,A R,0,111274,111474,1.57 C,0,111274,,217,0,124
Sprite,Foreground,Centre,"sb/s/b.png",0,0 V,2,111444,111814,4,1.8,2,1.8 F,2,111444,111814,1,0 P,0,111444,111814,A R,0,111444,111814,1.57 C,0,111444,,217,0,124 M,0,111444,111486,320,196,320,176.6469 M,0,111486,111529,320,176.6469,320,157.854 M,0,111529,111571,320,157.854,320,139.9542 M,0,111571,111614,320,139.9542,320,123.5877
Sprite,Foreground,Centre,"sb/s/b.png",320,56 V,2,111785,111985,4,1.8,2,1.8 F,2,111785,111985,1,0 P,0,111785,111985,A R,0,111785,111985,1.57 C,0,111785,,217,0,124
Sprite,Foreground,Centre,"sb/s/b.png",0,0 V,2,111956,112411,4,1.8,2,1.8 F,2,111956,112411,1,0 P,0,111956,112411,A R,0,111956,112411,1.57 C,0,111956,,148,0,204 M,0,111956,111998,320,176,320,176.0488 M,0,111998,112041,320,176.0488,320,178.7593 M,0,112041,112083,320,178.7593,320,184.4486 M,0,112083,112126,320,184.4486,320,193.2941 M,0,112126,112169,320,193.2941,320,205.2384 M,0,112169,112211,320,205.2384,320,219.9967
Sprite,Foreground,Centre,"sb/s/b.png",0,0 V,2,112297,112667,4,1.8,2,1.8 F,2,112297,112667,1,0 P,0,112297,112667,A R,0,112297,112667,1.57 C,0,112297,,148,0,204 M,0,112297,112339,320,240,320,237.1074 M,0,112339,112382,320,237.1074,320,234.2147 M,0,112382,112424,320,234.2147,320,231.3221 M,0,112424,112467,320,231.3221,320,228.4294
Sprite,Foreground,Centre,"sb/s/b.png",320,308 V,2,112638,112838,4,1.8,2,1.8 F,2,112638,112838,1,0 P,0,112638,112838,A R,0,112638,112838,1.57 C,0,112638,,148,0,204
Sprite,Foreground,Centre,"sb/s/b.png",0,0 V,2,112808,113178,4,1.8,2,1.8 F,2,112808,113178,1,0 P,0,112808,113178,A R,0,112808,113178,1.57 C,0,112808,,148,0,204 M,0,112808,112850,320,368,320,366.3072 M,0,112850,112893,320,366.3072,320,362.23 M,0,112893,112935,320,362.23,320,355.8318 M,0,112935,112978,320,355.8318,320,347.3669
Sprite,Foreground,Centre,"sb/s/b.png",0,0 V,2,113149,113519,4,1.8,2,1.8 F,2,113149,113519,1,0 P,0,113149,113519,A R,0,113149,113519,1.57 C,0,113149,,148,0,204 M,0,113149,113191,320,308,320,309.0033 M,0,113191,113234,320,309.0033,320,312.7961 M,0,113234,113276,320,312.7961,320,319.2977 M,0,113276,113319,320,319.2977,320,328.1823
Sprite,Foreground,Centre,"sb/s/b.png",0,0 V,2,113490,113775,4,1.8,2,1.8 F,2,113490,113775,1,0 P,0,113490,113775,A R,0,113490,113775,1.57 C,0,113490,,242,0,6 M,0,113490,113532,320,208,320,210.2784 M,0,113532,113575,320,210.2784,320,212.5568
Sprite,Foreground,Centre,"sb/s/b.png",0,0 V,2,113660,113945,4,1.8,2,1.8 F,2,113660,113945,1,0 P,0,113660,113945,A R,0,113660,113945,1.57 C,0,113660,,242,0,6 M,0,113660,113702,320,196,320,193.7216 M,0,113702,113745,320,193.7216,320,191.4432
Sprite,Foreground,Centre,"sb/s/b.png",320,204 V,2,113831,114031,4,1.8,2,1.8 F,2,113831,114031,1,0 P,0,113831,114031,A R,0,113831,114031,1.57 C,0,113831,,242,0,6
Sprite,Foreground,Centre,"sb/s/b.png",320,144 V,2,114001,114201,4,1.8,2,1.8 F,2,114001,114201,1,0 P,0,114001,114201,A R,0,114001,114201,1.57 C,0,114001,,242,0,6
Sprite,Foreground,Centre,"sb/s/b.png",0,0 V,2,114172,114712,4,1.8,2,1.8 F,2,114172,114712,1,0 P,0,114172,114712,A R,0,114172,114712,1.57 C,0,114172,,242,0,6 M,0,114172,114214,320,220,320,239.3212 M,0,114214,114257,320,239.3212,320,258.6424 M,0,114257,114299,320,258.6424,320,277.9636 M,0,114299,114342,320,277.9636,320,297.2847 M,0,114342,114385,320,297.2847,320,277.9636 M,0,114385,114427,320,277.9636,320,258.6424 M,0,114427,114470,320,258.6424,320,239.3212 M,0,114470,114512,320,239.3212,320,220
Sprite,Foreground,Centre,"sb/s/b.png",0,0 V,2,114683,115138,4,1.8,2,1.8 F,2,114683,115138,1,0 P,0,114683,115138,A R,0,114683,115138,1.57 C,0,114683,,217,0,124 M,0,114683,114725,320,84,320,108.0714 M,0,114725,114768,320,108.0714,320,130.6726 M,0,114768,114810,320,130.6726,320,150.3263 M,0,114810,114853,320,150.3263,320,165.7406 M,0,114853,114896,320,165.7406,320,175.9005 M,0,114896,114938,320,175.9005,320,180.1342
Sprite,Foreground,Centre,"sb/s/b.png",0,0 V,2,115024,115394,4,1.8,2,1.8 F,2,115024,115394,1,0 P,0,115024,115394,A R,0,115024,115394,1.57 C,0,115024,,217,0,124 M,0,115024,115066,320,172,320,191.304 M,0,115066,115109,320,191.304,320,210.608 M,0,115109,115151,320,210.608,320,229.912 M,0,115151,115194,320,229.912,320,249.2161
Sprite,Foreground,Centre,"sb/s/b.png",0,0 V,2,115365,115905,4,1.8,2,1.8 F,2,115365,115905,1,0 P,0,115365,115905,A R,0,115365,115905,1.57 C,0,115365,,217,0,124 M,0,115365,115407,320,332,320,324.8242 M,0,115407,115450,320,324.8242,320,319.1092 M,0,115450,115492,320,319.1092,320,314.7886 M,0,115492,115535,320,314.7886,320,312.1956 M,0,115535,115578,320,312.1956,320,311.1425 M,0,115578,115620,320,311.1425,320,311.5703 M,0,115620,115663,320,311.5703,320,313.7123 M,0,115663,115705,320,313.7123,320,317.2525
Sprite,Foreground,Centre,"sb/s/b.png",320,359 V,2,115876,116076,4,1.8,2,1.8 F,2,115876,116076,1,0 P,0,115876,116076,A R,0,115876,116076,1.57 C,0,115876,,217,0,124
Sprite,Foreground,Centre,"sb/s/b.png",0,0 V,2,116047,116587,4,1.8,2,1.8 F,2,116047,116587,1,0 P,0,116047,116587,A R,0,116047,116587,1.57 C,0,116047,,148,0,204 M,0,116047,116089,320,280,320,261.4512 M,0,116089,116132,320,261.4512,320,242.9023 M,0,116132,116174,320,242.9023,320,224.3535 M,0,116174,116217,320,224.3535,320,205.8051 M,0,116217,116260,320,205.8051,320,187.3058 M,0,116260,116302,320,187.3058,320,168.8065 M,0,116302,116345,320,168.8065,320,150.3072 M,0,116345,116387,320,150.3072,320,131.8078
Sprite,Foreground,Centre,"sb/s/b.png",320,88 V,2,116558,116758,4,1.8,2,1.8 F,2,116558,116758,1,0 P,0,116558,116758,A R,0,116558,116758,1.57 C,0,116558,,148,0,204
Sprite,Foreground,Centre,"sb/s/b.png",320,128 V,2,116728,116928,4,1.8,2,1.8 F,2,116728,116928,1,0 P,0,116728,116928,A R,0,116728,116928,1.57 C,0,116728,,148,0,204
Sprite,Foreground,Centre,"sb/s/b.png",0,0 V,2,116899,117269,4,1.8,2,1.8 F,2,116899,117269,1,0 P,0,116899,117269,A R,0,116899,117269,1.57 C,0,116899,,148,0,204 M,0,116899,116941,320,84,320,85.97307 M,0,116941,116984,320,85.97307,320,89.47937 M,0,116984,117026,320,89.47937,320,94.49654 M,0,117026,117069,320,94.49654,320,100.9929
Sprite,Foreground,Centre,"sb/s/b.png",320,184 V,2,117240,117440,4,1.8,2,1.8 F,2,117240,117440,1,0 P,0,117240,117440,A R,0,117240,117440,1.57 C,0,117240,,148,0,204
Sprite,Foreground,Centre,"sb/s/b.png",0,0 V,2,117410,117780,4,1.8,2,1.8 F,2,117410,117780,1,0 P,0,117410,117780,A R,0,117410,117780,1.57 C,0,117410,,242,0,6 M,0,117410,117452,320,224,320,223.0258 M,0,117452,117495,320,223.0258,320,222.0516 M,0,117495,117537,320,222.0516,320,221.0773 M,0,117537,117580,320,221.0773,320,220.1031
Sprite,Foreground,Centre,"sb/s/b.png",0,0 V,2,117751,118121,4,1.8,2,1.8 F,2,117751,118121,1,0 P,0,117751,118121,A R,0,117751,118121,1.57 C,0,117751,,242,0,6 M,0,117751,117793,320,236,320,235.0258 M,0,117793,117836,320,235.0258,320,234.0516 M,0,117836,117878,320,234.0516,320,233.0773 M,0,117878,117921,320,233.0773,320,232.1031
Sprite,Foreground,Centre,"sb/s/b.png",0,0 V,2,118092,118462,4,1.8,2,1.8 F,2,118092,118462,1,0 P,0,118092,118462,A R,0,118092,118462,1.57 C,0,118092,,242,0,6 M,0,118092,118134,320,330,320,329.0258 M,0,118134,118177,320,329.0258,320,328.0515 M,0,118177,118219,320,328.0515,320,327.0773 M,0,118219,118262,320,327.0773,320,326.1031
Sprite,Foreground,Centre,"sb/s/b.png",0,0 V,2,118433,118803,4,1.8,2,1.8 F,2,118433,118803,1,0 P,0,118433,118803,A R,0,118433,118803,1.57 C,0,118433,,242,0,6 M,0,118433,118475,320,342,320,341.0258 M,0,118475,118518,320,341.0258,320,340.0515 M,0,118518,118560,320,340.0515,320,339.0773 M,0,118560,118603,320,339.0773,320,338.1031
Sprite,Foreground,Centre,"sb/s/b.png",320,358 V,2,118689,118889,4,1.8,2,1.8 F,2,118689,118889,1,0 P,0,118689,118889,A R,0,118689,118889,1.57 C,0,118689,,242,0,6
Sprite,Foreground,Centre,"sb/s/b.png",0,0 V,2,118774,119144,4,1.8,2,1.8 F,2,118774,119144,1,0 P,0,118774,119144,A R,0,118774,119144,1.57 C,0,118774,,217,0,124 M,0,118774,118816,320,378,320,377.16 M,0,118816,118859,320,377.16,320,376.32 M,0,118859,118901,320,376.32,320,375.4799 M,0,118901,118944,320,375.4799,320,374.6399
Sprite,Foreground,Centre,"sb/s/b.png",0,0 V,2,119115,119485,4,1.8,2,1.8 F,2,119115,119485,1,0 P,0,119115,119485,A R,0,119115,119485,1.57 C,0,119115,,217,0,124 M,0,119115,119157,320,284,320,270.2739 M,0,119157,119200,320,270.2739,320,254.1827 M,0,119200,119242,320,254.1827,320,235.8451 M,0,119242,119285,320,235.8451,320,215.5752
Sprite,Foreground,Centre,"sb/s/b.png",320,188 V,2,119370,119570,4,1.8,2,1.8 F,2,119370,119570,1,0 P,0,119370,119570,A R,0,119370,119570,1.57 C,0,119370,,217,0,124
Sprite,Foreground,Centre,"sb/s/b.png",0,0 V,2,119456,119741,4,1.8,2,1.8 F,2,119456,119741,1,0 P,0,119456,119741,A R,0,119456,119741,1.57 C,0,119456,,217,0,124 M,0,119456,119498,320,164,320,144.5574 M,0,119498,119541,320,144.5574,320,125.1149
Sprite,Foreground,Centre,"sb/s/b.png",0,0 V,2,119626,119911,4,1.8,2,1.8 F,2,119626,119911,1,0 P,0,119626,119911,A R,0,119626,119911,1.57 C,0,119626,,217,0,124 M,0,119626,119668,320,112,320,131.4395 M,0,119668,119711,320,131.4395,320,150
Sprite,Foreground,Centre,"sb/s/b.png",0,0 V,2,119797,120082,4,1.8,2,1.8 F,2,119797,120082,1,0 P,0,119797,120082,A R,0,119797,120082,1.57 C,0,119797,,217,0,124 M,0,119797,119839,320,168,320,148.5574 M,0,119839,119882,320,148.5574,320,129.1149
Sprite,Foreground,Centre,"sb/s/b.png",0,0 V,2,119967,120252,4,1.8,2,1.8 F,2,119967,120252,1,0 P,0,119967,120252,A R,0,119967,120252,1.57 C,0,119967,,217,0,124 M,0,119967,120009,320,112,320,131.3807 M,0,120009,120052,320,131.3807,320,150.7615
Sprite,Foreground,Centre,"sb/s/b.png",0,0 V,2,120138,120678,4,1.8,2,1.8 F,2,120138,120678,1,0 P,0,120138,120678,A R,0,120138,120678,1.57 C,0,120138,,148,0,204 M,0,120138,120180,320,212,320,213.2135 M,0,120180,120223,320,213.2135,320,222.6858 M,0,120223,120265,320,222.6858,320,238.4338 M,0,120265,120308,320,238.4338,320,257.2096 M,0,120308,120351,320,257.2096,320,275.1269 M,0,120351,120393,320,275.1269,320,288.2816 M,0,120393,120436,320,288.2816,320,294.3633 M,0,120436,120478,320,294.3633,320,291.0166
Sprite,Foreground,Centre,"sb/s/b.png",0,0 V,2,120819,121274,4,1.8,2,1.8 F,2,120819,121274,1,0 P,0,120819,121274,A R,0,120819,121274,1.57 C,0,120819,,242,0,6 M,0,120819,120861,320,291,320,297.4209 M,0,120861,120904,320,297.4209,320,299.3293 M,0,120904,120946,320,299.3293,320,292.8907 M,0,120946,120989,320,292.8907,320,285.2847 M,0,120989,121032,320,285.2847,320,285.4326 M,0,121032,121074,320,285.4326,320,290.5201
Sprite,Foreground,Centre,"sb/s/b.png",0,0 V,2,121160,121615,4,1.8,2,1.8 F,2,121160,121615,1,0 P,0,121160,121615,A R,0,121160,121615,1.57 C,0,121160,,242,0,6 M,0,121160,121202,320,304,320,284.5357 M,0,121202,121245,320,284.5357,320,265.0714 M,0,121245,121287,320,265.0714,320,245.6071 M,0,121287,121330,320,245.6071,320,226.1429 M,0,121330,121373,320,226.1429,320,206.6786 M,0,121373,121415,320,206.6786,320,187.2143
Sprite,Foreground,Centre,"sb/s/b.png",0,0 V,2,121501,122041,4,1.8,2,1.8 F,2,121501,122041,1,0 P,0,121501,122041,A R,0,121501,122041,1.57 C,0,121501,,217,0,124 M,0,121501,121543,320,164,320,165.6147 M,0,121543,121586,320,165.6147,320,165.2227 M,0,121586,121628,320,165.2227,320,162.933 M,0,121628,121671,320,162.933,320,158.422 M,0,121671,121714,320,158.422,320,152.1485 M,0,121714,121756,320,152.1485,320,143.7218 M,0,121756,121799,320,143.7218,320,133.5352 M,0,121799,121841,320,133.5352,320,121.7746
Sprite,Foreground,Centre,"sb/s/b.png",320,60 V,2,122013,122213,4,1.8,2,1.8 F,2,122013,122213,1,0 P,0,122013,122213,A R,0,122013,122213,1.57 C,0,122013,,217,0,124
Sprite,Foreground,Centre,"sb/s/b.png",320,184 V,2,122183,122383,4,1.8,2,1.8 F,2,122183,122383,1,0 P,0,122183,122383,A R,0,122183,122383,1.57 C,0,122183,,217,0,124
Sprite,Foreground,Centre,"sb/s/b.png",0,0 V,2,122353,122723,4,1.8,2,1.8 F,2,122353,122723,1,0 P,0,122353,122723,A R,0,122353,122723,1.57 C,0,122353,,217,0,124 M,0,122353,122395,320,113,320,107.3425 M,0,122395,122438,320,107.3425,320,104.4514 M,0,122438,122480,320,104.4514,320,104.171 M,0,122480,122523,320,104.171,320,107.0029
Sprite,Foreground,Centre,"sb/s/b.png",320,160 V,2,122694,122894,4,1.8,2,1.8 F,2,122694,122894,1,0 P,0,122694,122894,A R,0,122694,122894,1.57 C,0,122694,,217,0,124
Sprite,Foreground,Centre,"sb/s/b.png",0,0 V,2,122865,123320,4,1.8,2,1.8 F,2,122865,123320,1,0 P,0,122865,123320,A R,0,122865,123320,1.57 C,0,122865,,148,0,204 M,0,122865,122907,320,288,320,286.7195 M,0,122907,122950,320,286.7195,320,285.4944 M,0,122950,122992,320,285.4944,320,284.3256 M,0,122992,123035,320,284.3256,320,283.213 M,0,123035,123078,320,283.213,320,282.1556 M,0,123078,123120,320,282.1556,320,281.1546
Sprite,Foreground,Centre,"sb/s/b.png",0,0 V,2,123206,123661,4,1.8,2,1.8 F,2,123206,123661,1,0 P,0,123206,123661,A R,0,123206,123661,1.57 C,0,123206,,148,0,204 M,0,123206,123248,320,300,320,303.7033 M,0,123248,123291,320,303.7033,320,310.5427 M,0,123291,123333,320,310.5427,320,320.1948 M,0,123333,123376,320,320.1948,320,332.8366 M,0,123376,123419,320,332.8366,320,347.6128 M,0,123419,123461,320,347.6128,320,364.5444
Sprite,Foreground,Centre,"sb/s/b.png",0,0 V,2,123547,123917,4,1.8,2,1.8 F,2,123547,123917,1,0 P,0,123547,123917,A R,0,123547,123917,1.57 C,0,123547,,148,0,204 M,0,123547,123589,320,384,320,390.176 M,0,123589,123632,320,390.176,320,391.4955 M,0,123632,123674,320,391.4955,320,388.051 M,0,123674,123717,320,388.051,320,379.406
Sprite,Foreground,Centre,"sb/s/b.png",320,300 V,2,123888,124088,4,1.8,2,1.8 F,2,123888,124088,1,0 P,0,123888,124088,A R,0,123888,124088,1.57 C,0,123888,,148,0,204
Sprite,Foreground,Centre,"sb/s/b.png",0,0 V,2,124058,124428,4,1.8,2,1.8 F,2,124058,124428,1,0 P,0,124058,124428,A R,0,124058,124428,1.57 C,0,124058,,148,0,204 M,0,124058,124100,320,216,320,196.5 M,0,124100,124143,320,196.5,320,177 M,0,124143,124185,320,177,320,157.5 M,0,124185,124228,320,157.5,320,138
Sprite,Foreground,Centre,"sb/s/b.png",0,0 V,2,124399,124684,4,1.8,2,1.8 F,2,124399,124684,1,0 P,0,124399,124684,A R,0,124399,124684,1.57 C,0,124399,,242,0,6 M,0,124399,124441,320,67,320,91.2908 M,0,124441,124484,320,91.2908,320,115
Sprite,Foreground,Centre,"sb/s/b.png",0,0 V,2,124569,124854,4,1.8,2,1.8 F,2,124569,124854,1,0 P,0,124569,124854,A R,0,124569,124854,1.57 C,0,124569,,242,0,6 M,0,124569,124611,320,134,320,158.375 M,0,124611,124654,320,158.375,320,182.75
Sprite,Foreground,Centre,"sb/s/b.png",320,212 V,2,124740,124940,4,1.8,2,1.8 F,2,124740,124940,1,0 P,0,124740,124940,A R,0,124740,124940,1.57 C,0,124740,,242,0,6
Sprite,Foreground,Centre,"sb/s/b.png",320,319 V,2,124910,125110,4,1.8,2,1.8 F,2,124910,125110,1,0 P,0,124910,125110,A R,0,124910,125110,1.57 C,0,124910,,242,0,6
Sprite,Foreground,Centre,"sb/s/b.png",0,0 V,2,125081,125621,4,1.8,2,1.8 F,2,125081,125621,1,0 P,0,125081,125621,A R,0,125081,125621,1.57 C,0,125081,,242,0,6 M,0,125081,125123,320,373,320,371.73 M,0,125123,125166,320,371.73,320,370.46 M,0,125166,125208,320,370.46,320,369.19 M,0,125208,125251,320,369.19,320,367.92 M,0,125251,125294,320,367.92,320,369.19 M,0,125294,125336,320,369.19,320,370.46 M,0,125336,125379,320,370.46,320,371.73 M,0,125379,125421,320,371.73,320,373
Sprite,Foreground,Centre,"sb/s/b.png",0,0 V,2,125592,126047,4,1.8,2,1.8 F,2,125592,126047,1,0 P,0,125592,126047,A R,0,125592,126047,1.57 C,0,125592,,217,0,124 M,0,125592,125634,320,252,320,228.7889 M,0,125634,125677,320,228.7889,320,204.5087 M,0,125677,125719,320,204.5087,320,181.1026 M,0,125719,125762,320,181.1026,320,167.1254 M,0,125762,125805,320,167.1254,320,180.2 M,0,125805,125847,320,180.2,320,189.446
Sprite,Foreground,Centre,"sb/s/b.png",0,0 V,2,125933,126388,4,1.8,2,1.8 F,2,125933,126388,1,0 P,0,125933,126388,A R,0,125933,126388,1.57 C,0,125933,,217,0,124 M,0,125933,125975,320,196,320,194.7029 M,0,125975,126018,320,194.7029,320,193.4058 M,0,126018,126060,320,193.4058,320,192.1086 M,0,126060,126103,320,192.1086,320,190.8115 M,0,126103,126146,320,190.8115,320,189.5144 M,0,126146,126188,320,189.5144,320,188.2173
Sprite,Foreground,Centre,"sb/s/b.png",0,0 V,2,126274,126644,4,1.8,2,1.8 F,2,126274,126644,1,0 P,0,126274,126644,A R,0,126274,126644,1.57 C,0,126274,,217,0,124 M,0,126274,126316,320,204,320,203.1342 M,0,126316,126359,320,203.1342,320,202.2684 M,0,126359,126401,320,202.2684,320,201.4026 M,0,126401,126444,320,201.4026,320,200.5368
Sprite,Foreground,Centre,"sb/s/b.png",0,0 V,2,126615,126985,4,1.8,2,1.8 F,2,126615,126985,1,0 P,0,126615,126985,A R,0,126615,126985,1.57 C,0,126615,,217,0,124 M,0,126615,126657,320,284,320,284.7592 M,0,126657,126700,320,284.7592,320,285.5183 M,0,126700,126742,320,285.5183,320,286.2775 M,0,126742,126785,320,286.2775,320,287
Sprite,Foreground,Centre,"sb/s/b.png",0,0 V,2,126956,127496,4,1.8,2,1.8 F,2,126956,127496,1,0 P,0,126956,127496,A R,0,126956,127496,1.57 C,0,126956,,148,0,204 M,0,126956,126998,320,364,320,344.584 M,0,126998,127041,320,344.584,320,325.1112 M,0,127041,127083,320,325.1112,320,305.7682 M,0,127083,127126,320,305.7682,320,286.8185 M,0,127126,127169,320,286.8185,320,268.3712 M,0,127169,127211,320,268.3712,320,250.805 M,0,127211,127254,320,250.805,320,234.2046 M,0,127254,127296,320,234.2046,320,218.6783
Sprite,Foreground,Centre,"sb/s/b.png",320,180 V,2,127467,127667,4,1.8,2,1.8 F,2,127467,127667,1,0 P,0,127467,127667,A R,0,127467,127667,1.57 C,0,127467,,148,0,204
Sprite,Foreground,Centre,"sb/s/b.png",320,264 V,2,127638,127838,4,1.8,2,1.8 F,2,127638,127838,1,0 P,0,127638,127838,A R,0,127638,127838,1.57 C,0,127638,,148,0,204
Sprite,Foreground,Centre,"sb/s/b.png",0,0 V,2,127808,128178,4,1.8,2,1.8 F,2,127808,128178,1,0 P,0,127808,128178,A R,0,127808,128178,1.57 C,0,127808,,148,0,204 M,0,127808,127850,320,348,320,342.3425 M,0,127850,127893,320,342.3425,320,339.4514 M,0,127893,127935,320,339.4514,320,339.171 M,0,127935,127978,320,339.171,320,342.0029
Sprite,Foreground,Centre,"sb/s/b.png",0,0 V,2,128149,128519,4,1.8,2,1.8 F,2,128149,128519,1,0 P,0,128149,128519,A R,0,128149,128519,1.57 C,0,128149,,148,0,204 M,0,128149,128191,320,388,320,389.2808 M,0,128191,128234,320,389.2808,320,387.9347 M,0,128234,128276,320,387.9347,320,384.1588 M,0,128276,128319,320,384.1588,320,377.6193
Sprite,Foreground,Centre,"sb/s/b.png",0,0 V,2,135138,135508,4,1.8,2,1.8 F,2,135138,135508,1,0 P,0,135138,135508,A R,0,135138,135508,1.57 C,0,135138,,242,0,6 M,0,135138,135180,320,296,320,281.5634 M,0,135180,135223,320,281.5634,320,266.6453 M,0,135223,135265,320,266.6453,320,251.2521 M,0,135265,135308,320,251.2521,320,235.4873
Sprite,Foreground,Centre,"sb/s/b.png",0,0 V,2,135478,135848,4,1.8,2,1.8 F,2,135478,135848,1,0 P,0,135478,135848,A R,0,135478,135848,1.57 C,0,135478,,242,0,6 M,0,135478,135520,320,216,320,231.9244 M,0,135520,135563,320,231.9244,320,247.3884 M,0,135563,135605,320,247.3884,320,262.1957 M,0,135605,135648,320,262.1957,320,276
Sprite,Foreground,Centre,"sb/s/b.png",0,0 V,2,135819,136189,4,1.8,2,1.8 F,2,135819,136189,1,0 P,0,135819,136189,A R,0,135819,136189,1.57 C,0,135819,,242,0,6 M,0,135819,135861,320,377,320,378.3878 M,0,135861,135904,320,378.3878,320,379.7755 M,0,135904,135946,320,379.7755,320,381.1633 M,0,135946,135989,320,381.1633,320,382.5511
Sprite,Foreground,Centre,"sb/s/b.png",0,0 V,2,136160,136530,4,1.8,2,1.8 F,2,136160,136530,1,0 P,0,136160,136530,A R,0,136160,136530,1.57 C,0,136160,,242,0,6 M,0,136160,136202,320,435,320,433.6122 M,0,136202,136245,320,433.6122,320,432.2245 M,0,136245,136287,320,432.2245,320,430.8367 M,0,136287,136330,320,430.8367,320,429.4489
Sprite,Foreground,Centre,"sb/s/b.png",0,0 V,2,136501,137041,4,1.8,2,1.8 F,2,136501,137041,1,0 P,0,136501,137041,A R,0,136501,137041,1.57 C,0,136501,,217,0,124 M,0,136501,136543,320,360,320,343.8156 M,0,136543,136586,320,343.8156,320,327.6192 M,0,136586,136628,320,327.6192,320,311.4118 M,0,136628,136671,320,311.4118,320,295.1948 M,0,136671,136714,320,295.1948,320,278.9694 M,0,136714,136756,320,278.9694,320,262.7368 M,0,136756,136799,320,262.7368,320,246.4983 M,0,136799,136841,320,246.4983,320,230.2551
Sprite,Foreground,Centre,"sb/s/b.png",0,0 V,2,146047,146417,4,1.8,2,1.8 F,2,146047,146417,1,0 P,0,146047,146417,A R,0,146047,146417,1.57 C,0,146047,,242,0,6 M,0,146047,146089,320,300,320,306.5392 M,0,146089,146132,320,306.5392,320,314.0841 M,0,146132,146174,320,314.0841,320,322.7607 M,0,146174,146217,320,322.7607,320,332.5135
Sprite,Foreground,Centre,"sb/s/b.png",0,0 V,2,146388,146758,4,1.8,2,1.8 F,2,146388,146758,1,0 P,0,146388,146758,A R,0,146388,146758,1.57 C,0,146388,,242,0,6 M,0,146388,146430,320,384,320,377.4608 M,0,146430,146473,320,377.4608,320,369.9159 M,0,146473,146515,320,369.9159,320,361.2393 M,0,146515,146558,320,361.2393,320,351.4865
Sprite,Foreground,Centre,"sb/s/b.png",0,0 V,2,146728,147098,4,1.8,2,1.8 F,2,146728,147098,1,0 P,0,146728,147098,A R,0,146728,147098,1.57 C,0,146728,,242,0,6 M,0,146728,146770,320,273,320,266.4608 M,0,146770,146813,320,266.4608,320,258.9159 M,0,146813,146855,320,258.9159,320,250.2393 M,0,146855,146898,320,250.2393,320,240.4866
Sprite,Foreground,Centre,"sb/s/b.png",0,0 V,2,147069,147439,4,1.8,2,1.8 F,2,147069,147439,1,0 P,0,147069,147439,A R,0,147069,147439,1.57 C,0,147069,,242,0,6 M,0,147069,147111,320,189,320,195.5392 M,0,147111,147154,320,195.5392,320,203.0841 M,0,147154,147196,320,203.0841,320,211.7607 M,0,147196,147239,320,211.7607,320,221.5134
Sprite,Foreground,Centre,"sb/s/b.png",0,0 V,2,147410,147950,4,1.8,2,1.8 F,2,147410,147950,1,0 P,0,147410,147950,A R,0,147410,147950,1.57 C,0,147410,,217,0,124 M,0,147410,147452,320,300,320,306.2828 M,0,147452,147495,320,306.2828,320,309.7769 M,0,147495,147537,320,309.7769,320,309.9376 M,0,147537,147580,320,309.9376,320,306.7567 M,0,147580,147623,320,306.7567,320,300.3702 M,0,147623,147665,320,300.3702,320,291.0525 M,0,147665,147708,320,291.0525,320,279.2044 M,0,147708,147750,320,279.2044,320,265.4065
Sprite,Foreground,Centre,"sb/s/w.png",0,0 V,2,141956,142626,0.3,0.3,0.5,0.5 F,2,141956,142626,1,0 P,0,141956,142626,A R,0,141956,142626,0 C,0,141956,,148,0,204 M,0,141956,141998,203,400,202.5835,383.7553 M,0,141998,142041,202.5835,383.7553,202.1669,367.5107 M,0,142041,142083,202.1669,367.5107,201.7504,351.266 M,0,142083,142126,201.7504,351.266,201.3339,335.0214
Sprite,Foreground,Centre,"sb/s/w.png",0,0 V,2,142297,142967,0.3,0.3,0.5,0.5 F,2,142297,142967,1,0 P,0,142297,142967,A R,0,142297,142967,0 C,0,142297,,148,0,204 M,0,142297,142339,240,260,240.4165,243.7553 M,0,142339,142382,240.4165,243.7553,240.8331,227.5107 M,0,142382,142424,240.8331,227.5107,241.2496,211.266 M,0,142424,142467,241.2496,211.266,241.6661,195.0214
Sprite,Foreground,Centre,"sb/s/w.png",0,0 V,2,142638,143393,0.3,0.3,0.5,0.5 F,2,142638,143393,1,0 P,0,142638,143393,A R,0,142638,143393,0 C,0,142638,,242,0,6 M,0,142638,142680,368,104,378.9912,125.6959 M,0,142680,142723,378.9912,125.6959,386.1407,148.9182 M,0,142723,142765,386.1407,148.9182,389.0108,173.046 M,0,142765,142808,389.0108,173.046,387.5082,197.2974 M,0,142808,142851,387.5082,197.2974,381.6819,220.8864 M,0,142851,142893,381.6819,220.8864,371.7205,243.0486
Sprite,Foreground,Centre,"sb/s/w.png",0,0 V,2,76501,77171,0.3,0.3,0.5,0.5 F,2,76501,77171,1,0 P,0,76501,77171,A R,0,76501,77171,0 C,0,76501,,148,0,204 M,0,76501,76543,394,118,394.4165,134.2447 M,0,76543,76586,394.4165,134.2447,394.8331,150.4893 M,0,76586,76628,394.8331,150.4893,395.2496,166.734 M,0,76628,76671,395.2496,166.734,395.6661,182.9786
Sprite,Foreground,Centre,"sb/s/w.png",0,0 V,2,76842,77512,0.3,0.3,0.5,0.5 F,2,76842,77512,1,0 P,0,76842,77512,A R,0,76842,77512,0 C,0,76842,,148,0,204 M,0,76842,76884,364,256,363.5835,272.2447 M,0,76884,76927,363.5835,272.2447,363.1669,288.4893 M,0,76927,76969,363.1669,288.4893,362.7504,304.734 M,0,76969,77012,362.7504,304.734,362.3339,320.9786
Sprite,Foreground,Centre,"sb/s/w.png",0,0 V,2,77183,77938,0.3,0.3,0.5,0.5 F,2,77183,77938,1,0 P,0,77183,77938,A R,0,77183,77938,0 C,0,77183,,242,0,6 M,0,77183,77225,213,369,202.0088,347.3041 M,0,77225,77268,202.0088,347.3041,194.8593,324.0818 M,0,77268,77310,194.8593,324.0818,191.9893,299.954 M,0,77310,77353,191.9893,299.954,193.4918,275.7026 M,0,77353,77396,193.4918,275.7026,199.3181,252.1136 M,0,77396,77438,199.3181,252.1136,209.2795,229.9514
Sprite,Foreground,Centre,"sb/s/w.png",0,0 V,2,54683,55353,0.3,0.3,0.5,0.5 F,2,54683,55353,1,0 P,0,54683,55353,A R,0,54683,55353,0 C,0,54683,,242,0,6 M,0,54683,54725,132,368,132.9014,351.775 M,0,54725,54768,132.9014,351.775,133.8028,335.55 M,0,54768,54810,133.8028,335.55,134.7042,319.3251 M,0,54810,54853,134.7042,319.3251,135.6056,303.1001
Sprite,Foreground,Centre,"sb/s/w.png",0,0 V,2,55024,55694,0.3,0.3,0.5,0.5 F,2,55024,55694,1,0 P,0,55024,55694,A R,0,55024,55694,0 C,0,55024,,242,0,6 M,0,55024,55066,196,256,194.015,239.8717 M,0,55066,55109,194.015,239.8717,192.03,223.7434 M,0,55109,55151,192.03,223.7434,190.0449,207.6151 M,0,55151,55194,190.0449,207.6151,188.0599,191.4868
Sprite,Foreground,Centre,"sb/s/w.png",0,0 V,2,55365,56376,0.3,0.3,0.5,0.5 F,2,55365,56376,1,0 P,0,55365,56376,A R,0,55365,56376,0 C,0,55365,,217,0,124 M,0,55365,55407,280,120,303.3163,112.9524 M,0,55407,55450,303.3163,112.9524,327.3234,108.8421 M,0,55450,55492,327.3234,108.8421,351.6529,107.7316 M,0,55492,55535,351.6529,107.7316,375.9314,109.6378 M,0,55535,55578,375.9314,109.6378,399.7866,114.5309 M,0,55578,55620,399.7866,114.5309,422.8524,122.3356 M,0,55620,55663,422.8524,122.3356,444.775,132.9318 M,0,55663,55705,444.775,132.9318,465.2182,146.1566 M,0,55705,55748,465.2182,146.1566,483.8685,161.8069 M,0,55748,55791,483.8685,161.8069,500.44,179.6424 M,0,55791,55833,500.44,179.6424,514.6783,199.3892 M,0,55833,55876,514.6783,199.3892,526.4467,220.7079
Sprite,Foreground,Centre,"sb/s/b.png",0,0 V,2,58944,59229,3,1.8,1,1.8 F,2,58944,59229,1,0 P,0,58944,59229,A R,0,58944,59229,1.57 C,0,58944,,148,0,204 M,0,58944,58986,320,84,320,108.3032 M,0,58986,59029,320,108.3032,320,132.6064
Sprite,Foreground,Centre,"sb/s/b.png",0,0 V,2,59115,59400,3,1.8,1,1.8 F,2,59115,59400,1,0 P,0,59115,59400,A R,0,59115,59400,1.57 C,0,59115,,148,0,204 M,0,59115,59157,320,188,320,212.3032 M,0,59157,59200,320,212.3032,320,236.6064
Sprite,Foreground,Centre,"sb/s/b.png",320,260 V,2,59285,59485,3,1.8,1,1.8 F,2,59285,59485,1,0 P,0,59285,59485,A R,0,59285,59485,1.57 C,0,59285,,148,0,204
Sprite,Foreground,Centre,"sb/s/b.png",320,360 V,2,59456,59656,3,1.8,1,1.8 F,2,59456,59656,1,0 P,0,59456,59656,A R,0,59456,59656,1.57 C,0,59456,,148,0,204
Sprite,Foreground,Centre,"sb/s/b.png",0,0 V,2,59626,60166,3,1.8,1,1.8 F,2,59626,60166,1,0 P,0,59626,60166,A R,0,59626,60166,1.57 C,0,59626,,148,0,204 M,0,59626,59668,320,417,320,414.8782 M,0,59668,59711,320,414.8782,320,412.7565 M,0,59711,59753,320,412.7565,320,410.6347 M,0,59753,59796,320,410.6347,320,408.5129 M,0,59796,59839,320,408.5129,320,410.6347 M,0,59839,59881,320,410.6347,320,412.7565 M,0,59881,59924,320,412.7565,320,414.8782 M,0,59924,59966,320,414.8782,320,417
Sprite,Foreground,Centre,"sb/s/b.png",0,0 V,2,60138,60849,3,1.8,1,1.8 F,2,60138,60849,1,0 P,0,60138,60849,A R,0,60138,60849,1.57 C,0,60138,,242,0,6 M,0,60138,60180,320,384,320,384.8392 M,0,60180,60223,320,384.8392,320,381.0763 M,0,60223,60265,320,381.0763,320,372.5878 M,0,60265,60308,320,372.5878,320,359.7173 M,0,60308,60351,320,359.7173,320,342.9858 M,0,60351,60393,320,342.9858,320,323.0705 M,0,60393,60436,320,323.0705,320,300.7775 M,0,60436,60478,320,300.7775,320,277.0093 M,0,60478,60521,320,277.0093,320,252.7281 M,0,60521,60564,320,252.7281,320,228.917 M,0,60564,60606,320,228.917,320,206.5401 M,0,60606,60649,320,206.5401,320,186.3883
Sprite,Foreground,Centre,"sb/s/b.png",0,0 V,2,48035,48320,3,1.8,1,1.8 F,2,48035,48320,1,0 P,0,48035,48320,A R,0,48035,48320,1.57 C,0,48035,,217,0,124 M,0,48035,48077,320,292,320,267.6725 M,0,48077,48120,320,267.6725,320,243.3449
Sprite,Foreground,Centre,"sb/s/b.png",0,0 V,2,48206,48491,3,1.8,1,1.8 F,2,48206,48491,1,0 P,0,48206,48491,A R,0,48206,48491,1.57 C,0,48206,,217,0,124 M,0,48206,48248,320,220,320,223.9914 M,0,48248,48291,320,223.9914,320,224
Sprite,Foreground,Centre,"sb/s/b.png",320,212 V,2,48376,48576,3,1.8,1,1.8 F,2,48376,48576,1,0 P,0,48376,48576,A R,0,48376,48576,1.57 C,0,48376,,217,0,124
Sprite,Foreground,Centre,"sb/s/b.png",320,160 V,2,48547,48747,3,1.8,1,1.8 F,2,48547,48747,1,0 P,0,48547,48747,A R,0,48547,48747,1.57 C,0,48547,,217,0,124
Sprite,Foreground,Centre,"sb/s/b.png",0,0 V,2,48717,49257,3,1.8,1,1.8 F,2,48717,49257,1,0 P,0,48717,49257,A R,0,48717,49257,1.57 C,0,48717,,217,0,124 M,0,48717,48759,320,116,320,118.794 M,0,48759,48802,320,118.794,320,121.5879 M,0,48802,48844,320,121.5879,320,124.3819 M,0,48844,48887,320,124.3819,320,127.1758 M,0,48887,48930,320,127.1758,320,124.3819 M,0,48930,48972,320,124.3819,320,121.5879 M,0,48972,49015,320,121.5879,320,118.794 M,0,49015,49057,320,118.794,320,116
Sprite,Foreground,Centre,"sb/s/b.png",0,0 V,2,49228,49939,3,1.8,1,1.8 F,2,49228,49939,1,0 P,0,49228,49939,A R,0,49228,49939,1.57 C,0,49228,,148,0,204 M,0,49228,49270,320,160,320,159.4317 M,0,49270,49313,320,159.4317,320,162.0163 M,0,49313,49355,320,162.0163,320,167.8938 M,0,49355,49398,320,167.8938,320,176.9531 M,0,49398,49441,320,176.9531,320,189.0232 M,0,49441,49483,320,189.0232,320,203.876 M,0,49483,49526,320,203.876,320,221.2311 M,0,49526,49568,320,221.2311,320,240.7606 M,0,49568,49611,320,240.7606,320,262.0958 M,0,49611,49654,320,262.0958,320,284.8335 M,0,49654,49696,320,284.8335,320,308.5444 M,0,49696,49739,320,308.5444,320,332.7805
Sprite,Foreground,Centre,"sb/s/b.png",0,0 V,2,11047,11417,3,1,1.5,1 F,2,11047,11417,1,0 P,0,11047,11417,A R,0,11047,11417,0 C,0,11047,,217,0,124 M,0,11047,11089,92,240,108.2297,240 M,0,11089,11132,108.2297,240,124.4595,240 M,0,11132,11174,124.4595,240,140.6892,240 M,0,11174,11217,140.6892,240,156.9189,240
Sprite,Foreground,Centre,"sb/s/b.png",0,0 V,2,11388,11758,3,1,1.5,1 F,2,11388,11758,1,0 P,0,11388,11758,A R,0,11388,11758,0 C,0,11388,,217,0,124 M,0,11388,11430,220,240,236.2297,240 M,0,11430,11473,236.2297,240,252.4595,240 M,0,11473,11515,252.4595,240,268.6892,240 M,0,11515,11558,268.6892,240,284.9189,240
Sprite,Foreground,Centre,"sb/s/b.png",0,0 V,2,11728,12268,3,1,1.5,1 F,2,11728,12268,1,0 P,0,11728,12268,A R,0,11728,12268,0 C,0,11728,,217,0,124 M,0,11728,11770,344,240,342.2824,240 M,0,11770,11813,342.2824,240,340.7767,240 M,0,11813,11855,340.7767,240,339.5157,240 M,0,11855,11898,339.5157,240,338.4995,240 M,0,11898,11941,338.4995,240,337.7285,240 M,0,11941,11983,337.7285,240,337.2028,240 M,0,11983,12026,337.2028,240,336.9224,240 M,0,12026,12068,336.9224,240,336.8875,240
Sprite,Foreground,Centre,"sb/s/b.png",0,0 V,2,12240,12610,3,1,1.5,1 F,2,12240,12610,1,0 P,0,12240,12610,A R,0,12240,12610,0 C,0,12240,,217,0,124 M,0,12240,12282,396,240,411.6435,240 M,0,12282,12325,411.6435,240,427.5944,240 M,0,12325,12367,427.5944,240,443.7633,240 M,0,12367,12410,443.7633,240,459.9939,240
Sprite,Foreground,Centre,"sb/s/b.png",520,240 V,2,12581,12781,3,1,1.5,1 F,2,12581,12781,1,0 P,0,12581,12781,A R,0,12581,12781,0 C,0,12581,,217,0,124
Sprite,Foreground,Centre,"sb/s/b.png",0,0 V,2,12751,13121,3,1,1.5,1 F,2,12751,13121,1,0 P,0,12751,13121,A R,0,12751,13121,0 C,0,12751,,217,0,124 M,0,12751,12793,500,240,483.7689,240 M,0,12793,12836,483.7689,240,467.6034,240 M,0,12836,12878,467.6034,240,451.666,240 M,0,12878,12921,451.666,240,436.0676,240
Sprite,Foreground,Centre,"sb/s/b.png",0,0 V,2,13092,13632,3,1,1.5,1 F,2,13092,13632,1,0 P,0,13092,13632,A R,0,13092,13632,0 C,0,13092,,217,0,124 M,0,13092,13134,356,240,356.3094,240 M,0,13134,13177,356.3094,240,356.7648,240 M,0,13177,13219,356.7648,240,357.3877,240 M,0,13219,13262,357.3877,240,358.1779,240 M,0,13262,13305,358.1779,240,359.1355,240 M,0,13305,13347,359.1355,240,360.2604,240 M,0,13347,13390,360.2604,240,361.5524,240 M,0,13390,13432,361.5524,240,363.0114,240
Sprite,Foreground,Centre,"sb/s/b.png",0,0 V,2,13774,14485,3,1,1.5,1 F,2,13774,14485,1,0 P,0,13774,14485,A R,0,13774,14485,0 C,0,13774,,148,0,204 M,0,13774,13816,363,240,352.8061,240 M,0,13816,13859,352.8061,240,341.2051,240 M,0,13859,13901,341.2051,240,328.1796,240 M,0,13901,13944,328.1796,240,313.9695,240 M,0,13944,13987,313.9695,240,298.8369,240 M,0,13987,14029,298.8369,240,283.0605,240 M,0,14029,14072,283.0605,240,266.9312,240 M,0,14072,14114,266.9312,240,250.7462,240 M,0,14114,14157,250.7462,240,234.8037,240 M,0,14157,14200,234.8037,240,219.3976,240 M,0,14200,14242,219.3976,240,204.8118,240 M,0,14242,14285,204.8118,240,191.3151,240
Sprite,Foreground,Centre,"sb/s/b.png",0,0 V,2,14456,14996,3,1,1.5,1 F,2,14456,14996,1,0 P,0,14456,14996,A R,0,14456,14996,0 C,0,14456,,148,0,204 M,0,14456,14498,92,240,96.32183,240 M,0,14498,14541,96.32183,240,99.67487,240 M,0,14541,14583,99.67487,240,101.8999,240 M,0,14583,14626,101.8999,240,102.986,240 M,0,14626,14669,102.986,240,102.9276,240 M,0,14669,14711,102.9276,240,101.7249,240 M,0,14711,14754,101.7249,240,99.38408,240 M,0,14754,14796,99.38408,240,95.91657,240
Sprite,Foreground,Centre,"sb/s/b.png",0,0 V,2,14967,15337,3,1,1.5,1 F,2,14967,15337,1,0 P,0,14967,15337,A R,0,14967,15337,0 C,0,14967,,148,0,204 M,0,14967,15009,84,240,85.79451,240 M,0,15009,15052,85.79451,240,87.58902,240 M,0,15052,15094,87.58902,240,89.38354,240 M,0,15094,15137,89.38354,240,91.17805,240
Sprite,Foreground,Centre,"sb/s/b.png",146,240 V,2,15308,15508,3,1,1.5,1 F,2,15308,15508,1,0 P,0,15308,15508,A R,0,15308,15508,0 C,0,15308,,148,0,204
Sprite,Foreground,Centre,"sb/s/b.png",0,0 V,2,15478,15848,3,1,1.5,1 F,2,15478,15848,1,0 P,0,15478,15848,A R,0,15478,15848,0 C,0,15478,,148,0,204 M,0,15478,15520,204,240,202.015,240 M,0,15520,15563,202.015,240,200.03,240 M,0,15563,15605,200.03,240,198.0449,240 M,0,15605,15648,198.0449,240,196.0599,240
Sprite,Foreground,Centre,"sb/s/b.png",0,0 V,2,15819,16359,3,1,1.5,1 F,2,15819,16359,1,0 P,0,15819,16359,A R,0,15819,16359,0 C,0,15819,,148,0,204 M,0,15819,15861,286,240,298.9286,240 M,0,15861,15904,298.9286,240,313.2387,240 M,0,15904,15946,313.2387,240,328.6937,240 M,0,15946,15989,328.6937,240,344.7541,240 M,0,15989,16032,344.7541,240,360.8594,240 M,0,16032,16074,360.8594,240,376.4475,240 M,0,16074,16117,376.4475,240,390.9743,240 M,0,16117,16159,390.9743,240,403.9327,240
Sprite,Foreground,Centre,"sb/s/b.png",0,0 V,2,16501,16871,3,1,1.5,1 F,2,16501,16871,1,0 P,0,16501,16871,A R,0,16501,16871,0 C,0,16501,,242,0,6 M,0,16501,16543,404,240,403.4564,240 M,0,16543,16586,403.4564,240,403.9134,240 M,0,16586,16628,403.9134,240,405.5133,240 M,0,16628,16671,405.5133,240,408.2481,240
Sprite,Foreground,Centre,"sb/s/b.png",0,0 V,2,16842,17212,3,1,1.5,1 F,2,16842,17212,1,0 P,0,16842,17212,A R,0,16842,17212,0 C,0,16842,,242,0,6 M,0,16842,16884,352,240,335.7667,240 M,0,16884,16927,335.7667,240,319.5442,240 M,0,16927,16969,319.5442,240,303.4161,240 M,0,16969,17012,303.4161,240,287.4435,240
Sprite,Foreground,Centre,"sb/s/b.png",0,0 V,2,17183,17723,3,1,1.5,1 F,2,17183,17723,1,0 P,0,17183,17723,A R,0,17183,17723,0 C,0,17183,,242,0,6 M,0,17183,17225,194,240,195.4937,240 M,0,17225,17268,195.4937,240,196.9873,240 M,0,17268,17310,196.9873,240,198.481,240 M,0,17310,17353,198.481,240,199.9746,240 M,0,17353,17396,199.9746,240,201.4682,240 M,0,17396,17438,201.4682,240,202.9619,240 M,0,17438,17481,202.9619,240,204.4556,240 M,0,17481,17523,204.4556,240,205.9492,240
Sprite,Foreground,Centre,"sb/s/b.png",0,0 V,2,17694,18064,3,1,1.5,1 F,2,17694,18064,1,0 P,0,17694,18064,A R,0,17694,18064,0 C,0,17694,,242,0,6 M,0,17694,17736,270,240,285.7375,240 M,0,17736,17779,285.7375,240,301.0153,240 M,0,17779,17821,301.0153,240,315.6099,240 M,0,17821,17864,315.6099,240,329.4547,240
Sprite,Foreground,Centre,"sb/s/b.png",378,240 V,2,18035,18235,3,1,1.5,1 F,2,18035,18235,1,0 P,0,18035,18235,A R,0,18035,18235,0 C,0,18035,,242,0,6
Sprite,Foreground,Centre,"sb/s/b.png",0,0 V,2,18206,18576,3,1,1.5,1 F,2,18206,18576,1,0 P,0,18206,18576,A R,0,18206,18576,0 C,0,18206,,242,0,6 M,0,18206,18248,306,240,289.8494,240 M,0,18248,18291,289.8494,240,273.6988,240 M,0,18291,18333,273.6988,240,257.5482,240 M,0,18333,18376,257.5482,240,241.3976,240
Sprite,Foreground,Centre,"sb/s/b.png",0,0 V,2,18547,19087,3,1,1.5,1 F,2,18547,19087,1,0 P,0,18547,19087,A R,0,18547,19087,0 C,0,18547,,242,0,6 M,0,18547,18589,167,240,169.4856,240 M,0,18589,18632,169.4856,240,171.571,240 M,0,18632,18674,171.571,240,173.2547,240 M,0,18674,18717,173.2547,240,174.5358,240 M,0,18717,18760,174.5358,240,175.4135,240 M,0,18760,18802,175.4135,240,175.8873,240 M,0,18802,18845,175.8873,240,175.9568,240 M,0,18845,18887,175.9568,240,175.622,240
Sprite,Foreground,Centre,"sb/s/b.png",0,0 V,2,19228,19939,3,1,1.5,1 F,2,19228,19939,1,0 P,0,19228,19939,A R,0,19228,19939,0 C,0,19228,,217,0,124 M,0,19228,19270,175,240,190.3743,240 M,0,19270,19313,190.3743,240,206.1742,240 M,0,19313,19355,206.1742,240,222.259,240 M,0,19355,19398,222.259,240,238.4851,240 M,0,19398,19441,238.4851,240,254.7079,240 M,0,19441,19483,254.7079,240,270.7826,240 M,0,19483,19526,270.7826,240,286.566,240 M,0,19526,19568,286.566,240,301.9173,240 M,0,19568,19611,301.9173,240,316.6996,240 M,0,19611,19654,316.6996,240,330.7812,240 M,0,19654,19696,330.7812,240,344.0365,240 M,0,19696,19739,344.0365,240,356.3474,240
Sprite,Foreground,Centre,"sb/s/b.png",0,0 V,2,19910,20450,3,1,1.5,1 F,2,19910,20450,1,0 P,0,19910,20450,A R,0,19910,20450,0 C,0,19910,,217,0,124 M,0,19910,19952,396,240,394.5288,240 M,0,19952,19995,394.5288,240,393.0576,240 M,0,19995,20037,393.0576,240,391.5864,240 M,0,20037,20080,391.5864,240,390.1152,240 M,0,20080,20123,390.1152,240,388.644,240 M,0,20123,20165,388.644,240,387.1728,240 M,0,20165,20208,387.1728,240,385.7016,240 M,0,20208,20250,385.7016,240,384.2303,240
Sprite,Foreground,Centre,"sb/s/b.png",0,0 V,2,20422,20792,3,1,1.5,1 F,2,20422,20792,1,0 P,0,20422,20792,A R,0,20422,20792,0 C,0,20422,,217,0,124 M,0,20422,20464,312,240,308.1794,240 M,0,20464,20507,308.1794,240,304.869,240 M,0,20507,20549,304.869,240,302.1478,240 M,0,20549,20592,302.1478,240,300.0197,240
Sprite,Foreground,Centre,"sb/s/b.png",245,240 V,2,20763,20963,3,1,1.5,1 F,2,20763,20963,1,0 P,0,20763,20963,A R,0,20763,20963,0 C,0,20763,,217,0,124
Sprite,Foreground,Centre,"sb/s/b.png",0,0 V,2,20933,21303,3,1,1.5,1 F,2,20933,21303,1,0 P,0,20933,21303,A R,0,20933,21303,0 C,0,20933,,217,0,124 M,0,20933,20975,190,240,173.823,240 M,0,20975,21018,173.823,240,157.7776,240 M,0,21018,21060,157.7776,240,141.9313,240 M,0,21060,21103,141.9313,240,127,240
Sprite,Foreground,Centre,"sb/s/b.png",0,0 V,2,21274,22155,3,1,1.5,1 F,2,21274,22155,1,0 P,0,21274,22155,A R,0,21274,22155,0 C,0,21274,,148,0,204 M,0,21274,21316,86,240,95.72128,240 M,0,21316,21359,95.72128,240,105.4426,240 M,0,21359,21401,105.4426,240,115.1638,240 M,0,21401,21444,115.1638,240,124.8851,240 M,0,21444,21487,124.8851,240,115.1638,240 M,0,21487,21529,115.1638,240,105.4426,240 M,0,21529,21572,105.4426,240,95.72128,240 M,0,21572,21614,95.72128,240,86,240 M,0,21614,21657,86,240,95.72128,240 M,0,21657,21700,95.72128,240,105.4426,240 M,0,21700,21742,105.4426,240,115.1638,240 M,0,21742,21785,115.1638,240,124.8851,240 M,0,21785,21827,124.8851,240,115.1638,240 M,0,21827,21870,115.1638,240,105.4426,240 M,0,21870,21913,105.4426,240,95.72128,240 M,0,21913,21955,95.72128,240,86,240
//Storyboard Sound Samples

[TimingPoints]
138,340.909090909091,4,3,3,85,1,0
138,-100,4,3,4,85,0,0
180,-100,4,3,3,85,0,0
11047,-100,4,3,4,85,0,0
11089,-100,4,3,3,85,0,0
21274,-166.666666666667,4,3,3,85,0,0
21956,-100,4,3,2,85,0,0
32865,-100,4,3,4,40,0,0
32907,-83.3333333333333,4,3,3,40,0,0
35592,-83.3333333333333,4,3,3,45,0,0
36274,-83.3333333333333,4,3,3,50,0,0
36956,-83.3333333333333,4,3,3,55,0,0
37638,-83.3333333333333,4,3,3,60,0,0
38319,-83.3333333333333,4,3,3,65,0,0
39001,-83.3333333333333,4,3,3,70,0,0
39683,-83.3333333333333,4,3,3,75,0,0
40365,-83.3333333333333,4,3,3,80,0,0
41047,-83.3333333333333,4,3,3,85,0,0
41728,-83.3333333333333,4,3,3,85,0,0
42410,-100,4,3,3,85,0,0
43689,-100,4,3,3,5,0,0
43774,-66.6666666666667,4,3,3,100,0,1
44456,-100,4,3,3,100,0,0
46501,-66.6666666666667,4,3,3,100,0,0
47183,-100,4,3,3,100,0,0
48035,-66.6666666666667,4,3,3,100,0,0
48120,-66.6666666666667,4,3,3,5,0,0
48206,-66.6666666666667,4,3,3,100,0,0
48291,-66.6666666666667,4,3,3,5,0,0
48376,-66.6666666666667,4,3,3,100,0,0
49228,-66.6666666666667,4,3,4,100,0,0
49271,-66.6666666666667,4,3,3,100,0,0
49910,-100,4,3,3,100,0,0
54683,-100,4,3,3,85,0,0
55365,-66.6666666666667,4,3,4,100,0,1
55407,-66.6666666666667,4,3,3,100,0,1
56047,-100,4,3,3,100,0,0
57410,-66.6666666666667,4,3,3,100,0,0
58092,-100,4,3,3,100,0,0
58944,-66.6666666666667,4,3,3,100,0,0
59030,-66.6666666666667,4,3,3,5,0,0
59115,-66.6666666666667,4,3,3,100,0,0
59200,-66.6666666666667,4,3,3,5,0,0
59285,-66.6666666666667,4,3,3,100,0,0
60138,-66.6666666666667,4,3,4,100,0,0
60180,-66.6666666666667,4,3,3,100,0,0
60819,-100,4,3,3,100,0,0
62865,-100,4,3,3,85,0,0
62950,-100,4,3,3,10,0,0
63206,-100,4,3,3,20,0,0
63547,-100,4,3,3,30,0,0
63888,-100,4,3,3,40,0,0
64228,-100,4,3,3,50,0,0
64569,-100,4,3,3,60,0,0
64910,-100,4,3,3,85,0,0
65592,-100,4,3,4,100,0,1
65635,-100,4,3,3,100,0,1
66274,-100,4,3,3,100,0,0
68575,-100,4,3,3,5,0,0
68660,-100,4,3,3,100,0,0
68916,-100,4,3,3,5,0,0
69001,-100,4,3,3,100,0,0
71047,-100,4,3,4,100,0,0
71089,-100,4,3,3,100,0,0
76501,-100,4,3,3,85,0,0
77183,-66.6666666666667,4,3,4,100,0,1
77226,-66.6666666666667,4,3,3,100,0,1
77439,-66.6666666666667,4,3,3,5,0,1
77524,-66.6666666666667,4,3,3,100,0,1
77780,-66.6666666666667,4,3,3,5,0,1
77865,-100,4,3,3,100,0,0
79484,-100,4,3,3,5,0,0
79569,-100,4,3,3,100,0,0
81956,-100,4,3,4,100,0,0
81998,-100,4,3,3,100,0,0
83575,-100,4,3,3,5,0,0
83660,-100,4,3,3,100,0,0
84683,-100,4,3,3,85,0,0
84853,-100,4,3,3,80,0,0
85024,-100,4,3,3,75,0,0
85194,-100,4,3,3,70,0,0
85365,-100,4,3,3,65,0,0
85407,-100,4,3,3,55,0,0
85450,-100,4,3,3,45,0,0
85493,-100,4,3,3,35,0,0
85535,-100,4,3,3,25,0,0
86217,-100,4,3,3,35,0,0
86387,-100,4,3,3,45,0,0
86557,-100,4,3,3,55,0,0
86728,-100,4,3,3,65,0,0
86898,-100,4,3,3,75,0,0
87069,-100,4,3,3,85,0,0
87368,-100,4,3,3,5,0,0
87410,-100,4,3,4,85,0,0
87453,-100,4,3,3,85,0,0
90052,-100,4,3,3,5,0,0
90138,-100,4,3,3,85,0,0
92865,-100,4,3,4,85,0,0
92907,-100,4,3,3,85,0,0
98319,-83.3333333333333,4,3,4,85,0,0
98362,-83.3333333333333,4,3,3,50,0,0
101047,-83.3333333333333,4,3,3,55,0,0
101728,-83.3333333333333,4,3,3,60,0,0
102410,-83.3333333333333,4,3,3,65,0,0
103092,-83.3333333333333,4,3,3,70,0,0
103774,-83.3333333333333,4,3,3,75,0,0
104456,-83.3333333333333,4,3,3,80,0,0
105138,-83.3333333333333,4,3,3,85,0,0
105819,-83.3333333333333,4,3,3,85,0,0
106501,-83.3333333333333,4,3,3,85,0,0
107183,-83.3333333333333,4,3,3,85,0,0
107865,-83.3333333333333,4,3,3,85,0,0
109228,-66.6666666666667,4,3,3,100,0,1
109484,-66.6666666666667,4,3,3,5,0,1
109569,-83.3333333333333,4,3,3,100,0,1
111956,-66.6666666666667,4,3,3,100,0,1
112211,-66.6666666666667,4,3,3,5,0,1
112297,-83.3333333333333,4,3,3,100,0,1
113575,-83.3333333333333,4,3,3,5,0,1
113660,-83.3333333333333,4,3,3,100,0,1
113745,-83.3333333333333,4,3,3,5,0,1
113831,-83.3333333333333,4,3,3,100,0,1
114683,-66.6666666666667,4,3,4,100,0,1
114726,-66.6666666666667,4,3,3,100,0,1
114939,-66.6666666666667,4,3,3,5,0,1
115024,-83.3333333333333,4,3,3,100,0,1
117410,-66.6666666666667,4,3,3,100,0,1
119456,-83.3333333333333,4,3,3,100,0,1
119541,-83.3333333333333,4,3,3,5,0,1
119626,-83.3333333333333,4,3,3,100,0,1
119711,-83.3333333333333,4,3,3,5,0,1
119797,-83.3333333333333,4,3,3,100,0,1
119882,-83.3333333333333,4,3,3,5,0,1
119967,-83.3333333333333,4,3,3,100,0,1
120052,-83.3333333333333,4,3,3,5,0,1
120138,-83.3333333333333,4,3,3,85,0,0
120819,-66.6666666666667,4,3,4,100,0,1
120862,-83.3333333333333,4,3,3,100,0,1
121075,-83.3333333333333,4,3,3,5,0,1
121160,-83.3333333333333,4,3,3,100,0,1
121416,-83.3333333333333,4,3,3,5,0,1
121501,-83.3333333333333,4,3,3,100,0,1
122865,-66.6666666666667,4,3,3,100,0,1
123120,-66.6666666666667,4,3,3,5,0,1
123206,-83.3333333333333,4,3,3,100,0,1
123461,-83.3333333333333,4,3,3,5,0,1
123547,-83.3333333333333,4,3,3,100,0,1
124399,-66.6666666666667,4,3,3,100,0,1
124484,-66.6666666666667,4,3,3,5,0,1
124569,-66.6666666666667,4,3,3,100,0,1
124655,-66.6666666666667,4,3,3,8,0,1
124740,-66.6666666666667,4,3,3,100,0,1
125592,-66.6666666666667,4,3,4,100,0,1
125635,-83.3333333333333,4,3,3,100,0,1
125848,-83.3333333333333,4,3,3,5,0,1
125933,-83.3333333333333,4,3,3,100,0,1
126189,-83.3333333333333,4,3,3,5,0,1
126274,-83.3333333333333,4,3,3,100,0,1
128319,-100,4,3,3,85,0,0
131047,-100,4,3,4,100,0,1
131089,-100,4,3,3,100,0,1
131728,-100,4,3,3,100,0,0
134030,-100,4,3,3,5,0,0
134115,-100,4,3,3,100,0,0
134456,-100,4,3,3,100,0,0
136501,-100,4,3,4,100,0,0
136544,-100,4,3,3,100,0,0
141956,-100,4,3,3,85,0,0
142638,-66.6666666666667,4,3,4,100,0,1
142680,-66.6666666666667,4,3,3,100,0,1
142893,-66.6666666666667,4,3,3,5,0,1
142978,-66.6666666666667,4,3,3,100,0,1
143234,-66.6666666666667,4,3,3,5,0,1
143319,-100,4,3,3,100,0,0
144939,-100,4,3,3,5,0,0
145024,-100,4,3,3,100,0,0
147410,-100,4,3,4,100,0,0
147453,-100,4,3,3,100,0,0
149030,-100,4,3,3,5,0,0
149115,-100,4,3,3,100,0,0
150138,-100,4,3,4,85,0,0
150308,-100,4,3,3,80,0,0
150479,-100,4,3,3,75,0,0
150649,-100,4,3,3,70,0,0
150819,-100,4,3,3,65,0,0
150862,-100,4,3,3,55,0,0
150905,-100,4,3,3,45,0,0
150948,-100,4,3,3,35,0,0
150990,-100,4,3,3,25,0,0
151672,-100,4,3,3,35,0,0
151842,-100,4,3,3,45,0,0
152012,-100,4,3,3,55,0,0
152183,-100,4,3,3,65,0,0
152353,-100,4,3,3,75,0,0
152524,-100,4,3,3,85,0,0
152822,-100,4,3,3,5,0,0
152865,-100,4,3,4,85,0,0

[Colours]
Combo1 : 242,0,6
Combo2 : 217,0,124
Combo3 : 148,0,204

[HitObjects]
28,60,11047,6,0,L|108:56,1,65,6|0,0:1|0:0,0:0:0:0:
156,104,11388,2,0,L|236:108,1,65,0|0,0:0|0:0,0:0:0:0:
280,192,11728,2,0,P|274:266|273:334,1,130,8|0,0:0|0:0,0:0:0:0:
332,372,12240,2,0,P|368:364|400:364,1,65,4|0,0:0|0:0,0:0:0:0:
456,312,12581,1,4,0:0:0:0:
436,236,12751,2,0,P|403:235|371:227,1,65,4|0,0:0|0:0,0:0:0:0:
292,164,13092,2,0,P|294:102|300:24,1,130,8|0,0:0|0:0,0:0:0:0:
299,34,13774,6,0,P|264:68|120:56,1,195,4|0,0:0|0:0,0:0:0:0:
28,28,14456,2,0,P|37:67|29:167,1,130,8|0,0:0|0:0,0:0:0:0:
20,232,14967,2,0,L|28:304,1,65,4|0,0:0|0:0,0:0:0:0:
82,351,15308,1,4,0:0:0:0:
140,300,15478,2,0,L|132:235,1,65,4|0,0:0|0:0,0:0:0:0:
222,183,15819,2,0,P|278:207|346:179,1,130,8|0,0:0|0:0,0:0:0:0:
340,184,16501,6,0,P|342:131|346:111,1,65,4|0,0:0|0:0,0:0:0:0:
288,64,16842,2,0,P|255:64|223:59,1,65,0|0,0:0|0:0,0:0:0:0:
130,13,17183,2,0,L|142:143,1,130,8|0,0:0|0:0,0:0:0:0:
206,183,17694,2,0,P|239:193|267:209,1,65,4|0,0:0|0:0,0:0:0:0:
314,267,18035,1,4,0:0:0:0:
242,299,18206,2,0,L|170:291,1,65,4|0,0:0|0:0,0:0:0:0:
103,218,18547,2,0,P|111:146|111:74,1,130,8|0,0:0|0:0,0:0:0:0:
111,88,19228,6,0,P|177:100|303:42,1,195,4|0,0:0|0:0,0:0:0:0:
332,149,19910,2,0,L|320:281,1,130,8|0,0:0|0:0,0:0:0:0:
248,313,20422,2,0,P|240:277|235:240,1,65,4|0,0:0|0:0,0:0:0:0:
181,193,20763,1,4,0:0:0:0:
126,250,20933,2,0,P|94:246|63:238,1,65,4|0,0:0|0:0,0:0:0:0:
22,134,21274,6,0,L|74:130,4,38.9999988098145,8|0|0|0|6,0:0|0:0|0:0|0:0|0:1,0:0:0:0:
136,356,32865,6,0,P|140:324|140:280,1,65,14|8,0:1|0:0,0:0:0:0:
96,208,33206,1,12,0:0:0:0:
164,144,33376,1,8,0:0:0:0:
164,144,33461,1,8,0:0:0:0:
164,144,33547,2,0,P|204:152|252:148,1,77.999997619629,12|8,0:0|0:0,0:0:0:0:
314,88,33888,2,0,P|354:80|402:84,1,77.999997619629,4|8,0:0|0:0,0:0:0:0:
403,92,34143,1,8,0:0:0:0:
414,103,34228,6,0,L|410:184,1,77.999997619629,4|8,0:0|0:0,0:0:0:0:
456,262,34569,1,4,0:0:0:0:
392,332,34740,1,8,0:0:0:0:
376,328,34825,1,8,0:0:0:0:
360,324,34910,2,0,L|272:304,1,77.999997619629,4|8,0:0|0:0,0:0:0:0:
217,240,35251,2,0,P|252:224|288:192,1,77.999997619629,4|8,0:0|0:0,0:0:0:0:
290,185,35507,1,8,0:0:0:0:
296,172,35592,6,0,L|292:80,1,77.999997619629,4|8,0:0|0:0,0:0:0:0:
212,48,35933,2,0,L|208:125,1,77.999997619629,4|8,0:0|0:0,0:0:0:0:
197,137,36189,1,8,0:0:0:0:
185,148,36274,2,0,L|181:225,1,77.999997619629,4|8,0:0|0:0,0:0:0:0:
114,292,36615,1,4,0:0:0:0:
47,225,36785,1,8,0:0:0:0:
47,225,36870,1,8,0:0:0:0:
47,225,36956,6,0,P|72:192|104:168,1,77.999997619629,4|8,0:0|0:0,0:0:0:0:
188,132,37297,2,0,L|276:144,1,77.999997619629,4|8,0:0|0:0,0:0:0:0:
276,153,37552,1,8,0:0:0:0:
287,164,37638,2,0,L|375:152,1,77.999997619629,4|8,0:0|0:0,0:0:0:0:
430,87,37978,1,4,0:0:0:0:
488,160,38149,1,8,0:0:0:0:
484,176,38234,1,8,0:0:0:0:
480,192,38319,5,12,0:0:0:0:
444,312,38490,1,12,0:0:0:0:
360,220,38660,2,0,L|368:168,3,38.9999988098145,8|8|8|8,0:0|0:0|0:0|0:0,0:0:0:0:
349,164,39001,1,12,0:0:0:0:
260,252,39172,1,12,0:0:0:0:
372,308,39342,2,0,L|416:304,3,38.9999988098145,8|8|8|8,0:0|0:0|0:0|0:0,0:0:0:0:
427,321,39683,5,12,0:0:0:0:
312,372,39853,1,12,0:0:0:0:
196,324,40024,2,0,L|144:328,3,38.9999988098145,12|8|8|8,0:0|0:0|0:0|0:0,0:0:0:0:
140,310,40365,1,12,0:0:0:0:
208,208,40535,1,12,0:0:0:0:
92,156,40706,2,0,L|96:204,3,38.9999988098145,12|8|8|8,0:0|0:0|0:0|0:0,0:0:0:0:
78,211,41047,6,0,L|74:249,7,38.9999988098145,8|8|8|8|8|8|8|8,0:0|0:0|0:0|0:0|0:0|0:0|0:0|0:0,0:0:0:0:
90,266,41728,2,0,L|94:304,7,38.9999988098145,8|8|8|8|12|8|8|8,0:0|0:0|0:0|0:0|0:0|0:0|0:0|0:0,0:0:0:0:
111,314,42410,5,0,0:0:0:0:
111,314,43433,6,0,B|156:304|156:304|216:332,1,97.5,2|0,0:2|0:0,0:0:0:0:
228,340,43774,6,0,P|247:208|352:264,1,292.50001115799,6|0,0:1|0:0,0:0:0:0:
304,352,44456,6,0,B|224:368|224:368|172:344|172:344|108:356,1,195,8|0,0:0|0:0,0:0:0:0:
61,299,45138,2,0,L|80:152,1,130,4|0,0:0|0:0,0:0:0:0:
132,114,45649,1,6,0:0:0:0:
205,187,45819,1,10,0:0:0:0:
252,124,45990,2,0,P|243:80|227:56,1,65,6|2,0:0|0:0,0:0:0:0:
288,7,46331,1,2,0:0:0:0:
380,80,46501,6,0,B|348:152|408:211|408:211|321:197|281:284,1,292.50001115799,4|4,0:0|0:0,0:0:0:0:
384,316,47183,5,8,0:0:0:0:
328,368,47353,2,0,L|244:356,1,65,4|0,0:0|0:0,0:0:0:0:
208,303,47694,2,0,L|124:315,1,65,4|4,0:0|0:0,0:0:0:0:
52,236,48035,6,0,L|56:172,1,48.750001859665,2|0,0:2|0:0,0:0:0:0:
72,164,48206,2,0,P|96:168|120:168,1,48.750001859665,2|0,0:2|0:0,0:0:0:0:
148,156,48376,1,2,0:2:0:0:
252,104,48547,1,2,0:2:0:0:
144,60,48717,2,0,L|40:72,2,97.50000371933,2|2|2,0:2|0:2|0:2,0:0:0:0:
252,104,49228,6,0,P|336:116|444:312,1,292.50001115799,6|0,0:1|0:0,0:0:0:0:
364,340,49910,6,0,L|164:328,1,195,8|0,0:0|0:0,0:0:0:0:
114,272,50592,2,0,P|120:207|122:142,1,130,4|0,0:0|0:0,0:0:0:0:
86,73,51103,1,6,0:0:0:0:
173,15,51274,1,10,0:0:0:0:
237,58,51444,2,0,P|269:54|300:46,1,65,6|2,0:0|0:0,0:0:0:0:
356,102,51785,1,6,0:0:0:0:
282,175,51956,6,0,L|152:187,1,130,4|0,0:0|0:0,0:0:0:0:
128,260,52467,1,4,0:0:0:0:
201,333,52638,2,0,P|233:333|269:341,1,65,8|4,0:0|0:0,0:0:0:0:
336,372,52978,1,0,0:0:0:0:
392,316,53149,1,8,0:0:0:0:
356,220,53319,6,0,L|345:147,1,65,8|4,0:0|0:0,0:0:0:0:
269,147,53660,2,0,L|279:211,1,65,8|4,0:0|0:0,0:0:0:0:
270,229,53916,1,4,0:0:0:0:
262,247,54001,2,0,L|272:311,1,65,8|4,0:0|0:0,0:0:0:0:
205,352,54342,2,0,L|140:342,1,65,8|4,0:0|0:0,0:0:0:0:
68,312,54683,6,0,L|72:240,1,65,4|0,0:0|0:0,0:0:0:0:
132,200,55024,2,0,L|124:135,1,65,0|0,0:0|0:0,0:0:0:0:
216,64,55365,6,0,P|296:52|464:168,1,292.50001115799,10|0,0:1|0:0,0:0:0:0:
408,256,56047,6,0,P|348:244|264:236,1,130,4|0,0:0|0:0,0:0:0:0:
204,256,56558,1,4,0:0:0:0:
128,184,56728,1,10,0:0:0:0:
188,136,56899,2,0,P|220:137|252:144,1,65,6|2,0:0|0:0,0:0:0:0:
316,188,57240,1,2,0:0:0:0:
288,300,57410,6,0,B|252:312|208:292|194:259|194:259|192:308|162:335|162:335|136:288|66:295,1,292.50001115799,4|4,0:0|0:0,0:0:0:0:
16,212,58092,5,0,0:0:0:0:
64,152,58263,2,0,L|52:68,1,65,4|0,0:0|0:0,0:0:0:0:
116,36,58603,2,0,P|147:42|180:39,1,65,4|4,0:0|0:0,0:0:0:0:
296,28,58944,6,0,L|300:80,1,48.750001859665,2|0,0:2|0:0,0:0:0:0:
276,132,59115,2,0,L|272:184,1,48.750001859665,2|0,0:2|0:0,0:0:0:0:
292,204,59285,1,4,0:0:0:0:
228,304,59456,1,8,0:0:0:0:
329,361,59626,2,0,L|432:352,2,97.50000371933,2|2|2,0:2|0:2|0:2,0:0:0:0:
216,328,60138,6,0,P|136:312|108:128,1,292.50001115799,6|0,0:1|0:0,0:0:0:0:
188,68,60819,6,0,B|269:126|269:126|353:82,1,195,8|0,0:0|0:0,0:0:0:0:
424,52,61501,2,0,P|432:124|408:204,1,130,4|0,0:0|0:0,0:0:0:0:
364,236,62013,1,6,0:0:0:0:
292,204,62183,1,10,0:0:0:0:
228,248,62353,2,0,P|196:248|152:240,1,65,6|2,0:0|0:0,0:0:0:0:
96,204,62694,1,6,0:0:0:0:
20,228,62865,5,4,0:0:0:0:
256,192,62950,12,8,65251,0:0:0:0:
112,136,65592,6,0,P|132:100|228:68,1,130,6|0,0:1|0:0,0:0:0:0:
284,96,66103,1,0,0:0:0:0:
344,180,66274,2,0,L|340:252,1,65,8|0,0:0|0:0,0:0:0:0:
412,272,66615,2,0,L|415:207,1,65,0|0,0:0|0:0,0:0:0:0:
493,280,66956,6,0,P|469:332|381:348,1,130,4|0,0:0|0:0,0:0:0:0:
328,336,67467,1,4,0:0:0:0:
232,292,67638,2,0,P|184:308|160:332,3,65,10|6|2|2,0:0|0:0|0:0|0:0,0:0:0:0:
84,368,68319,6,0,P|80:320|36:268,1,97.5,4|0,0:0|0:0,0:0:0:0:
36,272,68660,2,0,L|41:166,1,97.5,0|0,0:0|0:0,0:0:0:0:
124,156,69001,1,8,0:0:0:0:
124,156,69172,1,0,0:0:0:0:
124,156,69342,1,0,0:0:0:0:
124,156,69513,1,0,0:0:0:0:
189,236,69683,6,0,P|157:251|108:262,1,65,4|2,0:0|0:2,0:0:0:0:
91,327,70024,2,0,P|122:335|151:350,1,65,2|4,0:2|0:0,0:0:0:0:
254,332,70365,2,0,L|260:262,1,65,8|2,0:0|0:2,0:0:0:0:
312,208,70706,2,0,L|306:138,1,65,2|2,0:2|0:2,0:0:0:0:
400,187,71047,6,0,P|393:249|334:298,1,130,6|0,0:1|0:0,0:0:0:0:
268,283,71558,1,0,0:0:0:0:
187,348,71728,2,0,P|154:342|123:333,1,65,8|0,0:0|0:0,0:0:0:0:
65,280,72069,2,0,P|62:239|58:206,1,65,0|0,0:0|0:0,0:0:0:0:
116,127,72410,6,0,B|190:149|169:102|248:125,1,130,4|0,0:0|0:0,0:0:0:0:
305,170,72922,1,6,0:0:0:0:
243,253,73092,2,0,P|211:259|178:261,3,65,10|6|2|2,0:0|0:0|0:0|0:3,0:0:0:0:
78,289,73774,6,0,P|135:294|199:361,1,130,4|0,0:0|0:0,0:0:0:0:
264,359,74285,1,4,0:0:0:0:
339,286,74456,2,0,P|341:252|332:214,1,65,8|8,0:0|0:0,0:0:0:0:
359,147,74797,2,0,P|390:153|423:151,1,65,4|4,0:0|0:0,0:0:0:0:
440,141,75052,1,4,0:0:0:0:
454,127,75138,6,0,L|459:93,3,32.5,8|4|4|4,0:0|0:0|0:0|0:0,0:0:0:0:
443,82,75478,2,0,L|438:48,3,32.5,8|4|4|4,0:0|0:0|0:0|0:0,0:0:0:0:
424,35,75819,2,0,L|390:40,3,32.5,8|0|4|0,0:0|0:0|0:0|0:0,0:0:0:0:
377,53,76160,2,0,L|343:48,3,32.5,8|0|4|0,0:0|0:0|0:0|0:0,0:0:0:0:
330,62,76501,6,0,L|332:140,1,65,2|0,0:2|0:0,0:0:0:0:
300,200,76842,2,0,L|298:278,1,65,0|0,0:0|0:0,0:0:0:0:
149,313,77183,6,0,P|128:231|154:160,1,146.250005578995,10|0,0:1|0:0,0:0:0:0:
162,146,77524,2,0,B|58:163|58:163|28:124,1,146.250005578995,0|0,0:0|0:0,0:0:0:0:
19,94,77865,6,0,P|63:56|153:40,1,130,4|0,0:0|0:0,0:0:0:0:
205,63,78376,1,4,0:0:0:0:
287,126,78547,2,0,L|281:197,3,65,10|6|2|2,0:0|0:0|0:0|0:0,0:0:0:0:
183,226,79228,6,0,L|195:120,1,97.5,4|0,0:0|0:0,0:0:0:0:
181,113,79569,2,0,L|111:127,1,65,0|0,0:0|0:0,0:0:0:0:
62,214,79910,1,8,0:0:0:0:
62,214,80081,1,0,0:0:0:0:
62,214,80251,1,0,0:0:0:0:
62,214,80422,1,0,0:0:0:0:
158,251,80592,6,0,P|203:275|230:298,1,65,4|2,0:0|0:2,0:0:0:0:
272,335,80933,2,0,P|317:311|344:288,1,65,2|4,0:2|0:0,0:0:0:0:
396,224,81274,2,0,P|351:200|324:177,1,65,8|2,0:0|0:2,0:0:0:0:
282,140,81615,2,0,P|237:164|210:187,1,65,2|2,0:2|0:2,0:0:0:0:
243,69,81956,6,0,P|293:59|355:108,1,130,6|0,0:1|0:0,0:0:0:0:
355,181,82467,1,0,0:0:0:0:
281,255,82638,2,0,L|208:248,1,65,8|0,0:0|0:0,0:0:0:0:
144,219,82978,2,0,L|71:226,1,65,0|0,0:0|0:0,0:0:0:0:
33,318,83319,6,0,P|92:324|147:337,1,97.5,4|0,0:0|0:0,0:0:0:0:
146,342,83660,2,0,L|230:329,1,65,0|4,0:0|0:0,0:0:0:0:
293,269,84001,2,0,P|326:273|363:272,3,65,10|6|2|2,0:0|0:0|0:0|0:0,0:0:0:0:
448,221,84683,5,0,0:0:0:0:
256,192,84768,12,6,87410,0:1:0:0:
422,271,98319,6,0,P|386:266|337:266,1,77.999997619629,6|8,0:1|0:0,0:0:0:0:
254,303,98660,1,4,0:0:0:0:
203,224,98831,1,8,0:0:0:0:
203,224,98916,1,8,0:0:0:0:
203,224,99001,2,0,P|211:184|207:136,1,77.999997619629,4|8,0:0|0:0,0:0:0:0:
149,74,99342,2,0,P|110:72|72:80,1,77.999997619629,4|8,0:0|0:0,0:0:0:0:
61,91,99598,1,8,0:0:0:0:
50,102,99683,6,0,L|54:183,1,77.999997619629,4|8,0:0|0:0,0:0:0:0:
127,237,100024,1,4,0:0:0:0:
211,195,100194,1,8,0:0:0:0:
227,194,100280,1,8,0:0:0:0:
244,192,100365,2,0,L|333:183,1,77.999997619629,4|8,0:0|0:0,0:0:0:0:
395,241,100706,2,0,P|360:257|324:289,1,77.999997619629,4|8,0:0|0:0,0:0:0:0:
323,296,100961,1,8,0:0:0:0:
315,309,101047,6,0,L|223:313,1,77.999997619629,4|8,0:0|0:0,0:0:0:0:
180,260,101388,2,0,L|176:183,1,77.999997619629,4|8,0:0|0:0,0:0:0:0:
165,171,101643,1,8,0:0:0:0:
153,160,101728,2,0,L|149:83,1,77.999997619629,4|8,0:0|0:0,0:0:0:0:
70,30,102069,1,4,0:0:0:0:
45,119,102240,1,8,0:0:0:0:
45,119,102325,1,8,0:0:0:0:
45,119,102410,6,0,P|83:104|123:102,1,77.999997619629,4|8,0:0|0:0,0:0:0:0:
198,153,102751,2,0,L|286:165,1,77.999997619629,4|8,0:0|0:0,0:0:0:0:
287,178,103007,1,8,0:0:0:0:
298,193,103092,2,0,L|289:284,1,77.999997619629,4|8,0:0|0:0,0:0:0:0:
368,321,103433,1,4,0:0:0:0:
435,255,103603,1,8,0:0:0:0:
431,239,103689,1,8,0:0:0:0:
427,223,103774,5,12,0:0:0:0:
365,151,103944,1,12,0:0:0:0:
414,71,104115,2,0,L|454:78,3,38.9999988098145,8|8|8|8,0:0|0:0|0:0|0:0,0:0:0:0:
466,70,104456,1,12,0:0:0:0:
503,156,104626,1,12,0:0:0:0:
431,216,104797,2,0,L|435:260,3,38.9999988098145,12|8|12|8,0:0|0:0|0:0|0:0,0:0:0:0:
418,271,105138,5,12,0:0:0:0:
349,334,105308,1,12,0:0:0:0:
258,310,105478,2,0,L|206:314,3,38.9999988098145,8|8|8|8,0:0|0:0|0:0|0:0,0:0:0:0:
202,296,105819,1,12,0:0:0:0:
230,207,105990,1,12,0:0:0:0:
145,166,106160,2,0,L|149:214,3,38.9999988098145,8|8|8|8,0:0|0:0|0:0|0:0,0:0:0:0:
131,221,106501,6,0,L|127:259,7,38.9999988098145,12|8|8|8|12|8|8|8,0:0|0:0|0:0|0:0|0:0|0:0|0:0|0:0,0:0:0:0:
91,290,107183,2,0,L|95:328,7,38.9999988098145,12|8|8|8|12|8|8|8,0:0|0:0|0:0|0:0|0:0|0:0|0:0|0:0,0:0:0:0:
125,365,107865,5,4,0:0:0:0:
186,71,109228,6,0,P|301:77|336:84,1,146.250005578995,6|0,0:1|0:0,0:0:0:0:
345,104,109569,2,0,P|344:160|360:196,1,77.999997619629,8|0,0:0|0:0,0:0:0:0:
416,248,109910,1,0,0:0:0:0:
356,320,110081,1,4,0:0:0:0:
248,260,110251,2,0,P|188:272|160:284,1,77.999997619629,8|0,0:0|0:0,0:0:0:0:
68,348,110592,6,0,L|80:192,1,155.999995239258,4|8,0:0|0:0,0:0:0:0:
160,140,111103,1,0,0:0:0:0:
228,204,111274,1,2,0:0:0:0:
336,140,111444,2,0,P|327:96|308:64,1,77.999997619629,6|10,0:0|0:0,0:0:0:0:
376,0,111785,1,2,0:0:0:0:
480,120,111956,6,0,B|396:116|340:168,1,146.250005578995,4|0,0:0|0:0,0:0:0:0:
332,184,112297,2,0,L|252:172,1,77.999997619629,8|0,0:0|0:0,0:0:0:0:
160,252,112638,1,0,0:0:0:0:
232,312,112808,2,0,P|284:302|312:288,1,77.999997619629,4|8,0:0|0:0,0:0:0:0:
392,252,113149,2,0,P|444:261|472:276,1,77.999997619629,0|4,0:0|0:0,0:0:0:0:
504,152,113490,6,0,L|436:160,1,38.9999988098145,2|0,0:2|0:0,0:0:0:0:
448,140,113660,2,0,L|380:132,1,38.9999988098145,8|0,0:0|0:0,0:0:0:0:
388,148,113831,1,2,0:2:0:0:
316,88,114001,1,2,0:2:0:0:
260,164,114172,2,0,L|272:252,2,77.999997619629,4|8|2,0:0|0:0|0:2,0:0:0:0:
180,28,114683,6,0,P|160:88|76:124,1,146.250005578995,6|0,0:1|0:0,0:0:0:0:
68,116,115024,2,0,L|80:200,1,77.999997619629,8|0,0:0|0:0,0:0:0:0:
120,276,115365,2,0,P|196:256|296:268,1,155.999995239258,0|8,0:0|0:0,0:0:0:0:
357,303,115876,1,0,0:0:0:0:
453,224,116047,6,0,B|429:150|429:150|454:75,1,155.999995239258,4|8,0:0|0:0,0:0:0:0:
370,32,116558,1,2,0:0:0:0:
284,72,116728,1,2,0:0:0:0:
168,28,116899,2,0,P|136:32|76:52,1,77.999997619629,6|10,0:0|0:0,0:0:0:0:
52,128,117240,1,6,0:0:0:0:
145,168,117410,6,0,L|245:164,1,97.50000371933,4|8,0:0|0:0,0:0:0:0:
357,180,117751,2,0,L|257:176,1,97.50000371933,8|4,0:0|0:0,0:0:0:0:
176,274,118092,2,0,L|276:270,1,97.50000371933,8|4,0:0|0:0,0:0:0:0:
388,286,118433,2,0,L|288:282,1,97.50000371933,4|8,0:0|0:0,0:0:0:0:
269,302,118689,1,8,0:0:0:0:
248,322,118774,6,0,L|132:318,1,97.50000371933,8|4,0:0|0:0,0:0:0:0:
40,228,119115,2,0,P|88:188|116:144,1,97.50000371933,8|4,0:0|0:0,0:0:0:0:
120,132,119370,1,4,0:0:0:0:
120,108,119456,2,0,L|116:56,1,38.9999988098145,8|0,0:0|0:0,0:0:0:0:
200,56,119626,2,0,L|197:94,1,38.9999988098145,4|0,0:0|0:0,0:0:0:0:
280,112,119797,2,0,L|276:60,1,38.9999988098145,8|0,0:0|0:0,0:0:0:0:
364,56,119967,2,0,L|356:128,1,38.9999988098145,4|0,0:0|0:0,0:0:0:0:
416,156,120138,6,0,P|432:156|392:224,1,155.999995239258,0|0,0:0|0:0,0:0:0:0:
407,235,120819,6,0,B|323:263|347:211|263:235,1,146.250005578995,2|0,0:1|0:0,0:0:0:0:
248,248,121160,2,0,L|240:116,1,116.999996429443,8|0,0:0|0:0,0:0:0:0:
252,108,121501,6,0,P|324:104|408:56,1,155.999995239258,4|8,0:0|0:0,0:0:0:0:
468,4,122013,1,0,0:0:0:0:
460,128,122183,1,2,0:0:0:0:
401,57,122353,2,0,P|360:48|320:52,1,77.999997619629,6|10,0:0|0:0,0:0:0:0:
244,104,122694,1,2,0:0:0:0:
336,232,122865,6,0,P|416:228|512:224,1,146.250005578995,4|0,0:0|0:0,0:0:0:0:
496,244,123206,2,0,P|448:260|400:320,1,116.999996429443,8|0,0:0|0:0,0:0:0:0:
392,328,123547,2,0,P|356:336|304:312,1,77.999997619629,0|0,0:0|0:0,0:0:0:0:
268,244,123888,1,8,0:0:0:0:
308,160,124058,2,0,L|308:80,1,77.999997619629,0|4,0:0|0:0,0:0:0:0:
451,11,124399,6,0,L|455:59,1,48.750001859665,2|0,0:2|0:0,0:0:0:0:
497,78,124569,2,0,L|497:138,1,48.750001859665,8|0,0:0|0:0,0:0:0:0:
464,156,124740,1,2,0:2:0:0:
494,263,124910,1,2,0:2:0:0:
414,317,125081,2,0,L|299:311,2,97.50000371933,4|8|2,0:0|0:0|0:2,0:0:0:0:
388,196,125592,6,0,B|368:152|396:108|396:108|372:128|340:136,1,146.250005578995,6|0,0:1|0:0,0:0:0:0:
328,140,125933,2,0,L|208:132,1,116.999996429443,8|0,0:0|0:0,0:0:0:0:
194,148,126274,2,0,L|104:144,1,77.999997619629,0|4,0:0|0:0,0:0:0:0:
72,228,126615,2,0,L|149:231,1,77.999997619629,8|0,0:0|0:0,0:0:0:0:
248,308,126956,6,0,P|252:236|300:152,1,155.999995239258,4|8,0:0|0:0,0:0:0:0:
376,124,127467,1,2,0:0:0:0:
468,208,127638,1,2,0:0:0:0:
428,292,127808,2,0,P|387:283|347:287,1,77.999997619629,6|10,0:0|0:0,0:0:0:0:
272,332,128149,2,0,P|232:332|192:320,1,77.999997619629,2|0,0:0|0:0,0:0:0:0:
256,192,128405,12,8,129683,0:0:0:0:
256,192,129768,12,2,130706,0:2:0:0:
386,268,131047,6,0,P|366:304|270:336,1,130,6|0,0:1|0:0,0:0:0:0:
214,308,131558,1,0,0:0:0:0:
154,224,131728,2,0,L|158:152,1,65,8|0,0:0|0:0,0:0:0:0:
86,132,132069,2,0,L|83:197,1,65,0|0,0:0|0:0,0:0:0:0:
5,124,132410,6,0,P|29:72|117:56,1,130,4|0,0:0|0:0,0:0:0:0:
176,80,132922,1,8,0:0:0:0:
176,80,133007,1,8,0:0:0:0:
176,80,133092,2,0,P|224:64|248:40,3,65,6|10|10|6,0:0|0:0|0:0|0:0,0:0:0:0:
336,40,133774,6,0,P|340:88|384:140,1,97.5,4|0,0:0|0:0,0:0:0:0:
376,144,134115,2,0,L|372:236,1,65,0|4,0:0|0:0,0:0:0:0:
376,300,134456,1,8,0:0:0:0:
376,300,134626,1,0,0:0:0:0:
376,300,134797,1,0,0:0:0:0:
376,300,134967,1,0,0:0:0:0:
292,240,135138,6,0,P|277:208|266:159,1,65,4|2,0:0|0:2,0:0:0:0:
192,160,135478,2,0,P|184:191|169:220,1,65,2|4,0:2|0:0,0:0:0:0:
200,321,135819,2,0,L|270:327,1,65,8|2,0:0|0:2,0:0:0:0:
324,379,136160,2,0,L|394:373,1,65,2|2,0:2|0:2,0:0:0:0:
468,304,136501,6,0,P|463:239|460:160,1,130,2|4,0:1|0:0,0:0:0:0:
405,118,137013,1,0,0:0:0:0:
324,53,137183,2,0,P|291:59|260:68,1,65,8|0,0:0|0:0,0:0:0:0:
202,121,137524,2,0,P|199:162|195:195,1,65,0|0,0:0|0:0,0:0:0:0:
280,248,137865,6,0,B|354:270|333:223|412:246,1,130,4|0,0:0|0:0,0:0:0:0:
472,200,138376,1,8,0:0:0:0:
472,200,138461,1,8,0:0:0:0:
472,200,138547,2,0,P|478:168|480:135,3,65,6|10|10|6,0:0|0:0|0:0|0:0,0:0:0:0:
388,88,139228,6,0,P|331:83|267:16,1,130,4|0,0:0|0:0,0:0:0:0:
202,18,139740,1,4,0:0:0:0:
127,91,139910,2,0,P|125:125|134:163,1,65,8|8,0:0|0:0,0:0:0:0:
107,230,140251,2,0,P|76:224|43:226,1,65,4|4,0:0|0:0,0:0:0:0:
26,236,140507,1,4,0:0:0:0:
15,253,140592,6,0,L|10:287,3,32.5,8|4|4|4,0:0|0:0|0:0|0:0,0:0:0:0:
24,298,140933,2,0,L|29:332,3,32.5,8|4|4|4,0:0|0:0|0:0|0:0,0:0:0:0:
42,344,141274,2,0,L|76:339,3,32.5,8|0|4|0,0:0|0:0|0:0|0:0,0:0:0:0:
91,329,141615,2,0,L|125:334,3,32.5,8|0|4|0,0:0|0:0|0:0|0:0,0:0:0:0:
139,344,141956,6,0,L|137:266,1,65,2|4,0:2|0:0,0:0:0:0:
176,204,142297,2,0,L|178:126,1,65,4|0,0:0|0:0,0:0:0:0:
304,48,142638,6,0,P|325:130|299:201,1,146.250005578995,10|0,0:1|0:0,0:0:0:0:
291,215,142978,2,0,B|395:198|395:198|425:237,1,146.250005578995,0|0,0:0|0:0,0:0:0:0:
430,258,143319,6,0,P|408:332|340:352,1,130,4|0,0:0|0:0,0:0:0:0:
288,340,143831,1,0,0:0:0:0:
216,308,144001,2,0,P|176:312|144:328,3,65,10|2|2|2,0:0|0:0|0:0|0:0,0:0:0:0:
64,272,144683,6,0,P|72:228|76:166,1,97.5,4|0,0:0|0:0,0:0:0:0:
80,156,145024,2,0,L|150:142,1,65,0|4,0:0|0:0,0:0:0:0:
232,144,145365,1,8,0:0:0:0:
232,144,145535,1,0,0:0:0:0:
232,144,145706,1,0,0:0:0:0:
232,144,145876,1,0,0:0:0:0:
208,244,146047,6,0,P|253:268|280:291,1,65,4|2,0:0|0:2,0:0:0:0:
322,328,146388,2,0,P|367:304|394:281,1,65,2|2,0:2|0:2,0:0:0:0:
446,217,146728,2,0,P|401:193|374:170,1,65,8|2,0:0|0:2,0:0:0:0:
332,133,147069,2,0,P|287:157|260:180,1,65,2|2,0:2|0:2,0:0:0:0:
208,244,147410,6,0,P|158:254|96:205,1,130,6|4,0:1|0:0,0:0:0:0:
80,132,147922,1,0,0:0:0:0:
156,60,148092,2,0,L|229:67,1,65,8|0,0:0|0:0,0:0:0:0:
280,116,148433,2,0,L|353:109,1,65,0|0,0:0|0:0,0:0:0:0:
416,188,148774,6,0,P|357:194|302:207,1,97.5,4|0,0:0|0:0,0:0:0:0:
308,216,149115,2,0,L|224:208,1,65,0|0,0:0|0:0,0:0:0:0:
172,284,149456,2,0,P|139:280|102:281,3,65,10|2|2|2,0:0|0:0|0:0|0:0,0:0:0:0:
40,204,150138,5,6,0:1:0:0:
256,192,150223,12,2,152865,0:1:0:0:
