osu file format v14

[General]
AudioFilename: audio.mp3
AudioLeadIn: 0
PreviewTime: 106538
Countdown: 0
SampleSet: Drum
StackLeniency: 0.7
Mode: 0
LetterboxInBreaks: 0
EpilepsyWarning: 1
WidescreenStoryboard: 1

[Editor]
Bookmarks: 11084,21993,32902,43811,65629,87447,98356,109265,131089,152902,174719
DistanceSpacing: 0.6
BeatDivisor: 8
GridSize: 32
TimelineZoom: 4.099998

[Metadata]
Title:Killin' It (Sped Up Ver.)
TitleUnicode:Killin' It (Sped Up Ver.)
Artist:Krewella
ArtistUnicode:Krewella
Creator:h3ct1c
Version:Rapture
Source:
Tags:Hectic Daycore Shmiklak piroshki AYE1337 PantyDev h4d0uk3n1 get wet play hard ep monstercat drumstep dubstep edm electronic english Reisen Udongein Inaba touhou pink anime girl killing speed marvollo m_a_r_v_o_l_l_o
BeatmapID:2153590
BeatmapSetID:1029940

[Difficulty]
HPDrainRate:6
CircleSize:3.8
OverallDifficulty:9
ApproachRate:9.3
SliderMultiplier:1.8
SliderTickRate:1

[Events]
//Background and Video events
0,0,"killin_it.jpg",0,0
//Break Periods
2,22156,32311
//Storyboard Layer 0 (Background)
//Storyboard Layer 1 (Fail)
//Storyboard Layer 2 (Pass)
//Storyboard Layer 3 (Foreground)
Sprite,Foreground,Centre,"sb\s\b.png",320,350 C,0,69683,,148,0,204 F,2,69683,69883,1,0 R,0,69683,69883,1.57 V,2,69683,69883,3,1.8,1,1.8 P,0,69683,69883,A
Sprite,Foreground,Centre,"sb\s\b.png",320,379 C,0,69853,,148,0,204 F,2,69853,70053,1,0 R,0,69853,70053,1.57 V,2,69853,70053,3,1.8,1,1.8 P,0,69853,70053,A
Sprite,Foreground,Centre,"sb\s\b.png",320,157 C,0,70024,,148,0,204 F,2,70024,70224,1,0 R,0,70024,70224,1.57 V,2,70024,70224,3,1.8,1,1.8 P,0,70024,70224,A
Sprite,Foreground,Centre,"sb\s\b.png",320,128 C,0,70194,,148,0,204 F,2,70194,70394,1,0 R,0,70194,70394,1.57 V,2,70194,70394,3,1.8,1,1.8 P,0,70194,70394,A
Sprite,Foreground,Centre,"sb\s\b.png",320,378 C,0,70365,,242,0,6 F,2,70365,70565,1,0 R,0,70365,70565,1.57 V,2,70365,70565,3,1.8,1,1.8 P,0,70365,70565,A
Sprite,Foreground,Centre,"sb\s\b.png",320,156 C,0,70535,,242,0,6 F,2,70535,70735,1,0 R,0,70535,70735,1.57 V,2,70535,70735,3,1.8,1,1.8 P,0,70535,70735,A
Sprite,Foreground,Centre,"sb\s\b.png",320,339 C,0,70706,,217,0,124 F,2,70706,70906,1,0 R,0,70706,70906,1.57 V,2,70706,70906,3,1.8,1,1.8 P,0,70706,70906,A
Sprite,Foreground,Centre,"sb\s\b.png",320,368 C,0,70876,,217,0,124 F,2,70876,71076,1,0 R,0,70876,71076,1.57 V,2,70876,71076,3,1.8,1,1.8 P,0,70876,71076,A
Sprite,Foreground,Centre,"sb\s\b.png",0,0 C,0,71047,,148,0,204 M,0,71047,71089,320,87,320,67.36645 F,2,71047,71502,1,0 R,0,71047,71502,1.57 V,2,71047,71502,3,1.8,1,1.8 P,0,71047,71502,A M,0,71089,71132,320,67.36645,320,77.34946 M,0,71132,71174,320,77.34946,320,115.8015 M,0,71174,71217,320,115.8015,320,159.1176 M,0,71217,71260,320,159.1176,320,203.9694 M,0,71260,71302,320,203.9694,320,248.8723
Sprite,Foreground,Centre,"sb\s\b.png",320,147 C,0,80592,,242,0,6 F,2,80592,80792,1,0 R,0,80592,80792,1.57 V,2,80592,80792,3,1.8,1,1.8 P,0,80592,80792,A
Sprite,Foreground,Centre,"sb\s\b.png",320,121 C,0,80763,,242,0,6 F,2,80763,80963,1,0 R,0,80763,80963,1.57 V,2,80763,80963,3,1.8,1,1.8 P,0,80763,80963,A
Sprite,Foreground,Centre,"sb\s\b.png",320,164 C,0,80933,,242,0,6 F,2,80933,81133,1,0 R,0,80933,81133,1.57 V,2,80933,81133,3,1.8,1,1.8 P,0,80933,81133,A
Sprite,Foreground,Centre,"sb\s\b.png",320,325 C,0,81103,,242,0,6 F,2,81103,81303,1,0 R,0,81103,81303,1.57 V,2,81103,81303,3,1.8,1,1.8 P,0,81103,81303,A
Sprite,Foreground,Centre,"sb\s\b.png",320,81 C,0,81274,,217,0,124 F,2,81274,81474,1,0 R,0,81274,81474,1.57 V,2,81274,81474,3,1.8,1,1.8 P,0,81274,81474,A
Sprite,Foreground,Centre,"sb\s\b.png",320,311 C,0,81444,,217,0,124 F,2,81444,81644,1,0 R,0,81444,81644,1.57 V,2,81444,81644,3,1.8,1,1.8 P,0,81444,81644,A
Sprite,Foreground,Centre,"sb\s\b.png",320,134 C,0,81615,,148,0,204 F,2,81615,81815,1,0 R,0,81615,81815,1.57 V,2,81615,81815,3,1.8,1,1.8 P,0,81615,81815,A
Sprite,Foreground,Centre,"sb\s\b.png",320,344 C,0,81785,,148,0,204 F,2,81785,81985,1,0 R,0,81785,81985,1.57 V,2,81785,81985,3,1.8,1,1.8 P,0,81785,81985,A
Sprite,Foreground,Centre,"sb\s\b.png",0,0 C,0,81956,,242,0,6 M,0,81956,81998,320,303,320,313.6501 F,2,81956,82411,1,0 R,0,81956,82411,1.57 V,2,81956,82411,3,1.8,1,1.8 P,0,81956,82411,A M,0,81998,82041,320,313.6501,320,320.088 M,0,82041,82083,320,320.088,320,279.4709 M,0,82083,82126,320,279.4709,320,261.8165 M,0,82126,82169,320,261.8165,320,258.2917 M,0,82169,82211,320,258.2917,320,254.7668
Sprite,Foreground,Centre,"sb\s\b.png",0,0 C,0,109228,,217,0,124 M,0,109228,109270,320,373,320,330.9662 F,2,109228,109683,1,0 R,0,109228,109683,1.57 V,2,109228,109683,4,1.8,2,1.8 P,0,109228,109683,A M,0,109270,109313,320,330.9662,320,332.0253 M,0,109313,109355,320,332.0253,320,344.0955 M,0,109355,109398,320,344.0955,320,354.2809 M,0,109398,109441,320,354.2809,320,359.9748 M,0,109441,109483,320,359.9748,320,314.7992
Sprite,Foreground,Centre,"sb\s\b.png",0,0 C,0,109569,,217,0,124 M,0,109569,109611,320,286,320,257.1956 F,2,109569,109939,1,0 R,0,109569,109939,1.57 V,2,109569,109939,4,1.8,2,1.8 P,0,109569,109939,A M,0,109611,109654,320,257.1956,320,283.2397 M,0,109654,109696,320,283.2397,320,328.3918 M,0,109696,109739,320,328.3918,320,380.701
Sprite,Foreground,Centre,"sb\s\b.png",0,0 C,0,109910,,148,0,204 M,0,109910,109952,320,435,320,395.526 F,2,109910,110195,1,0 R,0,109910,110195,1.57 V,2,109910,110195,4,1.8,2,1.8 P,0,109910,110195,A M,0,109952,109995,320,395.526,320,343.7541
Sprite,Foreground,Centre,"sb\s\b.png",320,246 C,0,110081,,148,0,204 F,2,110081,110281,1,0 R,0,110081,110281,1.57 V,2,110081,110281,4,1.8,2,1.8 P,0,110081,110281,A
Sprite,Foreground,Centre,"sb\s\b.png",0,0 C,0,110251,,148,0,204 M,0,110251,110293,320,56,320,72.88721 F,2,110251,110621,1,0 R,0,110251,110621,1.57 V,2,110251,110621,4,1.8,2,1.8 P,0,110251,110621,A M,0,110293,110336,320,72.88721,320,126.4345 M,0,110336,110378,320,126.4345,320,178.9559 M,0,110378,110421,320,178.9559,320,235.2059
Sprite,Foreground,Centre,"sb\s\b.png",0,0 C,0,110592,,148,0,204 M,0,110592,110634,320,56,320,107.9179 F,2,110592,111047,1,0 R,0,110592,111047,1.57 V,2,110592,111047,4,1.8,2,1.8 P,0,110592,111047,A M,0,110634,110677,320,107.9179,320,135.6962 M,0,110677,110719,320,135.6962,320,142.5329 M,0,110719,110762,320,142.5329,320,141.714 M,0,110762,110805,320,141.714,320,146.2196 M,0,110805,110847,320,146.2196,320,170.3247
Sprite,Foreground,Centre,"sb\s\b.png",0,0 C,0,110933,,242,0,6 M,0,110933,110975,320,181,320,237.25 F,2,110933,111218,1,0 R,0,110933,111218,1.57 V,2,110933,111218,4,1.8,2,1.8 P,0,110933,111218,A M,0,110975,111018,320,237.25,320,291.0686
Sprite,Foreground,Centre,"sb\s\b.png",0,0 C,0,111103,,242,0,6 M,0,111103,111145,320,246,320,291.1743 F,2,111103,111388,1,0 R,0,111103,111388,1.57 V,2,111103,111388,4,1.8,2,1.8 P,0,111103,111388,A M,0,111145,111188,320,291.1743,320,321.1097
Sprite,Foreground,Centre,"sb\s\b.png",0,0 C,0,111274,,217,0,124 M,0,111274,111316,320,246,320,191.3804 F,2,111274,111559,1,0 R,0,111274,111559,1.57 V,2,111274,111559,4,1.8,2,1.8 P,0,111274,111559,A M,0,111316,111359,320,191.3804,320,246
Sprite,Foreground,Centre,"sb\s\b.png",0,0 C,0,111444,,148,0,204 M,0,111444,111486,320,174,320,229.7486 F,2,111444,111729,1,0 R,0,111444,111729,1.57 V,2,111444,111729,4,1.8,2,1.8 P,0,111444,111729,A M,0,111486,111529,320,229.7486,320,280.3728
Sprite,Foreground,Centre,"sb\s\b.png",0,0 C,0,111615,,148,0,204 M,0,111615,111657,320,82,320,108.8032 F,2,111615,111900,1,0 R,0,111615,111900,1.57 V,2,111615,111900,4,1.8,2,1.8 P,0,111615,111900,A M,0,111657,111700,320,108.8032,320,156.1404
Sprite,Foreground,Centre,"sb\s\b.png",0,0 C,0,111785,,148,0,204 M,0,111785,111827,320,110,320,78.61845 F,2,111785,112070,1,0 R,0,111785,112070,1.57 V,2,111785,112070,4,1.8,2,1.8 P,0,111785,112070,A M,0,111827,111870,320,78.61845,320,66.07851
Sprite,Foreground,Centre,"sb\s\b.png",0,0 C,0,111956,,242,0,6 M,0,111956,111998,320,128,320,178.3963 F,2,111956,112411,1,0 R,0,111956,112411,1.57 V,2,111956,112411,4,1.8,2,1.8 P,0,111956,112411,A M,0,111998,112041,320,178.3963,320,202.0983 M,0,112041,112083,320,202.0983,320,208.723 M,0,112083,112126,320,208.723,320,206.0475 M,0,112126,112169,320,206.0475,320,203.4363 M,0,112169,112211,320,203.4363,320,200
Sprite,Foreground,Centre,"sb\s\b.png",0,0 C,0,112297,,242,0,6 M,0,112297,112339,320,214,320,210.836 F,2,112297,112667,1,0 R,0,112297,112667,1.57 V,2,112297,112667,4,1.8,2,1.8 P,0,112297,112667,A M,0,112339,112382,320,210.836,320,200.2753 M,0,112382,112424,320,200.2753,320,209.5638 M,0,112424,112467,320,209.5638,320,260.5361
Sprite,Foreground,Centre,"sb\s\b.png",0,0 C,0,112638,,242,0,6 M,0,112638,112680,320,80,320,106.1853 F,2,112638,112923,1,0 R,0,112638,112923,1.57 V,2,112638,112923,4,1.8,2,1.8 P,0,112638,112923,A M,0,112680,112723,320,106.1853,320,160
Sprite,Foreground,Centre,"sb\s\b.png",320,245 C,0,112808,,217,0,124 F,2,112808,113008,1,0 R,0,112808,113008,1.57 V,2,112808,113008,4,1.8,2,1.8 P,0,112808,113008,A
Sprite,Foreground,Centre,"sb\s\b.png",0,0 C,0,112978,,148,0,204 M,0,112978,113020,320,426,320,384.3162 F,2,112978,113263,1,0 R,0,112978,113263,1.57 V,2,112978,113263,4,1.8,2,1.8 P,0,112978,113263,A M,0,113020,113063,320,384.3162,320,328.1842
Sprite,Foreground,Centre,"sb\s\b.png",0,0 C,0,113149,,148,0,204 M,0,113149,113191,320,434,320,383.2615 F,2,113149,113434,1,0 R,0,113149,113434,1.57 V,2,113149,113434,4,1.8,2,1.8 P,0,113149,113434,A M,0,113191,113234,320,383.2615,320,334.0951
Sprite,Foreground,Centre,"sb\s\b.png",0,0 C,0,113319,,148,0,204 M,0,113319,113361,320,318,320,271.0752 F,2,113319,113604,1,0 R,0,113319,113604,1.57 V,2,113319,113604,4,1.8,2,1.8 P,0,113319,113604,A M,0,113361,113404,320,271.0752,320,318
Sprite,Foreground,Centre,"sb\s\b.png",0,0 C,0,113490,,242,0,6 M,0,113490,113532,320,98,320,130.5 F,2,113490,113775,1,0 R,0,113490,113775,1.57 V,2,113490,113775,4,1.8,2,1.8 P,0,113490,113775,A M,0,113532,113575,320,130.5,320,159.9274
Sprite,Foreground,Centre,"sb\s\b.png",0,0 C,0,113660,,242,0,6 M,0,113660,113702,320,143,320,199.1722 F,2,113660,113945,1,0 R,0,113660,113945,1.57 V,2,113660,113945,4,1.8,2,1.8 P,0,113660,113945,A M,0,113702,113745,320,199.1722,320,234.4968
Sprite,Foreground,Centre,"sb\s\b.png",0,0 C,0,113831,,242,0,6 M,0,113831,113873,320,252,320,320.0892 F,2,113831,114116,1,0 R,0,113831,114116,1.57 V,2,113831,114116,4,1.8,2,1.8 P,0,113831,114116,A M,0,113873,113916,320,320.0892,320,316.24
Sprite,Foreground,Centre,"sb\s\b.png",0,0 C,0,114001,,217,0,124 M,0,114001,114043,320,136,320,192.205 F,2,114001,114286,1,0 R,0,114001,114286,1.57 V,2,114001,114286,4,1.8,2,1.8 P,0,114001,114286,A M,0,114043,114086,320,192.205,320,228
Sprite,Foreground,Centre,"sb\s\b.png",0,0 C,0,114172,,217,0,124 M,0,114172,114214,320,244,320,312.6617 F,2,114172,114457,1,0 R,0,114172,114457,1.57 V,2,114172,114457,4,1.8,2,1.8 P,0,114172,114457,A M,0,114214,114257,320,312.6617,320,306.0074
Sprite,Foreground,Centre,"sb\s\b.png",0,0 C,0,114342,,148,0,204 M,0,114342,114384,320,95,320,127.5 F,2,114342,114627,1,0 R,0,114342,114627,1.57 V,2,114342,114627,4,1.8,2,1.8 P,0,114342,114627,A M,0,114384,114427,320,127.5,320,156.7229
Sprite,Foreground,Centre,"sb\s\b.png",0,0 C,0,114513,,148,0,204 M,0,114513,114555,320,133,320,189.205 F,2,114513,114798,1,0 R,0,114513,114798,1.57 V,2,114513,114798,4,1.8,2,1.8 P,0,114513,114798,A M,0,114555,114598,320,189.205,320,224
Sprite,Foreground,Centre,"sb\s\b.png",0,0 C,0,114683,,242,0,6 M,0,114683,114725,320,412,320,365.3029 F,2,114683,115138,1,0 R,0,114683,115138,1.57 V,2,114683,115138,4,1.8,2,1.8 P,0,114683,115138,A M,0,114725,114768,320,365.3029,320,330.3749 M,0,114768,114810,320,330.3749,320,322.7747 M,0,114810,114853,320,322.7747,320,318.313 M,0,114853,114896,320,318.313,320,318.9033 M,0,114896,114938,320,318.9033,320,312.8048
Sprite,Foreground,Centre,"sb\s\b.png",0,0 C,0,115024,,242,0,6 M,0,115024,115066,320,301,320,253.5974 F,2,115024,115394,1,0 R,0,115024,115394,1.57 V,2,115024,115394,4,1.8,2,1.8 P,0,115024,115394,A M,0,115066,115109,320,253.5974,320,219.2148 M,0,115109,115151,320,219.2148,320,227.5332 M,0,115151,115194,320,227.5332,320,234.3
Sprite,Foreground,Centre,"sb\s\b.png",0,0 C,0,115365,,217,0,124 M,0,115365,115407,320,73,320,79.92369 F,2,115365,115650,1,0 R,0,115365,115650,1.57 V,2,115365,115650,4,1.8,2,1.8 P,0,115365,115650,A M,0,115407,115450,320,79.92369,320,86.84738
Sprite,Foreground,Centre,"sb\s\b.png",320,162 C,0,115535,,217,0,124 F,2,115535,115735,1,0 R,0,115535,115735,1.57 V,2,115535,115735,4,1.8,2,1.8 P,0,115535,115735,A
Sprite,Foreground,Centre,"sb\s\b.png",0,0 C,0,115706,,217,0,124 M,0,115706,115748,320,197,320,231.0101 F,2,115706,116076,1,0 R,0,115706,116076,1.57 V,2,115706,116076,4,1.8,2,1.8 P,0,115706,116076,A M,0,115748,115791,320,231.0101,320,274.3331 M,0,115791,115833,320,274.3331,320,271.1318 M,0,115833,115876,320,271.1318,320,263.0903
Sprite,Foreground,Centre,"sb\s\b.png",0,0 C,0,116047,,217,0,124 M,0,116047,116089,320,393,320,354.2096 F,2,116047,116502,1,0 R,0,116047,116502,1.57 V,2,116047,116502,4,1.8,2,1.8 P,0,116047,116502,A M,0,116089,116132,320,354.2096,320,354.5031 M,0,116132,116174,320,354.5031,320,362.393 M,0,116174,116217,320,362.393,320,370.283 M,0,116217,116260,320,370.283,320,378.173 M,0,116260,116302,320,378.173,320,386
Sprite,Foreground,Centre,"sb\s\b.png",0,0 C,0,116388,,148,0,204 M,0,116388,116430,320,392,320,347.9088 F,2,116388,116673,1,0 R,0,116388,116673,1.57 V,2,116388,116673,4,1.8,2,1.8 P,0,116388,116673,A M,0,116430,116473,320,347.9088,320,309.2063
Sprite,Foreground,Centre,"sb\s\b.png",0,0 C,0,116558,,148,0,204 M,0,116558,116600,320,92,320,99.14527 F,2,116558,117098,1,0 R,0,116558,117098,1.57 V,2,116558,117098,4,1.8,2,1.8 P,0,116558,117098,A M,0,116600,116643,320,99.14527,320,151.092 M,0,116643,116685,320,151.092,320,206.1019 M,0,116685,116728,320,206.1019,320,228 M,0,116728,116771,320,228,320,206.1019 M,0,116771,116813,320,206.1019,320,151.092 M,0,116813,116856,320,151.092,320,99.14527 M,0,116856,116898,320,99.14527,320,92
Sprite,Foreground,Centre,"sb\s\b.png",0,0 C,0,117069,,242,0,6 M,0,117069,117111,320,128,320,151.1088 F,2,117069,117354,1,0 R,0,117069,117354,1.57 V,2,117069,117354,4,1.8,2,1.8 P,0,117069,117354,A M,0,117111,117154,320,151.1088,320,112
Sprite,Foreground,Centre,"sb\s\b.png",0,0 C,0,117240,,242,0,6 M,0,117240,117282,320,219,320,260.4434 F,2,117240,117525,1,0 R,0,117240,117525,1.57 V,2,117240,117525,4,1.8,2,1.8 P,0,117240,117525,A M,0,117282,117325,320,260.4434,320,208.7619
Sprite,Foreground,Centre,"sb\s\b.png",320,118 C,0,117410,,217,0,124 F,2,117410,117610,1,0 R,0,117410,117610,1.57 V,2,117410,117610,4,1.8,2,1.8 P,0,117410,117610,A
Sprite,Foreground,Centre,"sb\s\b.png",320,184 C,0,117581,,217,0,124 F,2,117581,117781,1,0 R,0,117581,117781,1.57 V,2,117581,117781,4,1.8,2,1.8 P,0,117581,117781,A
Sprite,Foreground,Centre,"sb\s\b.png",320,406 C,0,117751,,217,0,124 F,2,117751,117951,1,0 R,0,117751,117951,1.57 V,2,117751,117951,4,1.8,2,1.8 P,0,117751,117951,A
Sprite,Foreground,Centre,"sb\s\b.png",320,406 C,0,117922,,217,0,124 F,2,117922,118122,1,0 R,0,117922,118122,1.57 V,2,117922,118122,4,1.8,2,1.8 P,0,117922,118122,A
Sprite,Foreground,Centre,"sb\s\b.png",320,197 C,0,118092,,148,0,204 F,2,118092,118292,1,0 R,0,118092,118292,1.57 V,2,118092,118292,4,1.8,2,1.8 P,0,118092,118292,A
Sprite,Foreground,Centre,"sb\s\b.png",320,419 C,0,118263,,148,0,204 F,2,118263,118463,1,0 R,0,118263,118463,1.57 V,2,118263,118463,4,1.8,2,1.8 P,0,118263,118463,A
Sprite,Foreground,Centre,"sb\s\b.png",320,353 C,0,118433,,148,0,204 F,2,118433,118633,1,0 R,0,118433,118633,1.57 V,2,118433,118633,4,1.8,2,1.8 P,0,118433,118633,A
Sprite,Foreground,Centre,"sb\s\b.png",320,220 C,0,118603,,242,0,6 F,2,118603,118803,1,0 R,0,118603,118803,1.57 V,2,118603,118803,4,1.8,2,1.8 P,0,118603,118803,A
Sprite,Foreground,Centre,"sb\s\b.png",320,230 C,0,118689,,242,0,6 F,2,118689,118889,1,0 R,0,118689,118889,1.57 V,2,118689,118889,4,1.8,2,1.8 P,0,118689,118889,A
Sprite,Foreground,Centre,"sb\s\b.png",320,240 C,0,118774,,242,0,6 F,2,118774,118974,1,0 R,0,118774,118974,1.57 V,2,118774,118974,4,1.8,2,1.8 P,0,118774,118974,A
Sprite,Foreground,Centre,"sb\s\b.png",320,357 C,0,118944,,217,0,124 F,2,118944,119144,1,0 R,0,118944,119144,1.57 V,2,118944,119144,4,1.8,2,1.8 P,0,118944,119144,A
Sprite,Foreground,Centre,"sb\s\b.png",320,135 C,0,119115,,217,0,124 F,2,119115,119315,1,0 R,0,119115,119315,1.57 V,2,119115,119315,4,1.8,2,1.8 P,0,119115,119315,A
Sprite,Foreground,Centre,"sb\s\b.png",320,201 C,0,119285,,217,0,124 F,2,119285,119485,1,0 R,0,119285,119485,1.57 V,2,119285,119485,4,1.8,2,1.8 P,0,119285,119485,A
Sprite,Foreground,Centre,"sb\s\b.png",320,201 C,0,119370,,217,0,124 F,2,119370,119570,1,0 R,0,119370,119570,1.57 V,2,119370,119570,4,1.8,2,1.8 P,0,119370,119570,A
Sprite,Foreground,Centre,"sb\s\b.png",0,0 C,0,119456,,148,0,204 M,0,119456,119498,320,201,320,234.6683 F,2,119456,119741,1,0 R,0,119456,119741,1.57 V,2,119456,119741,4,1.8,2,1.8 P,0,119456,119741,A M,0,119498,119541,320,234.6683,320,268.1224
Sprite,Foreground,Centre,"sb\s\b.png",0,0 C,0,119626,,148,0,204 M,0,119626,119668,320,118,320,167.3463 F,2,119626,119911,1,0 R,0,119626,119911,1.57 V,2,119626,119911,4,1.8,2,1.8 P,0,119626,119911,A M,0,119668,119711,320,167.3463,320,221.5541
Sprite,Foreground,Centre,"sb\s\b.png",0,0 C,0,119797,,148,0,204 M,0,119797,119839,320,110,320,113.9994 F,2,119797,120167,1,0 R,0,119797,120167,1.57 V,2,119797,120167,4,1.8,2,1.8 P,0,119797,120167,A M,0,119839,119882,320,113.9994,320,127.9067 M,0,119882,119924,320,127.9067,320,151.3729 M,0,119924,119967,320,151.3729,320,183.5597
Sprite,Foreground,Centre,"sb\s\b.png",0,0 C,0,120819,,242,0,6 M,0,120819,120861,320,347,320,300.8655 F,2,120819,121189,1,0 R,0,120819,121189,1.57 V,2,120819,121189,4,1.8,2,1.8 P,0,120819,121189,A M,0,120861,120904,320,300.8655,320,247.4654 M,0,120904,120946,320,247.4654,320,193.7155 M,0,120946,120989,320,193.7155,320,148.2814
Sprite,Foreground,Centre,"sb\s\b.png",0,0 C,0,121160,,242,0,6 M,0,121160,121202,320,244,320,221.9445 F,2,121160,121615,1,0 R,0,121160,121615,1.57 V,2,121160,121615,4,1.8,2,1.8 P,0,121160,121615,A M,0,121202,121245,320,221.9445,320,229.19 M,0,121245,121287,320,229.19,320,246.1149 M,0,121287,121330,320,246.1149,320,263.0399 M,0,121330,121373,320,263.0399,320,275.2767 M,0,121373,121415,320,275.2767,320,250.1209
Sprite,Foreground,Centre,"sb\s\b.png",0,0 C,0,121501,,217,0,124 M,0,121501,121543,320,216,320,167.4281 F,2,121501,121871,1,0 R,0,121501,121871,1.57 V,2,121501,121871,4,1.8,2,1.8 P,0,121501,121871,A M,0,121543,121586,320,167.4281,320,193.0214 M,0,121586,121628,320,193.0214,320,248.8467 M,0,121628,121671,320,248.8467,320,302.556
Sprite,Foreground,Centre,"sb\s\b.png",0,0 C,0,121842,,217,0,124 M,0,121842,121884,320,392,320,396.6688 F,2,121842,122127,1,0 R,0,121842,122127,1.57 V,2,121842,122127,4,1.8,2,1.8 P,0,121842,122127,A M,0,121884,121927,320,396.6688,320,365.7726
Sprite,Foreground,Centre,"sb\s\b.png",0,0 C,0,122013,,217,0,124 M,0,122013,122055,320,409,320,436.778 F,2,122013,122298,1,0 R,0,122013,122298,1.57 V,2,122013,122298,4,1.8,2,1.8 P,0,122013,122298,A M,0,122055,122098,320,436.778,320,409
Sprite,Foreground,Centre,"sb\s\b.png",0,0 C,0,122183,,148,0,204 M,0,122183,122225,320,283,320,274.688 F,2,122183,122468,1,0 R,0,122183,122468,1.57 V,2,122183,122468,4,1.8,2,1.8 P,0,122183,122468,A M,0,122225,122268,320,274.688,320,299
Sprite,Foreground,Centre,"sb\s\b.png",0,0 C,0,122353,,148,0,204 M,0,122353,122395,320,248,320,208.2253 F,2,122353,122638,1,0 R,0,122353,122638,1.57 V,2,122353,122638,4,1.8,2,1.8 P,0,122353,122638,A M,0,122395,122438,320,208.2253,320,189.1253
Sprite,Foreground,Centre,"sb\s\b.png",0,0 C,0,122524,,148,0,204 M,0,122524,122566,320,93,320,120.7439 F,2,122524,122809,1,0 R,0,122524,122809,1.57 V,2,122524,122809,4,1.8,2,1.8 P,0,122524,122809,A M,0,122566,122609,320,120.7439,320,112.6857
Sprite,Foreground,Centre,"sb\s\b.png",0,0 C,0,122694,,148,0,204 M,0,122694,122736,320,148,320,175.6283 F,2,122694,122979,1,0 R,0,122694,122979,1.57 V,2,122694,122979,4,1.8,2,1.8 P,0,122694,122979,A M,0,122736,122779,320,175.6283,320,148
Sprite,Foreground,Centre,"sb\s\b.png",0,0 C,0,122865,,242,0,6 M,0,122865,122907,320,129,320,184.4223 F,2,122865,123320,1,0 R,0,122865,123320,1.57 V,2,122865,123320,4,1.8,2,1.8 P,0,122865,123320,A M,0,122907,122950,320,184.4223,320,237.2321 M,0,122950,122992,320,237.2321,320,284.6655 M,0,122992,123035,320,284.6655,320,339.0667 M,0,123035,123078,320,339.0667,320,392.7535 M,0,123078,123120,320,392.7535,320,434.0862
Sprite,Foreground,Centre,"sb\s\b.png",0,0 C,0,123206,,242,0,6 M,0,123206,123248,320,439,320,398.2516 F,2,123206,123576,1,0 R,0,123206,123576,1.57 V,2,123206,123576,4,1.8,2,1.8 P,0,123206,123576,A M,0,123248,123291,320,398.2516,320,381.983 M,0,123291,123333,320,381.983,320,395.2687 M,0,123333,123376,320,395.2687,320,406.1692
Sprite,Foreground,Centre,"sb\s\b.png",0,0 C,0,123547,,242,0,6 M,0,123547,123589,320,122,320,150.2593 F,2,123547,123832,1,0 R,0,123547,123832,1.57 V,2,123547,123832,4,1.8,2,1.8 P,0,123547,123832,A M,0,123589,123632,320,150.2593,320,139.8301
Sprite,Foreground,Centre,"sb\s\b.png",320,125 C,0,123717,,242,0,6 F,2,123717,123917,1,0 R,0,123717,123917,1.57 V,2,123717,123917,4,1.8,2,1.8 P,0,123717,123917,A
Sprite,Foreground,Centre,"sb\s\b.png",0,0 C,0,123888,,217,0,124 M,0,123888,123930,320,273,320,225.885 F,2,123888,124173,1,0 R,0,123888,124173,1.57 V,2,123888,124173,4,1.8,2,1.8 P,0,123888,124173,A M,0,123930,123973,320,225.885,320,207
Sprite,Foreground,Centre,"sb\s\b.png",0,0 C,0,124058,,217,0,124 M,0,124058,124100,320,217,320,272.973 F,2,124058,124343,1,0 R,0,124058,124343,1.57 V,2,124058,124343,4,1.8,2,1.8 P,0,124058,124343,A M,0,124100,124143,320,272.973,320,217
Sprite,Foreground,Centre,"sb\s\b.png",0,0 C,0,124228,,217,0,124 M,0,124228,124270,320,273,320,325.1881 F,2,124228,124513,1,0 R,0,124228,124513,1.57 V,2,124228,124513,4,1.8,2,1.8 P,0,124228,124513,A M,0,124270,124313,320,325.1881,320,378.6388
Sprite,Foreground,Centre,"sb\s\b.png",0,0 C,0,124399,,148,0,204 M,0,124399,124441,320,429,320,396.3904 F,2,124399,124684,1,0 R,0,124399,124684,1.57 V,2,124399,124684,4,1.8,2,1.8 P,0,124399,124684,A M,0,124441,124484,320,396.3904,320,363.002
Sprite,Foreground,Centre,"sb\s\b.png",0,0 C,0,124569,,148,0,204 M,0,124569,124611,320,430,320,389.652 F,2,124569,124854,1,0 R,0,124569,124854,1.57 V,2,124569,124854,4,1.8,2,1.8 P,0,124569,124854,A M,0,124611,124654,320,389.652,320,362.138
Sprite,Foreground,Centre,"sb\s\b.png",0,0 C,0,124740,,148,0,204 M,0,124740,124782,320,334,320,338.1637 F,2,124740,125025,1,0 R,0,124740,125025,1.57 V,2,124740,125025,4,1.8,2,1.8 P,0,124740,125025,A M,0,124782,124825,320,338.1637,320,361.4612
Sprite,Foreground,Centre,"sb\s\b.png",0,0 C,0,124910,,242,0,6 M,0,124910,124952,320,261,320,312.4249 F,2,124910,125195,1,0 R,0,124910,125195,1.57 V,2,124910,125195,4,1.8,2,1.8 P,0,124910,125195,A M,0,124952,124995,320,312.4249,320,361.6459
Sprite,Foreground,Centre,"sb\s\b.png",0,0 C,0,125081,,242,0,6 M,0,125081,125123,320,216,320,286.7891 F,2,125081,125366,1,0 R,0,125081,125366,1.57 V,2,125081,125366,4,1.8,2,1.8 P,0,125081,125366,A M,0,125123,125166,320,286.7891,320,361.3116
Sprite,Foreground,Centre,"sb\s\b.png",0,0 C,0,125251,,217,0,124 M,0,125251,125293,320,379,320,371.52 F,2,125251,125536,1,0 R,0,125251,125536,1.57 V,2,125251,125536,4,1.8,2,1.8 P,0,125251,125536,A M,0,125293,125336,320,371.52,320,361.1073
Sprite,Foreground,Centre,"sb\s\b.png",0,0 C,0,125422,,217,0,124 M,0,125422,125464,320,249,320,300.4249 F,2,125422,125707,1,0 R,0,125422,125707,1.57 V,2,125422,125707,4,1.8,2,1.8 P,0,125422,125707,A M,0,125464,125507,320,300.4249,320,349.6459
Sprite,Foreground,Centre,"sb\s\b.png",0,0 C,0,125592,,148,0,204 M,0,125592,125634,320,248,320,255.2399 F,2,125592,126047,1,0 R,0,125592,126047,1.57 V,2,125592,126047,4,1.8,2,1.8 P,0,125592,126047,A M,0,125634,125677,320,255.2399,320,254.4156 M,0,125677,125719,320,254.4156,320,245.8959 M,0,125719,125762,320,245.8959,320,228.0643 M,0,125762,125805,320,228.0643,320,205.4274 M,0,125805,125847,320,205.4274,320,171.3019
Sprite,Foreground,Centre,"sb\s\b.png",0,0 C,0,125933,,148,0,204 M,0,125933,125975,320,160,320,215.9225 F,2,125933,126303,1,0 R,0,125933,126303,1.57 V,2,125933,126303,4,1.8,2,1.8 P,0,125933,126303,A M,0,125975,126018,320,215.9225,320,265.4617 M,0,126018,126060,320,265.4617,320,316.4473 M,0,126060,126103,320,316.4473,320,366
Sprite,Foreground,Centre,"sb\s\b.png",0,0 C,0,126274,,242,0,6 M,0,126274,126316,320,434,320,378.9055 F,2,126274,126559,1,0 R,0,126274,126559,1.57 V,2,126274,126559,4,1.8,2,1.8 P,0,126274,126559,A M,0,126316,126359,320,378.9055,320,355.3867
Sprite,Foreground,Centre,"sb\s\b.png",320,316 C,0,126444,,242,0,6 F,2,126444,126644,1,0 R,0,126444,126644,1.57 V,2,126444,126644,4,1.8,2,1.8 P,0,126444,126644,A
Sprite,Foreground,Centre,"sb\s\b.png",0,0 C,0,126615,,242,0,6 M,0,126615,126657,320,219,320,273.2315 F,2,126615,126985,1,0 R,0,126615,126985,1.57 V,2,126615,126985,4,1.8,2,1.8 P,0,126615,126985,A M,0,126657,126700,320,273.2315,320,328.0354 M,0,126700,126742,320,328.0354,320,382.4853 M,0,126742,126785,320,382.4853,320,399
Sprite,Foreground,Centre,"sb\s\b.png",0,0 C,0,126956,,242,0,6 M,0,126956,126998,320,165,320,216.8951 F,2,126956,127411,1,0 R,0,126956,127411,1.57 V,2,126956,127411,4,1.8,2,1.8 P,0,126956,127411,A M,0,126998,127041,320,216.8951,320,230.6644 M,0,127041,127083,320,230.6644,320,244.2631 M,0,127083,127126,320,244.2631,320,258.6968 M,0,127126,127169,320,258.6968,320,277.3607 M,0,127169,127211,320,277.3607,320,288.0689
Sprite,Foreground,Centre,"sb\s\b.png",0,0 C,0,127297,,217,0,124 M,0,127297,127339,320,295,320,335.9195 F,2,127297,127582,1,0 R,0,127297,127582,1.57 V,2,127297,127582,4,1.8,2,1.8 P,0,127297,127582,A M,0,127339,127382,320,335.9195,320,391.4616
Sprite,Foreground,Centre,"sb\s\b.png",0,0 C,0,127467,,148,0,204 M,0,127467,127509,320,379,320,370.3748 F,2,127467,127752,1,0 R,0,127467,127752,1.57 V,2,127467,127752,4,1.8,2,1.8 P,0,127467,127752,A M,0,127509,127552,320,370.3748,320,379
Sprite,Foreground,Centre,"sb\s\b.png",0,0 C,0,127638,,148,0,204 M,0,127638,127680,320,404,320,411.955 F,2,127638,127923,1,0 R,0,127638,127923,1.57 V,2,127638,127923,4,1.8,2,1.8 P,0,127638,127923,A M,0,127680,127723,320,411.955,320,404
Sprite,Foreground,Centre,"sb\s\b.png",0,0 C,0,127808,,242,0,6 M,0,127808,127850,320,314,320,307.4277 F,2,127808,128093,1,0 R,0,127808,128093,1.57 V,2,127808,128093,4,1.8,2,1.8 P,0,127808,128093,A M,0,127850,127893,320,307.4277,320,301.9369
Sprite,Foreground,Centre,"sb\s\b.png",0,0 C,0,127978,,242,0,6 M,0,127978,128020,320,227,320,202.5753 F,2,127978,128263,1,0 R,0,127978,128263,1.57 V,2,127978,128263,4,1.8,2,1.8 P,0,127978,128263,A M,0,128020,128063,320,202.5753,320,221.8557
Sprite,Foreground,Centre,"sb\s\b.png",0,0 C,0,128149,,242,0,6 M,0,128149,128191,320,170,320,153.125 F,2,128149,128434,1,0 R,0,128149,128434,1.57 V,2,128149,128434,4,1.8,2,1.8 P,0,128149,128434,A M,0,128191,128234,320,153.125,320,170
Sprite,Foreground,Centre,"sb\s\b.png",320,247 C,0,135138,,217,0,124 F,2,135138,135338,1,0 R,0,135138,135338,1.57 V,2,135138,135338,4,1.8,2,1.8 P,0,135138,135338,A
Sprite,Foreground,Centre,"sb\s\b.png",320,200 C,0,135308,,217,0,124 F,2,135308,135508,1,0 R,0,135308,135508,1.57 V,2,135308,135508,4,1.8,2,1.8 P,0,135308,135508,A
Sprite,Foreground,Centre,"sb\s\b.png",320,168 C,0,135478,,217,0,124 F,2,135478,135678,1,0 R,0,135478,135678,1.57 V,2,135478,135678,4,1.8,2,1.8 P,0,135478,135678,A
Sprite,Foreground,Centre,"sb\s\b.png",320,177 C,0,135649,,217,0,124 F,2,135649,135849,1,0 R,0,135649,135849,1.57 V,2,135649,135849,4,1.8,2,1.8 P,0,135649,135849,A
Sprite,Foreground,Centre,"sb\s\b.png",320,324 C,0,135819,,148,0,204 F,2,135819,136019,1,0 R,0,135819,136019,1.57 V,2,135819,136019,4,1.8,2,1.8 P,0,135819,136019,A
Sprite,Foreground,Centre,"sb\s\b.png",320,282 C,0,135990,,148,0,204 F,2,135990,136190,1,0 R,0,135990,136190,1.57 V,2,135990,136190,4,1.8,2,1.8 P,0,135990,136190,A
Sprite,Foreground,Centre,"sb\s\b.png",320,185 C,0,136160,,242,0,6 F,2,136160,136360,1,0 R,0,136160,136360,1.57 V,2,136160,136360,4,1.8,2,1.8 P,0,136160,136360,A
Sprite,Foreground,Centre,"sb\s\b.png",320,208 C,0,136331,,242,0,6 F,2,136331,136531,1,0 R,0,136331,136531,1.57 V,2,136331,136531,4,1.8,2,1.8 P,0,136331,136531,A
Sprite,Foreground,Centre,"sb\s\b.png",0,0 C,0,136501,,217,0,124 M,0,136501,136543,320,372,320,337.0497 F,2,136501,136956,1,0 R,0,136501,136956,1.57 V,2,136501,136956,4,1.8,2,1.8 P,0,136501,136956,A M,0,136543,136586,320,337.0497,320,292.4916 M,0,136586,136628,320,292.4916,320,258.8973 M,0,136628,136671,320,258.8973,320,221.9461 M,0,136671,136714,320,221.9461,320,177.2096 M,0,136714,136756,320,177.2096,320,143.6027
Sprite,Foreground,Centre,"sb\s\b.png",320,59 C,0,146047,,217,0,124 F,2,146047,146247,1,0 R,0,146047,146247,1.57 V,2,146047,146247,4,1.8,2,1.8 P,0,146047,146247,A
Sprite,Foreground,Centre,"sb\s\b.png",320,70 C,0,146217,,217,0,124 F,2,146217,146417,1,0 R,0,146217,146417,1.57 V,2,146217,146417,4,1.8,2,1.8 P,0,146217,146417,A
Sprite,Foreground,Centre,"sb\s\b.png",320,159 C,0,146388,,217,0,124 F,2,146388,146588,1,0 R,0,146388,146588,1.57 V,2,146388,146588,4,1.8,2,1.8 P,0,146388,146588,A
Sprite,Foreground,Centre,"sb\s\b.png",320,355 C,0,146558,,217,0,124 F,2,146558,146758,1,0 R,0,146558,146758,1.57 V,2,146558,146758,4,1.8,2,1.8 P,0,146558,146758,A
Sprite,Foreground,Centre,"sb\s\b.png",320,79 C,0,146728,,148,0,204 F,2,146728,146928,1,0 R,0,146728,146928,1.57 V,2,146728,146928,4,1.8,2,1.8 P,0,146728,146928,A
Sprite,Foreground,Centre,"sb\s\b.png",320,420 C,0,146899,,148,0,204 F,2,146899,147099,1,0 R,0,146899,147099,1.57 V,2,146899,147099,4,1.8,2,1.8 P,0,146899,147099,A
Sprite,Foreground,Centre,"sb\s\b.png",320,160 C,0,147069,,242,0,6 F,2,147069,147269,1,0 R,0,147069,147269,1.57 V,2,147069,147269,4,1.8,2,1.8 P,0,147069,147269,A
Sprite,Foreground,Centre,"sb\s\b.png",320,352 C,0,147240,,242,0,6 F,2,147240,147440,1,0 R,0,147240,147440,1.57 V,2,147240,147440,4,1.8,2,1.8 P,0,147240,147440,A
Sprite,Foreground,Centre,"sb\s\b.png",0,0 C,0,147410,,217,0,124 M,0,147410,147452,320,292,320,285.3851 F,2,147410,147865,1,0 R,0,147410,147865,1.57 V,2,147410,147865,4,1.8,2,1.8 P,0,147410,147865,A M,0,147452,147495,320,285.3851,320,292.8579 M,0,147495,147537,320,292.8579,320,317.6248 M,0,147537,147580,320,317.6248,320,350.9305 M,0,147580,147623,320,350.9305,320,390.1 M,0,147623,147665,320,390.1,320,432.7313
Sprite,Foreground,Centre,"sb\s\w.png",198,396 C,0,141956,,242,0,6 F,2,141956,142456,1,0 R,0,141956,142456,0 V,2,141956,142456,0.3,0.3,0.5,0.5 P,0,141956,142456,A
Sprite,Foreground,Centre,"sb\s\w.png",302,290 C,0,142126,,217,0,124 F,2,142126,142626,1,0 R,0,142126,142626,0 V,2,142126,142626,0.3,0.3,0.5,0.5 P,0,142126,142626,A
Sprite,Foreground,Centre,"sb\s\w.png",0,0 C,0,142297,,148,0,204 M,0,142297,142339,331,321,319.7853,320.3281 F,2,142297,143052,1,0 R,0,142297,143052,0 V,2,142297,143052,0.3,0.3,0.5,0.5 P,0,142297,143052,A M,0,142339,142382,319.7853,320.3281,308.5623,320.6466 M,0,142382,142424,308.5623,320.6466,297.4157,321.9523 M,0,142424,142467,297.4157,321.9523,286.3631,323.9631 M,0,142467,142510,286.3631,323.9631,275.6603,327.3723 M,0,142510,142552,275.6603,327.3723,265.2186,331.5347
Sprite,Foreground,Centre,"sb\s\w.png",0,0 C,0,142638,,242,0,6 M,0,142638,142680,255,344,297.4205,329.5358 F,2,142638,143308,1,0 R,0,142638,143308,0 V,2,142638,143308,0.3,0.3,0.5,0.5 P,0,142638,143308,A M,0,142680,142723,297.4205,329.5358,342.1383,330.5796 M,0,142723,142765,342.1383,330.5796,383.7633,347.1722 M,0,142765,142808,383.7633,347.1722,385.5871,383.6354
Sprite,Foreground,Centre,"sb\s\w.png",304,170 C,0,76501,,148,0,204 F,2,76501,77001,1,0 R,0,76501,77001,0 V,2,76501,77001,0.3,0.3,0.5,0.5 P,0,76501,77001,A
Sprite,Foreground,Centre,"sb\s\w.png",341,296 C,0,76672,,242,0,6 F,2,76672,77172,1,0 R,0,76672,77172,0 V,2,76672,77172,0.3,0.3,0.5,0.5 P,0,76672,77172,A
Sprite,Foreground,Centre,"sb\s\w.png",0,0 C,0,76842,,217,0,124 M,0,76842,76884,279,359,267.9137,360.7859 F,2,76842,77597,1,0 R,0,76842,77597,0 V,2,76842,77597,0.3,0.3,0.5,0.5 P,0,76842,77597,A M,0,76884,76927,267.9137,360.7859,257.076,363.6886 M,0,76927,76969,257.076,363.6886,246.5956,367.6778 M,0,76969,77012,246.5956,367.6778,236.465,372.4995 M,0,77012,77055,236.465,372.4995,227.117,378.7104 M,0,77055,77097,227.117,378.7104,218.4556,385.8363
Sprite,Foreground,Centre,"sb\s\w.png",0,0 C,0,77183,,148,0,204 M,0,77183,77225,197,397,186.5342,353.2339 F,2,77183,77853,1,0 R,0,77183,77853,0 V,2,77183,77853,0.3,0.3,0.5,0.5 P,0,77183,77853,A M,0,77225,77268,186.5342,353.2339,202.7574,312.8936 M,0,77268,77310,202.7574,312.8936,220.9128,282.773 M,0,77310,77353,220.9128,282.773,220.4609,239.3807
Sprite,Foreground,Centre,"sb\s\w.png",233,276 C,0,54683,,217,0,124 F,2,54683,55183,1,0 R,0,54683,55183,0 V,2,54683,55183,0.3,0.3,0.5,0.5 P,0,54683,55183,A
Sprite,Foreground,Centre,"sb\s\w.png",284,160 C,0,54853,,148,0,204 F,2,54853,55353,1,0 R,0,54853,55353,0 V,2,54853,55353,0.3,0.3,0.5,0.5 P,0,54853,55353,A
Sprite,Foreground,Centre,"sb\s\w.png",0,0 C,0,55024,,242,0,6 M,0,55024,55066,268,85,269.995,96.06726 F,2,55024,55779,1,0 R,0,55024,55779,0 V,2,55024,55779,0.3,0.3,0.5,0.5 P,0,55024,55779,A M,0,55066,55109,269.995,96.06726,271.4697,107.2137 M,0,55109,55151,271.4697,107.2137,272.4212,118.4158 M,0,55151,55194,272.4212,118.4158,272.9596,129.6465 M,0,55194,55237,272.9596,129.6465,272.763,140.8892 M,0,55237,55279,272.763,140.8892,272.0406,152.1088
Sprite,Foreground,Centre,"sb\s\w.png",0,0 C,0,55365,,217,0,124 M,0,55365,55407,295,172,337.6907,186.2303 F,2,55365,56035,1,0 R,0,55365,56035,0 V,2,55365,56035,0.3,0.3,0.5,0.5 P,0,55365,56035,A M,0,55407,55450,337.6907,186.2303,380.5591,178.0866 M,0,55450,55492,380.5591,178.0866,423.4856,165.4127 M,0,55492,55535,423.4856,165.4127,466.8439,177.4566
Sprite,Foreground,Centre,"sb\s\b.png",0,0 C,0,58944,,217,0,124 M,0,58944,58986,320,240 F,2,58944,59229,1,0 R,0,58944,59229,1.57 V,2,58944,59229,3,1.8,1,1.8 P,0,58944,59229,A M,0,58986,59029,320,240,320,228.0047
Sprite,Foreground,Centre,"sb\s\b.png",0,0 C,0,59115,,217,0,124 M,0,59115,59157,320,348,320,300.5311 F,2,59115,59400,1,0 R,0,59115,59400,1.57 V,2,59115,59400,3,1.8,1,1.8 P,0,59115,59400,A M,0,59157,59200,320,300.5311,320,336.3309
Sprite,Foreground,Centre,"sb\s\b.png",0,0 C,0,59285,,217,0,124 M,0,59285,59327,320,125,320,194.5592 F,2,59285,59570,1,0 R,0,59285,59570,1.57 V,2,59285,59570,3,1.8,1,1.8 P,0,59285,59570,A M,0,59327,59370,320,194.5592,320,170
Sprite,Foreground,Centre,"sb\s\b.png",0,0 C,0,59456,,148,0,204 M,0,59456,59498,320,353,320,304.8158 F,2,59456,59741,1,0 R,0,59456,59741,1.57 V,2,59456,59741,3,1.8,1,1.8 P,0,59456,59741,A M,0,59498,59541,320,304.8158,320,340.0345
Sprite,Foreground,Centre,"sb\s\b.png",0,0 C,0,59626,,148,0,204 M,0,59626,59668,320,130,320,199.3515 F,2,59626,59911,1,0 R,0,59626,59911,1.57 V,2,59626,59911,3,1.8,1,1.8 P,0,59626,59911,A M,0,59668,59711,320,199.3515,320,174
Sprite,Foreground,Centre,"sb\s\b.png",0,0 C,0,59797,,242,0,6 M,0,59797,59839,320,250,320,249.0069 F,2,59797,60082,1,0 R,0,59797,60082,1.57 V,2,59797,60082,3,1.8,1,1.8 P,0,59797,60082,A M,0,59839,59882,320,249.0069,320,237.5862
Sprite,Foreground,Centre,"sb\s\b.png",0,0 C,0,59967,,242,0,6 M,0,59967,60009,320,358,320,309.8159 F,2,59967,60252,1,0 R,0,59967,60252,1.57 V,2,59967,60252,3,1.8,1,1.8 P,0,59967,60252,A M,0,60009,60052,320,309.8159,320,345.0345
Sprite,Foreground,Centre,"sb\s\b.png",0,0 C,0,60138,,217,0,124 M,0,60138,60180,320,424,320,433.3951 F,2,60138,60849,1,0 R,0,60138,60849,1.57 V,2,60138,60849,3,1.8,1,1.8 P,0,60138,60849,A M,0,60180,60223,320,433.3951,320,442.7901 M,0,60223,60265,320,442.7901,320,403.7238 M,0,60265,60308,320,403.7238,320,363.55 M,0,60308,60351,320,363.55,320,340.7654 M,0,60351,60393,320,340.7654,320,354.0993 M,0,60393,60436,320,354.0993,320,364.006 M,0,60436,60478,320,364.006,320,382.6279 M,0,60478,60521,320,382.6279,320,391.799 M,0,60521,60564,320,391.799,320,400.245 M,0,60564,60606,320,400.245,320,365.9036 M,0,60606,60649,320,365.9036,320,322.1535
Sprite,Foreground,Centre,"sb\s\b.png",0,0 C,0,48035,,217,0,124 M,0,48035,48077,320,337,320,315.394 F,2,48035,48320,1,0 R,0,48035,48320,1.57 V,2,48035,48320,3,1.8,1,1.8 P,0,48035,48320,A M,0,48077,48120,320,315.394,320,293.0641
Sprite,Foreground,Centre,"sb\s\b.png",0,0 C,0,48206,,217,0,124 M,0,48206,48248,320,304,320,265.0405 F,2,48206,48491,1,0 R,0,48206,48491,1.57 V,2,48206,48491,3,1.8,1,1.8 P,0,48206,48491,A M,0,48248,48291,320,265.0405,320,227.626
Sprite,Foreground,Centre,"sb\s\b.png",0,0 C,0,48376,,217,0,124 M,0,48376,48418,320,240,320,188.8833 F,2,48376,48661,1,0 R,0,48376,48661,1.57 V,2,48376,48661,3,1.8,1,1.8 P,0,48376,48661,A M,0,48418,48461,320,188.8833,320,142.7934
Sprite,Foreground,Centre,"sb\s\b.png",0,0 C,0,48547,,148,0,204 M,0,48547,48589,320,311,320,271.8064 F,2,48547,48832,1,0 R,0,48547,48832,1.57 V,2,48547,48832,3,1.8,1,1.8 P,0,48547,48832,A M,0,48589,48632,320,271.8064,320,233.6064
Sprite,Foreground,Centre,"sb\s\b.png",0,0 C,0,48717,,148,0,204 M,0,48717,48759,320,245,320,194.1647 F,2,48717,49002,1,0 R,0,48717,49002,1.57 V,2,48717,49002,3,1.8,1,1.8 P,0,48717,49002,A M,0,48759,48802,320,194.1647,320,146.2319
Sprite,Foreground,Centre,"sb\s\b.png",0,0 C,0,48888,,242,0,6 M,0,48888,48930,320,342,320,320.7928 F,2,48888,49173,1,0 R,0,48888,49173,1.57 V,2,48888,49173,3,1.8,1,1.8 P,0,48888,49173,A M,0,48930,48973,320,320.7928,320,298.7151
Sprite,Foreground,Centre,"sb\s\b.png",0,0 C,0,49058,,242,0,6 M,0,49058,49100,320,318,320,278.7079 F,2,49058,49343,1,0 R,0,49058,49343,1.57 V,2,49058,49343,3,1.8,1,1.8 P,0,49058,49343,A M,0,49100,49143,320,278.7079,320,239.8337
Sprite,Foreground,Centre,"sb\s\b.png",0,0 C,0,49228,,217,0,124 M,0,49228,49270,320,144,320,111.4287 F,2,49228,49896,1,0 R,0,49228,49896,1.57 V,2,49228,49896,3,1.8,1,1.8 P,0,49228,49896,A M,0,49270,49313,320,111.4287,320,102.1857 M,0,49313,49355,320,102.1857,320,110.5984 M,0,49355,49398,320,110.5984,320,129.7106 M,0,49398,49441,320,129.7106,320,155.7794 M,0,49441,49483,320,155.7794,320,186.7085 M,0,49483,49526,320,186.7085,320,221.1878 M,0,49526,49568,320,221.1878,320,258.3286 M,0,49568,49611,320,258.3286,320,297.4916 M,0,49611,49654,320,297.4916,320,338.2016 M,0,49654,49696,320,338.2016,320,380.0969
Sprite,Foreground,Centre,"sb\s\b.png",0,0 C,0,11047,,148,0,204 M,0,11047,11089,439,240,426.9308,240 F,2,11047,11587,1,0 R,0,11047,11587,0 V,2,11047,11587,3,1,1.5,1 P,0,11047,11587,A M,0,11089,11132,426.9308,240,417.5682,240 M,0,11132,11174,417.5682,240,412.1912,240 M,0,11174,11217,412.1912,240,412.8394,240 M,0,11217,11260,412.8394,240,422.2034,240 M,0,11260,11302,422.2034,240,440.7635,240 M,0,11302,11345,440.7635,240,463.0084,240 M,0,11345,11387,463.0084,240,483.3309,240
Sprite,Foreground,Centre,"sb\s\b.png",498,240 C,0,11558,,148,0,204 F,2,11558,11758,1,0 R,0,11558,11758,0 V,2,11558,11758,3,1,1.5,1 P,0,11558,11758,A
Sprite,Foreground,Centre,"sb\s\b.png",0,0 C,0,11728,,148,0,204 M,0,11728,11770,337,240,314.6269,240 F,2,11728,12268,1,0 R,0,11728,12268,0 V,2,11728,12268,3,1,1.5,1 P,0,11728,12268,A M,0,11770,11813,314.6269,240,292.1592,240 M,0,11813,11855,292.1592,240,269.6687,240 M,0,11855,11898,269.6687,240,247.2514,240 M,0,11898,11941,247.2514,240,224.9847,240 M,0,11941,11983,224.9847,240,202.9541,240 M,0,11983,12026,202.9541,240,181.2425,240 M,0,12026,12068,181.2425,240,159.9439,240
Sprite,Foreground,Centre,"sb\s\b.png",0,0 C,0,12240,,242,0,6 M,0,12240,12282,188,240,171.6962,240 F,2,12240,12610,1,0 R,0,12240,12610,0 V,2,12240,12610,3,1,1.5,1 P,0,12240,12610,A M,0,12282,12325,171.6962,240,158.6106,240 M,0,12325,12367,158.6106,240,149.4596,240 M,0,12367,12410,149.4596,240,144.586,240
Sprite,Foreground,Centre,"sb\s\b.png",216,240 C,0,12581,,242,0,6 F,2,12581,12781,1,0 R,0,12581,12781,0 V,2,12581,12781,3,1,1.5,1 P,0,12581,12781,A
Sprite,Foreground,Centre,"sb\s\b.png",0,0 C,0,12751,,242,0,6 M,0,12751,12793,272,240,255.5438,240 F,2,12751,13121,1,0 R,0,12751,13121,0 V,2,12751,13121,3,1,1.5,1 P,0,12751,13121,A M,0,12793,12836,255.5438,240,241.5661,240 M,0,12836,12878,241.5661,240,230.5716,240 M,0,12878,12921,230.5716,240,222.8326,240
Sprite,Foreground,Centre,"sb\s\b.png",0,0 C,0,13092,,217,0,124 M,0,13092,13134,216,240,238.4337,240 F,2,13092,13462,1,0 R,0,13092,13462,0 V,2,13092,13462,3,1,1.5,1 P,0,13092,13462,A M,0,13134,13177,238.4337,240,260.8675,240 M,0,13177,13219,260.8675,240,280.6285,240 M,0,13219,13262,280.6285,240,299.1437,240
Sprite,Foreground,Centre,"sb\s\b.png",0,0 C,0,13433,,217,0,124 M,0,13433,13475,480,240,457.565,240 F,2,13433,13888,1,0 R,0,13433,13888,0 V,2,13433,13888,3,1,1.5,1 P,0,13433,13888,A M,0,13475,13518,457.565,240,435.13,240 M,0,13518,13560,435.13,240,412.6951,240 M,0,13560,13603,412.6951,240,390.2601,240 M,0,13603,13646,390.2601,240,369.4927,240 M,0,13646,13688,369.4927,240,352.2721,240
Sprite,Foreground,Centre,"sb\s\b.png",0,0 C,0,13774,,148,0,204 M,0,13774,13816,329,240,327.9706,240 F,2,13774,14485,1,0 R,0,13774,14485,0 V,2,13774,14485,3,1,1.5,1 P,0,13774,14485,A M,0,13816,13859,327.9706,240,326.9411,240 M,0,13859,13901,326.9411,240,325.9116,240 M,0,13901,13944,325.9116,240,324.8822,240 M,0,13944,13987,324.8822,240,323.8527,240 M,0,13987,14029,323.8527,240,325.4728,240 M,0,14029,14072,325.4728,240,326.9263,240 M,0,14072,14114,326.9263,240,325.6241,240 M,0,14114,14157,325.6241,240,324.322,240 M,0,14157,14200,324.322,240,323.0198,240 M,0,14200,14242,323.0198,240,321.7177,240 M,0,14242,14285,321.7177,240,320.4155,240
Sprite,Foreground,Centre,"sb\s\b.png",0,0 C,0,14456,,148,0,204 M,0,14456,14498,493,240,491.5312,240 F,2,14456,14826,1,0 R,0,14456,14826,0 V,2,14456,14826,3,1,1.5,1 P,0,14456,14826,A M,0,14498,14541,491.5312,240,490.0623,240 M,0,14541,14583,490.0623,240,488.5935,240 M,0,14583,14626,488.5935,240,487.1247,240
Sprite,Foreground,Centre,"sb\s\b.png",0,0 C,0,14797,,242,0,6 M,0,14797,14839,416,240,420.1292,240 F,2,14797,15082,1,0 R,0,14797,15082,0 V,2,14797,15082,3,1,1.5,1 P,0,14797,15082,A M,0,14839,14882,420.1292,240,421.959,240
Sprite,Foreground,Centre,"sb\s\b.png",350,240 C,0,14967,,242,0,6 F,2,14967,15167,1,0 R,0,14967,15167,0 V,2,14967,15167,3,1,1.5,1 P,0,14967,15167,A
Sprite,Foreground,Centre,"sb\s\b.png",0,0 C,0,15138,,217,0,124 M,0,15138,15180,289,240,286.5641,240 F,2,15138,15423,1,0 R,0,15138,15423,0 V,2,15138,15423,3,1,1.5,1 P,0,15138,15423,A M,0,15180,15223,286.5641,240,286.2955,240
Sprite,Foreground,Centre,"sb\s\b.png",359,240 C,0,15308,,217,0,124 F,2,15308,15508,1,0 R,0,15308,15508,0 V,2,15308,15508,3,1,1.5,1 P,0,15308,15508,A
Sprite,Foreground,Centre,"sb\s\b.png",0,0 C,0,15478,,217,0,124 M,0,15478,15520,368,240,362.1759,240 F,2,15478,15848,1,0 R,0,15478,15848,0 V,2,15478,15848,3,1,1.5,1 P,0,15478,15848,A M,0,15520,15563,362.1759,240,357.4844,240 M,0,15563,15605,357.4844,240,354.022,240 M,0,15605,15648,354.022,240,351.9079,240
Sprite,Foreground,Centre,"sb\s\b.png",0,0 C,0,15819,,217,0,124 M,0,15819,15861,476,240,453.917,240 F,2,15819,16530,1,0 R,0,15819,16530,0 V,2,15819,16530,3,1,1.5,1 P,0,15819,16530,A M,0,15861,15904,453.917,240,432.5465,240 M,0,15904,15946,432.5465,240,415.2401,240 M,0,15946,15989,415.2401,240,401.7527,240 M,0,15989,16032,401.7527,240,390.9361,240 M,0,16032,16074,390.9361,240,382.0761,240 M,0,16074,16117,382.0761,240,374.8011,240 M,0,16117,16159,374.8011,240,368.9345,240 M,0,16159,16202,368.9345,240,364.4138,240 M,0,16202,16245,364.4138,240,361.2375,240 M,0,16245,16287,361.2375,240,359.4296,240 M,0,16287,16330,359.4296,240,359,240
Sprite,Foreground,Centre,"sb\s\b.png",0,0 C,0,16501,,148,0,204 M,0,16501,16543,444,240,430.5238,240 F,2,16501,17041,1,0 R,0,16501,17041,0 V,2,16501,17041,3,1,1.5,1 P,0,16501,17041,A M,0,16543,16586,430.5238,240,431.2428,240 M,0,16586,16628,431.2428,240,444.8917,240 M,0,16628,16671,444.8917,240,466.4693,240 M,0,16671,16714,466.4693,240,488.0936,240 M,0,16714,16756,488.0936,240,507.2109,240 M,0,16756,16799,507.2109,240,523.7734,240 M,0,16799,16841,523.7734,240,538.2769,240
Sprite,Foreground,Centre,"sb\s\b.png",561,240 C,0,17013,,148,0,204 F,2,17013,17213,1,0 R,0,17013,17213,0 V,2,17013,17213,3,1,1.5,1 P,0,17013,17213,A
Sprite,Foreground,Centre,"sb\s\b.png",0,0 C,0,17183,,148,0,204 M,0,17183,17225,517,240,514.1024,240 F,2,17183,17723,1,0 R,0,17183,17723,0 V,2,17183,17723,3,1,1.5,1 P,0,17183,17723,A M,0,17225,17268,514.1024,240,512.5158,240 M,0,17268,17310,512.5158,240,512.3408,240 M,0,17310,17353,512.3408,240,513.6847,240 M,0,17353,17396,513.6847,240,516.3794,240 M,0,17396,17438,516.3794,240,520.4708,240 M,0,17438,17481,520.4708,240,525.9431,240 M,0,17481,17523,525.9431,240,532.8862,240
Sprite,Foreground,Centre,"sb\s\b.png",474,240 C,0,17694,,148,0,204 F,2,17694,17894,1,0 R,0,17694,17894,0 V,2,17694,17894,3,1,1.5,1 P,0,17694,17894,A
Sprite,Foreground,Centre,"sb\s\b.png",401,240 C,0,17865,,242,0,6 F,2,17865,18065,1,0 R,0,17865,18065,0 V,2,17865,18065,3,1,1.5,1 P,0,17865,18065,A
Sprite,Foreground,Centre,"sb\s\b.png",412,240 C,0,18035,,242,0,6 F,2,18035,18235,1,0 R,0,18035,18235,0 V,2,18035,18235,3,1,1.5,1 P,0,18035,18235,A
Sprite,Foreground,Centre,"sb\s\b.png",0,0 C,0,18206,,242,0,6 M,0,18206,18248,412,240,412.4499,240 F,2,18206,18576,1,0 R,0,18206,18576,0 V,2,18206,18576,3,1,1.5,1 P,0,18206,18576,A M,0,18248,18291,412.4499,240,412.8998,240 M,0,18291,18333,412.8998,240,402.9442,240 M,0,18333,18376,402.9442,240,390.0079,240
Sprite,Foreground,Centre,"sb\s\b.png",0,0 C,0,18547,,242,0,6 M,0,18547,18589,482,240,464.512,240 F,2,18547,19002,1,0 R,0,18547,19002,0 V,2,18547,19002,3,1,1.5,1 P,0,18547,19002,A M,0,18589,18632,464.512,240,447.024,240 M,0,18632,18674,447.024,240,426.5858,240 M,0,18674,18717,426.5858,240,404.1674,240 M,0,18717,18760,404.1674,240,381.7489,240 M,0,18760,18802,381.7489,240,359.3304,240
Sprite,Foreground,Centre,"sb\s\b.png",0,0 C,0,18888,,242,0,6 M,0,18888,18930,338,240,315.5255,240 F,2,18888,19258,1,0 R,0,18888,19258,0 V,2,18888,19258,3,1,1.5,1 P,0,18888,19258,A M,0,18930,18973,315.5255,240,293.0509,240 M,0,18973,19015,293.0509,240,270.5764,240 M,0,19015,19058,270.5764,240,248.1019,240
Sprite,Foreground,Centre,"sb\s\b.png",0,0 C,0,19228,,217,0,124 M,0,19228,19270,78,240,100.4853,240 F,2,19228,19939,1,0 R,0,19228,19939,0 V,2,19228,19939,3,1,1.5,1 P,0,19228,19939,A M,0,19270,19313,100.4853,240,122.9706,240 M,0,19313,19355,122.9706,240,145.456,240 M,0,19355,19398,145.456,240,167.0306,240 M,0,19398,19441,167.0306,240,187.9672,240 M,0,19441,19483,187.9672,240,209.869,240 M,0,19483,19526,209.869,240,231.5511,240 M,0,19526,19568,231.5511,240,253.3213,240 M,0,19568,19611,253.3213,240,275.7831,240 M,0,19611,19654,275.7831,240,298.2449,240 M,0,19654,19696,298.2449,240,320.7067,240 M,0,19696,19739,320.7067,240,343.1685,240
Sprite,Foreground,Centre,"sb\s\b.png",0,0 C,0,19910,,217,0,124 M,0,19910,19952,565,240,542.5498,240 F,2,19910,20280,1,0 R,0,19910,20280,0 V,2,19910,20280,3,1,1.5,1 P,0,19910,20280,A M,0,19952,19995,542.5498,240,520.0997,240 M,0,19995,20037,520.0997,240,497.6495,240 M,0,20037,20080,497.6495,240,475.1993,240
Sprite,Foreground,Centre,"sb\s\b.png",0,0 C,0,20251,,148,0,204 M,0,20251,20293,399,240,400.7818,240 F,2,20251,20536,1,0 R,0,20251,20536,0 V,2,20251,20536,3,1,1.5,1 P,0,20251,20536,A M,0,20293,20336,400.7818,240,412.1729,240
Sprite,Foreground,Centre,"sb\s\b.png",410,240 C,0,20422,,148,0,204 F,2,20422,20622,1,0 R,0,20422,20622,0 V,2,20422,20622,3,1,1.5,1 P,0,20422,20622,A
Sprite,Foreground,Centre,"sb\s\b.png",0,0 C,0,20592,,242,0,6 M,0,20592,20634,202,240,206.4905,240 F,2,20592,20877,1,0 R,0,20592,20877,0 V,2,20592,20877,3,1,1.5,1 P,0,20592,20877,A M,0,20634,20677,206.4905,240,212.7979,240
Sprite,Foreground,Centre,"sb\s\b.png",209,240 C,0,20763,,242,0,6 F,2,20763,20963,1,0 R,0,20763,20963,0 V,2,20763,20963,3,1,1.5,1 P,0,20763,20963,A
Sprite,Foreground,Centre,"sb\s\b.png",214,240 C,0,20933,,242,0,6 F,2,20933,21133,1,0 R,0,20933,21133,0 V,2,20933,21133,3,1,1.5,1 P,0,20933,21133,A
Sprite,Foreground,Centre,"sb\s\b.png",0,0 C,0,21103,,217,0,124 M,0,21103,21145,324,240,310.7587,240 F,2,21103,21388,1,0 R,0,21103,21388,0 V,2,21103,21388,3,1,1.5,1 P,0,21103,21388,A M,0,21145,21188,310.7587,240,321.9203,240
Sprite,Foreground,Centre,"sb\s\b.png",257,240 C,0,21274,,148,0,204 F,2,21274,21474,1,0 R,0,21274,21474,0 V,2,21274,21474,3,1,1.5,1 P,0,21274,21474,A
Sprite,Foreground,Centre,"sb\s\b.png",250,240 C,0,21444,,148,0,204 F,2,21444,21644,1,0 R,0,21444,21644,0 V,2,21444,21644,3,1,1.5,1 P,0,21444,21644,A
Sprite,Foreground,Centre,"sb\s\b.png",383,240 C,0,21615,,242,0,6 F,2,21615,21815,1,0 R,0,21615,21815,0 V,2,21615,21815,3,1,1.5,1 P,0,21615,21815,A
Sprite,Foreground,Centre,"sb\s\b.png",376,240 C,0,21785,,242,0,6 F,2,21785,21985,1,0 R,0,21785,21985,0 V,2,21785,21985,3,1,1.5,1 P,0,21785,21985,A
Sprite,Foreground,Centre,"sb\s\b.png",320,240 C,0,21956,,217,0,124 F,2,21956,22156,1,0 R,0,21956,22156,0 V,2,21956,22156,3,1,1.5,1 P,0,21956,22156,A
//Storyboard Layer 4 (Overlay)
//Storyboard Sound Samples

[TimingPoints]
138,340.909090909091,4,3,3,85,1,0
138,-100,4,3,4,85,0,0
180,-100,4,3,3,85,0,0
11004,-100,4,3,3,5,0,0
11047,-100,4,3,4,85,0,0
11089,-100,4,3,3,85,0,0
13689,-100,4,3,3,5,0,0
13774,-100,4,3,3,85,0,0
18802,-100,4,3,3,5,0,0
18888,-100,4,3,3,85,0,0
21956,-100,4,3,2,85,0,0
32865,-76.9230769230769,4,3,4,40,0,0
32907,-76.9230769230769,4,3,3,40,0,0
35592,-71.4285714285714,4,3,3,45,0,0
36274,-66.6666666666667,4,3,3,50,0,0
36956,-62.5,4,3,3,55,0,0
37638,-58.8235294117647,4,3,3,60,0,0
38319,-55.5555555555556,4,3,3,65,0,0
39001,-52.6315789473684,4,3,3,70,0,0
39683,-50,4,3,3,75,0,0
40365,-47.6190476190476,4,3,3,80,0,0
41047,-45.4545454545455,4,3,3,85,0,0
41728,-43.4782608695652,4,3,3,85,0,0
42410,-200,4,3,3,85,0,0
43689,-200,4,3,3,5,0,0
43774,-50,4,3,3,100,0,1
43816,-50,4,3,3,100,0,1
44456,-50,4,3,3,100,0,0
45564,-50,4,3,3,5,0,0
45649,-50,4,3,3,100,0,0
45734,-50,4,3,3,5,0,0
45819,-50,4,3,3,100,0,0
45905,-50,4,3,3,5,0,0
45990,-66.6666666666667,4,3,3,100,0,0
46075,-66.6666666666667,4,3,3,5,0,0
46160,-66.6666666666667,4,3,3,100,0,0
46245,-66.6666666666667,4,3,3,5,0,0
46331,-66.6666666666667,4,3,3,100,0,0
46416,-66.6666666666667,4,3,3,5,0,0
46501,-50,4,3,3,100,0,0
47609,-50,4,3,3,5,0,0
47694,-50,4,3,3,100,0,0
48035,-100,4,3,3,100,0,0
48120,-100,4,3,3,5,0,0
48206,-57.1428571428571,4,3,3,100,0,0
48291,-57.1428571428571,4,3,3,5,0,0
48376,-40,4,3,3,100,0,0
48461,-40,4,3,3,5,0,0
48547,-57.1428571428571,4,3,3,100,0,0
48632,-57.1428571428571,4,3,3,5,0,0
48717,-40,4,3,3,100,0,0
48802,-40,4,3,3,5,0,0
48888,-100,4,3,3,100,0,0
48973,-100,4,3,3,5,0,0
49058,-57.1428571428571,4,3,3,100,0,0
49143,-57.1428571428571,4,3,3,5,0,0
49228,-50,4,3,4,100,0,0
49271,-50,4,3,3,100,0,0
51018,-50,4,3,3,5,0,0
51103,-50,4,3,3,100,0,0
51700,-50,4,3,3,5,0,0
51785,-40,4,3,3,100,0,0
51870,-40,4,3,3,5,0,0
51956,-50,4,3,3,100,0,0
54001,-100,4,3,3,100,0,0
54086,-100,4,3,3,5,0,0
54172,-50,4,3,3,100,0,0
54257,-50,4,3,3,5,0,0
54342,-33.3333333333333,4,3,3,100,0,0
54427,-33.3333333333333,4,3,3,5,0,0
54513,-33.3333333333333,4,3,3,85,0,0
55024,-200,4,3,3,85,0,0
55280,-25,4,3,0,5,0,0
55365,-50,4,3,4,100,0,1
55407,-50,4,3,3,100,0,1
55961,-50,4,3,3,5,0,1
56047,-50,4,3,3,100,0,0
56473,-50,4,3,3,5,0,0
56558,-50,4,3,3,100,0,0
56814,-50,4,3,3,5,0,0
56899,-50,4,3,3,100,0,0
56984,-50,4,3,3,5,0,0
57069,-50,4,3,3,100,0,0
57155,-50,4,3,3,5,0,0
57240,-100,4,3,3,100,0,0
57410,-50,4,3,3,100,0,0
58518,-50,4,3,3,5,0,0
58603,-50,4,3,3,100,0,0
58689,-50,4,3,3,5,0,0
58774,-50,4,3,3,100,0,0
58944,-66.6666666666667,4,3,3,100,0,0
59030,-66.6666666666667,4,3,3,5,0,0
59115,-40,4,3,3,100,0,0
59200,-40,4,3,3,5,0,0
59285,-28.5714285714286,4,3,3,100,0,0
59370,-28.5714285714286,4,3,3,5,0,0
59456,-40,4,3,3,100,0,0
59541,-40,4,3,3,5,0,0
59626,-28.5714285714286,4,3,3,100,0,0
59711,-28.5714285714286,4,3,3,5,0,0
59797,-66.6666666666667,4,3,3,100,0,0
59882,-66.6666666666667,4,3,3,5,0,0
59967,-40,4,3,3,100,0,0
60052,-40,4,3,3,5,0,0
60138,-50,4,3,4,100,0,0
60180,-50,4,3,3,100,0,0
61757,-50,4,3,3,5,0,0
61842,-50,4,3,3,100,0,0
61927,-50,4,3,3,5,0,0
62013,-50,4,3,3,100,0,0
62098,-50,4,3,3,5,0,0
62183,-50,4,3,3,100,0,0
62268,-50,4,3,3,5,0,0
62353,-50,4,3,3,100,0,0
62439,-50,4,3,3,5,0,0
62524,-50,4,3,3,100,0,0
62609,-50,4,3,3,5,0,0
62694,-100,4,3,3,100,0,0
62865,-50,4,3,3,85,0,0
63888,-50,4,3,3,40,0,0
64228,-50,4,3,3,50,0,0
64569,-50,4,3,3,60,0,0
64910,-50,4,3,3,85,0,0
65592,-50,4,3,4,100,0,1
65635,-50,4,3,3,100,0,1
66018,-50,4,3,3,5,0,1
66103,-50,4,3,3,100,0,1
66189,-50,4,3,3,5,0,1
66274,-50,4,3,3,100,0,1
66530,-50,4,3,3,5,0,0
66615,-50,4,3,3,100,0,0
67211,-50,4,3,3,5,0,0
67297,-50,4,3,3,100,0,0
67382,-50,4,3,3,5,0,0
67467,-50,4,3,3,100,0,0
67723,-50,4,3,3,5,0,0
67808,-50,4,3,3,100,0,0
67893,-50,4,3,3,5,0,0
67978,-50,4,3,3,100,0,0
68064,-50,4,3,3,5,0,0
68149,-50,4,3,3,100,0,0
68234,-50,4,3,3,5,0,0
68319,-50,4,3,3,100,0,0
68660,-33.3333333333333,4,3,3,100,0,0
68916,-33.3333333333333,4,3,3,5,0,0
69001,-50,4,3,3,100,0,0
69257,-50,4,3,3,5,0,0
69342,-50,4,3,3,100,0,0
69427,-50,4,3,3,5,0,0
69513,-50,4,3,3,100,0,0
69598,-50,4,3,3,5,0,0
69683,-50,4,3,3,100,0,0
71047,-50,4,3,4,100,0,0
71089,-50,4,3,3,100,0,0
71302,-50,4,3,3,5,0,0
71388,-50,4,3,3,100,0,0
71473,-50,4,3,3,5,0,0
71558,-50,4,3,3,100,0,0
71643,-50,4,3,3,5,0,0
71728,-50,4,3,3,100,0,0
71984,-50,4,3,3,5,0,0
72069,-50,4,3,3,100,0,0
72666,-50,4,3,3,5,0,0
72751,-50,4,3,3,100,0,0
72836,-50,4,3,3,5,0,0
72922,-50,4,3,3,100,0,0
73433,-66.6666666666667,4,3,3,100,0,0
73518,-66.6666666666667,4,3,3,5,0,0
73603,-50,4,3,3,100,0,0
73689,-50,4,3,3,5,0,0
73774,-50,4,3,3,100,0,0
75649,-100,4,3,3,100,0,0
75734,-50,4,3,3,100,0,0
75819,-66.6666666666667,4,3,3,100,0,0
75905,-66.6666666666667,4,3,3,5,0,0
75990,-50,4,3,3,100,0,0
76075,-50,4,3,3,5,0,0
76160,-50,4,3,3,100,0,0
76501,-50,4,3,3,85,0,0
76842,-200,4,3,3,85,0,0
77098,-200,4,3,3,5,0,0
77183,-50,4,3,4,100,0,1
77226,-50,4,3,3,100,0,1
77865,-50,4,3,3,100,0,0
78120,-50,4,3,3,5,0,0
78206,-50,4,3,3,100,0,0
78291,-50,4,3,3,5,0,0
78376,-50,4,3,3,100,0,0
78632,-50,4,3,3,5,0,0
78717,-50,4,3,3,100,0,0
78802,-50,4,3,3,5,0,0
78888,-50,4,3,3,100,0,0
78973,-50,4,3,3,5,0,0
79058,-50,4,3,3,100,0,0
79143,-50,4,3,3,5,0,0
79228,-40,4,3,3,100,0,0
79484,-40,4,3,3,5,0,0
79569,-50,4,3,3,100,0,0
79655,-50,4,3,3,5,0,0
79740,-50,4,3,3,100,0,0
79825,-50,4,3,3,5,0,0
79910,-50,4,3,3,100,0,0
80166,-50,4,3,3,5,0,0
80251,-50,4,3,3,100,0,0
81956,-50,4,3,4,100,0,0
81998,-50,4,3,3,100,0,0
82211,-50,4,3,3,5,0,0
82297,-50,4,3,3,100,0,0
82382,-50,4,3,3,5,0,0
82467,-50,4,3,3,100,0,0
82552,-50,4,3,3,5,0,0
82638,-50,4,3,3,100,0,0
82893,-50,4,3,3,5,0,0
82978,-50,4,3,3,100,0,0
83575,-50,4,3,3,5,0,0
83660,-50,4,3,3,100,0,0
83745,-50,4,3,3,5,0,0
83831,-50,4,3,3,100,0,0
84257,-50,4,3,3,5,0,0
84342,-50,4,3,3,100,0,0
84427,-50,4,3,3,5,0,0
84513,-50,4,3,3,100,0,0
84598,-50,4,3,3,5,0,0
84683,-200,4,3,3,85,0,0
84853,-200,4,3,3,80,0,0
85024,-200,4,3,3,75,0,0
85194,-200,4,3,3,70,0,0
85365,-200,4,3,3,65,0,0
85407,-200,4,3,3,55,0,0
85450,-200,4,3,3,45,0,0
85493,-200,4,3,3,35,0,0
85535,-200,4,3,3,25,0,0
86217,-200,4,3,3,35,0,0
86387,-200,4,3,3,45,0,0
86557,-200,4,3,3,55,0,0
86728,-200,4,3,3,65,0,0
86898,-200,4,3,3,75,0,0
87069,-200,4,3,3,85,0,0
87368,-200,4,3,3,5,0,0
87410,-100,4,3,4,85,0,0
87453,-100,4,3,3,85,0,0
89797,-62.5,4,3,3,85,0,0
90052,-100,4,3,3,5,0,0
90138,-100,4,3,3,85,0,0
92865,-100,4,3,4,85,0,0
92907,-100,4,3,3,85,0,0
98319,-76.9230769230769,4,3,4,85,0,0
98362,-76.9230769230769,4,3,3,50,0,0
101047,-71.4285714285714,4,3,3,55,0,0
101728,-66.6666666666667,4,3,3,60,0,0
102410,-62.5,4,3,3,65,0,0
103092,-58.8235294117647,4,3,3,70,0,0
103774,-55.5555555555556,4,3,3,75,0,0
104456,-52.6315789473684,4,3,3,80,0,0
105138,-50,4,3,3,85,0,0
105819,-47.6190476190476,4,3,3,85,0,0
106501,-45.4545454545455,4,3,3,85,0,0
107183,-43.4782608695652,4,3,3,85,0,0
107865,-200,4,3,3,85,0,0
109228,-40,4,3,3,100,0,1
109484,-40,4,3,3,5,0,1
109569,-40,4,3,3,100,0,1
109995,-40,4,3,3,5,0,1
110081,-40,4,3,3,100,0,1
110848,-40,4,3,3,5,0,1
110933,-40,4,3,3,100,0,1
111018,-40,4,3,3,5,0,1
111103,-40,4,3,3,100,0,1
111189,-40,4,3,3,5,0,1
111274,-40,4,3,3,100,0,1
111530,-40,4,3,3,5,0,1
111615,-40,4,3,3,100,0,1
111700,-40,4,3,3,5,0,1
111785,-40,4,3,3,100,0,1
111870,-40,4,3,3,5,0,1
111956,-40,4,3,3,100,0,1
112211,-40,4,3,3,5,0,1
112297,-40,4,3,3,100,0,1
112723,-40,4,3,3,5,0,1
112808,-40,4,3,3,100,0,1
113064,-40,4,3,3,5,0,1
113149,-40,4,3,3,100,0,1
113234,-40,4,3,3,5,0,1
113319,-40,4,3,3,100,0,1
113490,-66.6666666666667,4,3,3,100,0,1
113575,-66.6666666666667,4,3,3,5,0,1
113660,-40,4,3,3,100,0,1
113745,-40,4,3,3,5,0,1
113831,-28.5714285714286,4,3,3,100,0,1
113916,-28.5714285714286,4,3,3,5,0,1
114001,-40,4,3,3,100,0,1
114086,-40,4,3,3,5,0,1
114172,-28.5714285714286,4,3,3,100,0,1
114257,-28.5714285714286,4,3,3,5,0,1
114342,-66.6666666666667,4,3,3,100,0,1
114427,-66.6666666666667,4,3,3,5,0,1
114513,-40,4,3,3,100,0,1
114598,-40,4,3,3,5,0,1
114683,-40,4,3,4,100,0,1
114726,-40,4,3,3,100,0,1
114939,-40,4,3,3,5,0,1
115024,-40,4,3,3,100,0,1
115450,-40,4,3,3,5,0,1
115535,-40,4,3,3,100,0,1
116302,-40,4,3,3,5,0,1
116388,-40,4,3,3,100,0,1
116473,-40,4,3,3,5,0,1
116558,-40,4,3,3,100,0,1
117069,-50,4,3,3,100,0,1
117155,-50,4,3,3,5,0,1
117240,-40,4,3,3,100,0,1
117325,-40,4,3,3,5,0,1
117410,-40,4,3,3,100,0,1
119456,-66.6666666666667,4,3,3,100,0,1
119541,-66.6666666666667,4,3,3,5,0,1
119626,-40,4,3,3,100,0,1
119711,-40,4,3,3,5,0,1
119797,-40,4,3,3,100,0,1
120138,-40,4,3,3,85,0,0
120777,-40,4,3,3,5,0,0
120819,-40,4,3,4,100,0,1
120862,-40,4,3,3,100,0,1
121416,-40,4,3,3,5,0,1
121501,-40,4,3,3,100,0,1
121927,-40,4,3,3,5,0,1
122013,-40,4,3,3,100,0,1
122268,-40,4,3,3,5,0,1
122353,-40,4,3,3,100,0,1
122439,-40,4,3,3,5,0,1
122524,-40,4,3,3,100,0,1
122609,-40,4,3,3,5,0,1
122694,-80,4,3,3,100,0,1
122865,-40,4,3,3,100,0,1
123120,-40,4,3,3,5,0,1
123206,-40,4,3,3,100,0,1
123632,-40,4,3,3,5,0,1
123717,-40,4,3,3,100,0,1
123973,-40,4,3,3,5,0,1
124058,-40,4,3,3,100,0,1
124314,-40,4,3,3,5,0,1
124399,-66.6666666666667,4,3,3,100,0,1
124484,-66.6666666666667,4,3,3,5,0,1
124569,-40,4,3,3,100,0,1
124655,-40,4,3,3,5,0,1
124740,-28.5714285714286,4,3,3,100,0,1
124825,-28.5714285714286,4,3,3,5,0,1
124910,-40,4,3,3,100,0,1
124995,-40,4,3,3,5,0,1
125081,-28.5714285714286,4,3,3,100,0,1
125166,-28.5714285714286,4,3,3,5,0,1
125251,-66.6666666666667,4,3,3,100,0,1
125336,-66.6666666666667,4,3,3,5,0,1
125422,-40,4,3,3,100,0,1
125507,-40,4,3,3,5,0,1
125592,-40,4,3,4,100,0,1
125635,-40,4,3,3,100,0,1
125848,-40,4,3,3,5,0,1
125933,-40,4,3,3,100,0,1
126359,-40,4,3,3,5,0,1
126444,-40,4,3,3,100,0,1
127211,-40,4,3,3,5,0,1
127297,-40,4,3,3,100,0,1
127382,-40,4,3,3,5,0,1
127467,-40,4,3,3,100,0,1
127893,-40,4,3,3,5,0,1
127978,-40,4,3,3,100,0,1
128064,-40,4,3,3,5,0,1
128149,-80,4,3,3,100,0,1
128319,-40,4,3,3,85,0,0
129640,-40,4,3,3,5,0,0
129683,-100,4,3,3,85,0,0
130706,-200,4,3,3,85,0,0
130961,-200,4,3,3,5,0,0
131047,-50,4,3,4,100,0,1
131089,-50,4,3,3,100,0,1
131302,-50,4,3,3,5,0,1
131388,-50,4,3,3,100,0,1
131473,-50,4,3,3,5,0,1
131558,-50,4,3,3,100,0,1
131643,-50,4,3,3,5,0,1
131728,-50,4,3,3,100,0,0
131984,-50,4,3,3,5,0,0
132069,-50,4,3,3,100,0,0
132666,-50,4,3,3,5,0,0
132751,-50,4,3,3,100,0,0
132836,-50,4,3,3,5,0,0
132922,-50,4,3,3,100,0,0
133177,-50,4,3,3,5,0,0
133263,-50,4,3,3,100,0,0
133348,-50,4,3,3,5,0,0
133433,-50,4,3,3,100,0,0
133518,-50,4,3,3,5,0,0
133603,-50,4,3,3,100,0,0
133689,-50,4,3,3,5,0,0
133774,-50,4,3,3,100,0,0
134030,-50,4,3,3,5,0,0
134115,-33.3333333333333,4,3,3,100,0,0
134456,-50,4,3,3,100,0,0
134882,-50,4,3,3,5,0,0
134967,-50,4,3,3,100,0,0
135052,-50,4,3,3,5,0,0
135138,-50,4,3,3,100,0,0
136501,-50,4,3,4,100,0,0
136544,-50,4,3,3,100,0,0
136757,-50,4,3,3,5,0,0
136842,-50,4,3,3,100,0,0
136927,-50,4,3,3,5,0,0
137013,-50,4,3,3,100,0,0
137098,-50,4,3,3,5,0,0
137183,-50,4,3,3,100,0,0
137439,-50,4,3,3,5,0,0
137524,-50,4,3,3,100,0,0
138120,-50,4,3,3,5,0,0
138206,-50,4,3,3,100,0,0
138291,-50,4,3,3,5,0,0
138376,-50,4,3,3,100,0,0
138632,-50,4,3,3,5,0,0
138717,-50,4,3,3,100,0,0
138802,-50,4,3,3,5,0,0
138888,-66.6666666666667,4,3,3,100,0,0
138973,-66.6666666666667,4,3,3,5,0,0
139058,-50,4,3,3,100,0,0
139143,-50,4,3,3,5,0,0
139228,-50,4,3,3,100,0,0
141103,-100,4,3,3,100,0,0
141189,-50,4,3,3,100,0,0
141359,-50,4,3,3,5,0,0
141444,-33.3333333333333,4,3,3,100,0,0
141530,-33.3333333333333,4,3,3,5,0,0
141615,-50,4,3,3,100,0,0
141956,-50,4,3,3,85,0,0
142297,-200,4,3,3,85,0,0
142552,-200,4,3,3,5,0,0
142638,-50,4,3,4,100,0,1
142680,-50,4,3,3,100,0,1
143319,-50,4,3,3,100,0,0
143575,-50,4,3,3,5,0,0
143660,-50,4,3,3,100,0,0
143745,-50,4,3,3,5,0,0
143831,-50,4,3,3,100,0,0
144086,-50,4,3,3,5,0,0
144172,-50,4,3,3,100,0,0
144257,-50,4,3,3,5,0,0
144342,-50,4,3,3,100,0,0
144427,-50,4,3,3,5,0,0
144513,-50,4,3,3,100,0,0
144598,-50,4,3,3,5,0,0
144683,-50,4,3,3,100,0,0
144939,-50,4,3,3,5,0,0
145024,-33.3333333333333,4,3,3,100,0,0
145365,-50,4,3,3,100,0,0
145620,-50,4,3,3,5,0,0
145706,-50,4,3,3,100,0,0
147410,-50,4,3,4,100,0,0
147453,-50,4,3,3,100,0,0
147666,-50,4,3,3,5,0,0
147751,-50,4,3,3,100,0,0
147836,-50,4,3,3,5,0,0
147922,-50,4,3,3,100,0,0
148007,-50,4,3,3,5,0,0
148092,-50,4,3,3,100,0,0
148348,-50,4,3,3,5,0,0
148433,-50,4,3,3,100,0,0
149030,-50,4,3,3,5,0,0
149115,-50,4,3,3,100,0,0
149200,-50,4,3,3,5,0,0
149285,-50,4,3,3,100,0,0
149370,-50,4,3,3,5,0,0
149456,-50,4,3,3,100,0,0
149711,-50,4,3,3,5,0,0
149797,-50,4,3,3,100,0,0
149882,-50,4,3,3,5,0,0
149967,-50,4,3,3,100,0,0
150052,-50,4,3,3,5,0,0
150138,-200,4,3,4,85,0,0
150308,-200,4,3,3,80,0,0
150479,-200,4,3,3,75,0,0
150649,-200,4,3,3,70,0,0
150819,-200,4,3,3,65,0,0
150862,-200,4,3,3,55,0,0
150905,-200,4,3,3,45,0,0
150948,-200,4,3,3,35,0,0
150990,-200,4,3,3,25,0,0
151672,-200,4,3,3,35,0,0
151842,-200,4,3,3,45,0,0
152012,-200,4,3,3,55,0,0
152183,-200,4,3,3,65,0,0
152353,-200,4,3,3,75,0,0
152524,-200,4,3,3,85,0,0
152822,-100,4,3,3,5,0,0
152865,-100,4,3,4,85,0,0
152907,-100,4,3,3,85,0,0
155507,-100,4,3,3,5,0,0
155592,-100,4,3,3,85,0,0
160961,-100,4,3,3,5,0,0
161047,-100,4,3,3,85,0,0
163774,-100,4,3,4,85,0,0
163816,-100,4,3,3,85,0,0
166416,-100,4,3,3,5,0,0
166501,-100,4,3,3,85,0,0
171870,-100,4,3,3,5,0,0
171956,-100,4,3,3,85,0,0
174683,-100,4,3,2,85,0,0

[Colours]
Combo1 : 242,0,6
Combo2 : 217,0,124
Combo3 : 148,0,204

[HitObjects]
239,168,138,5,6,0:1:0:0:
256,192,180,12,0,11004,0:0:0:0:
375,309,11047,6,0,B|303:209|389:147|447:231,1,180,6|0,0:1|0:0,0:0:0:0:
434,199,11558,1,0,0:0:0:0:
273,225,11728,2,0,P|181:226|95:205,1,180,8|0,0:0|0:0,0:0:0:0:
124,138,12240,6,0,P|93:102|80:55,1,90,4|0,0:0|0:0,0:0:0:0:
152,51,12581,1,4,0:0:0:0:
208,2,12751,2,0,P|180:31|157:83,1,90,4|0,0:0|0:0,0:0:0:0:
152,312,13092,6,0,B|204:316|204:316|246:287,1,90,8|0,0:0|0:0,0:0:0:0:
416,337,13433,2,0,B|311:329|311:329|267:366,1,135
265,366,13774,6,0,B|259:235|259:235|264:229|264:229|256:91,1,270,4|0,0:0|0:0,0:0:0:0:
429,210,14456,2,0,L|422:317,1,90,8|0,0:0|0:0,0:0:0:0:
352,315,14797,6,0,P|356:335|358:366,1,45
286,357,14967,1,4,0:0:0:0:
225,208,15138,6,0,P|222:174|225:136,1,45
295,182,15308,1,4,0:0:0:0:
304,193,15478,2,0,P|292:245|287:299,1,90,4|0,0:0|0:0,0:0:0:0:
412,99,15819,2,0,B|385:90|348:88|323:148|294:213|295:306,1,270,8|0,0:0|0:0,0:0:0:0:
380,355,16501,6,0,B|346:340|361:251|433:289|455:312|495:373,1,180,4|0,0:0|0:0,0:0:0:0:
497,332,17013,1,0,0:0:0:0:
453,145,17183,2,0,P|450:239|472:331,1,180,8|0,0:0|0:0,0:0:0:0:
410,364,17694,1,4,0:0:0:0:
337,360,17865,5,0,0:0:0:0:
348,214,18035,1,4,0:0:0:0:
348,214,18206,2,0,B|349:164|349:164|323:127,1,90,4|0,0:0|0:0,0:0:0:0:
418,251,18547,2,0,B|376:285|376:285|294:292,1,135,8|0,0:0|0:0,0:0:0:0:
274,280,18888,2,0,L|169:275,1,90
14,261,19228,6,0,B|97:264|97:264|111:272|111:272|162:260|162:260|178:266|178:266|298:273,1,270,4|0,0:0|0:0,0:0:0:0:
501,285,19910,2,0,L|411:279,1,90,8|0,0:0|0:0,0:0:0:0:
335,315,20251,6,0,P|338:333|348:318,1,45
346,244,20422,1,4,0:0:0:0:
138,25,20592,6,0,P|140:9|142:27,1,45
145,96,20763,1,4,0:0:0:0:
150,167,20933,1,4,0:0:0:0:
260,201,21103,6,0,P|245:197|263:197,1,45
193,255,21274,5,8,0:0:0:0:
186,327,21444,1,0,0:0:0:0:
319,129,21615,5,0,0:0:0:0:
312,57,21785,1,0,0:0:0:0:
256,192,21956,5,6,0:1:0:0:
314,80,32865,5,14,0:1:0:0:
261,126,33035,2,0,B|231:115|231:115|210:91,1,58.4999973220826,8|0,0:0|0:0,0:0:0:0:
377,36,33206,2,0,B|390:75|390:75|367:156,1,116.999994644165,12|8,0:0|0:0,0:0:0:0:
393,172,33461,1,8,0:0:0:0:
416,198,33547,2,0,B|392:234|392:234|289:277,1,116.999994644165,12|8,0:0|0:0,0:0:0:0:
257,286,33888,1,4,0:0:0:0:
296,92,34058,5,8,0:0:0:0:
296,92,34143,1,8,0:0:0:0:
296,92,34228,2,0,B|257:130|223:83|153:136,1,116.999994644165,4|8,0:0|0:0,0:0:0:0:
0,44,34569,2,0,B|36:80|69:41|117:59,1,116.999994644165,4|8,0:0|0:0,0:0:0:0:
141,39,34825,1,8,0:0:0:0:
159,9,34910,2,0,P|150:67|149:148,1,116.999994644165,4|8,0:0|0:0,0:0:0:0:
155,208,35251,1,4,0:0:0:0:
30,273,35422,5,8,0:0:0:0:
34,290,35507,1,8,0:0:0:0:
37,308,35592,1,4,0:0:0:0:
112,316,35763,1,8,0:0:0:0:
248,280,35933,5,4,0:0:0:0:
173,272,36103,1,8,0:0:0:0:
140,240,36189,1,8,0:0:0:0:
145,192,36274,2,0,P|168:119|155:54,1,135.000005149842,4|8,0:0|0:0,0:0:0:0:
92,123,36615,6,0,B|163:110|163:110|247:165,1,135.000005149842,4|8,0:0|0:0,0:0:0:0:
243,118,36870,1,8,0:0:0:0:
276,93,36956,2,0,B|131:1,1,144,4|8,0:0|0:0,0:0:0:0:
69,40,37297,1,4,0:0:0:0:
280,6,37467,1,8,0:0:0:0:
280,6,37552,1,8,0:0:0:0:
280,6,37638,5,4,0:0:0:0:
245,200,37808,1,8,0:0:0:0:
314,259,37978,1,4,0:0:0:0:
260,98,38149,1,8,0:0:0:0:
260,98,38234,1,8,0:0:0:0:
260,98,38319,5,12,0:0:0:0:
89,125,38490,1,12,0:0:0:0:
119,33,38660,1,8,0:0:0:0:
151,57,38745,1,8,0:0:0:0:
171,91,38831,1,8,0:0:0:0:
178,131,38916,1,8,0:0:0:0:
169,170,39001,1,12,0:0:0:0:
6,193,39172,1,12,0:0:0:0:
171,255,39342,5,8,0:0:0:0:
213,258,39427,1,8,0:0:0:0:
256,262,39513,1,8,0:0:0:0:
298,266,39598,1,8,0:0:0:0:
341,270,39683,1,12,0:0:0:0:
251,349,39853,1,12,0:0:0:0:
371,180,40024,5,12,0:0:0:0:
319,153,40109,1,8,0:0:0:0:
260,172,40194,1,8,0:0:0:0:
205,146,40280,1,8,0:0:0:0:
149,164,40365,1,12,0:0:0:0:
249,364,40535,1,12,0:0:0:0:
272,3,40706,5,12,0:0:0:0:
272,3,40791,1,8,0:0:0:0:
272,3,40876,1,8,0:0:0:0:
272,3,40961,1,8,0:0:0:0:
272,3,41047,6,8,P|258:59|267:154,1,99.0000030212403
346,65,41217,2,8,P|369:109|459:190,1,99.0000030212403
277,181,41388,6,8,P|269:276|253:332,1,99.0000030212403
184,235,41558,2,8,P|141:291|67:345,1,99.0000030212403
51,56,41728,5,8,0:0:0:0:
17,70,41814,1,8,0:0:0:0:
3,102,41899,1,8,0:0:0:0:
14,134,41984,1,8,0:0:0:0:
42,151,42069,6,8,P|89:155|164:138,1,103.500001974106,12|8,0:0|0:0,0:0:0:0:
470,151,42240,2,8,P|422:155|347:138,1,103.500001974106
264,144,42410,6,0,P|255:111|248:144,1,90
194,216,42922,1,0,0:0:0:0:
107,279,43092,6,0,L|106:235,1,45
47,10,43433,2,0,L|51:92,1,67.5,2|0,0:2|0:0,0:0:0:0:
40,104,43774,6,0,B|-39:166|-84:-61|133:-14|369:202,1,540,6|0,0:1|0:0,0:0:0:0:
469,103,44456,6,0,B|533:113|519:48|519:48|496:29|466:28|466:28|437:28|405:39|405:39|406:45|406:45|401:40|401:40|356:59|356:59|346:57|346:57|303:100|303:100|294:96|294:96|238:128|238:128|235:125|235:125|237:129|237:129|166:175|116:232,1,540,8|0,0:0|0:0,0:0:0:0:
259,367,45138,2,0,B|250:379|211:381|202:347|200:325|200:325|204:314|204:314|201:291|201:291|204:282|204:282|210:256|240:221,1,180,4|0,0:0|0:0,0:0:0:0:
339,89,45478,6,0,B|332:72|332:72|314:73|314:73|306:86|306:86|341:135,1,90
276,5,45649,6,0,B|255:18|255:18|230:54|230:54|213:131,1,90,6|0,0:0|0:0,0:0:0:0:
144,81,45819,2,0,B|147:106|147:106|175:143|175:143|238:169,1,90,10|0,0:0|0:0,0:0:0:0:
336,128,45990,6,0,P|300:131|230:156,1,67.5000025749208,6|0,0:0|0:0,0:0:0:0:
390,226,46160,2,0,P|349:210|291:207,1,67.5000025749208,2|0,0:0|0:0,0:0:0:0:
390,342,46331,2,0,P|369:314|330:282,1,67.5000025749208,2|0,0:0|0:0,0:0:0:0:
228,259,46501,6,0,B|128:366|259:449|367:397|365:245|256:130|151:82,1,540,4|4,0:0|0:0,0:0:0:0:
364,183,47183,2,0,B|354:134|250:217|209:261,1,180,8|4,0:0|0:0,0:0:0:0:
113,347,47524,6,0,B|101:364|95:383|95:383|98:363|86:284,1,90
60,245,47694,2,0,B|41:222|41:222|57:190,2,45,4|0|0,0:0|0:0|0:0,0:0:0:0:
0,308,47865,1,4,0:0:0:0:
251,281,48035,6,0,P|257:261|259:230,1,45,2|0,0:2|0:0,0:0:0:0:
339,248,48206,2,0,P|333:205|316:159,1,78.7500007510185,2|0,0:2|0:0,0:0:0:0:
416,184,48376,2,0,P|387:123|331:56,1,112.5,2|0,0:2|0:0,0:0:0:0:
343,255,48547,6,0,P|339:210|329:173,1,78.7500007510185,2|0,0:2|0:0,0:0:0:0:
427,189,48717,2,0,P|398:129|362:74,1,112.5,2|0,0:2|0:0,0:0:0:0:
259,286,48888,6,0,P|269:254|271:227,1,45,2|0,0:2|0:0,0:0:0:0:
350,262,49058,2,0,P|347:215|338:168,1,78.7500007510185,2|0,0:2|0:0,0:0:0:0:
476,88,49228,6,0,B|436:-7|219:50|125:360,1,495,6|0,0:1|0:0,0:0:0:0:
19,159,49910,6,0,B|87:133|160:131|160:131|162:125|162:125|160:130|160:130|260:233|260:233|258:239|258:239|260:234|260:234|375:241|441:279|441:279|475:240,1,540,8|0,0:0|0:0,0:0:0:0:
295,7,50592,2,0,B|316:16|337:40|337:40|341:39|341:39|338:40|338:40|330:95|303:153,1,180,4|0,0:0|0:0,0:0:0:0:
372,283,50933,6,0,B|366:300|366:300|379:354|379:354|391:366,1,90
289,343,51103,2,0,L|481:299,2,180,6|10|6,0:0|0:0|0:0,0:0:0:0:
62,218,51615,6,0,B|38:276|121:256|47:172,1,90,2|0,0:0|0:0,0:0:0:0:
151,161,51785,2,0,B|182:223|241:146|97:140,1,112.5,6|0,0:0|0:0,0:0:0:0:
143,40,51956,5,4,0:0:0:0:
143,40,52126,1,0,0:0:0:0:
111,344,52297,1,0,0:0:0:0:
111,344,52467,1,4,0:0:0:0:
187,296,52638,5,8,0:0:0:0:
76,100,52808,1,4,0:0:0:0:
154,143,52978,5,0,0:0:0:0:
110,247,53149,1,8,0:0:0:0:
252,209,53319,5,8,0:0:0:0:
12,182,53490,1,4,0:0:0:0:
199,289,53660,1,8,0:0:0:0:
424,250,53831,1,4,0:0:0:0:
424,250,53916,1,4,0:0:0:0:
424,250,54001,6,0,P|416:213|420:192,1,45,8|0,0:0|0:0,0:0:0:0:
364,307,54172,2,0,P|338:273|315:210,1,90,4|0,0:0|0:0,0:0:0:0:
333,384,54342,2,0,P|278:344|236:291,1,135.000005149842,8|0,0:0|0:0,0:0:0:0:
194,379,54513,1,4,0:0:0:0:
169,220,54683,5,4,0:0:0:0:
220,104,54853,5,0,0:0:0:0:
204,29,55024,6,0,P|209:73|207:107,1,67.5
231,116,55365,6,0,B|282:133|282:133|358:109|358:109|466:139,1,180,10|0,0:1|0:0,0:0:0:0:
360,8,55706,2,0,B|305:39|305:39|368:304,1,270
360,267,56047,6,0,P|355:207|368:265,1,180,4|0,0:0|0:0,0:0:0:0:
189,345,56388,6,0,B|170:366|170:366|182:386|182:386|199:370|199:370|192:356,1,90
198,257,56558,1,4,0:0:0:0:
61,38,56728,6,0,B|76:41|86:48|103:131,1,90,10|0,0:0|0:0,0:0:0:0:
183,37,56899,2,0,B|166:99|246:30|166:-4,1,90,6|0,0:0|0:0,0:0:0:0:
315,36,57069,2,0,P|295:42|321:40,1,90,2|0,0:0|0:0,0:0:0:0:
464,175,57240,2,0,P|452:176|442:181,2,22.5,2|0|0,0:0|0:0|0:0,0:0:0:0:
430,99,57410,6,0,B|438:51|458:9|458:9|322:59|322:59|362:116|371:185|371:185|434:209|434:209|441:258|470:328,1,540,4|4,0:0|0:0,0:0:0:0:
358,379,58092,2,0,P|364:312|258:267,1,180,0|4,0:0|0:0,0:0:0:0:
226,32,58433,6,0,B|210:48|217:65|236:116,1,90
288,341,58603,2,0,B|309:314|304:299|290:255,1,90,4|0,0:0|0:0,0:0:0:0:
323,167,58774,2,0,P|337:168|322:165,2,45,4|0|0,0:0|0:0|0:0,0:0:0:0:
173,184,58944,6,0,B|157:184|137:184|137:184|153:180|166:172,1,67.5000025749208,2|0,0:2|0:0,0:0:0:0:
32,292,59115,2,0,B|54:265|66:235|66:235|59:259|61:281,1,112.5,2|0,0:2|0:0,0:0:0:0:
8,69,59285,2,0,B|26:117|54:151|54:151|30:126|4:114,1,157.500001502037,4|0,0:0|0:0,0:0:0:0:
37,297,59456,6,0,B|58:269|70:239|70:239|63:263|65:285,1,112.5,8|0,0:0|0:0,0:0:0:0:
13,74,59626,2,0,B|30:121|59:155|59:155|35:131|8:118,1,157.500001502037,2|0,0:2|0:0,0:0:0:0:
183,194,59797,6,0,B|166:193|146:193|146:193|163:189|175:181,1,67.5000025749208,2|0,0:2|0:0,0:0:0:0:
42,302,59967,2,0,B|63:274|75:244|75:244|68:268|70:290,1,112.5,2|0,0:2|0:0,0:0:0:0:
205,368,60138,6,0,B|116:387|116:387|170:280|170:280|227:301|276:309|276:309|283:323|283:323|340:331|390:347|390:347|421:311|421:311|408:257,1,540,6|0,0:1|0:0,0:0:0:0:
376,89,60819,6,0,B|337:138|337:138|397:178|397:178|477:72|477:72|360:-3|360:-3|275:100,1,540,8|0,0:0|0:0,0:0:0:0:
170,221,61501,2,0,B|236:264|236:264|196:322|196:322|88:254,1,270,4|0,0:0|0:0,0:0:0:0:
72,247,61842,6,0,B|47:241|44:257|68:349,1,90
44,157,62013,6,0,P|31:157|47:155,1,90,6|0,0:0|0:0,0:0:0:0:
232,93,62183,2,0,P|218:73|233:93,1,90,10|0,0:0|0:0,0:0:0:0:
145,20,62353,6,0,B|113:51|113:51|69:44,1,90,6|0,0:0|0:0,0:0:0:0:
178,289,62524,6,0,B|172:243|172:243|188:285,1,90,2|0,0:0|0:0,0:0:0:0:
149,164,62694,6,0,L|140:133,2,22.5,6|0|0,0:0|0:0|0:0,0:0:0:0:
113,52,62865,5,4,0:0:0:0:
253,148,63888,5,8,0:0:0:0:
252,155,63973,1,8,0:0:0:0:
252,162,64058,1,8,0:0:0:0:
253,170,64143,1,8,0:0:0:0:
263,179,64228,1,8,0:0:0:0:
285,184,64314,1,8,0:0:0:0:
315,182,64399,1,8,0:0:0:0:
352,168,64484,1,8,0:0:0:0:
393,164,64569,1,8,0:0:0:0:
435,170,64655,1,8,0:0:0:0:
477,195,64740,1,8,0:0:0:0:
505,247,64825,1,8,0:0:0:0:
506,306,64910,5,8,0:0:0:0:
471,36,65081,1,4,0:0:0:0:
496,302,65251,5,8,0:0:0:0:
459,32,65422,1,4,0:0:0:0:
297,384,65592,6,0,B|330:367|330:367|333:347|333:347|337:347|337:347|333:345|333:345|334:316|334:316|339:306|339:306|341:266|341:266|339:262|339:262|341:261|341:261|344:217,1,180,6|0,0:1|0:0,0:0:0:0:
227,29,65933,6,0,B|229:64|229:64|235:68|235:68|241:63|241:63|239:22,1,90
233,168,66103,2,0,B|235:203|235:203|241:207|241:207|247:202|247:202|246:162,1,90
239,309,66274,1,8,0:0:0:0:
78,117,66444,6,0,B|64:107|68:93|170:116,1,90
335,145,66615,2,0,L|373:152,12,22.5
382,151,66956,6,0,B|407:181|407:181|397:219|397:219|357:227|357:227|346:222|346:222|296:241|296:241|282:238|282:238|242:245|242:245|226:285|226:285,1,270,4|0,0:0|0:0,0:0:0:0:
203,268,67297,2,0,B|175:254|175:254|186:226|186:226|212:235,1,90
288,51,67467,1,4,0:0:0:0:
190,1,67638,6,0,B|163:-35|125:19|208:8,1,90,10|0,0:0|0:0,0:0:0:0:
195,108,67808,2,0,B|150:112|179:172|211:95,1,90,6|0,0:0|0:0,0:0:0:0:
293,159,67978,2,0,B|274:200|341:205|290:139,1,90,2|0,0:0|0:0,0:0:0:0:
384,101,68149,2,0,B|410:137|448:82|365:93,1,90,2|0,0:0|0:0,0:0:0:0:
476,232,68319,6,0,B|428:238|394:261|394:261|396:266|396:266|395:261|395:261|362:283|341:321,1,180,4|0,0:0|0:0,0:0:0:0:
495,240,68660,6,0,B|441:81|224:345|242:129|71:186,1,405.000015449525
90,182,69001,1,8,0:0:0:0:
10,106,69172,6,0,P|43:107|56:59,1,90
64,289,69342,2,0,P|48:259|0:272,1,90
195,150,69513,2,0,P|177:178|212:213,1,90
208,294,69683,5,4,0:0:0:0:
430,323,69853,1,2,0:2:0:0:
459,101,70024,1,2,0:2:0:0:
237,72,70194,1,4,0:0:0:0:
420,322,70365,5,8,0:0:0:0:
449,100,70535,1,2,0:2:0:0:
199,283,70706,5,2,0:2:0:0:
421,312,70876,1,2,0:2:0:0:
418,31,71047,6,0,B|378:6|350:7|350:7|319:57|319:57|344:113|330:212,1,270,6|0,0:1|0:0,0:0:0:0:
328,232,71388,6,0,P|283:222|231:170,1,90
167,231,71558,2,0,P|171:161|208:95,1,90
83,175,71728,1,8,0:0:0:0:
17,22,71899,6,0,B|44:29|44:29|50:91,1,90
70,275,72069,2,0,L|73:303,12,22.5
76,327,72410,6,0,B|135:370|135:370|190:322|190:322|180:191,1,270,4|0,0:0|0:0,0:0:0:0:
184,177,72751,6,0,P|237:171|283:197,1,90
374,260,72922,2,0,P|361:172|306:103,2,180,6|10|6,0:0|0:0|0:0,0:0:0:0:
285,330,73433,6,0,P|282:304|303:247,1,67.5000025749208,2|0,0:0|0:0,0:0:0:0:
424,110,73603,2,0,P|468:106|512:114,1,90,2|0,0:3|0:0,0:0:0:0:
312,87,73774,5,4,0:0:0:0:
156,199,73944,1,0,0:0:0:0:
92,384,74115,1,0,0:0:0:0:
92,384,74285,1,4,0:0:0:0:
272,330,74456,5,8,0:0:0:0:
253,37,74626,1,8,0:0:0:0:
387,64,74797,5,4,0:0:0:0:
133,152,74967,1,4,0:0:0:0:
141,193,75052,1,4,0:0:0:0:
151,229,75138,5,8,0:0:0:0:
186,232,75223,1,4,0:0:0:0:
221,235,75308,1,4,0:0:0:0:
256,239,75393,1,4,0:0:0:0:
295,216,75478,5,8,0:0:0:0:
338,228,75564,1,4,0:0:0:0:
381,239,75649,2,0,L|389:266,1,22.5,4|4,0:0|0:0,0:0:0:0:
423,252,75734,2,0,L|440:307,1,45,4|4,0:0|0:0,0:0:0:0:
467,262,75819,6,0,L|500:367,1,67.5000025749208,8|0,0:0|0:0,0:0:0:0:
427,148,75990,2,0,L|525:194,1,90,4|0,0:0|0:0,0:0:0:0:
333,111,76160,2,0,B|363:64|363:64|492:38,1,180,8|4,0:0|0:0,0:0:0:0:
240,114,76501,5,2,0:2:0:0:
277,240,76672,5,0,0:0:0:0:
215,303,76842,6,0,P|181:312|141:344,1,67.5
133,341,77183,6,0,B|122:295|122:295|140:260|140:260|138:255|138:255|145:259|145:259|145:252|145:252|162:216|162:216|153:163,1,180,10|0,0:1|0:0,0:0:0:0:
126,34,77524,2,0,L|121:11,12,22.5
132,49,77865,6,0,B|158:65|187:69|187:69|187:74|187:74|188:69|188:69|212:70|240:63|240:63|267:94|267:94|290:90|314:89|314:89|315:84|315:84|317:89|317:89|346:89|366:92,1,270,4|0,0:0|0:0,0:0:0:0:
387,107,78206,2,0,B|369:97|352:110|347:208,1,90
347,360,78376,1,4,0:0:0:0:
214,248,78547,6,0,L|303:250,1,90,10|0,0:0|0:0,0:0:0:0:
392,253,78717,2,0,L|482:256,1,90,6|0,0:0|0:0,0:0:0:0:
512,279,78888,6,0,L|422:276,1,90,2|0,0:0|0:0,0:0:0:0:
272,270,79058,2,0,L|183:268,1,90,2|0,0:0|0:0,0:0:0:0:
16,182,79228,6,0,B|174:170|174:170|183:163|183:163|354:149,1,337.5,4|0,0:0|0:0,0:0:0:0:
370,147,79569,6,0,B|406:88|406:88|394:71,1,90
265,309,79740,2,0,B|228:367|228:367|240:384,1,90
318,228,79910,1,8,0:0:0:0:
97,159,80081,6,0,L|185:141,1,90
125,62,80251,2,0,L|116:17,2,45
158,237,80422,2,0,L|166:281,2,45
28,91,80592,5,4,0:0:0:0:
144,65,80763,1,2,0:2:0:0:
305,108,80933,1,2,0:2:0:0:
444,269,81103,1,4,0:0:0:0:
233,25,81274,5,8,0:0:0:0:
302,255,81444,1,2,0:2:0:0:
154,78,81615,5,2,0:2:0:0:
172,288,81785,1,2,0:2:0:0:
9,247,81956,6,0,B|87:266|87:266|82:268|82:268|113:203|113:203|107:207|107:207|247:196,1,270,6|0,0:1|0:0,0:0:0:0:
232,197,82297,6,0,B|272:194|272:194|274:199|274:199|275:194|275:194|331:190,1,90
298,96,82467,2,0,B|337:103|337:103|338:108|338:108|340:104|340:104|395:114,1,90
386,23,82638,1,8,0:0:0:0:
472,131,82808,6,0,P|501:122|470:124,1,90
474,309,82978,2,0,L|476:346,12,22.5
479,357,83319,6,0,B|444:338|444:338|439:340|439:340|428:331|428:331|422:333|422:333|384:333|384:333|363:311|363:311|336:321|309:327|309:327|309:322|309:322|309:327|309:327|278:335|240:332,1,270,4|0,0:0|0:0,0:0:0:0:
219,327,83660,2,0,B|205:310|206:292|206:292|202:290|202:290|208:289|208:289|212:265|230:255,1,90
136,211,83831,2,0,L|81:220,2,45,4|0|0,0:0|0:0|0:0,0:0:0:0:
333,189,84001,1,10,0:0:0:0:
381,293,84172,6,0,B|398:251|398:251|438:231,1,90,6|0,0:0|0:0,0:0:0:0:
399,101,84342,2,0,B|354:107|354:107|316:82,1,90,2|0,0:0|0:0,0:0:0:0:
220,176,84513,2,0,B|247:211|247:211|245:256,1,90,2|0,0:0|0:0,0:0:0:0:
256,192,84683,12,0,87325,0:0:0:0:
254,81,87410,6,0,L|243:278,1,180,6|0,0:1|0:0,0:0:0:0:
333,142,87922,1,4,0:0:0:0:
333,142,88007,1,4,0:0:0:0:
333,142,88092,2,0,L|343:237,1,90,8|0,0:0|0:0,0:0:0:0:
166,282,88433,1,0,0:0:0:0:
155,358,88603,1,4,0:0:0:0:
155,358,88774,5,4,0:0:0:0:
167,207,88944,1,8,0:0:0:0:
142,139,89115,2,0,L|148:234,1,90,0|4,0:0|0:0,0:0:0:0:
321,272,89456,6,0,L|331:179,1,90,8|0,0:0|0:0,0:0:0:0:
427,99,89797,2,0,B|422:155|422:155|253:133,1,216
251,132,90138,6,0,P|280:60|339:110,1,180,4|0,0:0|0:0,0:0:0:0:
303,288,90649,1,4,0:0:0:0:
303,288,90734,1,4,0:0:0:0:
303,288,90819,5,8,0:0:0:0:
468,134,90990,1,8,0:0:0:0:
253,68,91160,1,0,0:0:0:0:
333,176,91331,5,8,0:0:0:0:
118,77,91501,5,4,0:0:0:0:
260,79,91672,1,8,0:0:0:0:
393,27,91842,5,4,0:0:0:0:
265,91,92013,1,4,0:0:0:0:
300,227,92183,6,0,L|317:316,1,90,8|0,0:0|0:0,0:0:0:0:
267,162,92524,2,0,L|271:251,1,90,0|4,0:0|0:0,0:0:0:0:
185,384,92865,6,0,B|197:255|197:255|160:209,1,180,6|0,0:1|0:0,0:0:0:0:
55,173,93376,1,4,0:0:0:0:
55,173,93461,1,4,0:0:0:0:
55,173,93547,2,0,B|65:295|65:295|120:278,1,180,8|0,0:0|0:0,0:0:0:0:
266,240,94058,1,8,0:0:0:0:
306,299,94228,6,0,P|355:314|399:347,1,90,4|8,0:0|0:0,0:0:0:0:
241,128,94569,2,0,P|210:185|198:233,1,90,0|4,0:0|0:0,0:0:0:0:
224,355,94910,5,8,0:0:0:0:
300,207,95081,1,0,0:0:0:0:
266,41,95251,1,4,0:0:0:0:
192,59,95422,1,8,0:0:0:0:
192,59,95507,1,0,0:0:0:0:
192,59,95592,6,0,P|185:103|185:148,1,90,4|0,0:0|0:0,0:0:0:0:
118,176,95933,2,0,P|131:222|150:260,1,90,4|0,0:0|0:0,0:0:0:0:
303,0,96274,2,0,P|278:36|262:78,1,90,8|0,0:0|0:0,0:0:0:0:
396,86,96615,1,4,0:0:0:0:
364,98,96700,1,4,0:0:0:0:
335,116,96785,1,4,0:0:0:0:
309,137,96870,1,4,0:0:0:0:
286,161,96956,5,8,0:0:0:0:
219,318,97126,1,4,0:0:0:0:
219,318,97297,5,4,0:0:0:0:
342,234,97467,1,8,0:0:0:0:
290,91,97638,1,8,0:0:0:0:
330,157,97808,1,4,0:0:0:0:
330,157,97978,2,0,L|329:272,1,90,4|0,0:0|0:0,0:0:0:0:
435,54,98319,6,0,P|416:112|401:176,1,116.999994644165,6|8,0:1|0:0,0:0:0:0:
387,306,98660,1,4,0:0:0:0:
423,245,98831,1,8,0:0:0:0:
423,245,98916,1,8,0:0:0:0:
423,245,99001,2,0,P|402:178|351:138,1,116.999994644165,4|8,0:0|0:0,0:0:0:0:
154,269,99342,6,0,P|175:336|226:376,1,116.999994644165,4|8,0:0|0:0,0:0:0:0:
282,187,99598,1,8,0:0:0:0:
282,187,99683,2,0,P|244:229|245:287,1,116.999994644165,4|8,0:0|0:0,0:0:0:0:
355,161,100024,5,4,0:0:0:0:
164,245,100194,1,8,0:0:0:0:
164,245,100280,1,8,0:0:0:0:
164,245,100365,1,4,0:0:0:0:
316,258,100535,1,8,0:0:0:0:
425,149,100706,2,0,P|419:77|386:25,1,116.999994644165,4|8,0:0|0:0,0:0:0:0:
397,38,100961,1,8,0:0:0:0:
397,38,101047,5,4,0:0:0:0:
229,54,101217,1,8,0:0:0:0:
70,61,101388,1,4,0:0:0:0:
121,1,101558,1,8,0:0:0:0:
121,1,101643,1,8,0:0:0:0:
121,1,101728,6,0,P|104:69|93:142,1,135.000005149842,4|8,0:0|0:0,0:0:0:0:
1,156,102069,2,0,P|43:214|109:269,1,135.000005149842,4|8,0:0|0:0,0:0:0:0:
65,351,102325,1,8,0:0:0:0:
65,351,102410,2,0,P|129:341|218:291,1,144,4|8,0:0|0:0,0:0:0:0:
218,3,102751,5,4,0:0:0:0:
192,191,102922,1,8,0:0:0:0:
192,191,103007,1,8,0:0:0:0:
192,191,103092,1,4,0:0:0:0:
371,217,103263,1,8,0:0:0:0:
257,286,103433,2,0,P|188:305|114:394,1,153.000002918243,4|8,0:0|0:0,0:0:0:0:
129,359,103689,1,8,0:0:0:0:
129,359,103774,5,12,0:0:0:0:
157,42,103944,1,12,0:0:0:0:
96,113,104115,1,8,0:0:0:0:
134,125,104200,1,8,0:0:0:0:
172,139,104285,1,8,0:0:0:0:
209,157,104370,1,8,0:0:0:0:
244,176,104456,6,0,P|325:165|437:166,1,170.999995433807,12|12,0:0|0:0,0:0:0:0:
281,62,104797,6,0,P|312:101|328:144,1,85.4999977169037,12|8,0:0|0:0,0:0:0:0:
417,175,104967,2,0,P|397:226|361:264,1,85.4999977169037,12|8,0:0|0:0,0:0:0:0:
282,282,105138,5,12,0:0:0:0:
470,297,105308,1,12,0:0:0:0:
487,107,105478,1,8,0:0:0:0:
487,107,105564,1,8,0:0:0:0:
487,107,105649,1,8,0:0:0:0:
487,107,105734,1,8,0:0:0:0:
487,107,105819,5,12,0:0:0:0:
361,272,105990,1,12,0:0:0:0:
169,304,106160,1,8,0:0:0:0:
169,304,106245,1,8,0:0:0:0:
169,304,106331,1,8,0:0:0:0:
169,304,106416,1,8,0:0:0:0:
169,304,106501,5,12,0:0:0:0:
181,276,106586,1,8,0:0:0:0:
186,246,106672,1,8,0:0:0:0:
182,216,106757,1,8,0:0:0:0:
147,196,106842,5,12,0:0:0:0:
123,164,106927,1,8,0:0:0:0:
85,148,107013,1,8,0:0:0:0:
45,150,107098,1,8,0:0:0:0:
23,114,107183,5,12,0:0:0:0:
60,96,107268,1,8,0:0:0:0:
101,92,107353,1,8,0:0:0:0:
142,97,107439,1,8,0:0:0:0:
178,60,107524,5,12,0:0:0:0:
226,78,107609,1,8,0:0:0:0:
263,113,107694,1,8,0:0:0:0:
286,159,107780,1,8,0:0:0:0:
337,172,107865,6,0,L|332:232,1,45,4|4,0:0|0:0,0:0:0:0:
321,368,108206,1,8,0:0:0:0:
448,293,108376,5,4,0:0:0:0:
448,293,108461,1,4,0:0:0:0:
448,293,108547,1,4,0:0:0:0:
448,293,108632,1,8,0:0:0:0:
448,293,108717,1,4,0:0:0:0:
218,272,108888,2,0,L|155:266,1,45,8|4,0:1|0:0,0:0:0:0:
344,317,109228,6,0,B|326:290|326:290|299:268|299:268|238:279|238:279|225:290|225:290|178:286|178:286|164:295|164:295|102:309|102:309|76:286|76:286|63:252,1,337.5,6|0,0:1|0:0,0:0:0:0:
67,230,109569,2,0,B|95:207|95:207|128:197|128:197|169:240|169:240|170:251|170:251|204:286|207:330,1,225,8|0,0:0|0:0,0:0:0:0:
404,379,109910,6,0,B|432:364|432:364|433:331|433:331|428:326|428:326|433:322|433:322|433:261,1,112.5
433,190,110081,1,4,0:0:0:0:
477,0,110251,2,0,B|424:16|424:16|423:52|423:52|417:58|417:58|425:102|425:102|419:106|419:106|419:221,1,225,8|0,0:0|0:0,0:0:0:0:
263,0,110592,2,0,B|246:40|246:40|260:76|260:76|358:88|358:88|367:83|367:83|479:92|479:92|525:132,1,337.5,4|0,0:0|0:0,0:0:0:0:
505,125,110933,6,0,B|505:209|505:209|486:252,1,112.5,8|0,0:0|0:0,0:0:0:0:
410,190,111103,2,0,B|364:252|364:252|324:268,1,112.5
279,190,111274,6,0,L|295:125,2,56.25,2|0|0,0:0|0:0|0:0,0:0:0:0:
172,118,111444,6,0,P|172:174|196:225,1,112.5,6|0,0:0|0:0,0:0:0:0:
234,26,111615,2,0,P|174:65|152:125,1,112.5,10|0,0:0|0:0,0:0:0:0:
357,54,111785,2,0,P|305:20|231:11,1,112.5,2|0,0:0|0:0,0:0:0:0:
64,72,111956,6,0,B|48:104|48:104|69:147|69:147|133:145|133:145|146:153|146:153|230:149|230:149|233:145|233:145|235:149|235:149|314:144,1,337.5,4|0,0:0|0:0,0:0:0:0:
326,158,112297,2,0,B|397:154|397:154|402:146|402:146|476:142|476:142|499:175|499:175|490:220,1,225,8|0,0:0|0:0,0:0:0:0:
470,24,112638,2,0,B|454:23|454:23|430:39|430:39|418:104,1,112.5
402,189,112808,5,4,0:0:0:0:
416,370,112978,6,0,B|385:359|380:346|389:262,1,112.5,8|0,0:0|0:0,0:0:0:0:
285,378,113149,2,0,B|261:354|263:340|308:269,1,112.5
209,262,113319,2,0,L|248:203,2,56.25,4|0|0,0:0|0:0|0:0,0:0:0:0:
183,42,113490,6,0,B|169:92|169:92|190:117,1,67.5000025749208,2|0,0:2|0:0,0:0:0:0:
88,87,113660,2,0,B|92:163|92:163|126:179,1,112.5,8|0,0:0|0:0,0:0:0:0:
22,196,113831,2,0,B|65:270|65:270|138:260,1,157.500001502037,2|0,0:2|0:0,0:0:0:0:
95,80,114001,6,0,B|98:155|98:155|131:172,1,112.5,2|0,0:2|0:0,0:0:0:0:
27,188,114172,2,0,B|68:261|68:261|141:250,1,157.500001502037,4|0,0:0|0:0,0:0:0:0:
192,39,114342,6,0,B|178:89|178:89|199:113,1,67.5000025749208,8|0,0:0|0:0,0:0:0:0:
100,77,114513,2,0,B|103:152|103:152|136:168,1,112.5,2|0,0:2|0:0,0:0:0:0:
63,356,114683,6,0,B|37:319|37:319|63:271|63:271|56:275|56:275|166:260|166:260|188:269|188:269|238:261|238:261|237:257|237:257|239:261|239:261|298:254,1,337.5,6|0,0:1|0:0,0:0:0:0:
302,245,115024,2,0,B|327:203|327:203|288:161|288:161|296:164|296:164|225:174|225:174|226:180|226:180|224:174|224:174|176:182,1,225,8|0,0:0|0:0,0:0:0:0:
63,17,115365,6,0,L|192:33,1,112.5
47,106,115535,1,4,0:0:0:0:
286,141,115706,2,0,B|345:147|335:227|275:220|275:220|185:207,1,225,8|0,0:0|0:0,0:0:0:0:
70,337,116047,2,0,B|89:288|146:296|146:296|386:330,1,337.5,4|0,0:0|0:0,0:0:0:0:
411,336,116388,6,0,B|442:300|442:300|424:256|424:256|387:250,1,112.5,8|0,0:0|0:0,0:0:0:0:
469,36,116558,2,0,B|425:32|425:32|398:97|398:97|412:166|412:166|451:172,2,225,2|2|6,0:0|0:0|0:0,0:0:0:0:
285,72,117069,6,0,B|284:121|331:103|289:56,1,90,10|0,0:0|0:0,0:0:0:0:
211,163,117240,2,0,B|172:232|248:212|218:150,1,112.5,6|0,0:0|0:0,0:0:0:0:
173,62,117410,5,4,0:0:0:0:
395,128,117581,1,8,0:0:0:0:
329,350,117751,1,8,0:0:0:0:
329,350,117922,1,4,0:0:0:0:
401,141,118092,5,8,0:0:0:0:
335,363,118263,1,4,0:0:0:0:
113,297,118433,1,4,0:0:0:0:
43,164,118603,5,8,0:0:0:0:
91,174,118689,1,8,0:0:0:0:
139,184,118774,1,8,0:0:0:0:
129,301,118944,5,4,0:0:0:0:
195,79,119115,1,8,0:0:0:0:
417,145,119285,1,4,0:0:0:0:
417,145,119370,1,4,0:0:0:0:
417,145,119456,6,0,P|413:195|407:231,1,67.5000025749208,8|0,0:0|0:0,0:0:0:0:
294,62,119626,2,0,P|323:117|337:183,1,112.5,4|0,0:0|0:0,0:0:0:0:
26,54,119797,2,0,P|137:72|234:128,1,225,8|4,0:0|0:0,0:0:0:0:
256,192,120138,12,0,120777,0:0:0:0:
261,291,120819,6,0,B|234:257|234:257|255:196|255:196|254:188|254:188|274:125|274:125|246:92,1,225,2|4,0:1|0:0,0:0:0:0:
107,188,121160,2,0,B|168:162|168:162|159:162|159:162|346:221|346:221|340:221|340:221|394:194,1,337.5,8|0,0:0|0:0,0:0:0:0:
411,160,121501,6,0,B|366:117|384:87|436:81|454:158|411:252,1,225,4|0,0:0|0:0,0:0:0:0:
318,336,121842,2,0,B|318:371|266:365|251:321|384:296,1,112.5,8|0,0:0|0:0,0:0:0:0:
423,353,122013,2,0,B|446:358|454:361|487:399,2,56.25
274,227,122183,6,0,B|251:216|251:216|223:221|223:221|223:218|223:218|224:221|224:221|196:226|196:226|180:243,1,112.5,2|0,0:0|0:0,0:0:0:0:
99,192,122353,2,0,B|139:152|139:152|86:133,1,112.5,6|0,0:0|0:0,0:0:0:0:
160,37,122524,2,0,B|167:69|167:69|205:62|205:62|206:66|206:66|206:62|206:62|255:54,1,112.5,10|0,0:0|0:0,0:0:0:0:
410,92,122694,2,0,L|418:134,2,28.125,2|0|0,0:0|0:0|0:0,0:0:0:0:
319,73,122865,6,0,B|336:171|336:171|366:209|366:209|350:254|350:254|361:331|361:331|313:383,1,337.5,4|0,0:0|0:0,0:0:0:0:
304,383,123206,2,0,B|363:321|363:321|432:334|432:334|437:338|437:338|518:354,1,225,8|0,0:0|0:0,0:0:0:0:
512,66,123547,2,0,B|476:96|476:96|370:76|370:76,1,112.5
328,69,123717,1,0,0:0:0:0:
277,217,123888,6,0,P|259:170|306:151,1,112.5,8|0,0:0|0:0,0:0:0:0:
169,161,124058,2,0,P|168:198|176:239,2,56.25
378,217,124228,2,0,P|340:321|327:371,1,112.5,4|0,0:0|0:0,0:0:0:0:
258,373,124399,6,0,P|249:339|244:296,1,67.5000025749208,2|0,0:2|0:0,0:0:0:0:
156,374,124569,2,0,P|188:339|244:306,1,112.5,8|0,0:0|0:0,0:0:0:0:
90,278,124740,2,0,P|147:279|257:312,1,157.500001502037,2|0,0:2|0:0,0:0:0:0:
293,205,124910,6,0,P|272:253|236:317,1,112.5,2|0,0:2|0:0,0:0:0:0:
183,160,125081,2,0,P|212:218|245:314,1,157.500001502037,4|0,0:0|0:0,0:0:0:0:
308,323,125251,6,0,P|263:312|230:300,1,67.5000025749208,8|0,0:0|0:0,0:0:0:0:
292,193,125422,2,0,P|271:241|235:305,1,112.5,2|0,0:2|0:0,0:0:0:0:
66,192,125592,6,0,B|94:201|153:199|153:199|153:205|153:205|154:199|154:199|230:197|301:160|301:160|299:157|299:157|301:160|301:160|342:138|383:97,1,337.5,6|0,0:1|0:0,0:0:0:0:
378,104,125933,2,0,B|368:154|378:209|378:209|374:210|374:210|379:209|379:209|391:262|419:310,1,225,8|0,0:0|0:0,0:0:0:0:
268,378,126274,6,0,B|282:310|282:310|223:295,1,112.5
79,260,126444,1,4,0:0:0:0:
187,163,126615,2,0,B|168:232|168:232|169:246|169:246|148:327|148:327|95:343,1,225,8|0,0:0|0:0,0:0:0:0:
53,109,126956,2,0,B|76:164|76:164|117:175|117:175|116:180|116:180|116:174|116:174|229:204|229:204|245:204|245:204|282:225|282:225|299:224|299:224|341:235,1,337.5,4|0,0:0|0:0,0:0:0:0:
356,239,127297,6,0,B|331:239|321:247|349:371,1,112.5,8|0,0:0|0:0,0:0:0:0:
423,323,127467,6,0,L|481:314,2,56.25,2|0|0,0:0|0:0|0:0,0:0:0:0:
260,348,127638,2,0,L|204:356,2,56.25,2|0|0,0:0|0:0|0:0,0:0:0:0:
235,258,127808,6,0,B|167:250|167:250|159:242|159:242|225:250,1,112.5,6|0,0:0|0:0,0:0:0:0:
271,171,127978,2,0,B|236:158|236:158|230:145|230:145|304:172,1,112.5,10|0,0:0|0:0,0:0:0:0:
362,114,128149,2,0,L|334:93,2,28.125,2|0|0,0:0|0:0|0:0,0:0:0:0:
256,192,128319,12,0,129640,0:0:0:0:
187,167,129683,6,0,P|136:189|114:209,2,60,8|4|4,0:0|0:0|0:0,0:0:0:0:
209,249,130024,2,0,P|195:304|197:330,2,60,4|4|4,0:0|0:0|0:0,0:0:0:0:
288,294,130365,5,4,0:0:0:0:
291,204,130478,1,4,0:0:0:0:
342,129,130592,1,4,0:0:0:0:
477,255,130706,6,0,P|480:297|491:339,1,67.5,2|0,0:2|0:0,0:0:0:0:
478,344,131047,6,0,B|456:275|465:194|465:194|460:222|447:245|447:245|443:244|443:244|447:245|447:245|434:269|407:286,1,270,6|0,0:1|0:0,0:0:0:0:
386,294,131388,6,0,B|344:299|344:299|338:306|338:306|288:311,1,90
96,180,131558,2,0,B|127:209|127:209|127:219|127:219|154:244,1,90
213,313,131728,1,8,0:0:0:0:
125,384,131899,6,0,B|151:383|167:381|213:325,1,90
265,196,132069,2,0,L|279:162,12,22.5
284,152,132410,6,0,B|263:112|192:137|209:252|368:319,1,270,4|0,0:0|0:0,0:0:0:0:
393,324,132751,6,0,P|367:268|366:230,1,90
440,4,132922,1,8,0:0:0:0:
440,4,133007,1,8,0:0:0:0:
445,5,133092,6,0,B|431:50|431:50|394:73,1,90,6|0,0:0|0:0,0:0:0:0:
161,104,133263,2,0,B|181:61|181:61|222:44,1,90,10|0,0:0|0:0,0:0:0:0:
415,156,133433,2,0,B|367:159|367:159|333:132,1,90,10|0,0:0|0:0,0:0:0:0:
280,204,133603,2,0,B|248:169|248:169|246:125,1,90,6|0,0:0|0:0,0:0:0:0:
306,27,133774,6,0,P|299:117|304:344,1,270,4|0,0:0|0:0,0:0:0:0:
300,342,134115,6,0,B|187:264|411:188|280:115,1,270.000010299683,0|4,0:0|0:0,0:0:0:0:
54,55,134456,1,8,0:0:0:0:
167,76,134626,6,0,P|145:84|125:93,2,45
153,173,134797,2,0,P|125:207|106:248,1,90
181,284,134967,2,0,P|182:328|194:372,1,90
37,191,135138,5,4,0:0:0:0:
235,144,135308,1,2,0:2:0:0:
449,112,135478,1,2,0:2:0:0:
246,121,135649,1,4,0:0:0:0:
451,268,135819,5,8,0:0:0:0:
268,226,135990,1,2,0:2:0:0:
355,129,136160,5,2,0:2:0:0:
158,152,136331,1,2,0:2:0:0:
114,316,136501,6,0,B|90:292|90:292|102:207|102:207|127:200|127:200|137:108|137:108|112:87,1,270,2|0,0:1|0:0,0:0:0:0:
98,78,136842,6,0,B|90:64|122:53|231:37,1,90,4|0,0:0|0:0,0:0:0:0:
158,152,137013,2,0,B|157:135|190:141|294:178,1,90
326,190,137183,1,8,0:0:0:0:
492,131,137353,6,0,P|495:105|430:26,1,90
399,135,137524,2,0,L|415:170,12,22.5
399,116,137865,6,0,B|351:95|321:161|321:161|322:174|322:174|300:199|300:199|303:210|303:210|268:289|313:308,1,270,4|0,0:0|0:0,0:0:0:0:
324,299,138206,6,0,B|326:273|316:269|252:238,1,90
14,353,138376,5,8,0:0:0:0:
28,348,138461,1,8,0:0:0:0:
42,343,138547,6,0,B|62:315|62:315|52:215,1,90,6|0,0:0|0:0,0:0:0:0:
38,95,138717,2,0,L|28:5,1,90,10|0,0:0|0:0,0:0:0:0:
161,363,138888,6,0,L|170:277,1,67.5000025749208,10|0,0:0|0:0,0:0:0:0:
179,187,139058,2,0,L|188:97,1,90,6|0,0:0|0:0,0:0:0:0:
196,10,139228,5,4,0:0:0:0:
96,194,139399,1,0,0:0:0:0:
307,287,139569,1,0,0:0:0:0:
186,180,139740,1,4,0:0:0:0:
252,383,139910,5,8,0:0:0:0:
246,79,140081,1,8,0:0:0:0:
86,193,140251,5,4,0:0:0:0:
332,129,140422,1,4,0:0:0:0:
332,129,140507,1,4,0:0:0:0:
332,129,140592,5,8,0:0:0:0:
328,173,140677,1,4,0:0:0:0:
324,218,140763,1,4,0:0:0:0:
321,262,140848,1,4,0:0:0:0:
351,242,140933,5,8,0:0:0:0:
297,238,141018,1,4,0:0:0:0:
243,234,141103,2,0,P|233:218|225:202,1,22.5,4|4,0:0|0:0,0:0:0:0:
188,230,141189,2,0,P|187:197|192:161,1,45,4|4,0:0|0:0,0:0:0:0:
133,226,141274,6,0,P|138:189|172:112,1,90,8|0,0:0|0:0,0:0:0:0:
144,322,141444,2,0,P|124:252|148:129,1,135.000005149842,4|0,0:0|0:0,0:0:0:0:
0,23,141615,2,0,P|39:79|35:198,1,180,8|4,0:0|0:0,0:0:0:0:
134,340,141956,5,2,0:2:0:0:
238,234,142126,5,4,0:0:0:0:
267,265,142297,6,0,P|238:265|198:277,1,67.5,4|0,0:0|0:0,0:0:0:0:
191,288,142638,6,0,B|263:251|332:299|332:299|312:354,1,180,10|0,0:1|0:0,0:0:0:0:
138,209,142978,2,0,P|129:191|127:181,12,22.5
119,173,143319,6,0,B|99:218|107:275|107:275|103:276|103:276|107:276|107:276|116:332|156:371|156:371|225:365,1,270,4|0,0:0|0:0,0:0:0:0:
222,344,143660,6,0,B|266:338|266:338|281:357|277:394,1,90
361,330,143831,2,0,L|407:315,2,45
417,43,144001,6,0,P|391:47|418:40,1,90,10|0,0:0|0:0,0:0:0:0:
333,125,144172,2,0,P|309:137|332:121,1,90,2|0,0:0|0:0,0:0:0:0:
303,239,144342,2,0,P|285:258|301:236,1,90,2|0,0:0|0:0,0:0:0:0:
371,336,144513,2,0,P|364:361|368:333,1,90,2|0,0:0|0:0,0:0:0:0:
420,143,144683,6,0,P|309:178|165:276,1,270,4|0,0:0|0:0,0:0:0:0:
157,257,145024,6,0,B|152:207|281:158|343:379,1,270.000010299683,0|4,0:0|0:0,0:0:0:0:
76,296,145365,5,8,0:0:0:0:
138,140,145535,2,0,P|126:93|82:34,1,90
47,143,145706,2,0,P|49:171|44:203,2,45
217,89,145876,2,0,P|232:118|239:143,2,45
24,3,146047,5,4,0:0:0:0:
185,14,146217,1,2,0:2:0:0:
353,103,146388,1,2,0:2:0:0:
430,299,146558,1,2,0:2:0:0:
419,23,146728,5,8,0:0:0:0:
372,364,146899,1,2,0:2:0:0:
487,104,147069,5,2,0:2:0:0:
311,296,147240,1,2,0:2:0:0:
52,236,147410,6,0,B|102:221|149:240|149:240|157:250|157:250|188:268|188:268|191:278|191:278|228:318|243:385,1,270,6|0,0:1|0:0,0:0:0:0:
220,384,147751,6,0,L|229:273,1,90,4|0,0:0|0:0,0:0:0:0:
235,199,147922,2,0,L|242:109,1,90
250,24,148092,1,8,0:0:0:0:
392,80,148263,6,0,B|393:56|372:41|320:68,1,90
154,163,148433,2,0,L|121:181,12,22.5
154,138,148774,6,0,B|222:147|222:147|221:152|221:152|222:147|222:147|272:154|272:154|284:161|284:161|339:167|339:167|340:164|340:164|340:168|340:168|409:177,1,270,4|0,0:0|0:0,0:0:0:0:
431,193,149115,6,0,P|383:196|389:257,1,90
287,259,149285,2,0,P|294:298|326:358,1,90
403,349,149456,6,0,L|456:352,2,45,10|0|0,0:0|0:0|0:0,0:0:0:0:
211,338,149626,2,0,B|165:336|165:336|138:378,1,90,2|0,0:0|0:0,0:0:0:0:
70,325,149797,2,0,B|94:286|94:286|71:241,1,90,2|0,0:0|0:0,0:0:0:0:
151,209,149967,2,0,B|172:249|172:249|222:252,1,90,2|0,0:0|0:0,0:0:0:0:
315,183,150138,5,6,0:1:0:0:
256,192,150180,12,0,152822,0:0:0:0:
299,184,152865,6,0,L|96:205,1,180,2|0,0:1|0:0,0:0:0:0:
206,120,153376,1,0,0:0:0:0:
21,96,153547,2,0,L|224:117,1,180,8|0,0:0|0:0,0:0:0:0:
360,133,154058,2,0,L|271:124,1,90,4|0,0:0|0:0,0:0:0:0:
148,189,154399,5,4,0:0:0:0:
149,198,154569,2,0,L|239:189,1,90,4|0,0:0|0:0,0:0:0:0:
145,270,154910,6,0,P|102:253|78:202,1,90,8|0,0:0|0:0,0:0:0:0:
84,24,155251,2,0,P|123:72|90:146,1,135
93,146,155592,6,0,P|70:198|216:292,1,270,4|0,0:0|0:0,0:0:0:0:
33,238,156274,2,0,P|84:237|133:247,1,90,8|0,0:0|0:0,0:0:0:0:
252,336,156615,6,0,L|304:337,1,45
368,339,156785,1,4,0:0:0:0:
251,328,156956,6,0,L|303:329,1,45
367,331,157126,1,4,0:0:0:0:
432,373,157297,2,0,B|446:330|446:330|427:274,1,90,4|0,0:0|0:0,0:0:0:0:
414,64,157638,2,0,B|381:116|381:116|447:315,1,270,8|0,0:0|0:0,0:0:0:0:
377,179,158319,6,0,P|335:164|291:160,1,90,4|0,0:0|0:0,0:0:0:0:
332,124,158660,2,0,P|306:168|313:214,1,90
253,360,159001,6,0,P|305:290|300:202,1,180,8|0,0:0|0:0,0:0:0:0:
99,353,159513,2,0,P|138:375|183:381,1,90,4|0,0:0|0:0,0:0:0:0:
70,195,159853,1,4,0:0:0:0:
63,205,160024,2,0,P|54:248|61:293,1,90,4|0,0:0|0:0,0:0:0:0:
253,360,160365,6,0,L|342:351,1,90,8|0,0:0|0:0,0:0:0:0:
139,272,160706,2,0,L|282:281,1,135
300,281,161047,6,0,B|337:238|337:238|293:85|293:85|329:44,1,270,4|0,0:0|0:0,0:0:0:0:
227,280,161728,2,0,B|239:322|239:322|275:350,1,90,8|0,0:0|0:0,0:0:0:0:
462,324,162069,6,0,L|418:330,1,45
347,340,162240,1,4,0:0:0:0:
481,249,162410,6,0,L|436:254,1,45
365,264,162581,1,4,0:0:0:0:
293,273,162751,1,4,0:0:0:0:
499,173,162922,6,0,L|454:178,1,45
230,216,163092,1,8,0:0:0:0:
230,216,163263,1,0,0:0:0:0:
230,216,163433,1,0,0:0:0:0:
230,216,163603,1,0,0:0:0:0:
147,117,163774,6,0,L|159:296,1,180,6|0,0:1|0:0,0:0:0:0:
165,368,164285,1,0,0:0:0:0:
179,180,164456,2,0,L|192:0,1,180,8|0,0:0|0:0,0:0:0:0:
219,67,164967,1,4,0:0:0:0:
159,108,165138,5,0,0:0:0:0:
179,180,165308,1,4,0:0:0:0:
179,180,165478,2,0,P|228:182|261:210,1,90,4|0,0:0|0:0,0:0:0:0:
209,337,165819,2,0,P|198:293|200:249,1,90,8|0,0:0|0:0,0:0:0:0:
285,132,166160,2,0,P|297:85|224:36,1,135
208,43,166501,6,0,B|330:57|330:57|354:69|354:69|477:80,1,270,4|0,0:0|0:0,0:0:0:0:
285,12,167183,2,0,B|276:78|276:78|257:101,1,90,8|0,0:0|0:0,0:0:0:0:
146,120,167524,6,0,L|191:114,1,45
350,93,167694,1,4,0:0:0:0:
257,142,167865,6,0,L|302:147,1,45
473,166,168035,1,4,0:0:0:0:
473,166,168206,2,0,L|383:157,1,90,4|0,0:0|0:0,0:0:0:0:
436,23,168547,2,0,L|413:320,1,270,8|0,0:0|0:0,0:0:0:0:
312,332,169228,6,0,P|307:270|318:237,1,90,4|0,0:0|0:0,0:0:0:0:
452,187,169569,2,0,P|408:180|365:192,1,90
198,52,169910,6,0,P|277:88|294:174,1,180,8|0,0:0|0:0,0:0:0:0:
202,147,170422,2,0,P|177:175|119:185,1,90,4|0,0:0|0:0,0:0:0:0:
65,104,170763,5,4,0:0:0:0:
137,114,170933,2,0,L|236:128,1,90,4|0,0:0|0:0,0:0:0:0:
15,187,171274,2,0,P|42:156|52:102,1,90,8|0,0:0|0:0,0:0:0:0:
102,6,171615,2,0,P|117:49|122:144,1,135
137,114,171956,6,0,P|127:171|122:390,1,270,4|0,0:0|0:0,0:0:0:0:
201,188,172638,2,0,P|238:170|299:159,1,90,8|0,0:0|0:0,0:0:0:0:
302,229,172978,6,0,P|326:235|351:251,1,45
297,300,173149,1,4,0:0:0:0:
366,384,173319,6,0,P|397:379|415:370,1,45
369,312,173490,1,4,0:0:0:0:
308,273,173660,1,4,0:0:0:0:
177,299,173831,6,0,P|166:279|163:256,1,45
235,258,174001,1,8,0:0:0:0:
304,264,174172,1,0,0:0:0:0:
364,304,174342,1,0,0:0:0:0:
389,370,174513,1,0,0:0:0:0:
270,380,174683,5,6,0:1:0:0:
