osu file format v14

[General]
AudioFilename: audio.mp3
AudioLeadIn: 0
PreviewTime: 106538
Countdown: 0
SampleSet: Drum
StackLeniency: 0.8
Mode: 0
LetterboxInBreaks: 0
EpilepsyWarning: 1
WidescreenStoryboard: 1

[Editor]
Bookmarks: 11084,21993,32902,43811,65629,87447,98356,109265,131089,152902
DistanceSpacing: 1
BeatDivisor: 4
GridSize: 32
TimelineZoom: 1.900002

[Metadata]
Title:Killin' It (Sped Up Ver.)
TitleUnicode:Killin' It (Sped Up Ver.)
Artist:Krewella
ArtistUnicode:Krewella
Creator:h3ct1c
Version:Normal
Source:
Tags:Hectic Daycore Shmiklak piroshki AYE1337 PantyDev h4d0uk3n1 get wet play hard ep monstercat drumstep dubstep edm electronic english Reisen Udongein Inaba touhou pink anime girl killing speed marvollo m_a_r_v_o_l_l_o
BeatmapID:2199783
BeatmapSetID:1029940

[Difficulty]
HPDrainRate:4
CircleSize:2.5
OverallDifficulty:4
ApproachRate:5.5
SliderMultiplier:0.9
SliderTickRate:1

[Events]
//Background and Video events
0,0,"killin_it.jpg",0,0
//Break Periods
2,22156,31740
2,87610,97194
//Storyboard Layer 0 (Background)
//Storyboard Layer 1 (Fail)
//Storyboard Layer 2 (Pass)
//Storyboard Layer 3 (Foreground)
Sprite,Foreground,Centre,"sb\s\b.png",0,0 C,0,69683,,217,0,124 M,0,69683,69725,320,426,320,425.081 F,2,69683,70223,1,0 R,0,69683,70223,1.57 V,2,69683,70223,3,1.8,1,1.8 P,0,69683,70223,A M,0,69725,69768,320,425.081,320,424.1619 M,0,69768,69810,320,424.1619,320,423.2429 M,0,69810,69853,320,423.2429,320,422.3238 M,0,69853,69896,320,422.3238,320,421.4048 M,0,69896,69938,320,421.4048,320,420.4857 M,0,69938,69981,320,420.4857,320,419.5667 M,0,69981,70023,320,419.5667,320,418.6476
Sprite,Foreground,Centre,"sb\s\b.png",0,0 C,0,70365,,217,0,124 M,0,70365,70407,320,412,320,411.081 F,2,70365,70905,1,0 R,0,70365,70905,1.57 V,2,70365,70905,3,1.8,1,1.8 P,0,70365,70905,A M,0,70407,70450,320,411.081,320,410.1619 M,0,70450,70492,320,410.1619,320,409.2429 M,0,70492,70535,320,409.2429,320,408.3238 M,0,70535,70578,320,408.3238,320,407.4048 M,0,70578,70620,320,407.4048,320,406.4857 M,0,70620,70663,320,406.4857,320,405.5667 M,0,70663,70705,320,405.5667,320,404.6476
Sprite,Foreground,Centre,"sb\s\b.png",320,349 C,0,71047,,148,0,204 F,2,71047,71247,1,0 R,0,71047,71247,1.57 V,2,71047,71247,3,1.8,1,1.8 P,0,71047,71247,A
Sprite,Foreground,Centre,"sb\s\b.png",320,62 C,0,80592,,242,0,6 F,2,80592,80792,1,0 R,0,80592,80792,1.57 V,2,80592,80792,3,1.8,1,1.8 P,0,80592,80792,A
Sprite,Foreground,Centre,"sb\s\b.png",320,75 C,0,80933,,242,0,6 F,2,80933,81133,1,0 R,0,80933,81133,1.57 V,2,80933,81133,3,1.8,1,1.8 P,0,80933,81133,A
Sprite,Foreground,Centre,"sb\s\b.png",320,147 C,0,81274,,242,0,6 F,2,81274,81474,1,0 R,0,81274,81474,1.57 V,2,81274,81474,3,1.8,1,1.8 P,0,81274,81474,A
Sprite,Foreground,Centre,"sb\s\b.png",320,133 C,0,81615,,242,0,6 F,2,81615,81815,1,0 R,0,81615,81815,1.57 V,2,81615,81815,3,1.8,1,1.8 P,0,81615,81815,A
Sprite,Foreground,Centre,"sb\s\b.png",0,0 C,0,81956,,217,0,124 M,0,81956,81998,320,165,320,175.7802 F,2,81956,82496,1,0 R,0,81956,82496,1.57 V,2,81956,82496,3,1.8,1,1.8 P,0,81956,82496,A M,0,81998,82041,320,175.7802,320,186.7354 M,0,82041,82083,320,186.7354,320,197.8054 M,0,82083,82126,320,197.8054,320,209.0037 M,0,82126,82169,320,209.0037,320,220.2383 M,0,82169,82211,320,220.2383,320,231.4675 M,0,82211,82254,320,231.4675,320,242.6321 M,0,82254,82296,320,242.6321,320,253.7211
Sprite,Foreground,Centre,"sb\s\b.png",0,0 C,0,109228,,148,0,204 M,0,109228,109270,320,78,320,88.08668 F,2,109228,109768,1,0 R,0,109228,109768,1.57 V,2,109228,109768,4,1.8,2,1.8 P,0,109228,109768,A M,0,109270,109313,320,88.08668,320,98.39967 M,0,109313,109355,320,98.39967,320,108.8744 M,0,109355,109398,320,108.8744,320,119.6073 M,0,109398,109441,320,119.6073,320,130.4878 M,0,109441,109483,320,130.4878,320,141.4739 M,0,109483,109526,320,141.4739,320,152.5953 M,0,109526,109568,320,152.5953,320,163.7823
Sprite,Foreground,Centre,"sb\s\b.png",0,0 C,0,109910,,148,0,204 M,0,109910,109952,320,206,320,217.2243 F,2,109910,110450,1,0 R,0,109910,110450,1.57 V,2,109910,110450,4,1.8,2,1.8 P,0,109910,110450,A M,0,109952,109995,320,217.2243,320,228.4666 M,0,109995,110037,320,228.4666,320,239.7088 M,0,110037,110080,320,239.7088,320,250.9048 M,0,110080,110123,320,250.9048,320,262.0361 M,0,110123,110165,320,262.0361,320,273.0979 M,0,110165,110208,320,273.0979,320,284.0005 M,0,110208,110250,320,284.0005,320,294.7574
Sprite,Foreground,Centre,"sb\s\b.png",320,361 C,0,110592,,242,0,6 F,2,110592,110792,1,0 R,0,110592,110792,1.57 V,2,110592,110792,4,1.8,2,1.8 P,0,110592,110792,A
Sprite,Foreground,Centre,"sb\s\b.png",320,354 C,0,110933,,242,0,6 F,2,110933,111133,1,0 R,0,110933,111133,1.57 V,2,110933,111133,4,1.8,2,1.8 P,0,110933,111133,A
Sprite,Foreground,Centre,"sb\s\b.png",0,0 C,0,111274,,242,0,6 M,0,111274,111316,320,346,320,335.0742 F,2,111274,111644,1,0 R,0,111274,111644,1.57 V,2,111274,111644,4,1.8,2,1.8 P,0,111274,111644,A M,0,111316,111359,320,335.0742,320,324.0161 M,0,111359,111401,320,324.0161,320,312.8617 M,0,111401,111444,320,312.8617,320,301.6554
Sprite,Foreground,Centre,"sb\s\b.png",0,0 C,0,111615,,242,0,6 M,0,111615,111657,320,270,320,258.8801 F,2,111615,111985,1,0 R,0,111615,111985,1.57 V,2,111615,111985,4,1.8,2,1.8 P,0,111615,111985,A M,0,111657,111700,320,258.8801,320,247.8706 M,0,111700,111742,320,247.8706,320,237.0035 M,0,111742,111785,320,237.0035,320,226.3105
Sprite,Foreground,Centre,"sb\s\b.png",0,0 C,0,111956,,217,0,124 M,0,111956,111998,320,184,320,184.8578 F,2,111956,112667,1,0 R,0,111956,112667,1.57 V,2,111956,112667,4,1.8,2,1.8 P,0,111956,112667,A M,0,111998,112041,320,184.8578,320,185.7156 M,0,112041,112083,320,185.7156,320,186.5734 M,0,112083,112126,320,186.5734,320,187.4312 M,0,112126,112169,320,187.4312,320,188.2889 M,0,112169,112211,320,188.2889,320,189.1467 M,0,112211,112254,320,189.1467,320,190.0045 M,0,112254,112296,320,190.0045,320,190.8623 M,0,112296,112339,320,190.8623,320,191.7201 M,0,112339,112382,320,191.7201,320,192.5779 M,0,112382,112424,320,192.5779,320,193.4357 M,0,112424,112467,320,193.4357,320,194.2935
Sprite,Foreground,Centre,"sb\s\b.png",0,0 C,0,112638,,217,0,124 M,0,112638,112680,320,159,320,158.1288 F,2,112638,113519,1,0 R,0,112638,113519,1.57 V,2,112638,113519,4,1.8,2,1.8 P,0,112638,113519,A M,0,112680,112723,320,158.1288,320,157.2577 M,0,112723,112765,320,157.2577,320,156.3865 M,0,112765,112808,320,156.3865,320,155.5154 M,0,112808,112851,320,155.5154,320,154.6442 M,0,112851,112893,320,154.6442,320,153.773 M,0,112893,112936,320,153.773,320,152.9019 M,0,112936,112978,320,152.9019,320,152.0307 M,0,112978,113021,320,152.0307,320,152.9019 M,0,113021,113064,320,152.9019,320,153.773 M,0,113064,113106,320,153.773,320,154.6442 M,0,113106,113149,320,154.6442,320,155.5154 M,0,113149,113191,320,155.5154,320,156.3865 M,0,113191,113234,320,156.3865,320,157.2577 M,0,113234,113277,320,157.2577,320,158.1288 M,0,113277,113319,320,158.1288,320,159
Sprite,Foreground,Centre,"sb\s\b.png",320,106 C,0,113660,,148,0,204 F,2,113660,113860,1,0 R,0,113660,113860,1.57 V,2,113660,113860,4,1.8,2,1.8 P,0,113660,113860,A
Sprite,Foreground,Centre,"sb\s\b.png",320,92 C,0,114001,,148,0,204 F,2,114001,114201,1,0 R,0,114001,114201,1.57 V,2,114001,114201,4,1.8,2,1.8 P,0,114001,114201,A
Sprite,Foreground,Centre,"sb\s\b.png",320,134 C,0,114342,,148,0,204 F,2,114342,114542,1,0 R,0,114342,114542,1.57 V,2,114342,114542,4,1.8,2,1.8 P,0,114342,114542,A
Sprite,Foreground,Centre,"sb\s\b.png",0,0 C,0,114683,,242,0,6 M,0,114683,114725,320,223,320,232.2332 F,2,114683,115223,1,0 R,0,114683,115223,1.57 V,2,114683,115223,4,1.8,2,1.8 P,0,114683,115223,A M,0,114725,114768,320,232.2332,320,241.8085 M,0,114768,114810,320,241.8085,320,251.6971 M,0,114810,114853,320,251.6971,320,261.8394 M,0,114853,114896,320,261.8394,320,272.3106 M,0,114896,114938,320,272.3106,320,282.9927 M,0,114938,114981,320,282.9927,320,293.8345 M,0,114981,115023,320,293.8345,320,304.8664
Sprite,Foreground,Centre,"sb\s\b.png",0,0 C,0,115365,,242,0,6 M,0,115365,115407,320,379,320,372.6585 F,2,115365,115905,1,0 R,0,115365,115905,1.57 V,2,115365,115905,4,1.8,2,1.8 P,0,115365,115905,A M,0,115407,115450,320,372.6585,320,365.1742 M,0,115450,115492,320,365.1742,320,356.8619 M,0,115492,115535,320,356.8619,320,347.3015 M,0,115535,115578,320,347.3015,320,337.07 M,0,115578,115620,320,337.07,320,326.3929 M,0,115620,115663,320,326.3929,320,315.282 M,0,115663,115705,320,315.282,320,304.0617
Sprite,Foreground,Centre,"sb\s\b.png",0,0 C,0,116047,,217,0,124 M,0,116047,116089,320,241,320,242.4595 F,2,116047,116587,1,0 R,0,116047,116587,1.57 V,2,116047,116587,4,1.8,2,1.8 P,0,116047,116587,A M,0,116089,116132,320,242.4595,320,243.9191 M,0,116132,116174,320,243.9191,320,245.3786 M,0,116174,116217,320,245.3786,320,246.8381 M,0,116217,116260,320,246.8381,320,248.2976 M,0,116260,116302,320,248.2976,320,249.7571 M,0,116302,116345,320,249.7571,320,251.2167 M,0,116345,116387,320,251.2167,320,252.6762
Sprite,Foreground,Centre,"sb\s\b.png",320,264 C,0,116728,,217,0,124 F,2,116728,116928,1,0 R,0,116728,116928,1.57 V,2,116728,116928,4,1.8,2,1.8 P,0,116728,116928,A
Sprite,Foreground,Centre,"sb\s\b.png",0,0 C,0,117069,,217,0,124 M,0,117069,117111,320,194,320,183.0739 F,2,117069,117439,1,0 R,0,117069,117439,1.57 V,2,117069,117439,4,1.8,2,1.8 P,0,117069,117439,A M,0,117111,117154,320,183.0739,320,172.1478 M,0,117154,117196,320,172.1478,320,161.2216 M,0,117196,117239,320,161.2216,320,150.2955
Sprite,Foreground,Centre,"sb\s\b.png",0,0 C,0,117410,,148,0,204 M,0,117410,117452,320,107,320,106.3038 F,2,117410,118121,1,0 R,0,117410,118121,1.57 V,2,117410,118121,4,1.8,2,1.8 P,0,117410,118121,A M,0,117452,117495,320,106.3038,320,106.6017 M,0,117495,117537,320,106.6017,320,107.7082 M,0,117537,117580,320,107.7082,320,110.1922 M,0,117580,117623,320,110.1922,320,113.6335 M,0,117623,117665,320,113.6335,320,117.9228 M,0,117665,117708,320,117.9228,320,123.3849 M,0,117708,117750,320,123.3849,320,129.5201 M,0,117750,117793,320,129.5201,320,136.7945 M,0,117793,117836,320,136.7945,320,144.7934 M,0,117836,117878,320,144.7934,320,153.3812 M,0,117878,117921,320,153.3812,320,162.766
Sprite,Foreground,Centre,"sb\s\b.png",0,0 C,0,118092,,148,0,204 M,0,118092,118134,320,148,320,158.7452 F,2,118092,118803,1,0 R,0,118092,118803,1.57 V,2,118092,118803,4,1.8,2,1.8 P,0,118092,118803,A M,0,118134,118177,320,158.7452,320,169.6108 M,0,118177,118219,320,169.6108,320,180.5659 M,0,118219,118262,320,180.5659,320,191.6425 M,0,118262,118305,320,191.6425,320,202.7724 M,0,118305,118347,320,202.7724,320,213.9767 M,0,118347,118390,320,213.9767,320,225.2093 M,0,118390,118432,320,225.2093,320,236.4535 M,0,118432,118475,320,236.4535,320,247.6909 M,0,118475,118518,320,247.6909,320,258.9124 M,0,118518,118560,320,258.9124,320,270.0698 M,0,118560,118603,320,270.0698,320,281.1624
Sprite,Foreground,Centre,"sb\s\b.png",320,324 C,0,118774,,242,0,6 F,2,118774,118974,1,0 R,0,118774,118974,1.57 V,2,118774,118974,4,1.8,2,1.8 P,0,118774,118974,A
Sprite,Foreground,Centre,"sb\s\b.png",320,361 C,0,119115,,242,0,6 F,2,119115,119315,1,0 R,0,119115,119315,1.57 V,2,119115,119315,4,1.8,2,1.8 P,0,119115,119315,A
Sprite,Foreground,Centre,"sb\s\b.png",320,332 C,0,119456,,242,0,6 F,2,119456,119656,1,0 R,0,119456,119656,1.57 V,2,119456,119656,4,1.8,2,1.8 P,0,119456,119656,A
Sprite,Foreground,Centre,"sb\s\b.png",320,332 C,0,119626,,242,0,6 F,2,119626,119826,1,0 R,0,119626,119826,1.57 V,2,119626,119826,4,1.8,2,1.8 P,0,119626,119826,A
Sprite,Foreground,Centre,"sb\s\b.png",0,0 C,0,119797,,242,0,6 M,0,119797,119839,320,332,320,320.8188 F,2,119797,120167,1,0 R,0,119797,120167,1.57 V,2,119797,120167,4,1.8,2,1.8 P,0,119797,120167,A M,0,119839,119882,320,320.8188,320,309.6376 M,0,119882,119924,320,309.6376,320,298.4564 M,0,119924,119967,320,298.4564,320,287.2752
Sprite,Foreground,Centre,"sb\s\b.png",320,242 C,0,120138,,217,0,124 F,2,120138,120338,1,0 R,0,120138,120338,1.57 V,2,120138,120338,4,1.8,2,1.8 P,0,120138,120338,A
Sprite,Foreground,Centre,"sb\s\b.png",0,0 C,0,120819,,217,0,124 M,0,120819,120861,320,249,320,237.9621 F,2,120819,121359,1,0 R,0,120819,121359,1.57 V,2,120819,121359,4,1.8,2,1.8 P,0,120819,121359,A M,0,120861,120904,320,237.9621,320,226.794 M,0,120904,120946,320,226.794,320,215.568 M,0,120946,120989,320,215.568,320,204.3692 M,0,120989,121032,320,204.3692,320,193.2876 M,0,121032,121074,320,193.2876,320,182.3557 M,0,121074,121117,320,182.3557,320,171.7882 M,0,121117,121159,320,171.7882,320,161.4616
Sprite,Foreground,Centre,"sb\s\b.png",0,0 C,0,121501,,148,0,204 M,0,121501,121543,320,79,320,79.87965 F,2,121501,122041,1,0 R,0,121501,122041,1.57 V,2,121501,122041,4,1.8,2,1.8 P,0,121501,122041,A M,0,121543,121586,320,79.87965,320,80.7593 M,0,121586,121628,320,80.7593,320,81.63895 M,0,121628,121671,320,81.63895,320,82.51861 M,0,121671,121714,320,82.51861,320,83.39825 M,0,121714,121756,320,83.39825,320,84.27791 M,0,121756,121799,320,84.27791,320,85.15756 M,0,121799,121841,320,85.15756,320,86.03722
Sprite,Foreground,Centre,"sb\s\b.png",0,0 C,0,122183,,148,0,204 M,0,122183,122225,320,138,320,149.2155 F,2,122183,122553,1,0 R,0,122183,122553,1.57 V,2,122183,122553,4,1.8,2,1.8 P,0,122183,122553,A M,0,122225,122268,320,149.2155,320,160.4311 M,0,122268,122310,320,160.4311,320,171.6467 M,0,122310,122353,320,171.6467,320,182.8622
Sprite,Foreground,Centre,"sb\s\b.png",0,0 C,0,122524,,148,0,204 M,0,122524,122566,320,222,320,233.2052 F,2,122524,122894,1,0 R,0,122524,122894,1.57 V,2,122524,122894,4,1.8,2,1.8 P,0,122524,122894,A M,0,122566,122609,320,233.2052,320,244.4103 M,0,122609,122651,320,244.4103,320,255.6155 M,0,122651,122694,320,255.6155,320,266.8206
Sprite,Foreground,Centre,"sb\s\b.png",0,0 C,0,122865,,242,0,6 M,0,122865,122907,320,277,320,279.2945 F,2,122865,123746,1,0 R,0,122865,123746,1.57 V,2,122865,123746,4,1.8,2,1.8 P,0,122865,123746,A M,0,122907,122950,320,279.2945,320,281.589 M,0,122950,122992,320,281.589,320,283.8835 M,0,122992,123035,320,283.8835,320,286.1779 M,0,123035,123078,320,286.1779,320,294.2039 M,0,123078,123120,320,294.2039,320,305.4297 M,0,123120,123163,320,305.4297,320,316.6555 M,0,123163,123205,320,316.6555,320,327.8813 M,0,123205,123248,320,327.8813,320,339.1071 M,0,123248,123291,320,339.1071,320,350.3329 M,0,123291,123333,320,350.3329,320,361.5587 M,0,123333,123376,320,361.5587,320,372.7845 M,0,123376,123418,320,372.7845,320,384.0103 M,0,123418,123461,320,384.0103,320,395.2361 M,0,123461,123504,320,395.2361,320,406.4619 M,0,123504,123546,320,406.4619,320,417.6877
Sprite,Foreground,Centre,"sb\s\b.png",0,0 C,0,123888,,242,0,6 M,0,123888,123930,320,428,320,416.8081 F,2,123888,124258,1,0 R,0,123888,124258,1.57 V,2,123888,124258,4,1.8,2,1.8 P,0,123888,124258,A M,0,123930,123973,320,416.8081,320,405.6162 M,0,123973,124015,320,405.6162,320,394.4243 M,0,124015,124058,320,394.4243,320,383.2325
Sprite,Foreground,Centre,"sb\s\b.png",320,339 C,0,124228,,217,0,124 F,2,124228,124428,1,0 R,0,124228,124428,1.57 V,2,124228,124428,4,1.8,2,1.8 P,0,124228,124428,A
Sprite,Foreground,Centre,"sb\s\b.png",320,350 C,0,124569,,217,0,124 F,2,124569,124769,1,0 R,0,124569,124769,1.57 V,2,124569,124769,4,1.8,2,1.8 P,0,124569,124769,A
Sprite,Foreground,Centre,"sb\s\b.png",320,415 C,0,124910,,217,0,124 F,2,124910,125110,1,0 R,0,124910,125110,1.57 V,2,124910,125110,4,1.8,2,1.8 P,0,124910,125110,A
Sprite,Foreground,Centre,"sb\s\b.png",320,404 C,0,125251,,217,0,124 F,2,125251,125451,1,0 R,0,125251,125451,1.57 V,2,125251,125451,4,1.8,2,1.8 P,0,125251,125451,A
Sprite,Foreground,Centre,"sb\s\b.png",0,0 C,0,125592,,148,0,204 M,0,125592,125634,320,318,320,306.9376 F,2,125592,126132,1,0 R,0,125592,126132,1.57 V,2,125592,126132,4,1.8,2,1.8 P,0,125592,126132,A M,0,125634,125677,320,306.9376,320,295.7773 M,0,125677,125719,320,295.7773,320,284.5642 M,0,125719,125762,320,284.5642,320,273.3232 M,0,125762,125805,320,273.3232,320,262.1166 M,0,125805,125847,320,262.1166,320,250.9526 M,0,125847,125890,320,250.9526,320,239.9566 M,0,125890,125932,320,239.9566,320,229.1258
Sprite,Foreground,Centre,"sb\s\b.png",0,0 C,0,126274,,148,0,204 M,0,126274,126316,320,255,320,244.9228 F,2,126274,126814,1,0 R,0,126274,126814,1.57 V,2,126274,126814,4,1.8,2,1.8 P,0,126274,126814,A M,0,126316,126359,320,244.9228,320,235.3017 M,0,126359,126401,320,235.3017,320,226.0756 M,0,126401,126444,320,226.0756,320,217.6839 M,0,126444,126487,320,217.6839,320,209.9497 M,0,126487,126529,320,209.9497,320,202.8129 M,0,126529,126572,320,202.8129,320,196.7097 M,0,126572,126614,320,196.7097,320,191.4186
Sprite,Foreground,Centre,"sb\s\b.png",0,0 C,0,126956,,242,0,6 M,0,126956,126998,320,250,320,251.3568 F,2,126956,127496,1,0 R,0,126956,127496,1.57 V,2,126956,127496,4,1.8,2,1.8 P,0,126956,127496,A M,0,126998,127041,320,251.3568,320,252.7137 M,0,127041,127083,320,252.7137,320,254.0705 M,0,127083,127126,320,254.0705,320,255.4274 M,0,127126,127169,320,255.4274,320,256.7842 M,0,127169,127211,320,256.7842,320,258.1411 M,0,127211,127254,320,258.1411,320,259.4979 M,0,127254,127296,320,259.4979,320,260.8548
Sprite,Foreground,Centre,"sb\s\b.png",320,187 C,0,127638,,242,0,6 F,2,127638,127838,1,0 R,0,127638,127838,1.57 V,2,127638,127838,4,1.8,2,1.8 P,0,127638,127838,A
Sprite,Foreground,Centre,"sb\s\b.png",320,101 C,0,127978,,242,0,6 F,2,127978,128178,1,0 R,0,127978,128178,1.57 V,2,127978,128178,4,1.8,2,1.8 P,0,127978,128178,A
Sprite,Foreground,Centre,"sb\s\b.png",320,105 C,0,128319,,217,0,124 F,2,128319,128519,1,0 R,0,128319,128519,1.57 V,2,128319,128519,4,1.8,2,1.8 P,0,128319,128519,A
Sprite,Foreground,Centre,"sb\s\b.png",0,0 C,0,135138,,242,0,6 M,0,135138,135180,320,209,320,213.6009 F,2,135138,136019,1,0 R,0,135138,136019,1.57 V,2,135138,136019,4,1.8,2,1.8 P,0,135138,136019,A M,0,135180,135223,320,213.6009,320,219.1765 M,0,135223,135265,320,219.1765,320,225.4634 M,0,135265,135308,320,225.4634,320,233.0024 M,0,135308,135351,320,233.0024,320,241.3129 M,0,135351,135393,320,241.3129,320,250.1944 M,0,135393,135436,320,250.1944,320,259.9331 M,0,135436,135478,320,259.9331,320,270.1652 M,0,135478,135521,320,270.1652,320,280.7449 M,0,135521,135564,320,280.7449,320,291.7303 M,0,135564,135606,320,291.7303,320,302.883 M,0,135606,135649,320,302.883,320,314.0947 M,0,135649,135691,320,314.0947,320,325.2523 M,0,135691,135734,320,325.2523,320,336.3043 M,0,135734,135777,320,336.3043,320,346.9497 M,0,135777,135819,320,346.9497,320,357.188
Sprite,Foreground,Centre,"sb\s\b.png",320,416 C,0,136160,,242,0,6 F,2,136160,136360,1,0 R,0,136160,136360,1.57 V,2,136160,136360,4,1.8,2,1.8 P,0,136160,136360,A
Sprite,Foreground,Centre,"sb\s\b.png",0,0 C,0,136501,,217,0,124 M,0,136501,136543,320,377,320,375.7324 F,2,136501,137041,1,0 R,0,136501,137041,1.57 V,2,136501,137041,4,1.8,2,1.8 P,0,136501,137041,A M,0,136543,136586,320,375.7324,320,374.4647 M,0,136586,136628,320,374.4647,320,373.1971 M,0,136628,136671,320,373.1971,320,371.9294 M,0,136671,136714,320,371.9294,320,370.6617 M,0,136714,136756,320,370.6617,320,369.3941 M,0,136756,136799,320,369.3941,320,368.1265 M,0,136799,136841,320,368.1265,320,366.8588
Sprite,Foreground,Centre,"sb\s\b.png",320,400 C,0,146047,,148,0,204 F,2,146047,146247,1,0 R,0,146047,146247,1.57 V,2,146047,146247,4,1.8,2,1.8 P,0,146047,146247,A
Sprite,Foreground,Centre,"sb\s\b.png",320,387 C,0,146388,,148,0,204 F,2,146388,146588,1,0 R,0,146388,146588,1.57 V,2,146388,146588,4,1.8,2,1.8 P,0,146388,146588,A
Sprite,Foreground,Centre,"sb\s\b.png",320,308 C,0,146728,,148,0,204 F,2,146728,146928,1,0 R,0,146728,146928,1.57 V,2,146728,146928,4,1.8,2,1.8 P,0,146728,146928,A
Sprite,Foreground,Centre,"sb\s\b.png",320,318 C,0,147069,,148,0,204 F,2,147069,147269,1,0 R,0,147069,147269,1.57 V,2,147069,147269,4,1.8,2,1.8 P,0,147069,147269,A
Sprite,Foreground,Centre,"sb\s\b.png",0,0 C,0,147410,,242,0,6 M,0,147410,147452,320,266,320,254.782 F,2,147410,147950,1,0 R,0,147410,147950,1.57 V,2,147410,147950,4,1.8,2,1.8 P,0,147410,147950,A M,0,147452,147495,320,254.782,320,243.5641 M,0,147495,147537,320,243.5641,320,232.3461 M,0,147537,147580,320,232.3461,320,221.1281 M,0,147580,147623,320,221.1281,320,209.9102 M,0,147623,147665,320,209.9102,320,198.6922 M,0,147665,147708,320,198.6922,320,187.4743 M,0,147708,147750,320,187.4743,320,176.2563
Sprite,Foreground,Centre,"sb\s\w.png",412,356 C,0,141956,,148,0,204 F,2,141956,142456,1,0 R,0,141956,142456,0 V,2,141956,142456,0.3,0.3,0.5,0.5 P,0,141956,142456,A
Sprite,Foreground,Centre,"sb\s\w.png",0,0 C,0,142638,,148,0,204 M,0,142638,142680,548,238,540.9722,229.2152 F,2,142638,143649,1,0 R,0,142638,143649,0 V,2,142638,143649,0.3,0.3,0.5,0.5 P,0,142638,143649,A M,0,142680,142723,540.9722,229.2152,533.9443,220.4305 M,0,142723,142765,533.9443,220.4305,526.9165,211.6457 M,0,142765,142808,526.9165,211.6457,519.9803,202.823 M,0,142808,142851,519.9803,202.823,518.738,191.6418 M,0,142851,142893,518.738,191.6418,517.4956,180.4606 M,0,142893,142936,517.4956,180.4606,516.2533,169.2794 M,0,142936,142978,516.2533,169.2794,515.0109,158.0982 M,0,142978,143021,515.0109,158.0982,513.7686,146.917 M,0,143021,143064,513.7686,146.917,512.5262,135.7358 M,0,143064,143106,512.5262,135.7358,511.2838,124.5546 M,0,143106,143149,511.2838,124.5546,510.0415,113.3734
Sprite,Foreground,Centre,"sb\s\w.png",472,297 C,0,76501,,242,0,6 F,2,76501,77001,1,0 R,0,76501,77001,0 V,2,76501,77001,0.3,0.3,0.5,0.5 P,0,76501,77001,A
Sprite,Foreground,Centre,"sb\s\w.png",0,0 C,0,77183,,242,0,6 M,0,77183,77225,429,119,417.8405,120.1286 F,2,77183,78194,1,0 R,0,77183,78194,0 V,2,77183,78194,0.3,0.3,0.5,0.5 P,0,77183,78194,A M,0,77225,77268,417.8405,120.1286,406.9316,122.6726 M,0,77268,77310,406.9316,122.6726,396.4452,126.5899 M,0,77310,77353,396.4452,126.5899,386.4866,131.6841 M,0,77353,77396,386.4866,131.6841,377.5002,138.3715 M,0,77396,77438,377.5002,138.3715,369.4492,146.1491 M,0,77438,77481,369.4492,146.1491,362.3517,154.795 M,0,77481,77523,362.3517,154.795,356.7819,164.5138 M,0,77523,77566,356.7819,164.5138,352.5051,174.8588 M,0,77566,77609,352.5051,174.8588,349.4485,185.6192 M,0,77609,77651,349.4485,185.6192,348.2214,196.7534 M,0,77651,77694,348.2214,196.7534,347.9994,207.9814
Sprite,Foreground,Centre,"sb\s\w.png",252,168 C,0,54683,,148,0,204 F,2,54683,55183,1,0 R,0,54683,55183,0 V,2,54683,55183,0.3,0.3,0.5,0.5 P,0,54683,55183,A
Sprite,Foreground,Centre,"sb\s\w.png",0,0 C,0,55365,,148,0,204 M,0,55365,55407,132,299,133.2084,310.1792 F,2,55365,56546,1,0 R,0,55365,56546,0 V,2,55365,56546,0.3,0.3,0.5,0.5 P,0,55365,56546,A M,0,55407,55450,133.2084,310.1792,135.7354,321.1338 M,0,55450,55492,135.7354,321.1338,139.7171,331.6453 M,0,55492,55535,139.7171,331.6453,145.1962,341.4586 M,0,55535,55578,145.1962,341.4586,152.0826,350.3415 M,0,55578,55620,152.0826,350.3415,160.2262,357.9973 M,0,55620,55663,160.2262,357.9973,171.4707,358.2491 M,0,55663,55705,171.4707,358.2491,182.6635,359.3539 M,0,55705,55748,182.6635,359.3539,193.7391,361.3107 M,0,55748,55791,193.7391,361.3107,204.6342,364.103 M,0,55791,55833,204.6342,364.103,215.2928,367.6946 M,0,55833,55876,215.2928,367.6946,225.6684,372.0372 M,0,55876,55918,225.6684,372.0372,235.7278,377.0695 M,0,55918,55961,235.7278,377.0695,245.4494,382.7275 M,0,55961,56004,245.4494,382.7275,254.8217,388.9474 M,0,56004,56046,254.8217,388.9474,263.8437,395.6659
Sprite,Foreground,Centre,"sb\s\b.png",0,0 C,0,59115,,242,0,6 M,0,59115,59157,320,420,320,414.6599 F,2,59115,59996,1,0 R,0,59115,59996,1.57 V,2,59115,59996,3,1.8,1,1.8 P,0,59115,59996,A M,0,59157,59200,320,414.6599,320,410.059 M,0,59200,59242,320,410.059,320,406.0509 M,0,59242,59285,320,406.0509,320,403.1625 M,0,59285,59328,320,403.1625,320,401.0766 M,0,59328,59370,320,401.0766,320,399.6819 M,0,59370,59413,320,399.6819,320,399.4035 M,0,59413,59455,320,399.4035,320,399.9469 M,0,59455,59498,320,399.9469,320,399.4035 M,0,59498,59541,320,399.4035,320,399.6819 M,0,59541,59583,320,399.6819,320,401.0766 M,0,59583,59626,320,401.0766,320,403.1625 M,0,59626,59668,320,403.1625,320,406.0509 M,0,59668,59711,320,406.0509,320,410.059 M,0,59711,59754,320,410.059,320,414.6599 M,0,59754,59796,320,414.6599,320,420
Sprite,Foreground,Centre,"sb\s\b.png",0,0 C,0,60138,,217,0,124 M,0,60138,60180,320,364,320,362.7266 F,2,60138,61019,1,0 R,0,60138,61019,1.57 V,2,60138,61019,3,1.8,1,1.8 P,0,60138,61019,A M,0,60180,60223,320,362.7266,320,361.4532 M,0,60223,60265,320,361.4532,320,360.1798 M,0,60265,60308,320,360.1798,320,358.9064 M,0,60308,60351,320,358.9064,320,357.633 M,0,60351,60393,320,357.633,320,356.3596 M,0,60393,60436,320,356.3596,320,355.0862 M,0,60436,60478,320,355.0862,320,358.4651 M,0,60478,60521,320,358.4651,320,361.9258 M,0,60521,60564,320,361.9258,320,360.4058 M,0,60564,60606,320,360.4058,320,358.8857 M,0,60606,60649,320,358.8857,320,357.3657 M,0,60649,60691,320,357.3657,320,355.8457 M,0,60691,60734,320,355.8457,320,354.3257 M,0,60734,60777,320,354.3257,320,352.8056 M,0,60777,60819,320,352.8056,320,351.2856
Sprite,Foreground,Centre,"sb\s\b.png",0,0 C,0,48206,,148,0,204 M,0,48206,48248,320,159,320,170.006 F,2,48206,49087,1,0 R,0,48206,49087,1.57 V,2,48206,49087,3,1.8,1,1.8 P,0,48206,49087,A M,0,48248,48291,320,170.006,320,181.1524 M,0,48291,48333,320,181.1524,320,192.3839 M,0,48333,48376,320,192.3839,320,203.623 M,0,48376,48419,320,203.623,320,214.7895 M,0,48419,48461,320,214.7895,320,225.8337 M,0,48461,48504,320,225.8337,320,236.7591 M,0,48504,48546,320,236.7591,320,247.6213 M,0,48546,48589,320,247.6213,320,258.4991 M,0,48589,48632,320,258.4991,320,269.4604 M,0,48632,48674,320,269.4604,320,280.5358 M,0,48674,48717,320,280.5358,320,291.7134 M,0,48717,48759,320,291.7134,320,302.9513 M,0,48759,48802,320,302.9513,320,314.1945 M,0,48802,48845,320,314.1945,320,325.3936 M,0,48845,48887,320,325.3936,320,336.5103
Sprite,Foreground,Centre,"sb\s\b.png",0,0 C,0,49228,,242,0,6 M,0,49228,49270,320,396,320,399.7442 F,2,49228,50109,1,0 R,0,49228,50109,1.57 V,2,49228,50109,3,1.8,1,1.8 P,0,49228,50109,A M,0,49270,49313,320,399.7442,320,403.4885 M,0,49313,49355,320,403.4885,320,407.2327 M,0,49355,49398,320,407.2327,320,410.9769 M,0,49398,49441,320,410.9769,320,414.7211 M,0,49441,49483,320,414.7211,320,418.4654 M,0,49483,49526,320,418.4654,320,422.2096 M,0,49526,49568,320,422.2096,320,425.9538 M,0,49568,49611,320,425.9538,320,420.0495 M,0,49611,49654,320,420.0495,320,414.0246 M,0,49654,49696,320,414.0246,320,407.9998 M,0,49696,49739,320,407.9998,320,401.9749 M,0,49739,49781,320,401.9749,320,395.9501 M,0,49781,49824,320,395.9501,320,389.9252 M,0,49824,49867,320,389.9252,320,383.9004 M,0,49867,49909,320,383.9004,320,377.8755
Sprite,Foreground,Centre,"sb\s\b.png",0,0 C,0,11047,,148,0,204 M,0,11047,11089,180,240,191.1812,240 F,2,11047,11928,1,0 R,0,11047,11928,0 V,2,11047,11928,3,1,1.5,1 P,0,11047,11928,A M,0,11089,11132,191.1812,240,202.3624,240 M,0,11132,11174,202.3624,240,213.5436,240 M,0,11174,11217,213.5436,240,224.7248,240 M,0,11217,11260,224.7248,240,235.906,240 M,0,11260,11302,235.906,240,247.0872,240 M,0,11302,11345,247.0872,240,258.2683,240 M,0,11345,11387,258.2683,240,266.6248,240 M,0,11387,11430,266.6248,240,274.0681,240 M,0,11430,11473,274.0681,240,284.2936,240 M,0,11473,11515,284.2936,240,295.4945,240 M,0,11515,11558,295.4945,240,306.6954,240 M,0,11558,11600,306.6954,240,317.8962,240 M,0,11600,11643,317.8962,240,329.0971,240 M,0,11643,11686,329.0971,240,340.298,240 M,0,11686,11728,340.298,240,351.4989,240
Sprite,Foreground,Centre,"sb\s\b.png",0,0 C,0,12240,,148,0,204 M,0,12240,12282,393,240,381.7708,240 F,2,12240,12951,1,0 R,0,12240,12951,0 V,2,12240,12951,3,1,1.5,1 P,0,12240,12951,A M,0,12282,12325,381.7708,240,370.5415,240 M,0,12325,12367,370.5415,240,359.3122,240 M,0,12367,12410,359.3122,240,348.083,240 M,0,12410,12453,348.083,240,336.8537,240 M,0,12453,12495,336.8537,240,325.6245,240 M,0,12495,12538,325.6245,240,314.3952,240 M,0,12538,12580,314.3952,240,303.166,240 M,0,12580,12623,303.166,240,291.9367,240 M,0,12623,12666,291.9367,240,280.7074,240 M,0,12666,12708,280.7074,240,269.4782,240 M,0,12708,12751,269.4782,240,258.2489,240
Sprite,Foreground,Centre,"sb\s\b.png",168,240 C,0,13092,,148,0,204 F,2,13092,13292,1,0 R,0,13092,13292,0 V,2,13092,13292,3,1,1.5,1 P,0,13092,13292,A
Sprite,Foreground,Centre,"sb\s\b.png",114,240 C,0,13433,,148,0,204 F,2,13433,13633,1,0 R,0,13433,13633,0 V,2,13433,13633,3,1,1.5,1 P,0,13433,13633,A
Sprite,Foreground,Centre,"sb\s\b.png",0,0 C,0,13774,,242,0,6 M,0,13774,13816,188,240,195.572,240 F,2,13774,14655,1,0 R,0,13774,14655,0 V,2,13774,14655,3,1,1.5,1 P,0,13774,14655,A M,0,13816,13859,195.572,240,201.9688,240 M,0,13859,13901,201.9688,240,207.3325,240 M,0,13901,13944,207.3325,240,210.774,240 M,0,13944,13987,210.774,240,212.765,240 M,0,13987,14029,212.765,240,213.404,240 M,0,14029,14072,213.404,240,212.0965,240 M,0,14072,14114,212.0965,240,209.6238,240 M,0,14114,14157,209.6238,240,205.1271,240 M,0,14157,14200,205.1271,240,199.3116,240 M,0,14200,14242,199.3116,240,192.4121,240 M,0,14242,14285,192.4121,240,184.0563,240 M,0,14285,14327,184.0563,240,174.9715,240 M,0,14327,14370,174.9715,240,164.7963,240 M,0,14370,14413,164.7963,240,154.0988,240 M,0,14413,14455,154.0988,240,143.0957,240
Sprite,Foreground,Centre,"sb\s\b.png",0,0 C,0,14797,,242,0,6 M,0,14797,14839,100,240,97.93954,240 F,2,14797,15678,1,0 R,0,14797,15678,0 V,2,14797,15678,3,1,1.5,1 P,0,14797,15678,A M,0,14839,14882,97.93954,240,96.41731,240 M,0,14882,14924,96.41731,240,95.43666,240 M,0,14924,14967,95.43666,240,94.91861,240 M,0,14967,15010,94.91861,240,95.13145,240 M,0,15010,15052,95.13145,240,95.88853,240 M,0,15052,15095,95.88853,240,97.08867,240 M,0,15095,15137,97.08867,240,99.03159,240 M,0,15137,15180,99.03159,240,97.08867,240 M,0,15180,15223,97.08867,240,95.88853,240 M,0,15223,15265,95.88853,240,95.13145,240 M,0,15265,15308,95.13145,240,94.91861,240 M,0,15308,15350,94.91861,240,95.43666,240 M,0,15350,15393,95.43666,240,96.41731,240 M,0,15393,15436,96.41731,240,97.93954,240 M,0,15436,15478,97.93954,240,100,240
Sprite,Foreground,Centre,"sb\s\b.png",143,240 C,0,15819,,242,0,6 F,2,15819,16019,1,0 R,0,15819,16019,0 V,2,15819,16019,3,1,1.5,1 P,0,15819,16019,A
Sprite,Foreground,Centre,"sb\s\b.png",0,0 C,0,16501,,217,0,124 M,0,16501,16543,280,240,289.7319,240 F,2,16501,17382,1,0 R,0,16501,17382,0 V,2,16501,17382,3,1,1.5,1 P,0,16501,17382,A M,0,16543,16586,289.7319,240,299.7633,240 M,0,16586,16628,299.7633,240,310.0052,240 M,0,16628,16671,310.0052,240,320.591,240 M,0,16671,16714,320.591,240,331.3712,240 M,0,16714,16756,331.3712,240,342.2862,240 M,0,16756,16799,342.2862,240,353.3801,240 M,0,16799,16841,353.3801,240,364.5568,240 M,0,16841,16884,364.5568,240,375.7776,240 M,0,16884,16927,375.7776,240,387.0169,240 M,0,16927,16969,387.0169,240,398.225,240 M,0,16969,17012,398.225,240,409.3739,240 M,0,17012,17054,409.3739,240,420.3916,240 M,0,17054,17097,420.3916,240,431.3095,240 M,0,17097,17140,431.3095,240,441.9668,240 M,0,17140,17182,441.9668,240,452.403,240
Sprite,Foreground,Centre,"sb\s\b.png",0,0 C,0,17694,,217,0,124 M,0,17694,17736,537,240,530.0352,240 F,2,17694,18405,1,0 R,0,17694,18405,0 V,2,17694,18405,3,1,1.5,1 P,0,17694,18405,A M,0,17736,17779,530.0352,240,523.6178,240 M,0,17779,17821,523.6178,240,517.6561,240 M,0,17821,17864,517.6561,240,512.528,240 M,0,17864,17907,512.528,240,508.0142,240 M,0,17907,17949,508.0142,240,504.0628,240 M,0,17949,17992,504.0628,240,500.9639,240 M,0,17992,18034,500.9639,240,498.3662,240 M,0,18034,18077,498.3662,240,496.7379,240 M,0,18077,18120,496.7379,240,495.7845,240 M,0,18120,18162,495.7845,240,495.4086,240 M,0,18162,18205,495.4086,240,495.9597,240
Sprite,Foreground,Centre,"sb\s\b.png",527,240 C,0,18547,,217,0,124 F,2,18547,18747,1,0 R,0,18547,18747,0 V,2,18547,18747,3,1,1.5,1 P,0,18547,18747,A
Sprite,Foreground,Centre,"sb\s\b.png",472,240 C,0,18888,,217,0,124 F,2,18888,19088,1,0 R,0,18888,19088,0 V,2,18888,19088,3,1,1.5,1 P,0,18888,19088,A
Sprite,Foreground,Centre,"sb\s\b.png",0,0 C,0,19228,,148,0,204 M,0,19228,19270,390,240,378.7794,240 F,2,19228,20109,1,0 R,0,19228,20109,0 V,2,19228,20109,3,1,1.5,1 P,0,19228,20109,A M,0,19270,19313,378.7794,240,367.5587,240 M,0,19313,19355,367.5587,240,356.3381,240 M,0,19355,19398,356.3381,240,345.1175,240 M,0,19398,19441,345.1175,240,333.8969,240 M,0,19441,19483,333.8969,240,322.6762,240 M,0,19483,19526,322.6762,240,311.4556,240 M,0,19526,19568,311.4556,240,300.235,240 M,0,19568,19611,300.235,240,289.0143,240 M,0,19611,19654,289.0143,240,277.7937,240 M,0,19654,19696,277.7937,240,266.5731,240 M,0,19696,19739,266.5731,240,255.3524,240 M,0,19739,19781,255.3524,240,244.1318,240 M,0,19781,19824,244.1318,240,232.9112,240 M,0,19824,19867,232.9112,240,221.6905,240 M,0,19867,19909,221.6905,240,210.4699,240
Sprite,Foreground,Centre,"sb\s\b.png",0,0 C,0,20251,,148,0,204 M,0,20251,20293,164,240,161.9709,240 F,2,20251,21132,1,0 R,0,20251,21132,0 V,2,20251,21132,3,1,1.5,1 P,0,20251,21132,A M,0,20293,20336,161.9709,240,160.5537,240 M,0,20336,20378,160.5537,240,159.5796,240 M,0,20378,20421,159.5796,240,159.522,240 M,0,20421,20464,159.522,240,160.083,240 M,0,20464,20506,160.083,240,161.0999,240 M,0,20506,20549,161.0999,240,163.0154,240 M,0,20549,20591,163.0154,240,165.5371,240 M,0,20591,20634,165.5371,240,163.0154,240 M,0,20634,20677,163.0154,240,161.0999,240 M,0,20677,20719,161.0999,240,160.083,240 M,0,20719,20762,160.083,240,159.522,240 M,0,20762,20804,159.522,240,159.5796,240 M,0,20804,20847,159.5796,240,160.5537,240 M,0,20847,20890,160.5537,240,161.9709,240 M,0,20890,20932,161.9709,240,164,240
Sprite,Foreground,Centre,"sb\s\b.png",0,0 C,0,21274,,148,0,204 M,0,21274,21316,250,240,251.5302,240 F,2,21274,21814,1,0 R,0,21274,21814,0 V,2,21274,21814,3,1,1.5,1 P,0,21274,21814,A M,0,21316,21359,251.5302,240,253.7207,240 M,0,21359,21401,253.7207,240,256.4618,240 M,0,21401,21444,256.4618,240,260.0907,240 M,0,21444,21487,260.0907,240,264.1852,240 M,0,21487,21529,264.1852,240,269.1893,240 M,0,21529,21572,269.1893,240,274.7831,240 M,0,21572,21614,274.7831,240,280.8664,240
Sprite,Foreground,Centre,"sb\s\b.png",364,240 C,0,21956,,242,0,6 F,2,21956,22156,1,0 R,0,21956,22156,0 V,2,21956,22156,3,1,1.5,1 P,0,21956,22156,A
//Storyboard Layer 4 (Overlay)
//Storyboard Sound Samples

[TimingPoints]
138,340.909090909091,4,3,3,85,1,0
138,-100,4,3,4,85,0,0
180,-100,4,3,3,85,0,0
11047,-100,4,3,4,85,0,0
11089,-100,4,3,3,85,0,0
21956,-100,4,3,2,85,0,0
32865,-100,4,3,4,40,0,0
32907,-100,4,3,3,40,0,0
35592,-100,4,3,3,45,0,0
36274,-100,4,3,3,50,0,0
36956,-100,4,3,3,55,0,0
37638,-100,4,3,3,60,0,0
38319,-100,4,3,3,65,0,0
39001,-100,4,3,3,70,0,0
39683,-100,4,3,3,75,0,0
40365,-100,4,3,3,80,0,0
41047,-100,4,3,3,85,0,0
43774,-100,4,3,3,100,0,1
44456,-100,4,3,3,100,0,0
49228,-100,4,3,4,100,0,0
49271,-100,4,3,3,100,0,0
54683,-100,4,3,3,85,0,0
55365,-100,4,3,4,100,0,1
55407,-100,4,3,3,100,0,1
56047,-100,4,3,3,100,0,0
60138,-100,4,3,4,100,0,0
60180,-100,4,3,3,100,0,0
62865,-100,4,3,3,85,0,0
63888,-100,4,3,4,40,0,0
64228,-100,4,3,3,50,0,0
64569,-100,4,3,4,60,0,0
64910,-100,4,3,3,85,0,0
65592,-100,4,3,4,100,0,0
65635,-100,4,3,3,100,0,1
66274,-100,4,3,3,100,0,0
71047,-100,4,3,4,100,0,0
71089,-100,4,3,3,100,0,0
77183,-100,4,3,4,100,0,1
77226,-100,4,3,3,100,0,1
77865,-100,4,3,3,100,0,0
81956,-100,4,3,4,100,0,0
81998,-100,4,3,3,100,0,0
84682,-100,4,3,3,85,0,0
84853,-100,4,3,3,80,0,0
85024,-100,4,3,3,75,0,0
85194,-100,4,3,3,70,0,0
85365,-100,4,3,3,65,0,0
85407,-100,4,3,3,55,0,0
85450,-100,4,3,3,45,0,0
85493,-100,4,3,3,35,0,0
85535,-100,4,3,3,25,0,0
86217,-100,4,3,3,35,0,0
86387,-100,4,3,3,45,0,0
86557,-100,4,3,3,55,0,0
86728,-100,4,3,3,65,0,0
86898,-100,4,3,3,75,0,0
87069,-100,4,3,3,85,0,0
87368,-100,4,3,3,5,0,0
87410,-100,4,3,4,85,0,0
87453,-100,4,3,3,85,0,0
90052,-100,4,3,3,5,0,0
90138,-100,4,3,3,85,0,0
92865,-100,4,3,4,85,0,0
92907,-100,4,3,3,85,0,0
98319,-100,4,3,4,85,0,0
98362,-100,4,3,3,50,0,0
101047,-100,4,3,3,55,0,0
101728,-100,4,3,3,60,0,0
102410,-100,4,3,3,65,0,0
103092,-100,4,3,3,70,0,0
103774,-100,4,3,3,75,0,0
104456,-100,4,3,3,80,0,0
105138,-100,4,3,3,85,0,0
105819,-100,4,3,3,85,0,0
106501,-100,4,3,3,85,0,0
107183,-100,4,3,3,85,0,0
107865,-100,4,3,3,85,0,0
109228,-100,4,3,3,100,0,1
114683,-100,4,3,4,100,0,1
114726,-100,4,3,3,100,0,1
120138,-100,4,3,3,85,0,0
120819,-100,4,3,4,100,0,1
120862,-100,4,3,3,100,0,1
125592,-100,4,3,4,100,0,1
125635,-100,4,3,3,100,0,1
128319,-100,4,3,3,85,0,0
131047,-100,4,3,4,100,0,0
131089,-100,4,3,3,100,0,1
131728,-100,4,3,3,100,0,0
136501,-100,4,3,4,100,0,0
136544,-100,4,3,3,100,0,0
141956,-100,4,3,3,85,0,0
142638,-100,4,3,4,100,0,1
142680,-100,4,3,3,100,0,1
143319,-100,4,3,3,100,0,0
147410,-100,4,3,4,100,0,0
147453,-100,4,3,3,100,0,0
150137,-100,4,3,4,85,0,0
150308,-100,4,3,3,80,0,0
150479,-100,4,3,3,75,0,0
150649,-100,4,3,3,70,0,0
150819,-100,4,3,3,65,0,0
150862,-100,4,3,3,55,0,0
150905,-100,4,3,3,45,0,0
150948,-100,4,3,3,35,0,0
150990,-100,4,3,3,25,0,0
151672,-100,4,3,3,35,0,0
151842,-100,4,3,3,45,0,0
152012,-100,4,3,3,55,0,0
152183,-100,4,3,3,65,0,0
152353,-100,4,3,3,75,0,0
152524,-100,4,3,3,85,0,0
152865,-100,4,3,4,85,0,0

[Colours]
Combo1 : 242,0,6
Combo2 : 217,0,124
Combo3 : 148,0,204

[HitObjects]
256,192,138,5,6,0:1:0:0:
256,192,223,12,0,9683,0:0:0:0:
116,139,11047,6,0,B|197:148|197:148|212:165|212:165|308:174,1,180,6|8,0:1|0:0,0:0:0:0:
329,300,12240,2,0,L|181:309,1,135,4|4,0:0|0:0,0:0:0:0:
104,313,13092,1,8,0:0:0:0:
50,240,13433,1,0,0:0:0:0:
124,189,13774,6,0,P|149:121|57:55,1,180,4|8,0:0|0:0,0:0:0:0:
36,133,14797,2,0,P|31:189|40:243,2,90,0|0|4,0:0|0:0|0:0,0:0:0:0:
79,53,15819,1,8,0:0:0:0:
216,169,16501,6,0,P|278:194|419:166,1,180,4|8,0:0|0:0,0:0:0:0:
473,77,17694,2,0,P|445:122|436:229,1,135,4|4,0:0|0:0,0:0:0:0:
463,286,18547,1,8,0:0:0:0:
408,358,18888,1,0,0:0:0:0:
326,320,19228,6,0,L|105:304,1,180,4|8,0:0|0:0,0:0:0:0:
100,229,20251,2,0,P|96:172|110:114,2,90,0|0|4,0:0|0:0|0:0,0:0:0:0:
186,204,21274,2,0,P|201:148|242:92,1,90,8|0,0:0|0:0,0:0:0:0:
300,87,21956,5,6,0:1:0:0:
63,67,32865,6,0,L|367:97,1,270,14|4,0:1|0:0,0:0:0:0:
399,152,34228,2,0,L|506:141,2,90,4|4|4,0:0|0:0|0:0,0:0:0:0:
329,209,35251,1,4,0:0:0:0:
331,298,35592,6,0,P|287:235|184:240,1,180,4|4,0:0|0:0,0:0:0:0:
121,293,36615,1,4,0:0:0:0:
46,242,36956,1,4,0:0:0:0:
71,155,37297,1,4,0:0:0:0:
160,150,37638,2,0,P|179:104|172:48,1,90,4|4,0:0|0:0,0:0:0:0:
106,9,38319,5,12,0:0:0:0:
256,192,38490,12,0,42410,0:0:0:0:
257,107,43774,6,0,B|240:161|240:161|266:230|266:230|243:318,1,180,6|8,0:1|0:0,0:0:0:0:
87,347,45138,1,4,0:0:0:0:
71,258,45478,2,0,L|124:249,1,45,0|6,0:0|0:0,0:0:0:0:
144,215,45819,2,0,P|151:161|134:99,1,90,10|2,0:0|0:0,0:0:0:0:
71,74,46501,6,0,B|117:66|117:66|198:94|198:94|244:83,1,180,4|8,0:0|0:0,0:0:0:0:
329,52,47524,1,0,0:0:0:0:
408,93,47865,2,0,L|474:100,1,45,4|2,0:0|0:2,0:0:0:0:
497,103,48206,2,0,B|515:176|471:200|486:281,1,180,2|2,0:2|0:2,0:0:0:0:
419,340,49228,6,0,B|334:370|334:370|252:318,1,180,6|8,0:1|0:0,0:0:0:0:
109,219,50592,1,4,0:0:0:0:
31,265,50933,2,0,L|39:336,1,45,0|6,0:0|0:0,0:0:0:0:
45,353,51274,1,10,0:0:0:0:
133,370,51615,1,2,0:0:0:0:
195,305,51956,6,0,P|247:292|329:316,1,135,4|4,0:0|0:0,0:0:0:0:
357,343,52638,2,0,P|354:286|389:194,1,135,8|8,0:0|0:0,0:0:0:0:
412,184,53319,1,8,0:0:0:0:
369,104,53660,1,8,0:0:0:0:
279,115,54001,1,8,0:0:0:0:
279,115,54172,1,4,0:0:0:0:
279,115,54342,2,0,L|211:113,1,45,8|4,0:0|0:0,0:0:0:0:
188,112,54683,5,4,0:0:0:0:
68,243,55365,2,0,B|70:280|96:302|96:302|157:301|211:349,1,180,10|4,0:1|0:0,0:0:0:0:
284,307,56388,1,0,0:0:0:0:
246,225,56728,2,0,L|252:161,1,45,10|6,0:0|0:0,0:0:0:0:
282,148,57069,2,0,L|286:103,1,45,2|2,0:0|0:0,0:0:0:0:
307,62,57410,6,0,P|366:126|345:210,1,180,4|0,0:0|0:0,0:0:0:0:
258,232,58433,1,0,0:0:0:0:
222,314,58774,1,4,0:0:0:0:
296,364,59115,2,0,P|342:346|422:353,2,90,2|8|2,0:2|0:0|0:2,0:0:0:0:
224,308,60138,6,0,B|145:299|145:299|125:306|125:306|37:294,1,180,6|8,0:1|0:0,0:0:0:0:
15,117,61501,1,4,0:0:0:0:
103,100,61842,2,0,L|157:91,1,45,0|6,0:0|0:0,0:0:0:0:
184,117,62183,2,0,L|274:125,1,90,10|2,0:0|0:0,0:0:0:0:
363,134,62865,5,4,0:0:0:0:
363,134,63888,6,0,P|311:141|315:314,1,270,8|8,0:0|0:0,0:0:0:0:
401,321,65251,1,8,0:0:0:0:
483,285,65592,5,6,0:1:0:0:
490,195,65933,2,0,L|497:67,1,90,0|8,0:0|0:0,0:0:0:0:
425,46,66615,1,0,0:0:0:0:
355,103,66956,6,0,P|302:108|243:71,1,90,4|0,0:0|0:0,0:0:0:0:
207,28,67638,2,0,L|152:40,1,45,10|6,0:0|0:0,0:0:0:0:
142,77,67978,2,0,L|93:107,1,45,2|2,0:0|0:0,0:0:0:0:
58,96,68319,6,0,P|67:144|58:203,1,90,4|0,0:0|0:0,0:0:0:0:
31,269,69001,2,0,P|23:311|29:335,1,45,8|0,0:0|0:0,0:0:0:0:
62,334,69342,2,0,P|68:357|87:382,1,45,0|0,0:0|0:0,0:0:0:0:
124,370,69683,6,0,L|246:360,1,90,4|2,0:0|0:2,0:0:0:0:
303,356,70365,2,0,L|425:346,1,90,8|2,0:0|0:2,0:0:0:0:
463,293,71047,5,6,0:1:0:0:
410,220,71388,2,0,P|412:167|437:112,2,90,0|8|0,0:0|0:0|0:0,0:0:0:0:
331,263,72410,6,0,P|303:216|301:164,1,90,4|0,0:0|0:0,0:0:0:0:
240,112,73092,2,0,L|177:118,1,45,10|6,0:0|0:0,0:0:0:0:
160,87,73433,2,0,L|99:73,1,45,2|2,0:0|0:3,0:0:0:0:
72,66,73774,6,0,P|46:108|52:209,1,135,4|4,0:0|0:0,0:0:0:0:
76,223,74456,2,0,P|124:214|209:273,1,135,8|4,0:0|0:0,0:0:0:0:
209,296,75138,6,0,L|333:312,1,90,8|8,0:0|0:0,0:0:0:0:
395,331,75819,1,8,0:0:0:0:
395,331,75990,1,4,0:0:0:0:
395,331,76160,2,0,L|402:275,1,45,8|4,0:0|0:0,0:0:0:0:
408,241,76501,5,2,0:2:0:0:
365,63,77183,2,0,P|305:90|284:152,1,135,10|0,0:1|0:0,0:0:0:0:
298,195,77865,6,0,P|311:250|313:313,1,90,4|0,0:0|0:0,0:0:0:0:
241,337,78547,2,0,L|176:327,1,45,10|6,0:0|0:0,0:0:0:0:
164,298,78888,2,0,L|108:304,1,45,2|2,0:0|0:0,0:0:0:0:
74,309,79228,5,4,0:0:0:0:
34,228,79569,2,0,L|45:131,1,90,0|8,0:0|0:0,0:0:0:0:
124,97,80251,2,0,L|122:45,1,45,0|0,0:0|0:0,0:0:0:0:
124,6,80592,5,4,0:0:0:0:
213,19,80933,1,2,0:2:0:0:
266,91,81274,1,8,0:0:0:0:
354,77,81615,1,2,0:2:0:0:
437,109,81956,6,0,P|428:158|438:220,1,90,6|0,0:1|0:0,0:0:0:0:
456,284,82638,1,8,0:0:0:0:
404,357,82978,1,0,0:0:0:0:
326,310,83319,6,0,L|211:326,1,90,4|0,0:0|0:0,0:0:0:0:
147,333,84001,2,0,P|135:299|139:258,1,45,10|6,0:0|0:0,0:0:0:0:
98,262,84342,2,0,P|108:214|119:197,1,45,2|2,0:0|0:0,0:0:0:0:
125,177,84683,5,0,0:0:0:0:
256,192,84853,12,6,87410,0:1:0:0:
96,54,98319,5,6,0:1:0:0:
78,233,99001,1,4,0:0:0:0:
205,359,99683,1,4,0:0:0:0:
197,179,100365,1,4,0:0:0:0:
305,35,101047,6,0,L|295:233,1,180,4|4,0:0|0:0,0:0:0:0:
438,324,102410,2,0,L|418:113,1,180,4|4,0:0|0:0,0:0:0:0:
256,218,103774,5,12,0:0:0:0:
256,218,105138,1,12,0:0:0:0:
256,218,106501,5,12,0:0:0:0:
69,200,107183,1,12,0:0:0:0:
98,22,107865,1,4,0:0:0:0:
98,22,109228,6,0,P|78:75|73:141,1,90,6|8,0:1|0:0,0:0:0:0:
152,150,109910,2,0,P|153:200|168:255,1,90,0|8,0:0|0:0,0:0:0:0:
223,305,110592,5,4,0:0:0:0:
312,298,110933,1,8,0:0:0:0:
400,290,111274,2,0,P|407:245|406:219,1,45,2|6,0:0|0:0,0:0:0:0:
439,214,111615,2,0,P|435:191|425:160,1,45,10|2,0:0|0:0,0:0:0:0:
411,128,111956,6,0,L|241:141,1,135,4|0,0:0|0:0,0:0:0:0:
247,103,112638,2,0,L|144:95,2,90,0|8|4,0:0|0:0|0:0,0:0:0:0:
319,50,113660,5,8,0:0:0:0:
408,36,114001,1,2,0:2:0:0:
487,78,114342,1,8,0:0:0:0:
498,167,114683,6,0,P|471:217|460:277,1,90,6|8,0:1|0:0,0:0:0:0:
412,323,115365,2,0,P|379:288|380:217,1,90,0|8,0:0|0:0,0:0:0:0:
306,185,116047,6,0,L|199:199,1,90,4|8,0:0|0:0,0:0:0:0:
127,208,116728,1,2,0:0:0:0:
70,138,117069,2,0,L|83:85,1,45,10|6,0:0|0:0,0:0:0:0:
95,51,117410,6,0,P|152:58|221:131,1,135,4|4,0:0|0:0,0:0:0:0:
252,92,118092,2,0,P|264:144|251:265,1,135,8|8,0:0|0:0,0:0:0:0:
248,268,118774,5,8,0:0:0:0:
332,305,119115,1,8,0:0:0:0:
422,276,119456,1,8,0:0:0:0:
422,276,119626,1,4,0:0:0:0:
422,276,119797,2,0,L|428:222,1,45,8|4,0:0|0:0,0:0:0:0:
434,186,120138,5,0,0:0:0:0:
256,193,120819,2,0,P|253:148|266:105,1,90,2|8,0:1|0:0,0:0:0:0:
230,23,121501,6,0,L|128:31,1,90,4|8,0:0|0:0,0:0:0:0:
67,82,122183,2,0,L|63:133,1,45,2|6,0:0|0:0,0:0:0:0:
41,166,122524,2,0,L|47:233,1,45,10|2,0:0|0:0,0:0:0:0:
88,221,122865,6,0,B|136:231|136:231|145:368,1,180,4|0,0:0|0:0,0:0:0:0:
234,372,123888,2,0,L|239:323,1,45,8|0,0:0|0:0,0:0:0:0:
246,283,124228,5,4,0:0:0:0:
335,294,124569,1,8,0:0:0:0:
397,359,124910,1,2,0:2:0:0:
486,348,125251,1,8,0:0:0:0:
512,262,125592,6,0,P|514:196|502:155,1,90,6|8,0:1|0:0,0:0:0:0:
422,199,126274,2,0,P|394:158|346:129,1,90,0|8,0:0|0:0,0:0:0:0:
293,194,126956,6,0,L|186:207,1,90,4|8,0:0|0:0,0:0:0:0:
150,131,127638,1,2,0:0:0:0:
177,45,127978,1,10,0:0:0:0:
266,49,128319,5,0,0:0:0:0:
266,49,129683,6,0,P|285:121|219:316,1,270,8|2,0:0|0:2,0:0:0:0:
300,359,131047,6,0,L|413:346,1,90,6|0,0:1|0:0,0:0:0:0:
478,339,131728,1,8,0:0:0:0:
499,251,132069,1,0,0:0:0:0:
432,190,132410,6,0,P|420:139|426:83,1,90,4|0,0:0|0:0,0:0:0:0:
360,35,133092,2,0,L|288:49,1,45,6|10,0:0|0:0,0:0:0:0:
294,83,133433,2,0,L|251:111,1,45,10|6,0:0|0:0,0:0:0:0:
215,127,133774,6,0,P|185:76|188:17,1,90,4|0,0:0|0:0,0:0:0:0:
94,23,134456,1,8,0:0:0:0:
14,65,134797,1,0,0:0:0:0:
0,153,135138,6,0,P|52:194|32:335,1,180,4|8,0:0|0:0,0:0:0:0:
126,360,136160,1,2,0:2:0:0:
207,321,136501,6,0,L|304:310,1,90,2|4,0:1|0:0,0:0:0:0:
385,298,137183,1,8,0:0:0:0:
428,219,137524,1,0,0:0:0:0:
370,149,137865,6,0,P|365:97|381:37,1,90,4|0,0:0|0:0,0:0:0:0:
297,8,138547,2,0,P|279:35|267:71,1,45,6|10,0:0|0:0,0:0:0:0:
233,66,138888,2,0,P|234:89|249:125,1,45,10|6,0:0|0:0,0:0:0:0:
216,148,139228,6,0,P|202:199|116:231,1,135,4|4,0:0|0:0,0:0:0:0:
90,217,139910,2,0,P|107:273|69:355,1,135,8|4,0:0|0:0,0:0:0:0:
111,376,140592,6,0,L|235:364,1,90,8|8,0:0|0:0,0:0:0:0:
258,298,141274,1,8,0:0:0:0:
258,298,141444,1,4,0:0:0:0:
258,298,141615,2,0,L|319:299,1,45,8|4,0:0|0:0,0:0:0:0:
348,300,141956,5,2,0:2:0:0:
484,182,142638,2,0,B|456:147|456:147|446:57,1,135,10|0,0:1|0:0,0:0:0:0:
438,13,143319,6,0,P|385:15|338:39,1,90,4|0,0:0|0:0,0:0:0:0:
286,91,144001,2,0,L|293:158,1,45,10|2,0:0|0:0,0:0:0:0:
264,172,144342,2,0,L|258:223,1,45,2|2,0:0|0:0,0:0:0:0:
223,245,144683,5,4,0:0:0:0:
138,212,145024,2,0,P|92:224|46:267,1,90,0|8,0:0|0:0,0:0:0:0:
101,328,145706,2,0,P|150:326|171:332,1,45,0|0,0:0|0:0,0:0:0:0:
186,344,146047,5,4,0:0:0:0:
275,331,146388,1,2,0:2:0:0:
319,252,146728,1,8,0:0:0:0:
408,262,147069,1,2,0:2:0:0:
481,210,147410,6,0,L|472:91,1,90,6|4,0:1|0:0,0:0:0:0:
466,30,148092,1,8,0:0:0:0:
378,9,148433,1,0,0:0:0:0:
326,83,148774,6,0,P|273:96|210:80,1,90,4|0,0:0|0:0,0:0:0:0:
158,49,149456,2,0,P|131:44|93:45,1,45,10|2,0:0|0:0,0:0:0:0:
86,79,149797,2,0,P|62:86|41:101,1,45,2|2,0:0|0:0,0:0:0:0:
12,128,150138,5,6,0:1:0:0:
256,192,150308,12,2,152865,0:1:0:0:
