osu file format v14

[General]
AudioFilename: audio.mp3
AudioLeadIn: 0
PreviewTime: 106538
Countdown: 0
SampleSet: Drum
StackLeniency: 0.4
Mode: 0
LetterboxInBreaks: 0
EpilepsyWarning: 1
WidescreenStoryboard: 1

[Editor]
Bookmarks: 11084,21993,32902,43811,65629,87447,98356,109265,131089,152902,174719
DistanceSpacing: 1.3
BeatDivisor: 2
GridSize: 32
TimelineZoom: 3.200001

[Metadata]
Title:Killin' It (Sped Up Ver.)
TitleUnicode:Killin' It (Sped Up Ver.)
Artist:Krewella
ArtistUnicode:Krewella
Creator:h3ct1c
Version:Daycore's Hard
Source:
Tags:Hectic Daycore Shmiklak piroshki AYE1337 PantyDev h4d0uk3n1 get wet play hard ep monstercat drumstep dubstep edm electronic english Reisen Udongein Inaba touhou pink anime girl killing speed marvollo m_a_r_v_o_l_l_o
BeatmapID:2190125
BeatmapSetID:1029940

[Difficulty]
HPDrainRate:4.5
CircleSize:4.5
OverallDifficulty:6.5
ApproachRate:7.5
SliderMultiplier:1.4
SliderTickRate:0.5

[Events]
//Background and Video events
0,0,"killin_it.jpg",0,0
//Break Periods
2,22156,32040
//Storyboard Layer 0 (Background)
//Storyboard Layer 1 (Fail)
//Storyboard Layer 2 (Pass)
//Storyboard Layer 3 (Foreground)
Sprite,Foreground,Centre,"sb/s/b.png",320,265 V,2,69683,69883,3,1.8,1,1.8 F,2,69683,69883,1,0 P,0,69683,69883,A R,0,69683,69883,1.57 C,0,69683,,242,0,6
Sprite,Foreground,Centre,"sb/s/b.png",0,0 V,2,69853,70393,3,1.8,1,1.8 F,2,69853,70393,1,0 P,0,69853,70393,A R,0,69853,70393,1.57 C,0,69853,,242,0,6 M,0,69853,69895,320,260,320,248.2155 M,0,69895,69938,320,248.2155,320,241.2752 M,0,69938,69980,320,241.2752,320,239.9252 M,0,69980,70023,320,239.9252,320,244.2974 M,0,70023,70066,320,244.2974,320,239.9252 M,0,70066,70108,320,239.9252,320,241.2752 M,0,70108,70151,320,241.2752,320,248.2155 M,0,70151,70193,320,248.2155,320,260
Sprite,Foreground,Centre,"sb/s/b.png",0,0 V,2,70365,70905,3,1.8,1,1.8 F,2,70365,70905,1,0 P,0,70365,70905,A R,0,70365,70905,1.57 C,0,70365,,242,0,6 M,0,70365,70407,320,360,320,371.7845 M,0,70407,70450,320,371.7845,320,378.7248 M,0,70450,70492,320,378.7248,320,380.0748 M,0,70492,70535,320,380.0748,320,375.7026 M,0,70535,70578,320,375.7026,320,380.0748 M,0,70578,70620,320,380.0748,320,378.7248 M,0,70620,70663,320,378.7248,320,371.7845 M,0,70663,70705,320,371.7845,320,360
Sprite,Foreground,Centre,"sb/s/b.png",320,303 V,2,70876,71076,3,1.8,1,1.8 F,2,70876,71076,1,0 P,0,70876,71076,A R,0,70876,71076,1.57 C,0,70876,,242,0,6
Sprite,Foreground,Centre,"sb/s/b.png",0,0 V,2,71047,71587,3,1.8,1,1.8 F,2,71047,71587,1,0 P,0,71047,71587,A R,0,71047,71587,1.57 C,0,71047,,217,0,124 M,0,71047,71089,320,380,320,363.2408 M,0,71089,71132,320,363.2408,320,347.1712 M,0,71132,71174,320,347.1712,320,332.3868 M,0,71174,71217,320,332.3868,320,319.3691 M,0,71217,71260,320,319.3691,320,307.2872 M,0,71260,71302,320,307.2872,320,294.0305 M,0,71302,71345,320,294.0305,320,278.72 M,0,71345,71387,320,278.72,320,262.1119
Sprite,Foreground,Centre,"sb/s/b.png",320,192 V,2,80592,80792,3,1.8,1,1.8 F,2,80592,80792,1,0 P,0,80592,80792,A R,0,80592,80792,1.57 C,0,80592,,148,0,204
Sprite,Foreground,Centre,"sb/s/b.png",0,0 V,2,80763,81303,3,1.8,1,1.8 F,2,80763,81303,1,0 P,0,80763,81303,A R,0,80763,81303,1.57 C,0,80763,,148,0,204 M,0,80763,80805,320,273,320,280.6348 M,0,80805,80848,320,280.6348,320,288.2696 M,0,80848,80890,320,288.2696,320,286.169 M,0,80890,80933,320,286.169,320,283.0385 M,0,80933,80976,320,283.0385,320,286.169 M,0,80976,81018,320,286.169,320,288.2696 M,0,81018,81061,320,288.2696,320,280.6348 M,0,81061,81103,320,280.6348,320,273
Sprite,Foreground,Centre,"sb/s/b.png",0,0 V,2,81274,81814,3,1.8,1,1.8 F,2,81274,81814,1,0 P,0,81274,81814,A R,0,81274,81814,1.57 C,0,81274,,148,0,204 M,0,81274,81316,320,365,320,372.6348 M,0,81316,81359,320,372.6348,320,380.2696 M,0,81359,81401,320,380.2696,320,378.169 M,0,81401,81444,320,378.169,320,375.0385 M,0,81444,81487,320,375.0385,320,378.169 M,0,81487,81529,320,378.169,320,380.2696 M,0,81529,81572,320,380.2696,320,372.6348 M,0,81572,81614,320,372.6348,320,365
Sprite,Foreground,Centre,"sb/s/b.png",320,437 V,2,81785,81985,3,1.8,1,1.8 F,2,81785,81985,1,0 P,0,81785,81985,A R,0,81785,81985,1.57 C,0,81785,,148,0,204
Sprite,Foreground,Centre,"sb/s/b.png",0,0 V,2,81956,82496,3,1.8,1,1.8 F,2,81956,82496,1,0 P,0,81956,82496,A R,0,81956,82496,1.57 C,0,81956,,242,0,6 M,0,81956,81998,320,378,320,371.9985 M,0,81998,82041,320,371.9985,320,365.9971 M,0,82041,82083,320,365.9971,320,359.9957 M,0,82083,82126,320,359.9957,320,357.893 M,0,82126,82169,320,357.893,320,364.5399 M,0,82169,82211,320,364.5399,320,368.8568 M,0,82211,82254,320,368.8568,320,373.1736 M,0,82254,82296,320,373.1736,320,370.3153
Sprite,Foreground,Centre,"sb/s/b.png",0,0 V,2,109228,109939,4,1.8,2,1.8 F,2,109228,109939,1,0 P,0,109228,109939,A R,0,109228,109939,1.57 C,0,109228,,242,0,6 M,0,109228,109270,320,189,320,172.847 M,0,109270,109313,320,172.847,320,155.5611 M,0,109313,109355,320,155.5611,320,140.4242 M,0,109355,109398,320,140.4242,320,130.1892 M,0,109398,109441,320,130.1892,320,126.7868 M,0,109441,109483,320,126.7868,320,130.5593 M,0,109483,109526,320,130.5593,320,140.5962 M,0,109526,109568,320,140.5962,320,155.2461 M,0,109568,109611,320,155.2461,320,171.9208 M,0,109611,109654,320,171.9208,320,183.9985 M,0,109654,109696,320,183.9985,320,190.4646 M,0,109696,109739,320,190.4646,320,191.9184
Sprite,Foreground,Centre,"sb/s/b.png",0,0 V,2,109910,110280,4,1.8,2,1.8 F,2,109910,110280,1,0 P,0,109910,110280,A R,0,109910,110280,1.57 C,0,109910,,242,0,6 M,0,109910,109952,320,159,320,154.2395 M,0,109952,109995,320,154.2395,320,151.6051 M,0,109995,110037,320,151.6051,320,151.1366 M,0,110037,110080,320,151.1366,320,152.8408
Sprite,Foreground,Centre,"sb/s/b.png",320,203 V,2,110251,110451,4,1.8,2,1.8 F,2,110251,110451,1,0 P,0,110251,110451,A R,0,110251,110451,1.57 C,0,110251,,242,0,6
Sprite,Foreground,Centre,"sb/s/b.png",320,203 V,2,110422,110622,4,1.8,2,1.8 F,2,110422,110622,1,0 P,0,110422,110622,A R,0,110422,110622,1.57 C,0,110422,,242,0,6
Sprite,Foreground,Centre,"sb/s/b.png",0,0 V,2,110592,110962,4,1.8,2,1.8 F,2,110592,110962,1,0 P,0,110592,110962,A R,0,110592,110962,1.57 C,0,110592,,217,0,124 M,0,110592,110634,320,289,320,291.5894 M,0,110634,110677,320,291.5894,320,291.5369 M,0,110677,110719,320,291.5369,320,288.8458 M,0,110719,110762,320,288.8458,320,283.5795
Sprite,Foreground,Centre,"sb/s/b.png",0,0 V,2,110933,111303,4,1.8,2,1.8 F,2,110933,111303,1,0 P,0,110933,111303,A R,0,110933,111303,1.57 C,0,110933,,217,0,124 M,0,110933,110975,320,333,320,330.4106 M,0,110975,111018,320,330.4106,320,330.4631 M,0,111018,111060,320,330.4631,320,333.1542 M,0,111060,111103,320,333.1542,320,338.4204
Sprite,Foreground,Centre,"sb/s/b.png",320,340 V,2,111274,111474,4,1.8,2,1.8 F,2,111274,111474,1,0 P,0,111274,111474,A R,0,111274,111474,1.57 C,0,111274,,217,0,124
Sprite,Foreground,Centre,"sb/s/b.png",0,0 V,2,111444,111814,4,1.8,2,1.8 F,2,111444,111814,1,0 P,0,111444,111814,A R,0,111444,111814,1.57 C,0,111444,,217,0,124 M,0,111444,111486,320,340,320,326.2383 M,0,111486,111529,320,326.2383,320,311.0359 M,0,111529,111571,320,311.0359,320,294.7294 M,0,111571,111614,320,294.7294,320,277.68
Sprite,Foreground,Centre,"sb/s/b.png",320,203 V,2,111785,111985,4,1.8,2,1.8 F,2,111785,111985,1,0 P,0,111785,111985,A R,0,111785,111985,1.57 C,0,111785,,217,0,124
Sprite,Foreground,Centre,"sb/s/b.png",0,0 V,2,111956,112667,4,1.8,2,1.8 F,2,111956,112667,1,0 P,0,111956,112667,A R,0,111956,112667,1.57 C,0,111956,,148,0,204 M,0,111956,111998,320,145,320,135.7547 M,0,111998,112041,320,135.7547,320,126.5094 M,0,112041,112083,320,126.5094,320,117.2642 M,0,112083,112126,320,117.2642,320,108.0189 M,0,112126,112169,320,108.0189,320,98.77359 M,0,112169,112211,320,98.77359,320,89.52831 M,0,112211,112254,320,89.52831,320,81.80402 M,0,112254,112296,320,81.80402,320,77.13278 M,0,112296,112339,320,77.13278,320,76.50124 M,0,112339,112382,320,76.50124,320,80.77252 M,0,112382,112424,320,80.77252,320,90.1386 M,0,112424,112467,320,90.1386,320,103.8585
Sprite,Foreground,Centre,"sb/s/b.png",0,0 V,2,112638,113008,4,1.8,2,1.8 F,2,112638,113008,1,0 P,0,112638,113008,A R,0,112638,113008,1.57 C,0,112638,,148,0,204 M,0,112638,112680,320,150,320,164.3604 M,0,112680,112723,320,164.3604,320,176.2049 M,0,112723,112765,320,176.2049,320,184.9711 M,0,112765,112808,320,184.9711,320,190.244
Sprite,Foreground,Centre,"sb/s/b.png",0,0 V,2,112978,113348,4,1.8,2,1.8 F,2,112978,113348,1,0 P,0,112978,113348,A R,0,112978,113348,1.57 C,0,112978,,148,0,204 M,0,112978,113020,320,263,320,248.6396 M,0,113020,113063,320,248.6396,320,236.7951 M,0,113063,113105,320,236.7951,320,228.0289 M,0,113105,113148,320,228.0289,320,222.756
Sprite,Foreground,Centre,"sb/s/b.png",320,246 V,2,113319,113519,4,1.8,2,1.8 F,2,113319,113519,1,0 P,0,113319,113519,A R,0,113319,113519,1.57 C,0,113319,,242,0,6
Sprite,Foreground,Centre,"sb/s/b.png",0,0 V,2,113490,114030,4,1.8,2,1.8 F,2,113490,114030,1,0 P,0,113490,114030,A R,0,113490,114030,1.57 C,0,113490,,242,0,6 M,0,113490,113532,320,318,320,334.2716 M,0,113532,113575,320,334.2716,320,350.5432 M,0,113575,113617,320,350.5432,320,366 M,0,113617,113660,320,366,320,380.77 M,0,113660,113703,320,380.77,320,366 M,0,113703,113745,320,366,320,350.5432 M,0,113745,113788,320,350.5432,320,334.2716 M,0,113788,113830,320,334.2716,320,318
Sprite,Foreground,Centre,"sb/s/b.png",0,0 V,2,114001,114541,4,1.8,2,1.8 F,2,114001,114541,1,0 P,0,114001,114541,A R,0,114001,114541,1.57 C,0,114001,,242,0,6 M,0,114001,114043,320,440,320,425 M,0,114043,114086,320,425,320,409.9477 M,0,114086,114128,320,409.9477,320,393.6761 M,0,114128,114171,320,393.6761,320,377.4045 M,0,114171,114214,320,377.4045,320,393.6761 M,0,114214,114256,320,393.6761,320,409.9477 M,0,114256,114299,320,409.9477,320,425 M,0,114299,114341,320,425,320,440
Sprite,Foreground,Centre,"sb/s/b.png",320,291 V,2,114513,114713,4,1.8,2,1.8 F,2,114513,114713,1,0 P,0,114513,114713,A R,0,114513,114713,1.57 C,0,114513,,242,0,6
Sprite,Foreground,Centre,"sb/s/b.png",0,0 V,2,114683,115394,4,1.8,2,1.8 F,2,114683,115394,1,0 P,0,114683,115394,A R,0,114683,115394,1.57 C,0,114683,,217,0,124 M,0,114683,114725,320,214,320,211.5484 M,0,114725,114768,320,211.5484,320,206.8109 M,0,114768,114810,320,206.8109,320,199.1105 M,0,114810,114853,320,199.1105,320,188.3368 M,0,114853,114896,320,188.3368,320,175.452 M,0,114896,114938,320,175.452,320,162.0105 M,0,114938,114981,320,162.0105,320,149.6604 M,0,114981,115023,320,149.6604,320,139.9609 M,0,115023,115066,320,139.9609,320,133.5777 M,0,115066,115109,320,133.5777,320,130.0821 M,0,115109,115151,320,130.0821,320,128.6903 M,0,115151,115194,320,128.6903,320,128.806
Sprite,Foreground,Centre,"sb/s/b.png",320,92 V,2,115365,115565,4,1.8,2,1.8 F,2,115365,115565,1,0 P,0,115365,115565,A R,0,115365,115565,1.57 C,0,115365,,217,0,124
Sprite,Foreground,Centre,"sb/s/b.png",0,0 V,2,115535,115905,4,1.8,2,1.8 F,2,115535,115905,1,0 P,0,115535,115905,A R,0,115535,115905,1.57 C,0,115535,,217,0,124 M,0,115535,115577,320,92,320,98.21382 M,0,115577,115620,320,98.21382,320,101.9378 M,0,115620,115662,320,101.9378,320,103.0905 M,0,115662,115705,320,103.0905,320,101.6473
Sprite,Foreground,Centre,"sb/s/b.png",320,69 V,2,115876,116076,4,1.8,2,1.8 F,2,115876,116076,1,0 P,0,115876,116076,A R,0,115876,116076,1.57 C,0,115876,,217,0,124
Sprite,Foreground,Centre,"sb/s/b.png",0,0 V,2,116047,116587,4,1.8,2,1.8 F,2,116047,116587,1,0 P,0,116047,116587,A R,0,116047,116587,1.57 C,0,116047,,148,0,204 M,0,116047,116089,320,152,320,164.0662 M,0,116089,116132,320,164.0662,320,178.2027 M,0,116132,116174,320,178.2027,320,193.9449 M,0,116174,116217,320,193.9449,320,210.7763 M,0,116217,116260,320,210.7763,320,228.1452 M,0,116260,116302,320,228.1452,320,245.4831 M,0,116302,116345,320,245.4831,320,262.2227 M,0,116345,116387,320,262.2227,320,277.8162
Sprite,Foreground,Centre,"sb/s/b.png",320,352 V,2,116558,116758,4,1.8,2,1.8 F,2,116558,116758,1,0 P,0,116558,116758,A R,0,116558,116758,1.57 C,0,116558,,148,0,204
Sprite,Foreground,Centre,"sb/s/b.png",0,0 V,2,116728,117098,4,1.8,2,1.8 F,2,116728,117098,1,0 P,0,116728,117098,A R,0,116728,117098,1.57 C,0,116728,,148,0,204 M,0,116728,116770,320,371,320,369.4358 M,0,116770,116813,320,369.4358,320,367.8716 M,0,116813,116855,320,367.8716,320,366.3073 M,0,116855,116898,320,366.3073,320,364.7431
Sprite,Foreground,Centre,"sb/s/b.png",0,0 V,2,117069,117439,4,1.8,2,1.8 F,2,117069,117439,1,0 P,0,117069,117439,A R,0,117069,117439,1.57 C,0,117069,,148,0,204 M,0,117069,117111,320,302,320,303.5642 M,0,117111,117154,320,303.5642,320,305.1284 M,0,117154,117196,320,305.1284,320,306.6927 M,0,117196,117239,320,306.6927,320,308.2569
Sprite,Foreground,Centre,"sb/s/b.png",320,341 V,2,117410,117610,4,1.8,2,1.8 F,2,117410,117610,1,0 P,0,117410,117610,A R,0,117410,117610,1.57 C,0,117410,,242,0,6
Sprite,Foreground,Centre,"sb/s/b.png",320,249 V,2,117581,117781,4,1.8,2,1.8 F,2,117581,117781,1,0 P,0,117581,117781,A R,0,117581,117781,1.57 C,0,117581,,242,0,6
Sprite,Foreground,Centre,"sb/s/b.png",0,0 V,2,117751,118121,4,1.8,2,1.8 F,2,117751,118121,1,0 P,0,117751,118121,A R,0,117751,118121,1.57 C,0,117751,,242,0,6 M,0,117751,117793,320,249,320,231.8279 M,0,117793,117836,320,231.8279,320,214.4639 M,0,117836,117878,320,214.4639,320,196.9947 M,0,117878,117921,320,196.9947,320,179.5074
Sprite,Foreground,Centre,"sb/s/b.png",0,0 V,2,118092,118462,4,1.8,2,1.8 F,2,118092,118462,1,0 P,0,118092,118462,A R,0,118092,118462,1.57 C,0,118092,,242,0,6 M,0,118092,118134,320,138,320,149.1475 M,0,118134,118177,320,149.1475,320,159.4108 M,0,118177,118219,320,159.4108,320,168.7482 M,0,118219,118262,320,168.7482,320,177.1218
Sprite,Foreground,Centre,"sb/s/b.png",0,0 V,2,118433,118888,4,1.8,2,1.8 F,2,118433,118888,1,0 P,0,118433,118888,A R,0,118433,118888,1.57 C,0,118433,,242,0,6 M,0,118433,118475,320,175,320,172.2707 M,0,118475,118518,320,172.2707,320,169.5413 M,0,118518,118560,320,169.5413,320,172.2707 M,0,118560,118603,320,172.2707,320,175 M,0,118603,118646,320,175,320,172.2707 M,0,118646,118688,320,172.2707,320,169.5413
Sprite,Foreground,Centre,"sb/s/b.png",0,0 V,2,118774,119144,4,1.8,2,1.8 F,2,118774,119144,1,0 P,0,118774,119144,A R,0,118774,119144,1.57 C,0,118774,,217,0,124 M,0,118774,118816,320,157,320,174.4089 M,0,118816,118859,320,174.4089,320,191.8785 M,0,118859,118901,320,191.8785,320,209.3734 M,0,118901,118944,320,209.3734,320,226.8582
Sprite,Foreground,Centre,"sb/s/b.png",0,0 V,2,119115,119485,4,1.8,2,1.8 F,2,119115,119485,1,0 P,0,119115,119485,A R,0,119115,119485,1.57 C,0,119115,,217,0,124 M,0,119115,119157,320,276,320,293.3947 M,0,119157,119200,320,293.3947,320,310.8566 M,0,119200,119242,320,310.8566,320,328.3512 M,0,119242,119285,320,328.3512,320,345
Sprite,Foreground,Centre,"sb/s/b.png",320,379 V,2,119370,119570,4,1.8,2,1.8 F,2,119370,119570,1,0 P,0,119370,119570,A R,0,119370,119570,1.57 C,0,119370,,217,0,124
Sprite,Foreground,Centre,"sb/s/b.png",320,379 V,2,119456,119656,4,1.8,2,1.8 F,2,119456,119656,1,0 P,0,119456,119656,A R,0,119456,119656,1.57 C,0,119456,,217,0,124
Sprite,Foreground,Centre,"sb/s/b.png",320,350 V,2,119626,119826,4,1.8,2,1.8 F,2,119626,119826,1,0 P,0,119626,119826,A R,0,119626,119826,1.57 C,0,119626,,217,0,124
Sprite,Foreground,Centre,"sb/s/b.png",0,0 V,2,119797,120167,4,1.8,2,1.8 F,2,119797,120167,1,0 P,0,119797,120167,A R,0,119797,120167,1.57 C,0,119797,,217,0,124 M,0,119797,119839,320,388,320,394.0038 M,0,119839,119882,320,394.0038,320,396.6792 M,0,119882,119924,320,396.6792,320,395.9241 M,0,119924,119967,320,395.9241,320,391.7693
Sprite,Foreground,Centre,"sb/s/b.png",0,0 V,2,120138,120849,4,1.8,2,1.8 F,2,120138,120849,1,0 P,0,120138,120849,A R,0,120138,120849,1.57 C,0,120138,,148,0,204 M,0,120138,120180,320,439,320,423.1812 M,0,120180,120223,320,423.1812,320,406.2512 M,0,120223,120265,320,406.2512,320,388.803 M,0,120265,120308,320,388.803,320,371.4728 M,0,120308,120351,320,371.4728,320,354.7004 M,0,120351,120393,320,354.7004,320,338.7885 M,0,120393,120436,320,338.7885,320,322.6172 M,0,120436,120478,320,322.6172,320,305.5165 M,0,120478,120521,320,305.5165,320,288.0604 M,0,120521,120564,320,288.0604,320,271.1638 M,0,120564,120606,320,271.1638,320,255.5967 M,0,120606,120649,320,255.5967,320,241.642
Sprite,Foreground,Centre,"sb/s/b.png",0,0 V,2,120819,121189,4,1.8,2,1.8 F,2,120819,121189,1,0 P,0,120819,121189,A R,0,120819,121189,1.57 C,0,120819,,148,0,204 M,0,120819,120861,320,154,320,152.6912 M,0,120861,120904,320,152.6912,320,151.3824 M,0,120904,120946,320,151.3824,320,150.0735 M,0,120946,120989,320,150.0735,320,148.7647
Sprite,Foreground,Centre,"sb/s/b.png",0,0 V,2,121160,121615,4,1.8,2,1.8 F,2,121160,121615,1,0 P,0,121160,121615,A R,0,121160,121615,1.57 C,0,121160,,148,0,204 M,0,121160,121202,320,109,320,112.0763 M,0,121202,121245,320,112.0763,320,115.1527 M,0,121245,121287,320,115.1527,320,118.229 M,0,121287,121330,320,118.229,320,121.3053 M,0,121330,121373,320,121.3053,320,124.3817 M,0,121373,121415,320,124.3817,320,127.458
Sprite,Foreground,Centre,"sb/s/b.png",0,0 V,2,121501,122041,4,1.8,2,1.8 F,2,121501,122041,1,0 P,0,121501,122041,A R,0,121501,122041,1.57 C,0,121501,,242,0,6 M,0,121501,121543,320,114,320,128.5055 M,0,121543,121586,320,128.5055,320,144.1471 M,0,121586,121628,320,144.1471,320,160.6611 M,0,121628,121671,320,160.6611,320,177.7693 M,0,121671,121714,320,177.7693,320,195.1839 M,0,121714,121756,320,195.1839,320,212.6119 M,0,121756,121799,320,212.6119,320,229.8063 M,0,121799,121841,320,229.8063,320,246.3789
Sprite,Foreground,Centre,"sb/s/b.png",320,329 V,2,122013,122213,4,1.8,2,1.8 F,2,122013,122213,1,0 P,0,122013,122213,A R,0,122013,122213,1.57 C,0,122013,,242,0,6
Sprite,Foreground,Centre,"sb/s/b.png",0,0 V,2,122183,122553,4,1.8,2,1.8 F,2,122183,122553,1,0 P,0,122183,122553,A R,0,122183,122553,1.57 C,0,122183,,242,0,6 M,0,122183,122225,320,387,320,385.3143 M,0,122225,122268,320,385.3143,320,381.2188 M,0,122268,122310,320,381.2188,320,375.0799 M,0,122310,122353,320,375.0799,320,378.2332
Sprite,Foreground,Centre,"sb/s/b.png",0,0 V,2,122524,122894,4,1.8,2,1.8 F,2,122524,122894,1,0 P,0,122524,122894,A R,0,122524,122894,1.57 C,0,122524,,242,0,6 M,0,122524,122566,320,375,320,359.0083 M,0,122566,122609,320,359.0083,320,347.0523 M,0,122609,122651,320,347.0523,320,339.3946 M,0,122651,122694,320,339.3946,320,322.9777
Sprite,Foreground,Centre,"sb/s/b.png",0,0 V,2,122865,123576,4,1.8,2,1.8 F,2,122865,123576,1,0 P,0,122865,123576,A R,0,122865,123576,1.57 C,0,122865,,217,0,124 M,0,122865,122907,320,267,320,276.6764 M,0,122907,122950,320,276.6764,320,282.2267 M,0,122950,122992,320,282.2267,320,283.2814 M,0,122992,123035,320,283.2814,320,279.7782 M,0,123035,123078,320,279.7782,320,271.9657 M,0,123078,123120,320,271.9657,320,260.6564 M,0,123120,123163,320,260.6564,320,245.9578 M,0,123163,123205,320,245.9578,320,229.365 M,0,123205,123248,320,229.365,320,212.0262 M,0,123248,123291,320,212.0262,320,195.1381 M,0,123291,123333,320,195.1381,320,179.865 M,0,123333,123376,320,179.865,320,167.0205
Sprite,Foreground,Centre,"sb/s/b.png",0,0 V,2,123547,123917,4,1.8,2,1.8 F,2,123547,123917,1,0 P,0,123547,123917,A R,0,123547,123917,1.57 C,0,123547,,217,0,124 M,0,123547,123589,320,95,320,94.08668 M,0,123589,123632,320,94.08668,320,93.94653 M,0,123632,123674,320,93.94653,320,94.57983 M,0,123674,123717,320,94.57983,320,95.98523
Sprite,Foreground,Centre,"sb/s/b.png",0,0 V,2,123888,124258,4,1.8,2,1.8 F,2,123888,124258,1,0 P,0,123888,124258,A R,0,123888,124258,1.57 C,0,123888,,217,0,124 M,0,123888,123930,320,169,320,169.7804 M,0,123930,123973,320,169.7804,320,169.9066 M,0,123973,124015,320,169.9066,320,169.2847 M,0,124015,124058,320,169.2847,320,168.0083
Sprite,Foreground,Centre,"sb/s/b.png",320,231 V,2,124228,124428,4,1.8,2,1.8 F,2,124228,124428,1,0 P,0,124228,124428,A R,0,124228,124428,1.57 C,0,124228,,148,0,204
Sprite,Foreground,Centre,"sb/s/b.png",0,0 V,2,124399,124939,4,1.8,2,1.8 F,2,124399,124939,1,0 P,0,124399,124939,A R,0,124399,124939,1.57 C,0,124399,,148,0,204 M,0,124399,124441,320,279,320,291.7435 M,0,124441,124484,320,291.7435,320,304.487 M,0,124484,124526,320,304.487,320,316.2668 M,0,124526,124569,320,316.2668,320,326.1072 M,0,124569,124612,320,326.1072,320,316.2668 M,0,124612,124654,320,316.2668,320,304.487 M,0,124654,124697,320,304.487,320,291.7435 M,0,124697,124739,320,291.7435,320,279
Sprite,Foreground,Centre,"sb/s/b.png",0,0 V,2,124910,125450,4,1.8,2,1.8 F,2,124910,125450,1,0 P,0,124910,125450,A R,0,124910,125450,1.57 C,0,124910,,148,0,204 M,0,124910,124952,320,359,320,371.7435 M,0,124952,124995,320,371.7435,320,384.487 M,0,124995,125037,320,384.487,320,397.4963 M,0,125037,125080,320,397.4963,320,411.0406 M,0,125080,125123,320,411.0406,320,397.4963 M,0,125123,125165,320,397.4963,320,384.487 M,0,125165,125208,320,384.487,320,371.7435 M,0,125208,125250,320,371.7435,320,359
Sprite,Foreground,Centre,"sb/s/b.png",320,257 V,2,125422,125622,4,1.8,2,1.8 F,2,125422,125622,1,0 P,0,125422,125622,A R,0,125422,125622,1.57 C,0,125422,,148,0,204
Sprite,Foreground,Centre,"sb/s/b.png",0,0 V,2,125592,126303,4,1.8,2,1.8 F,2,125592,126303,1,0 P,0,125592,126303,A R,0,125592,126303,1.57 C,0,125592,,242,0,6 M,0,125592,125634,320,335,320,334.7081 M,0,125634,125677,320,334.7081,320,332.9553 M,0,125677,125719,320,332.9553,320,328.9925 M,0,125719,125762,320,328.9925,320,321.8438 M,0,125762,125805,320,321.8438,320,311.1659 M,0,125805,125847,320,311.1659,320,298.5626 M,0,125847,125890,320,298.5626,320,286.7277 M,0,125890,125932,320,286.7277,320,277.8391 M,0,125932,125975,320,277.8391,320,272.3162 M,0,125975,126018,320,272.3162,320,269.3413 M,0,126018,126060,320,269.3413,320,268.1024 M,0,126060,126103,320,268.1024,320,268.0548
Sprite,Foreground,Centre,"sb/s/b.png",320,179 V,2,126274,126474,4,1.8,2,1.8 F,2,126274,126474,1,0 P,0,126274,126474,A R,0,126274,126474,1.57 C,0,126274,,242,0,6
Sprite,Foreground,Centre,"sb/s/b.png",0,0 V,2,126444,126814,4,1.8,2,1.8 F,2,126444,126814,1,0 P,0,126444,126814,A R,0,126444,126814,1.57 C,0,126444,,242,0,6 M,0,126444,126486,320,179,320,176.0328 M,0,126486,126529,320,176.0328,320,174.3634 M,0,126529,126571,320,174.3634,320,174.0009 M,0,126571,126614,320,174.0009,320,174.9471
Sprite,Foreground,Centre,"sb/s/b.png",320,144 V,2,126785,126985,4,1.8,2,1.8 F,2,126785,126985,1,0 P,0,126785,126985,A R,0,126785,126985,1.57 C,0,126785,,242,0,6
Sprite,Foreground,Centre,"sb/s/b.png",0,0 V,2,126956,127496,4,1.8,2,1.8 F,2,126956,127496,1,0 P,0,126956,127496,A R,0,126956,127496,1.57 C,0,126956,,217,0,124 M,0,126956,126998,320,90,320,105.1932 M,0,126998,127041,320,105.1932,320,121.6877 M,0,127041,127083,320,121.6877,320,138.9304 M,0,127083,127126,320,138.9304,320,156.3441 M,0,127126,127169,320,156.3441,320,173.3461 M,0,127169,127211,320,173.3461,320,189.5289 M,0,127211,127254,320,189.5289,320,204.0083 M,0,127254,127296,320,204.0083,320,216.4524
Sprite,Foreground,Centre,"sb/s/b.png",320,305 V,2,127467,127667,4,1.8,2,1.8 F,2,127467,127667,1,0 P,0,127467,127667,A R,0,127467,127667,1.57 C,0,127467,,217,0,124
Sprite,Foreground,Centre,"sb/s/b.png",0,0 V,2,127638,128008,4,1.8,2,1.8 F,2,127638,128008,1,0 P,0,127638,128008,A R,0,127638,128008,1.57 C,0,127638,,217,0,124 M,0,127638,127680,320,348,320,340.5995 M,0,127680,127723,320,340.5995,320,335.822 M,0,127723,127765,320,335.822,320,333.7414 M,0,127765,127808,320,333.7414,320,329.6573
Sprite,Foreground,Centre,"sb/s/b.png",0,0 V,2,127978,128348,4,1.8,2,1.8 F,2,127978,128348,1,0 P,0,127978,128348,A R,0,127978,128348,1.57 C,0,127978,,217,0,124 M,0,127978,128020,320,245,320,228.3123 M,0,128020,128063,320,228.3123,320,219.2582 M,0,128063,128105,320,219.2582,320,203.1079 M,0,128105,128148,320,203.1079,320,189.0599
Sprite,Foreground,Centre,"sb/s/b.png",320,343 V,2,135138,135338,4,1.8,2,1.8 F,2,135138,135338,1,0 P,0,135138,135338,A R,0,135138,135338,1.57 C,0,135138,,242,0,6
Sprite,Foreground,Centre,"sb/s/b.png",0,0 V,2,135308,135848,4,1.8,2,1.8 F,2,135308,135848,1,0 P,0,135308,135848,A R,0,135308,135848,1.57 C,0,135308,,242,0,6 M,0,135308,135350,320,251,320,233.5255 M,0,135350,135393,320,233.5255,320,216.051 M,0,135393,135435,320,216.051,320,212.5386 M,0,135435,135478,320,212.5386,320,204.4184 M,0,135478,135521,320,204.4184,320,212.5386 M,0,135521,135563,320,212.5386,320,216.051 M,0,135563,135606,320,216.051,320,233.5255 M,0,135606,135648,320,233.5255,320,251
Sprite,Foreground,Centre,"sb/s/b.png",0,0 V,2,135819,136359,4,1.8,2,1.8 F,2,135819,136359,1,0 P,0,135819,136359,A R,0,135819,136359,1.57 C,0,135819,,242,0,6 M,0,135819,135861,320,164,320,146.5255 M,0,135861,135904,320,146.5255,320,129.051 M,0,135904,135946,320,129.051,320,125.5386 M,0,135946,135989,320,125.5386,320,117.4184 M,0,135989,136032,320,117.4184,320,125.5386 M,0,136032,136074,320,125.5386,320,129.051 M,0,136074,136117,320,129.051,320,146.5255 M,0,136117,136159,320,146.5255,320,164
Sprite,Foreground,Centre,"sb/s/b.png",320,84 V,2,136331,136531,4,1.8,2,1.8 F,2,136331,136531,1,0 P,0,136331,136531,A R,0,136331,136531,1.57 C,0,136331,,242,0,6
Sprite,Foreground,Centre,"sb/s/b.png",0,0 V,2,136501,137041,4,1.8,2,1.8 F,2,136501,137041,1,0 P,0,136501,137041,A R,0,136501,137041,1.57 C,0,136501,,217,0,124 M,0,136501,136543,320,154,320,162.0797 M,0,136543,136586,320,162.0797,320,167.6781 M,0,136586,136628,320,167.6781,320,170.6642 M,0,136628,136671,320,170.6642,320,170.9688 M,0,136671,136714,320,170.9688,320,168.5864 M,0,136714,136756,320,168.5864,320,163.5748 M,0,136756,136799,320,163.5748,320,156.0543 M,0,136799,136841,320,156.0543,320,146.2043
Sprite,Foreground,Centre,"sb/s/b.png",320,96 V,2,146047,146247,4,1.8,2,1.8 F,2,146047,146247,1,0 P,0,146047,146247,A R,0,146047,146247,1.57 C,0,146047,,148,0,204
Sprite,Foreground,Centre,"sb/s/b.png",0,0 V,2,146217,146757,4,1.8,2,1.8 F,2,146217,146757,1,0 P,0,146217,146757,A R,0,146217,146757,1.57 C,0,146217,,148,0,204 M,0,146217,146259,320,75,320,72.82939 M,0,146259,146302,320,72.82939,320,70.65878 M,0,146302,146344,320,70.65878,320,68.48817 M,0,146344,146387,320,68.48817,320,55.97419 M,0,146387,146430,320,55.97419,320,68.48817 M,0,146430,146472,320,68.48817,320,70.65878 M,0,146472,146515,320,70.65878,320,72.82939 M,0,146515,146557,320,72.82939,320,75
Sprite,Foreground,Centre,"sb/s/b.png",0,0 V,2,146728,147268,4,1.8,2,1.8 F,2,146728,147268,1,0 P,0,146728,147268,A R,0,146728,147268,1.57 C,0,146728,,148,0,204 M,0,146728,146770,320,174,320,176.1706 M,0,146770,146813,320,176.1706,320,178.3412 M,0,146813,146855,320,178.3412,320,180.5118 M,0,146855,146898,320,180.5118,320,192.7165 M,0,146898,146941,320,192.7165,320,180.5118 M,0,146941,146983,320,180.5118,320,178.3412 M,0,146983,147026,320,178.3412,320,176.1706 M,0,147026,147068,320,176.1706,320,174
Sprite,Foreground,Centre,"sb/s/b.png",320,297 V,2,147240,147440,4,1.8,2,1.8 F,2,147240,147440,1,0 P,0,147240,147440,A R,0,147240,147440,1.57 C,0,147240,,148,0,204
Sprite,Foreground,Centre,"sb/s/b.png",0,0 V,2,147410,147950,4,1.8,2,1.8 F,2,147410,147950,1,0 P,0,147410,147950,A R,0,147410,147950,1.57 C,0,147410,,242,0,6 M,0,147410,147452,320,250,320,251.7811 M,0,147452,147495,320,251.7811,320,256.6588 M,0,147495,147537,320,256.6588,320,265.9573 M,0,147537,147580,320,265.9573,320,278.6158 M,0,147580,147623,320,278.6158,320,291.4972 M,0,147623,147665,320,291.4972,320,302.0887 M,0,147665,147708,320,302.0887,320,309.5106 M,0,147708,147750,320,309.5106,320,314.2956
Sprite,Foreground,Centre,"sb/s/w.png",254,236 V,2,141956,142456,0.3,0.3,0.5,0.5 F,2,141956,142456,1,0 P,0,141956,142456,A R,0,141956,142456,0 C,0,141956,,148,0,204
Sprite,Foreground,Centre,"sb/s/w.png",254,236 V,2,142126,142626,0.3,0.3,0.5,0.5 F,2,142126,142626,1,0 P,0,142126,142626,A R,0,142126,142626,0 C,0,142126,,148,0,204
Sprite,Foreground,Centre,"sb/s/w.png",0,0 V,2,142297,143052,0.3,0.3,0.5,0.5 F,2,142297,143052,1,0 P,0,142297,143052,A R,0,142297,143052,0 C,0,142297,,148,0,204 M,0,142297,142339,166,263,161.8536,246.0338 M,0,142339,142382,161.8536,246.0338,160.7673,228.6145 M,0,142382,142424,160.7673,228.6145,162.7712,211.2872 M,0,142424,142467,162.7712,211.2872,167.7996,194.5939 M,0,142467,142510,167.7996,194.5939,175.6927,179.0563 M,0,142510,142552,175.6927,179.0563,186.2016,165.1598
Sprite,Foreground,Centre,"sb/s/w.png",0,0 V,2,142638,143308,0.3,0.3,0.5,0.5 F,2,142638,143308,1,0 P,0,142638,143308,A R,0,142638,143308,0 C,0,142638,,148,0,204 M,0,142638,142680,180,119,193.8038,129.6982 M,0,142680,142723,193.8038,129.6982,209.2319,137.8517 M,0,142723,142765,209.2319,137.8517,225.8237,143.2215 M,0,142765,142808,225.8237,143.2215,243.0851,145.6507
Sprite,Foreground,Centre,"sb/s/w.png",311,212 V,2,76501,77001,0.3,0.3,0.5,0.5 F,2,76501,77001,1,0 P,0,76501,77001,A R,0,76501,77001,0 C,0,76501,,148,0,204
Sprite,Foreground,Centre,"sb/s/w.png",297,244 V,2,76672,77172,0.3,0.3,0.5,0.5 F,2,76672,77172,1,0 P,0,76672,77172,A R,0,76672,77172,0 C,0,76672,,148,0,204
Sprite,Foreground,Centre,"sb/s/w.png",296,278 V,2,76842,77342,0.3,0.3,0.5,0.5 F,2,76842,77342,1,0 P,0,76842,77342,A R,0,76842,77342,0 C,0,76842,,148,0,204
Sprite,Foreground,Centre,"sb/s/w.png",0,0 V,2,77183,77853,0.3,0.3,0.5,0.5 F,2,77183,77853,1,0 P,0,77183,77853,A R,0,77183,77853,0 C,0,77183,,148,0,204 M,0,77183,77225,378,146,364.1581,135.3618 M,0,77225,77268,364.1581,135.3618,348.5716,127.5349 M,0,77268,77310,348.5716,127.5349,331.8004,122.7945 M,0,77310,77353,331.8004,122.7945,314.4453,121.3065
Sprite,Foreground,Centre,"sb/s/w.png",0,0 V,2,54683,55694,0.3,0.3,0.5,0.5 F,2,54683,55694,1,0 P,0,54683,55694,A R,0,54683,55694,0 C,0,54683,,148,0,204 M,0,54683,54725,522,195,520.814,177.6641 M,0,54725,54768,520.814,177.6641,511.9833,162.7856 M,0,54768,54810,511.9833,162.7856,496.9845,154.1313 M,0,54810,54853,496.9845,154.1313,479.66,153.2672 M,0,54853,54896,479.66,153.2672,463.6906,160.049 M,0,54896,54938,463.6906,160.049,452.0479,172.9422 M,0,54938,54981,452.0479,172.9422,445.9406,189.2516 M,0,54981,55023,445.9406,189.2516,445.0117,206.6713 M,0,55023,55066,445.0117,206.6713,448.5724,223.7597 M,0,55066,55109,448.5724,223.7597,456.0936,239.5157 M,0,55109,55151,456.0936,239.5157,466.975,253.176 M,0,55151,55194,466.975,253.176,480.3458,264.4296
Sprite,Foreground,Centre,"sb/s/w.png",0,0 V,2,55365,56035,0.3,0.3,0.5,0.5 F,2,55365,56035,1,0 P,0,55365,56035,A R,0,55365,56035,0 C,0,55365,,148,0,204 M,0,55365,55407,519,346,502.3441,340.6978 M,0,55407,55450,502.3441,340.6978,485.0917,337.9206 M,0,55450,55492,485.0917,337.9206,467.6229,337.728 M,0,55492,55535,467.6229,337.728,450.3224,340.123
Sprite,Foreground,Centre,"sb/s/b.png",0,0 V,2,58944,59484,3,1.8,1,1.8 F,2,58944,59484,1,0 P,0,58944,59484,A R,0,58944,59484,1.57 C,0,58944,,217,0,124 M,0,58944,58986,320,169,320,164.9668 M,0,58986,59029,320,164.9668,320,160.9337 M,0,59029,59071,320,160.9337,320,152.8692 M,0,59071,59114,320,152.8692,320,146.256 M,0,59114,59157,320,146.256,320,152.8692 M,0,59157,59199,320,152.8692,320,160.9337 M,0,59199,59242,320,160.9337,320,164.9668 M,0,59242,59284,320,164.9668,320,169
Sprite,Foreground,Centre,"sb/s/b.png",0,0 V,2,59456,59996,3,1.8,1,1.8 F,2,59456,59996,1,0 P,0,59456,59996,A R,0,59456,59996,1.57 C,0,59456,,217,0,124 M,0,59456,59498,320,115,320,119.0332 M,0,59498,59541,320,119.0332,320,123.0663 M,0,59541,59583,320,123.0663,320,131.1308 M,0,59583,59626,320,131.1308,320,137.744 M,0,59626,59669,320,137.744,320,131.1308 M,0,59669,59711,320,131.1308,320,123.0663 M,0,59711,59754,320,123.0663,320,119.0332 M,0,59754,59796,320,119.0332,320,115
Sprite,Foreground,Centre,"sb/s/b.png",320,239 V,2,59967,60167,3,1.8,1,1.8 F,2,59967,60167,1,0 P,0,59967,60167,A R,0,59967,60167,1.57 C,0,59967,,217,0,124
Sprite,Foreground,Centre,"sb/s/b.png",0,0 V,2,60138,60849,3,1.8,1,1.8 F,2,60138,60849,1,0 P,0,60138,60849,A R,0,60138,60849,1.57 C,0,60138,,148,0,204 M,0,60138,60180,320,248,320,260.8591 M,0,60180,60223,320,260.8591,320,277.8831 M,0,60223,60265,320,277.8831,320,294.8235 M,0,60265,60308,320,294.8235,320,311.1435 M,0,60308,60351,320,311.1435,320,325.5501 M,0,60351,60393,320,325.5501,320,334.8744 M,0,60393,60436,320,334.8744,320,339.7613 M,0,60436,60478,320,339.7613,320,339.2313 M,0,60478,60521,320,339.2313,320,332.8768 M,0,60521,60564,320,332.8768,320,322.0145 M,0,60564,60606,320,322.0145,320,306.7651 M,0,60606,60649,320,306.7651,320,289.8215
Sprite,Foreground,Centre,"sb/s/b.png",0,0 V,2,48035,48575,3,1.8,1,1.8 F,2,48035,48575,1,0 P,0,48035,48575,A R,0,48035,48575,1.57 C,0,48035,,217,0,124 M,0,48035,48077,320,109,320,114.534 M,0,48077,48120,320,114.534,320,114.531 M,0,48120,48162,320,114.531,320,112.457 M,0,48162,48205,320,112.457,320,113.5157 M,0,48205,48248,320,113.5157,320,112.457 M,0,48248,48290,320,112.457,320,114.531 M,0,48290,48333,320,114.531,320,114.534 M,0,48333,48375,320,114.534,320,109
Sprite,Foreground,Centre,"sb/s/b.png",0,0 V,2,48547,49087,3,1.8,1,1.8 F,2,48547,49087,1,0 P,0,48547,49087,A R,0,48547,49087,1.57 C,0,48547,,217,0,124 M,0,48547,48589,320,210,320,215.3336 M,0,48589,48632,320,215.3336,320,215.7729 M,0,48632,48674,320,215.7729,320,213.412 M,0,48674,48717,320,213.412,320,214.5036 M,0,48717,48760,320,214.5036,320,213.412 M,0,48760,48802,320,213.412,320,215.7729 M,0,48802,48845,320,215.7729,320,215.3336 M,0,48845,48887,320,215.3336,320,210
Sprite,Foreground,Centre,"sb/s/b.png",320,302 V,2,49058,49258,3,1.8,1,1.8 F,2,49058,49258,1,0 P,0,49058,49258,A R,0,49058,49258,1.57 C,0,49058,,217,0,124
Sprite,Foreground,Centre,"sb/s/b.png",0,0 V,2,49228,49939,3,1.8,1,1.8 F,2,49228,49939,1,0 P,0,49228,49939,A R,0,49228,49939,1.57 C,0,49228,,148,0,204 M,0,49228,49270,320,391,320,391.0089 M,0,49270,49313,320,391.0089,320,388.1786 M,0,49313,49355,320,388.1786,320,382.3813 M,0,49355,49398,320,382.3813,320,373.8305 M,0,49398,49441,320,373.8305,320,363.0031 M,0,49441,49483,320,363.0031,320,354.0045 M,0,49483,49526,320,354.0045,320,370.4472 M,0,49526,49568,320,370.4472,320,385.4765 M,0,49568,49611,320,385.4765,320,398.4276 M,0,49611,49654,320,398.4276,320,408.9302 M,0,49654,49696,320,408.9302,320,417.0215 M,0,49696,49739,320,417.0215,320,422.9929
Sprite,Foreground,Centre,"sb/s/b.png",0,0 V,2,11047,11587,3,1,1.5,1 F,2,11047,11587,1,0 P,0,11047,11587,A R,0,11047,11587,0 C,0,11047,,217,0,124 M,0,11047,11089,281,240,280.3278,240 M,0,11089,11132,280.3278,240,279.6556,240 M,0,11132,11174,279.6556,240,278.9834,240 M,0,11174,11217,278.9834,240,278.3112,240 M,0,11217,11260,278.3112,240,277.639,240 M,0,11260,11302,277.639,240,276.9669,240 M,0,11302,11345,276.9669,240,276.2946,240 M,0,11345,11387,276.2946,240,275.6224,240
Sprite,Foreground,Centre,"sb/s/b.png",319,240 V,2,11558,11758,3,1,1.5,1 F,2,11558,11758,1,0 P,0,11558,11758,A R,0,11558,11758,0 C,0,11558,,217,0,124
Sprite,Foreground,Centre,"sb/s/b.png",0,0 V,2,11728,12098,3,1,1.5,1 F,2,11728,12098,1,0 P,0,11728,12098,A R,0,11728,12098,0 C,0,11728,,217,0,124 M,0,11728,11770,319,240,320.3843,240 M,0,11770,11813,320.3843,240,321.7686,240 M,0,11813,11855,321.7686,240,323.1528,240 M,0,11855,11898,323.1528,240,324.5371,240
Sprite,Foreground,Centre,"sb/s/b.png",377,240 V,2,12069,12269,3,1,1.5,1 F,2,12069,12269,1,0 P,0,12069,12269,A R,0,12069,12269,0 C,0,12069,,217,0,124
Sprite,Foreground,Centre,"sb/s/b.png",0,0 V,2,12240,12780,3,1,1.5,1 F,2,12240,12780,1,0 P,0,12240,12780,A R,0,12240,12780,0 C,0,12240,,217,0,124 M,0,12240,12282,377,240,366.8334,240 M,0,12282,12325,366.8334,240,355.6915,240 M,0,12325,12367,355.6915,240,343.3867,240 M,0,12367,12410,343.3867,240,330.5996,240 M,0,12410,12453,330.5996,240,317.5223,240 M,0,12453,12495,317.5223,240,304.6736,240 M,0,12495,12538,304.6736,240,292.2844,240 M,0,12538,12580,292.2844,240,280.9536,240
Sprite,Foreground,Centre,"sb/s/b.png",0,0 V,2,12751,13121,3,1,1.5,1 F,2,12751,13121,1,0 P,0,12751,13121,A R,0,12751,13121,0 C,0,12751,,217,0,124 M,0,12751,12793,215,240,202.5857,240 M,0,12793,12836,202.5857,240,189.7682,240 M,0,12836,12878,189.7682,240,176.6987,240 M,0,12878,12921,176.6987,240,163.7685,240
Sprite,Foreground,Centre,"sb/s/b.png",0,0 V,2,13092,13632,3,1,1.5,1 F,2,13092,13632,1,0 P,0,13092,13632,A R,0,13092,13632,0 C,0,13092,,217,0,124 M,0,13092,13134,103,240,106.3781,240 M,0,13134,13177,106.3781,240,109.2363,240 M,0,13177,13219,109.2363,240,111.1326,240 M,0,13219,13262,111.1326,240,112.4709,240 M,0,13262,13305,112.4709,240,112.8603,240 M,0,13305,13347,112.8603,240,112.6607,240 M,0,13347,13390,112.6607,240,111.538,240 M,0,13390,13432,111.538,240,109.8036,240
Sprite,Foreground,Centre,"sb/s/b.png",0,0 V,2,13774,14485,3,1,1.5,1 F,2,13774,14485,1,0 P,0,13774,14485,A R,0,13774,14485,0 C,0,13774,,148,0,204 M,0,13774,13816,140,240,153.1226,240 M,0,13816,13859,153.1226,240,166.2021,240 M,0,13859,13901,166.2021,240,179.1011,240 M,0,13901,13944,179.1011,240,191.4666,240 M,0,13944,13987,191.4666,240,202.5816,240 M,0,13987,14029,202.5816,240,211.8338,240 M,0,14029,14072,211.8338,240,220.0016,240 M,0,14072,14114,220.0016,240,228.8666,240 M,0,14114,14157,228.8666,240,239.4636,240 M,0,14157,14200,239.4636,240,251.4595,240 M,0,14200,14242,251.4595,240,264.1631,240 M,0,14242,14285,264.1631,240,277.1555,240
Sprite,Foreground,Centre,"sb/s/b.png",0,0 V,2,14456,14826,3,1,1.5,1 F,2,14456,14826,1,0 P,0,14456,14826,A R,0,14456,14826,0 C,0,14456,,148,0,204 M,0,14456,14498,351,240,363.7262,240 M,0,14498,14541,363.7262,240,376.5473,240 M,0,14541,14583,376.5473,240,389.5078,240 M,0,14583,14626,389.5078,240,402.5286,240
Sprite,Foreground,Centre,"sb/s/b.png",475,240 V,2,14797,14997,3,1,1.5,1 F,2,14797,14997,1,0 P,0,14797,14997,A R,0,14797,14997,0 C,0,14797,,148,0,204
Sprite,Foreground,Centre,"sb/s/b.png",0,0 V,2,14967,15337,3,1,1.5,1 F,2,14967,15337,1,0 P,0,14967,15337,A R,0,14967,15337,0 C,0,14967,,148,0,204 M,0,14967,15009,475,240,487.7262,240 M,0,15009,15052,487.7262,240,500.5473,240 M,0,15052,15094,500.5473,240,513.5078,240 M,0,15094,15137,513.5078,240,526.5286,240
Sprite,Foreground,Centre,"sb/s/b.png",572,240 V,2,15308,15508,3,1,1.5,1 F,2,15308,15508,1,0 P,0,15308,15508,A R,0,15308,15508,0 C,0,15308,,148,0,204
Sprite,Foreground,Centre,"sb/s/b.png",0,0 V,2,15478,15848,3,1,1.5,1 F,2,15478,15848,1,0 P,0,15478,15848,A R,0,15478,15848,0 C,0,15478,,148,0,204 M,0,15478,15520,572,240,562.5071,240 M,0,15520,15563,562.5071,240,553.3904,240 M,0,15563,15605,553.3904,240,545.0221,240 M,0,15605,15648,545.0221,240,537.0881,240
Sprite,Foreground,Centre,"sb/s/b.png",0,0 V,2,15819,16530,3,1,1.5,1 F,2,15819,16530,1,0 P,0,15819,16530,A R,0,15819,16530,0 C,0,15819,,148,0,204 M,0,15819,15861,572,240,561.4634,240 M,0,15861,15904,561.4634,240,550.1381,240 M,0,15904,15946,550.1381,240,537.8584,240 M,0,15946,15989,537.8584,240,525.1302,240 M,0,15989,16032,525.1302,240,512.0914,240 M,0,16032,16074,512.0914,240,499.0604,240 M,0,16074,16117,499.0604,240,486.2791,240 M,0,16117,16159,486.2791,240,473.9645,240 M,0,16159,16202,473.9645,240,462.6841,240 M,0,16202,16245,462.6841,240,452.2407,240 M,0,16245,16287,452.2407,240,443.2645,240 M,0,16287,16330,443.2645,240,435.5941,240
Sprite,Foreground,Centre,"sb/s/b.png",0,0 V,2,16501,17041,3,1,1.5,1 F,2,16501,17041,1,0 P,0,16501,17041,A R,0,16501,17041,0 C,0,16501,,242,0,6 M,0,16501,16543,399,240,386.2856,240 M,0,16543,16586,386.2856,240,373.3107,240 M,0,16586,16628,373.3107,240,360.2495,240 M,0,16628,16671,360.2495,240,347.3315,240 M,0,16671,16714,347.3315,240,335.04,240 M,0,16714,16756,335.04,240,323.3094,240 M,0,16756,16799,323.3094,240,312.8381,240 M,0,16799,16841,312.8381,240,303.2441,240
Sprite,Foreground,Centre,"sb/s/b.png",258,240 V,2,17013,17213,3,1,1.5,1 F,2,17013,17213,1,0 P,0,17013,17213,A R,0,17013,17213,0 C,0,17013,,242,0,6
Sprite,Foreground,Centre,"sb/s/b.png",0,0 V,2,17183,17553,3,1,1.5,1 F,2,17183,17553,1,0 P,0,17183,17553,A R,0,17183,17553,0 C,0,17183,,242,0,6 M,0,17183,17225,258,240,244.9505,240 M,0,17225,17268,244.9505,240,231.9009,240 M,0,17268,17310,231.9009,240,218.8514,240 M,0,17310,17353,218.8514,240,205.8018,240
Sprite,Foreground,Centre,"sb/s/b.png",126,240 V,2,17524,17724,3,1,1.5,1 F,2,17524,17724,1,0 P,0,17524,17724,A R,0,17524,17724,0 C,0,17524,,242,0,6
Sprite,Foreground,Centre,"sb/s/b.png",0,0 V,2,17694,18234,3,1,1.5,1 F,2,17694,18234,1,0 P,0,17694,18234,A R,0,17694,18234,0 C,0,17694,,242,0,6 M,0,17694,17736,126,240,127.7331,240 M,0,17736,17779,127.7331,240,131.6398,240 M,0,17779,17821,131.6398,240,138.0362,240 M,0,17821,17864,138.0362,240,146.8355,240 M,0,17864,17907,146.8355,240,147.2676,240 M,0,17907,17949,147.2676,240,142.1211,240 M,0,17949,17992,142.1211,240,138.5966,240 M,0,17992,18034,138.5966,240,136.8062,240
Sprite,Foreground,Centre,"sb/s/b.png",0,0 V,2,18206,18576,3,1,1.5,1 F,2,18206,18576,1,0 P,0,18206,18576,A R,0,18206,18576,0 C,0,18206,,242,0,6 M,0,18206,18248,103,240,115.6624,240 M,0,18248,18291,115.6624,240,128.6143,240 M,0,18291,18333,128.6143,240,141.6743,240 M,0,18333,18376,141.6743,240,154.5308,240
Sprite,Foreground,Centre,"sb/s/b.png",0,0 V,2,18547,19087,3,1,1.5,1 F,2,18547,19087,1,0 P,0,18547,19087,A R,0,18547,19087,0 C,0,18547,,242,0,6 M,0,18547,18589,233,240,244.5568,240 M,0,18589,18632,244.5568,240,256.6573,240 M,0,18632,18674,256.6573,240,269.3782,240 M,0,18674,18717,269.3782,240,282.3477,240 M,0,18717,18760,282.3477,240,295.4451,240 M,0,18760,18802,295.4451,240,308.3829,240 M,0,18802,18845,308.3829,240,321.0245,240 M,0,18845,18887,321.0245,240,333.1903,240
Sprite,Foreground,Centre,"sb/s/b.png",0,0 V,2,19228,19939,3,1,1.5,1 F,2,19228,19939,1,0 P,0,19228,19939,A R,0,19228,19939,0 C,0,19228,,217,0,124 M,0,19228,19270,479,240,471.8902,240 M,0,19270,19313,471.8902,240,464.7803,240 M,0,19313,19355,464.7803,240,457.6705,240 M,0,19355,19398,457.6705,240,450.5607,240 M,0,19398,19441,450.5607,240,450,240 M,0,19441,19483,450,240 M,0,19483,19526,450,240 M,0,19526,19568,450,240 M,0,19568,19611,450,240 M,0,19611,19654,450,240 M,0,19654,19696,450,240 M,0,19696,19739,450,240
Sprite,Foreground,Centre,"sb/s/b.png",0,0 V,2,19910,20280,3,1,1.5,1 F,2,19910,20280,1,0 P,0,19910,20280,A R,0,19910,20280,0 C,0,19910,,217,0,124 M,0,19910,19952,476,240,463.5326,240 M,0,19952,19995,463.5326,240,450.6338,240 M,0,19995,20037,450.6338,240,437.6507,240 M,0,20037,20080,437.6507,240,424.9609,240
Sprite,Foreground,Centre,"sb/s/b.png",353,240 V,2,20251,20451,3,1,1.5,1 F,2,20251,20451,1,0 P,0,20251,20451,A R,0,20251,20451,0 C,0,20251,,217,0,124
Sprite,Foreground,Centre,"sb/s/b.png",0,0 V,2,20422,20792,3,1,1.5,1 F,2,20422,20792,1,0 P,0,20422,20792,A R,0,20422,20792,0 C,0,20422,,217,0,124 M,0,20422,20464,353,240,340.5326,240 M,0,20464,20507,340.5326,240,327.6338,240 M,0,20507,20549,327.6338,240,314.6507,240 M,0,20549,20592,314.6507,240,301.9609,240
Sprite,Foreground,Centre,"sb/s/b.png",231,240 V,2,20763,20963,3,1,1.5,1 F,2,20763,20963,1,0 P,0,20763,20963,A R,0,20763,20963,0 C,0,20763,,217,0,124
Sprite,Foreground,Centre,"sb/s/b.png",0,0 V,2,20933,21303,3,1,1.5,1 F,2,20933,21303,1,0 P,0,20933,21303,A R,0,20933,21303,0 C,0,20933,,217,0,124 M,0,20933,20975,231,240,218.5326,240 M,0,20975,21018,218.5326,240,205.6338,240 M,0,21018,21060,205.6338,240,192.6507,240 M,0,21060,21103,192.6507,240,179.9609,240
Sprite,Foreground,Centre,"sb/s/b.png",0,0 V,2,21274,21985,3,1,1.5,1 F,2,21274,21985,1,0 P,0,21274,21985,A R,0,21274,21985,0 C,0,21274,,217,0,124 M,0,21274,21316,102,240,100.0464,240 M,0,21316,21359,100.0464,240,100.0424,240 M,0,21359,21401,100.0424,240,103.8797,240 M,0,21401,21444,103.8797,240,109.5581,240 M,0,21444,21487,109.5581,240,103.8797,240 M,0,21487,21529,103.8797,240,100.0424,240 M,0,21529,21572,100.0424,240,100.0464,240 M,0,21572,21614,100.0464,240,102,240 M,0,21614,21657,102,240,100.0464,240 M,0,21657,21700,100.0464,240,100.0424,240 M,0,21700,21742,100.0424,240,103.8797,240 M,0,21742,21785,103.8797,240,109.5581,240
Sprite,Foreground,Centre,"sb/s/b.png",153,240 V,2,21956,22156,3,1,1.5,1 F,2,21956,22156,1,0 P,0,21956,22156,A R,0,21956,22156,0 C,0,21956,,148,0,204
//Storyboard Sound Samples

[TimingPoints]
138,340.909090909091,4,3,3,85,1,0
11047,-133.333333333333,4,3,4,85,0,0
11089,-133.333333333333,4,3,3,85,0,0
21956,-133.333333333333,4,3,2,85,0,0
32865,-111.111111111111,4,3,4,40,0,0
32907,-111.111111111111,4,3,3,40,0,0
35592,-111.111111111111,4,3,3,45,0,0
36274,-111.111111111111,4,3,3,50,0,0
36956,-111.111111111111,4,3,3,55,0,0
37638,-111.111111111111,4,3,3,60,0,0
38319,-111.111111111111,4,3,3,65,0,0
39001,-111.111111111111,4,3,3,70,0,0
39683,-111.111111111111,4,3,3,75,0,0
40365,-111.111111111111,4,3,3,80,0,0
41047,-111.111111111111,4,3,3,85,0,0
43774,-100,4,3,3,100,0,0
49228,-100,4,3,4,100,0,0
49271,-100,4,3,3,100,0,0
54683,-100,4,3,3,85,0,0
55365,-100,4,3,4,100,0,0
55407,-100,4,3,3,100,0,0
60138,-100,4,3,4,100,0,0
60180,-100,4,3,3,100,0,0
62865,-100,4,3,3,85,0,0
63888,-100,4,3,3,40,0,0
64228,-100,4,3,3,50,0,0
64569,-100,4,3,3,60,0,0
64910,-100,4,3,3,85,0,0
65592,-100,4,3,4,100,0,0
65635,-100,4,3,3,100,0,0
66870,-100,4,3,3,5,0,0
66956,-100,4,3,3,100,0,0
71047,-100,4,3,4,100,0,0
71089,-100,4,3,3,100,0,0
72325,-100,4,3,3,5,0,0
72410,-100,4,3,3,100,0,0
76501,-100,4,3,3,85,0,0
77183,-100,4,3,4,100,0,0
77226,-100,4,3,3,100,0,0
77780,-100,4,3,3,5,0,0
77865,-100,4,3,3,100,0,0
81956,-100,4,3,4,100,0,0
81998,-100,4,3,3,100,0,0
83234,-100,4,3,3,5,0,0
83319,-100,4,3,3,100,0,0
84683,-100,4,3,4,85,0,0
85280,-100,4,3,3,5,0,0
85365,-100,4,3,3,85,0,0
85961,-100,4,3,3,5,0,0
86047,-100,4,3,3,85,0,0
86643,-100,4,3,3,5,0,0
86728,-100,4,3,3,85,0,0
87325,-100,4,3,3,5,0,0
87410,-100,4,3,4,85,0,0
87453,-100,4,3,3,85,0,0
90052,-100,4,3,3,5,0,0
90138,-100,4,3,3,85,0,0
92865,-100,4,3,4,85,0,0
92907,-100,4,3,3,85,0,0
98319,-100,4,3,4,85,0,0
98362,-100,4,3,3,50,0,0
101047,-100,4,3,3,55,0,0
101728,-100,4,3,3,60,0,0
102410,-100,4,3,3,65,0,0
103092,-100,4,3,3,70,0,0
103774,-100,4,3,3,75,0,0
104456,-100,4,3,3,80,0,0
105138,-100,4,3,3,85,0,0
109228,-100,4,3,3,100,0,1
114683,-100,4,3,4,100,0,1
114726,-100,4,3,3,100,0,1
120138,-100,4,3,3,85,0,1
120819,-100,4,3,4,100,0,1
120862,-100,4,3,3,100,0,1
121416,-100,4,3,3,5,0,1
121501,-100,4,3,3,100,0,1
125592,-100,4,3,4,100,0,1
125635,-100,4,3,3,100,0,1
128319,-100,4,3,3,85,0,0
129683,-100,4,3,3,85,0,0
131047,-100,4,3,4,100,0,1
131089,-100,4,3,3,100,0,1
132325,-100,4,3,3,5,0,1
132410,-100,4,3,3,100,0,1
136501,-100,4,3,4,100,0,1
136544,-100,4,3,3,100,0,1
137780,-100,4,3,3,5,0,1
137865,-100,4,3,3,100,0,1
141956,-100,4,3,3,85,0,1
142552,-100,4,3,3,5,0,1
142638,-100,4,3,4,100,0,1
142680,-100,4,3,3,100,0,1
143234,-100,4,3,3,5,0,1
143319,-100,4,3,3,100,0,1
147410,-100,4,3,4,100,0,1
147453,-100,4,3,3,100,0,1
148689,-100,4,3,3,5,0,1
148774,-100,4,3,3,100,0,1
150138,-100,4,3,3,85,0,0
150308,-100,4,3,3,80,0,0
150479,-100,4,3,3,75,0,0
150649,-100,4,3,3,70,0,0
150820,-100,4,3,3,65,0,0
150862,-100,4,3,3,55,0,0
150905,-100,4,3,3,45,0,0
150948,-100,4,3,3,35,0,0
150990,-100,4,3,3,25,0,0
151672,-100,4,3,3,35,0,0
151842,-100,4,3,3,45,0,0
152012,-100,4,3,3,55,0,0
152183,-100,4,3,3,65,0,0
152353,-100,4,3,3,75,0,0
152524,-100,4,3,3,85,0,0
152865,-133.333333333333,4,3,4,85,0,0
152907,-133.333333333333,4,3,3,85,0,0
163774,-133.333333333333,4,3,4,85,0,0
163816,-133.333333333333,4,3,3,85,0,0
174683,-133.333333333333,4,3,2,85,0,0

[Colours]
Combo1 : 242,0,6
Combo2 : 217,0,124
Combo3 : 148,0,204

[HitObjects]
256,192,9683,12,0,10706,0:0:0:0:
217,55,11047,6,0,L|211:172,1,105.000004005432,6|0,0:1|0:0,0:0:0:0:
255,225,11558,1,0,0:0:0:0:
255,225,11728,2,0,L|262:291,1,52.5000020027161,8|0,0:0|0:0,0:0:0:0:
313,335,12069,1,0,0:0:0:0:
313,335,12240,2,0,P|269:357|204:334,1,105.000004005432,4|4,0:0|0:0,0:0:0:0:
151,299,12751,2,0,P|112:292|87:298,1,52.5000020027161,4|0,0:0|0:0,0:0:0:0:
39,345,13092,2,0,P|49:276|41:219,1,105.000004005432,8|0,0:0|0:0,0:0:0:0:
76,86,13774,6,0,B|181:84|124:148|232:149,1,157.500006008148,4|0,0:0|0:0,0:0:0:0:
287,120,14456,2,0,P|342:110|363:109,1,52.5000020027161,8|0,0:0|0:0,0:0:0:0:
411,81,14797,1,0,0:0:0:0:
411,81,14967,2,0,P|466:91|487:92,1,52.5000020027161,4|0,0:0|0:0,0:0:0:0:
508,154,15308,1,4,0:0:0:0:
508,154,15478,2,0,P|471:196|460:214,1,52.5000020027161,4|0,0:0|0:0,0:0:0:0:
508,264,15819,2,0,P|448:241|366:294,1,157.500006008148,8|0,0:0|0:0,0:0:0:0:
335,354,16501,6,0,P|287:357|235:324,1,105.000004005432,4|0,0:0|0:0,0:0:0:0:
194,263,17013,1,0,0:0:0:0:
194,263,17183,2,0,L|129:270,1,52.5000020027161,8|0,0:0|0:0,0:0:0:0:
62,263,17524,1,0,0:0:0:0:
62,263,17694,2,0,B|64:230|87:213|87:213|68:181|74:144,1,105.000004005432,4|4,0:0|0:0,0:0:0:0:
39,96,18206,2,0,P|76:91|103:98,1,52.5000020027161,4|0,0:0|0:0,0:0:0:0:
169,85,18547,2,0,P|232:101|276:87,1,105.000004005432,8|0,0:0|0:0,0:0:0:0:
415,32,19228,6,0,B|386:77|386:77|386:191,1,157.500006008148,4|0,0:0|0:0,0:0:0:0:
412,255,19910,2,0,P|387:261|355:254,1,52.5000020027161,8|0,0:0|0:0,0:0:0:0:
289,221,20251,1,0,0:0:0:0:
289,221,20422,2,0,P|264:215|232:222,1,52.5000020027161,4|0,0:0|0:0,0:0:0:0:
167,254,20763,1,4,0:0:0:0:
167,254,20933,2,0,P|142:260|110:253,1,52.5000020027161,4|0,0:0|0:0,0:0:0:0:
38,265,21274,2,0,P|40:225|51:208,3,52.5000020027161,8|0|0|0,0:0|0:0|0:0|0:0,0:0:0:0:
89,333,21956,5,6,0:1:0:0:
342,102,32865,6,0,P|307:98|260:113,1,62.9999980773926,14|8,0:1|0:0,0:0:0:0:
204,71,33206,2,0,P|200:106|215:153,1,62.9999980773926,12|8,0:0|0:0,0:0:0:0:
176,209,33547,2,0,P|211:213|258:198,1,62.9999980773926,12|8,0:0|0:0,0:0:0:0:
314,240,33888,1,4,0:0:0:0:
342,316,34058,1,8,0:0:0:0:
340,322,34143,1,8,0:0:0:0:
338,328,34228,6,0,P|285:326|258:313,1,62.9999980773926,4|8,0:0|0:0,0:0:0:0:
201,356,34569,2,0,P|164:317|155:288,1,62.9999980773926,4|8,0:0|0:0,0:0:0:0:
73,299,34910,2,0,P|75:246|88:219,1,62.9999980773926,4|8,0:0|0:0,0:0:0:0:
45,162,35251,2,0,P|83:125|112:116,1,62.9999980773926,4|8,0:0|0:0,0:0:0:0:
111,85,35507,1,8,0:0:0:0:
111,85,35592,6,0,L|187:97,1,62.9999980773926,4|8,0:0|0:0,0:0:0:0:
246,131,35933,2,0,L|322:119,1,62.9999980773926,4|8,0:0|0:0,0:0:0:0:
379,81,36274,2,0,P|389:122|382:160,1,62.9999980773926,4|8,0:0|0:0,0:0:0:0:
366,221,36615,1,4,0:0:0:0:
431,283,36785,1,8,0:0:0:0:
431,283,36870,1,8,0:0:0:0:
431,283,36956,6,0,P|375:309|354:306,1,62.9999980773926,4|8,0:0|0:0,0:0:0:0:
295,327,37297,2,0,P|239:301|218:304,1,62.9999980773926,4|8,0:0|0:0,0:0:0:0:
159,317,37638,1,4,0:0:0:0:
159,317,37808,1,8,0:0:0:0:
83,347,37978,2,0,P|77:301|88:277,1,62.9999980773926,4|8,0:0|0:0,0:0:0:0:
104,251,38234,1,8,0:0:0:0:
104,251,38319,6,0,B|110:205|110:205|99:181,1,62.9999980773926,12|12,0:0|0:0,0:0:0:0:
133,113,38660,2,0,L|177:117,3,31.4999990386963,8|8|8|8,0:0|0:0|0:0|0:0,0:0:0:0:
202,99,39001,2,0,B|231:98|231:98|248:90|248:90|275:93,1,62.9999980773926,12|12,0:0|0:0,0:0:0:0:
332,140,39342,2,0,L|323:183,3,31.4999990386963,8|8|8|8,0:0|0:0|0:0|0:0,0:0:0:0:
359,193,39683,6,0,B|380:201|380:201|395:191|395:191|407:204|407:204|432:199,1,62.9999980773926,12|12,0:0|0:0,0:0:0:0:
482,245,40024,2,0,L|488:275,3,31.4999990386963,12|8|8|8,0:0|0:0|0:0|0:0,0:0:0:0:
477,316,40365,2,0,B|461:311|461:311|445:317|445:317|437:313|437:313|423:314|423:314|402:321,1,62.9999980773926,12|12,0:0|0:0,0:0:0:0:
336,343,40706,2,0,L|300:338,3,31.4999990386963,12|8|8|8,0:0|0:0|0:0|0:0,0:0:0:0:
269,317,41047,6,0,L|233:322,3,31.4999990386963,8|8|8|8,0:0|0:0|0:0|0:0,0:0:0:0:
202,299,41388,2,0,L|166:294,3,31.4999990386963,8|8|8|8,0:0|0:0|0:0|0:0,0:0:0:0:
145,262,41728,2,0,L|109:267,3,31.4999990386963,8|8|8|8,0:0|0:0|0:0|0:0,0:0:0:0:
78,244,42069,2,0,L|42:239,3,31.4999990386963,12|8|8|8,0:0|0:0|0:0|0:0,0:0:0:0:
23,205,42410,5,0,0:0:0:0:
256,192,42495,12,2,43433,0:2:0:0:
71,65,43774,6,0,B|100:60|129:34|129:34|111:148|111:148|144:167,1,210,6|0,0:1|0:0,0:0:0:0:
225,151,44456,2,0,B|201:194|229:228|229:228|368:237,1,210,8|0,0:0|0:0,0:0:0:0:
441,204,45138,2,0,B|446:246|446:246|428:300,1,70,4|0,0:0|0:0,0:0:0:0:
424,362,45478,1,0,0:0:0:0:
424,362,45649,2,0,L|339:354,1,70,6|10,0:0|0:0,0:0:0:0:
267,326,45990,1,6,0:0:0:0:
267,326,46160,2,0,L|182:334,1,70,2|2,0:0|0:0,0:0:0:0:
106,328,46501,6,0,B|155:346|155:346|180:238|180:238|121:234,1,210,4|4,0:0|0:0,0:0:0:0:
119,144,47183,2,0,L|195:149,1,70,8|4,0:0|0:0,0:0:0:0:
184,57,47524,2,0,L|108:62,1,70,0|4,0:0|0:0,0:0:0:0:
268,87,47865,5,4,0:0:0:0:
352,53,48035,2,0,B|376:61|376:61|395:56|395:56|428:58,2,70,2|2|2,0:2|0:2|0:2,0:0:0:0:
463,154,48547,2,0,B|438:162|438:162|419:157|419:157|387:159,2,70,2|2|2,0:2|0:2|0:2,0:0:0:0:
346,246,49058,1,2,0:2:0:0:
360,335,49228,6,0,B|307:339|269:296|269:296|256:349|196:367,1,210,6|0,0:1|0:0,0:0:0:0:
105,374,49910,2,0,B|60:367|57:307|92:284|92:284|194:287,1,210,8|0,0:0|0:0,0:0:0:0:
198,196,50592,2,0,L|122:194,1,70,4|0,0:0|0:0,0:0:0:0:
103,106,50933,1,0,0:0:0:0:
103,106,51103,2,0,L|172:104,1,70,6|10,0:0|0:0,0:0:0:0:
260,130,51444,1,6,0:0:0:0:
260,130,51615,2,0,L|329:131,1,70,2|6,0:0|0:0,0:0:0:0:
394,66,51956,6,0,B|358:89|358:89|358:141|358:141|354:146|354:146|354:215|354:215|313:238,1,210,4|4,0:0|0:0,0:0:0:0:
267,309,52638,2,0,P|199:302|176:306,1,70,8|4,0:0|0:0,0:0:0:0:
110,278,52978,1,0,0:0:0:0:
38,334,53149,1,8,0:0:0:0:
7,248,53319,6,0,P|9:202|20:164,1,70,8|4,0:0|0:0,0:0:0:0:
54,96,53660,1,8,0:0:0:0:
150,116,53831,1,4,0:0:0:0:
150,116,53916,1,4,0:0:0:0:
150,116,54001,2,0,P|196:116|231:99,1,70,8|4,0:0|0:0,0:0:0:0:
299,147,54342,2,0,P|332:136|366:138,1,70,8|4,0:0|0:0,0:0:0:0:
458,139,54683,6,0,B|463:99|429:77|381:89|368:114|368:171|388:197|440:222,1,210,4|0,0:0|0:0,0:0:0:0:
455,290,55365,2,0,P|399:282|372:288,1,70,10|0,0:1|0:0,0:0:0:0:
301,251,55706,1,0,0:0:0:0:
149,351,56047,1,4,0:0:0:0:
108,269,56217,2,0,P|120:237|120:186,1,70,0|0,0:0|0:0,0:0:0:0:
89,118,56558,1,4,0:0:0:0:
167,72,56728,2,0,B|199:55|199:55|228:54|228:54|251:45,1,70,10|6,0:0|0:0,0:0:0:0:
316,89,57069,2,0,B|347:74|347:74|354:78|354:78|364:66|364:66|389:79,1,70,2|2,0:0|0:0,0:0:0:0:
465,60,57410,6,0,B|414:49|414:49|419:168|419:168|468:159,1,210,4|4,0:0|0:0,0:0:0:0:
420,244,58092,2,0,P|380:232|352:202,1,70,0|4,0:0|0:0,0:0:0:0:
270,193,58433,2,0,P|279:233|267:272,1,70,0|4,0:0|0:0,0:0:0:0:
328,132,58774,5,4,0:0:0:0:
239,113,58944,2,0,B|201:104|201:104|207:99|207:99|158:79,2,70,2|2|4,0:2|0:2|0:0,0:0:0:0:
98,59,59456,2,0,B|60:68|60:68|66:73|66:73|17:93,2,70,8|2|2,0:0|0:2|0:2,0:0:0:0:
21,183,59967,1,2,0:2:0:0:
111,192,60138,6,0,B|99:205|99:205|92:236|92:236|104:267|104:267|131:284|131:284|164:283|164:283|188:264|188:264|196:244|196:244|195:232|195:232,1,210,6|0,0:1|0:0,0:0:0:0:
242,156,60819,2,0,B|303:126|303:126|330:139|330:139|331:143|331:143|332:139|332:139|374:137|374:137|413:197,1,210,8|0,0:0|0:0,0:0:0:0:
413,280,61501,2,0,P|378:273|343:276,1,70,4|0,0:0|0:0,0:0:0:0:
277,338,61842,1,0,0:0:0:0:
277,338,62013,2,0,P|242:345|207:341,1,70,6|10,0:0|0:0,0:0:0:0:
130,295,62353,1,6,0:0:0:0:
42,319,62524,2,0,P|43:262|63:231,1,70,2|6,0:0|0:0,0:0:0:0:
130,295,62865,1,4,0:0:0:0:
256,192,62950,12,8,65251,0:0:0:0:
69,188,65592,6,0,B|107:181|126:151|126:151|154:181|207:181,1,140,6|0,0:1|0:0,0:0:0:0:
271,142,66103,1,0,0:0:0:0:
271,142,66274,2,0,P|262:101|261:63,1,70,8|0,0:0|0:0,0:0:0:0:
343,111,66615,2,0,P|349:150|313:210,1,105,0|0,0:0|0:0,0:0:0:0:
284,236,66956,6,0,P|343:237|419:279,1,140,4|0,0:0|0:0,0:0:0:0:
359,347,67467,1,4,0:0:0:0:
359,347,67638,2,0,P|311:357|261:352,1,70,10|6,0:0|0:0,0:0:0:0:
216,303,67978,2,0,P|168:293|118:298,1,70,2|2,0:0|0:0,0:0:0:0:
93,367,68319,6,0,P|95:319|114:213,1,140,4|0,0:0|0:0,0:0:0:0:
139,141,68831,1,0,0:0:0:0:
223,107,69001,2,0,P|271:95|303:94,1,70,8|0,0:0|0:0,0:0:0:0:
359,154,69342,2,0,P|407:166|439:167,1,70,0|0,0:0|0:0,0:0:0:0:
296,209,69683,5,4,0:0:0:0:
205,204,69853,2,0,P|176:185|119:208,2,70,2|2|4,0:2|0:2|0:0,0:0:0:0:
283,304,70365,2,0,P|312:323|369:300,2,70,8|2|2,0:0|0:2|0:2,0:0:0:0:
394,247,70876,1,2,0:2:0:0:
441,324,71047,6,0,B|461:244|503:269|515:190,1,140,6|0,0:1|0:0,0:0:0:0:
512,118,71558,1,0,0:0:0:0:
512,118,71728,2,0,P|467:128|420:128,1,70,8|0,0:0|0:0,0:0:0:0:
352,113,72069,2,0,P|307:103|247:124,1,105,0|0,0:0|0:0,0:0:0:0:
209,103,72410,6,0,P|226:152|223:268,1,140,4|0,0:0|0:0,0:0:0:0:
167,307,72922,1,6,0:0:0:0:
167,307,73092,2,0,P|120:294|87:292,1,70,10|6,0:0|0:0,0:0:0:0:
64,207,73433,1,2,0:0:0:0:
154,186,73603,1,2,0:3:0:0:
167,95,73774,6,0,B|245:83|219:41|303:37,1,140,4|0,0:0|0:0,0:0:0:0:
378,66,74285,1,4,0:0:0:0:
432,139,74456,2,0,P|434:181|428:230,1,70,8|8,0:0|0:0,0:0:0:0:
363,269,74797,1,4,0:0:0:0:
342,357,74967,1,4,0:0:0:0:
342,357,75052,1,4,0:0:0:0:
342,357,75138,6,0,L|288:352,3,35,8|4|4|4,0:0|0:0|0:0|0:0,0:0:0:0:
275,320,75478,2,0,L|221:325,3,35,8|4|4|4,0:0|0:0|0:0|0:0,0:0:0:0:
202,297,75819,2,0,P|169:280|115:280,1,70,8|4,0:0|0:0,0:0:0:0:
93,195,76160,2,0,P|127:190|158:174,1,70,8|4,0:0|0:0,0:0:0:0:
247,156,76501,5,2,0:2:0:0:
233,188,76672,1,0,0:0:0:0:
232,222,76842,1,0,0:0:0:0:
314,90,77183,2,0,P|281:70|232:67,1,70,10|0,0:1|0:0,0:0:0:0:
247,156,77524,2,0,P|324:178|348:173,1,105,0|0,0:0|0:0,0:0:0:0:
392,169,77865,6,0,P|334:224|356:293,1,140,4|0,0:0|0:0,0:0:0:0:
307,361,78376,1,4,0:0:0:0:
307,361,78547,2,0,P|253:357|232:350,1,70,10|6,0:0|0:0,0:0:0:0:
176,284,78888,2,0,P|122:288|101:295,1,70,2|2,0:0|0:0,0:0:0:0:
47,360,79228,6,0,P|70:305|56:200,1,140,4|0,0:0|0:0,0:0:0:0:
88,136,79740,1,0,0:0:0:0:
35,62,79910,2,0,P|75:47|128:52,1,70,8|0,0:0|0:0,0:0:0:0:
169,107,80251,2,0,P|209:122|262:117,1,70,0|0,0:0|0:0,0:0:0:0:
88,136,80592,5,4,0:0:0:0:
127,217,80763,2,0,B|94:233|94:233|17:219,2,70,2|2|4,0:2|0:2|0:0,0:0:0:0:
40,309,81274,2,0,B|73:325|73:325|150:311,2,70,8|2|2,0:0|0:2|0:2,0:0:0:0:
143,381,81785,1,2,0:2:0:0:
213,322,81956,6,0,B|276:299|276:299|275:305|275:305|330:319|330:319|351:308,1,140,6|0,0:1|0:0,0:0:0:0:
416,264,82467,1,0,0:0:0:0:
416,264,82638,2,0,P|406:226|408:184,1,70,8|0,0:0|0:0,0:0:0:0:
444,113,82978,2,0,P|389:150|340:133,1,105,0|0,0:0|0:0,0:0:0:0:
346,97,83319,6,0,B|280:70|280:70|262:81|262:81|191:87,1,140,4|0,0:0|0:0,0:0:0:0:
138,33,83831,1,4,0:0:0:0:
73,96,84001,2,0,P|62:150|60:183,1,70,10|6,0:0|0:0,0:0:0:0:
140,208,84342,2,0,P|151:262|153:295,1,70,2|2,0:0|0:0,0:0:0:0:
72,333,84683,6,0,P|149:319|329:316,1,245,0|0,0:0|0:0,0:0:0:0:
315,305,85365,2,0,P|192:304|71:323,1,245,0|0,0:0|0:0,0:0:0:0:
68,314,86047,2,0,P|188:295|311:295,1,245,0|0,0:0|0:0,0:0:0:0:
311,285,86728,2,0,P|188:284|67:303,1,245,0|0,0:0|0:0,0:0:0:0:
60,310,87410,6,0,P|62:228|157:144,1,210,6|4,0:1|0:0,0:0:0:0:
200,149,88007,1,4,0:0:0:0:
200,149,88092,1,8,0:0:0:0:
200,149,88603,1,4,0:0:0:0:
238,58,88774,5,4,0:0:0:0:
238,58,88944,2,0,P|204:51|152:62,1,70,8|0,0:0|0:0,0:0:0:0:
78,62,89285,1,4,0:0:0:0:
78,62,89456,2,0,P|88:94|124:134,1,70,8|0,0:0|0:0,0:0:0:0:
109,122,90138,6,0,B|230:131|142:228|289:259,1,210,4|4,0:0|0:0,0:0:0:0:
303,250,90734,1,4,0:0:0:0:
303,250,90819,2,0,P|282:279|256:328,1,70,8|8,0:0|0:0,0:0:0:0:
87,351,91331,1,8,0:0:0:0:
122,267,91501,6,0,P|119:301|102:331,1,70,4|8,0:0|0:0,0:0:0:0:
70,202,91842,2,0,P|101:186|135:186,1,70,4|4,0:0|0:0,0:0:0:0:
191,274,92183,2,0,L|108:265,1,70,8|0,0:0|0:0,0:0:0:0:
317,243,92694,1,4,0:0:0:0:
367,318,92865,6,0,P|361:227|387:97,1,210,6|4,0:1|0:0,0:0:0:0:
405,71,93461,1,4,0:0:0:0:
405,71,93547,1,8,0:0:0:0:
405,71,94058,1,8,0:0:0:0:
317,47,94228,5,4,0:0:0:0:
317,47,94399,2,0,P|259:34|236:32,1,70,8|0,0:0|0:0,0:0:0:0:
193,128,94740,1,4,0:0:0:0:
193,128,94910,2,0,P|227:122|261:113,1,70,8|0,0:0|0:0,0:0:0:0:
122,83,95251,2,0,P|109:128|123:169,1,70,4|8,0:0|0:0,0:0:0:0:
28,184,95592,6,0,P|79:180|149:249,1,140,4|4,0:0|0:0,0:0:0:0:
208,298,96103,1,0,0:0:0:0:
208,298,96274,2,0,P|246:293|289:294,1,70,8|0,0:0|0:0,0:0:0:0:
368,297,96615,2,0,L|379:251,3,35,4|4|4|4,0:0|0:0|0:0|0:0,0:0:0:0:
397,222,96956,2,0,P|358:203|324:201,1,70,8|4,0:0|0:0,0:0:0:0:
285,121,97297,2,0,P|319:116|350:99,1,70,4|8,0:0|0:0,0:0:0:0:
438,74,97638,1,8,0:0:0:0:
438,74,97808,1,4,0:0:0:0:
502,137,97978,2,0,P|489:169|488:204,1,70,4|0,0:0|0:0,0:0:0:0:
507,290,98319,6,0,P|447:298|361:296,1,140,6|4,0:1|0:0,0:0:0:0:
275,293,98831,1,8,0:0:0:0:
275,293,98916,1,8,0:0:0:0:
275,293,99001,2,0,P|227:286|172:288,1,70,4|8,0:0|0:0,0:0:0:0:
114,275,99342,2,0,P|144:236|169:188,1,70,4|8,0:0|0:0,0:0:0:0:
160,172,99598,1,8,0:0:0:0:
160,172,99683,6,0,P|226:165|301:164,1,140,4|4,0:0|0:0,0:0:0:0:
387,190,100194,1,8,0:0:0:0:
387,190,100280,1,8,0:0:0:0:
387,190,100365,2,0,P|376:155|375:100,1,70,4|8,0:0|0:0,0:0:0:0:
333,39,100706,2,0,P|308:66|261:94,1,70,4|8,0:0|0:0,0:0:0:0:
237,70,100961,1,8,0:0:0:0:
237,70,101047,6,0,B|141:65|178:89|78:102,1,140,4|4,0:0|0:0,0:0:0:0:
79,186,101558,1,8,0:0:0:0:
79,186,101643,1,8,0:0:0:0:
79,186,101728,1,4,0:0:0:0:
130,261,101899,1,8,0:0:0:0:
94,344,102069,2,0,P|141:353|172:342,1,70,4|8,0:0|0:0,0:0:0:0:
198,319,102325,1,8,0:0:0:0:
198,319,102410,6,0,B|245:290|270:345|310:285|348:319,1,140,4|4,0:0|0:0,0:0:0:0:
426,325,102922,1,8,0:0:0:0:
426,325,103007,1,8,0:0:0:0:
426,325,103092,1,4,0:0:0:0:
463,241,103263,1,8,0:0:0:0:
408,168,103433,2,0,P|408:124|425:78,1,70,4|8,0:0|0:0,0:0:0:0:
428,55,103689,1,8,0:0:0:0:
428,55,103774,6,0,B|382:32|382:32|371:4,1,70,12|12,0:0|0:0,0:0:0:0:
284,22,104115,2,0,L|235:24,3,35,8|8|8|8,0:0|0:0|0:0|0:0,0:0:0:0:
203,30,104456,2,0,B|199:51|199:51|205:69|205:69|179:119,1,70,12|12,0:0|0:0,0:0:0:0:
220,181,104797,2,0,P|205:188|172:187,3,35,12|8|12|8,0:0|0:0|0:0|0:0,0:0:0:0:
141,181,105138,6,0,B|137:208|137:208|146:217|146:217|128:231|128:231|141:268,1,70,12|12,0:0|0:0,0:0:0:0:
188,307,105478,2,0,L|242:305,3,35,8|8|8|8,0:0|0:0|0:0|0:0,0:0:0:0:
264,325,105819,2,0,B|290:312|290:312|294:312|294:312|310:323|310:323|322:315|322:315|350:313,1,70,12|12,0:0|0:0,0:0:0:0:
415,305,106160,2,0,L|425:262,3,35,8|8|8|8,0:0|0:0|0:0|0:0,0:0:0:0:
435,227,106501,6,0,L|422:181,3,35,12|8|8|8,0:0|0:0|0:0|0:0,0:0:0:0:
428,147,106842,2,0,L|386:123,3,35,12|8|8|8,0:0|0:0|0:0|0:0,0:0:0:0:
373,90,107183,2,0,L|327:103,3,35,12|8|8|8,0:0|0:0|0:0|0:0,0:0:0:0:
293,97,107524,2,0,L|269:138,3,35,12|8|8|8,0:0|0:0|0:0|0:0,0:0:0:0:
230,137,107865,6,0,L|235:222,1,70,4|4,0:0|0:0,0:0:0:0:
255,295,108206,1,8,0:0:0:0:
175,338,108376,2,0,L|119:332,5,35,4|4|4|8|4|0,0:0|0:0|0:0|0:0|0:0|0:0,0:0:0:0:
104,305,108888,1,8,0:1:0:0:
121,215,109058,1,4,0:0:0:0:
80,133,109228,6,0,B|64:112|72:68|112:51|156:72|159:114|159:114|178:144|229:133,1,210,6|0,0:1|0:0,0:0:0:0:
291,103,109910,2,0,P|340:95|375:100,1,70,0|4,0:0|0:0,0:0:0:0:
436,147,110251,1,8,0:0:0:0:
436,147,110422,1,0,0:0:0:0:
464,233,110592,6,0,P|412:233|369:213,1,70,4|0,0:0|0:0,0:0:0:0:
319,277,110933,2,0,P|267:277|224:297,1,70,8|0,0:0|0:0,0:0:0:0:
159,284,111274,1,2,0:0:0:0:
159,284,111444,2,0,P|185:238|189:191,1,70,6|10,0:0|0:0,0:0:0:0:
241,147,111785,1,2,0:0:0:0:
311,89,111956,6,0,B|221:33|221:33|178:8|142:23|129:49,1,210,4|0,0:0|0:0,0:0:0:0:
51,94,112638,2,0,P|93:131|126:136,1,70,0|4,0:0|0:0,0:0:0:0:
158,207,112978,2,0,P|200:170|233:165,1,70,8|0,0:0|0:0,0:0:0:0:
300,190,113319,5,4,0:0:0:0:
355,262,113490,2,0,B|374:310|374:310|371:310|371:310|360:348,2,70,2|8|2,0:2|0:0|0:2,0:0:0:0:
443,384,114001,2,0,B|438:369|438:369|435:369|435:369|454:321,2,70,2|4|8,0:2|0:0|0:0,0:0:0:0:
451,235,114513,1,2,0:2:0:0:
499,158,114683,6,0,B|396:149|441:66|313:73,1,210,6|0,0:1|0:0,0:0:0:0:
233,36,115365,1,0,0:0:0:0:
233,36,115535,2,0,P|189:47|133:36,1,70,4|8,0:0|0:0,0:0:0:0:
79,13,115876,1,0,0:0:0:0:
41,96,116047,6,0,P|73:142|47:242,1,140,4|8,0:0|0:0,0:0:0:0:
115,296,116558,1,2,0:0:0:0:
203,315,116728,2,0,L|281:308,1,70,2|6,0:0|0:0,0:0:0:0:
339,246,117069,2,0,L|417:253,1,70,10|6,0:0|0:0,0:0:0:0:
493,285,117410,5,4,0:0:0:0:
487,193,117581,1,8,0:0:0:0:
487,193,117751,2,0,P|481:152|482:110,1,70,8|4,0:0|0:0,0:0:0:0:
399,82,118092,2,0,P|366:107|329:127,1,70,8|4,0:0|0:0,0:0:0:0:
250,119,118433,2,0,L|212:113,3,35,4|0|8|8,0:0|0:0|0:0|0:0,0:0:0:0:
171,101,118774,6,0,P|174:151|171:197,1,70,8|4,0:0|0:0,0:0:0:0:
96,220,119115,2,0,P|93:254|93:289,1,70,8|4,0:0|0:0,0:0:0:0:
123,323,119370,1,4,0:0:0:0:
123,323,119456,1,8,0:0:0:0:
209,294,119626,1,4,0:0:0:0:
291,332,119797,2,0,P|342:340|374:329,1,70,8|4,0:0|0:0,0:0:0:0:
437,383,120138,6,0,B|462:340|438:288|438:288|402:224|463:171,1,210,0|0,0:0|0:0,0:0:0:0:
472,98,120819,2,0,L|392:92,1,70,2|4,0:1|0:0,0:0:0:0:
319,53,121160,2,0,L|207:73,1,105,8|0,0:0|0:0,0:0:0:0:
171,58,121501,6,0,P|196:111|175:217,1,140,4|8,0:0|0:0,0:0:0:0:
149,273,122013,1,0,0:0:0:0:
218,331,122183,2,0,B|249:328|249:328|257:318|275:319|275:319|311:331,1,70,2|6,0:0|0:0,0:0:0:0:
378,319,122524,2,0,B|366:292|366:292|349:289|349:289|346:274|349:272|349:272|331:238,1,70,10|2,0:0|0:0,0:0:0:0:
419,211,122865,6,0,P|353:224|346:103,1,210,4|0,0:0|0:0,0:0:0:0:
276,39,123547,2,0,P|237:38|183:43,1,70,0|0,0:0|0:0,0:0:0:0:
151,113,123888,2,0,P|116:114|81:112,1,70,8|0,0:0|0:0,0:0:0:0:
16,175,124228,5,4,0:0:0:0:
93,223,124399,2,0,B|61:257|61:257|86:274,2,70,2|8|2,0:2|0:0|0:2,0:0:0:0:
190,303,124910,2,0,B|222:337|222:337|204:359,2,70,2|4|8,0:2|0:0|0:0,0:0:0:0:
262,201,125422,1,2,0:2:0:0:
308,279,125592,6,0,B|434:281|362:202|518:213,1,210,6|0,0:1|0:0,0:0:0:0:
475,123,126274,1,0,0:0:0:0:
475,123,126444,2,0,P|420:118|383:122,1,70,4|8,0:0|0:0,0:0:0:0:
319,88,126785,1,0,0:0:0:0:
245,34,126956,6,0,P|229:73|286:176,1,140,4|8,0:0|0:0,0:0:0:0:
283,249,127467,1,2,0:0:0:0:
202,292,127638,2,0,B|172:278|172:278|170:288|158:278|158:278|108:266,1,70,2|6,0:0|0:0,0:0:0:0:
154,189,127978,2,0,B|148:170|148:170|134:163|134:163|139:148|139:148|113:113,1,70,10|2,0:0|0:0,0:0:0:0:
256,192,128319,12,0,129342,0:0:0:0:
286,20,129683,6,0,L|349:12,2,46.6666666666667,8|4|4,0:0|0:0|0:0,0:0:0:0:
318,88,130024,2,0,L|364:93,2,46.6666666666667,4|4|4,0:0|0:0|0:0,0:0:0:0:
354,165,130365,2,0,L|417:157,2,46.6666666666667,4|4|4,0:0|0:0|0:0,0:0:0:0:
403,231,130706,2,0,L|449:236,2,46.6666666666667,2|0|0,0:2|0:0|0:0,0:0:0:0:
478,316,131047,6,0,B|369:301|369:301|336:326,1,140,6|0,0:1|0:0,0:0:0:0:
262,358,131558,1,0,0:0:0:0:
184,310,131728,2,0,P|131:304|97:313,1,70,8|0,0:0|0:0,0:0:0:0:
25,326,132069,2,0,B|44:311|44:311|43:282|43:282|40:277|40:277|58:263|58:263|49:241|49:241|46:217,1,105,0|0,0:0|0:0,0:0:0:0:
27,200,132410,6,0,P|62:197|77:91,1,140,4|0,0:0|0:0,0:0:0:0:
46,31,132922,1,8,0:0:0:0:
46,31,133007,1,8,0:0:0:0:
46,31,133092,2,0,P|84:18|132:27,1,70,6|10,0:0|0:0,0:0:0:0:
175,86,133433,1,10,0:0:0:0:
264,100,133603,1,6,0:0:0:0:
349,74,133774,6,0,B|338:107|350:131|350:131|365:154|365:154|381:188|364:228,1,140,4|0,0:0|0:0,0:0:0:0:
335,290,134285,1,4,0:0:0:0:
335,290,134456,2,0,P|285:279|250:278,1,70,8|0,0:0|0:0,0:0:0:0:
188,229,134797,2,0,P|138:240|103:241,1,70,0|0,0:0|0:0,0:0:0:0:
40,287,135138,5,4,0:0:0:0:
34,195,135308,2,0,B|36:158|36:158|41:161|41:161|-1:139,2,70,2|2|4,0:2|0:2|0:0,0:0:0:0:
126,108,135819,2,0,B|124:71|124:71|119:74|119:74|161:52,2,70,8|2|2,0:0|0:2|0:2,0:0:0:0:
224,28,136331,1,2,0:2:0:0:
271,98,136501,6,0,P|340:115|421:71,1,140,2|4,0:1|0:0,0:0:0:0:
489,116,137013,1,0,0:0:0:0:
489,116,137183,2,0,P|478:152|470:197,1,70,8|0,0:0|0:0,0:0:0:0:
399,239,137524,2,0,B|402:270|402:270|394:282|394:282|405:292|405:292|379:314|379:314|368:347,1,105,0|0,0:0|0:0,0:0:0:0:
366,368,137865,6,0,B|283:359|332:316|221:314,1,140,4|0,0:0|0:0,0:0:0:0:
162,267,138376,1,8,0:0:0:0:
162,267,138461,1,8,0:0:0:0:
162,267,138547,2,0,P|108:280|70:278,1,70,6|10,0:0|0:0,0:0:0:0:
30,214,138888,1,10,0:0:0:0:
59,128,139058,1,6,0:0:0:0:
46,38,139228,6,0,B|140:36|94:101|197:105,1,140,4|0,0:0|0:0,0:0:0:0:
254,82,139740,1,4,0:0:0:0:
254,82,139910,2,0,P|308:77|346:79,1,70,8|8,0:0|0:0,0:0:0:0:
393,135,140251,1,4,0:0:0:0:
484,137,140422,1,4,0:0:0:0:
484,137,140507,1,4,0:0:0:0:
484,137,140592,6,0,L|476:192,3,35,8|4|4|4,0:0|0:0|0:0|0:0,0:0:0:0:
454,210,140933,2,0,L|462:265,3,35,8|4|4|4,0:0|0:0|0:0|0:0,0:0:0:0:
478,286,141274,2,0,P|429:297|390:309,1,70,8|4,0:0|0:0,0:0:0:0:
335,247,141615,2,0,P|286:236|247:224,1,70,8|4,0:0|0:0,0:0:0:0:
190,180,141956,5,2,0:2:0:0:
190,180,142126,1,4,0:0:0:0:
102,207,142297,2,0,P|112:122|142:92,1,105,4|0,0:0|0:0,0:0:0:0:
116,63,142638,2,0,P|153:85|205:88,1,70,10|0,0:1|0:0,0:0:0:0:
258,46,142978,2,0,B|278:39|278:39|295:24|295:24|308:26|308:26|320:13|320:13|352:19|352:19|368:35,1,105,0|0,0:0|0:0,0:0:0:0:
395,21,143319,6,0,P|369:44|409:133,1,140,4|0,0:0|0:0,0:0:0:0:
492,140,143831,1,0,0:0:0:0:
492,140,144001,2,0,P|482:190|482:222,1,70,10|2,0:0|0:0,0:0:0:0:
410,266,144342,2,0,P|420:316|420:348,1,70,2|2,0:0|0:0,0:0:0:0:
493,382,144683,6,0,L|330:362,1,140,4|0,0:0|0:0,0:0:0:0:
267,335,145194,1,4,0:0:0:0:
267,335,145365,2,0,B|271:302|271:302|274:288|265:279|265:279|273:260,1,70,8|0,0:0|0:0,0:0:0:0:
210,198,145706,2,0,P|206:156|204:123,1,70,0|0,0:0|0:0,0:0:0:0:
229,40,146047,5,4,0:0:0:0:
140,19,146217,2,0,B|84:12|84:12|72:-11,2,70,2|2|2,0:2|0:2|0:2,0:0:0:0:
62,118,146728,2,0,B|6:125|6:125|-8:149,2,70,8|2|2,0:0|0:2|0:2,0:0:0:0:
94,241,147240,1,2,0:2:0:0:
163,194,147410,6,0,B|240:197|207:249|298:261,1,140,6|4,0:1|0:0,0:0:0:0:
360,224,147922,1,0,0:0:0:0:
433,264,148092,2,0,P|445:212|431:168,1,70,8|0,0:0|0:0,0:0:0:0:
438,105,148433,2,0,B|410:93|410:93|390:95|390:95|396:85|396:85|372:83|372:83|346:73,1,105,0|0,0:0|0:0,0:0:0:0:
319,46,148774,6,0,P|291:67|177:44,1,140,4|0,0:0|0:0,0:0:0:0:
109,18,149285,1,0,0:0:0:0:
109,18,149456,2,0,P|87:45|83:92,1,70,10|2,0:0|0:0,0:0:0:0:
145,143,149797,2,0,P|167:170|171:217,1,70,2|2,0:0|0:0,0:0:0:0:
256,192,150138,12,0,152524,0:0:0:0:
75,156,152865,6,0,B|164:178|135:92|242:127,1,157.500006008148,2|0,0:1|0:0,0:0:0:0:
273,173,153547,2,0,P|324:184|384:145,1,105.000004005432,8|0,0:0|0:0,0:0:0:0:
444,172,154058,2,0,P|417:231|417:285,1,105.000004005432,4|4,0:0|0:0,0:0:0:0:
441,339,154569,2,0,P|405:344|373:331,1,52.5000020027161,4|0,0:0|0:0,0:0:0:0:
332,293,154910,2,0,P|286:268|230:276,1,105.000004005432,8|0,0:0|0:0,0:0:0:0:
235,273,155592,6,0,B|227:169|274:211|267:99,1,157.500006008148,4|0,0:0|0:0,0:0:0:0:
226,60,156274,2,0,P|263:49|337:81,1,105.000004005432,8|0,0:0|0:0,0:0:0:0:
361,132,156785,2,0,P|411:142|459:123,1,105.000004005432,4|4,0:0|0:0,0:0:0:0:
502,183,157297,2,0,P|481:198|466:235,1,52.5000020027161,4|0,0:0|0:0,0:0:0:0:
457,294,157638,1,8,0:0:0:0:
457,294,158319,6,0,B|358:293|404:339|303:341,1,157.500006008148,4|0,0:0|0:0,0:0:0:0:
244,309,159001,2,0,P|189:298|140:304,1,105.000004005432,8|0,0:0|0:0,0:0:0:0:
86,354,159513,2,0,L|98:237,1,105.000004005432,4|4,0:0|0:0,0:0:0:0:
81,177,160024,1,4,0:0:0:0:
219,127,160365,2,0,P|272:107|320:126,1,105.000004005432,8|0,0:0|0:0,0:0:0:0:
371,170,160876,1,0,0:0:0:0:
439,142,161047,6,0,B|409:163|409:163|413:203|413:203|417:210|417:210|422:251|422:251|419:257|419:257|426:310|426:310|399:338,1,210.000008010865,4|8,0:0|0:0,0:0:0:0:
409,326,162069,2,0,P|358:321|344:322,1,52.5000020027161,0|4,0:0|0:0,0:0:0:0:
287,294,162410,2,0,P|236:299|222:298,2,52.5000020027161,0|4|4,0:0|0:0|0:0,0:0:0:0:
341,244,162922,2,0,P|392:249|406:248,1,52.5000020027161,0|8,0:0|0:0,0:0:0:0:
470,231,163263,1,0,0:0:0:0:
470,231,163433,1,0,0:0:0:0:
470,231,163603,1,0,0:0:0:0:
453,148,163774,6,0,B|455:131|438:112|413:115|413:115|358:123|358:123|331:126|319:113|314:88,1,157.500006008148,6|0,0:1|0:0,0:0:0:0:
342,26,164456,2,0,P|296:25|245:57,1,105.000004005432,8|0,0:0|0:0,0:0:0:0:
214,132,164967,2,0,P|168:133|117:101,1,105.000004005432,4|4,0:0|0:0,0:0:0:0:
54,48,165478,2,0,P|38:77|36:120,1,52.5000020027161,4|0,0:0|0:0,0:0:0:0:
71,159,165819,2,0,P|87:188|87:270,1,105.000004005432,8|0,0:0|0:0,0:0:0:0:
90,258,166501,6,0,B|187:252|151:320|252:314,1,157.500006008148,4|0,0:0|0:0,0:0:0:0:
299,286,167183,2,0,P|324:275|366:277,1,52.5000020027161,8|0,0:0|0:0,0:0:0:0:
405,226,167524,2,0,P|430:237|472:235,1,52.5000020027161,0|4,0:0|0:0,0:0:0:0:
436,158,167865,6,0,L|429:100,2,52.5000020027161,0|4|4,0:0|0:0|0:0,0:0:0:0:
364,138,168376,1,0,0:0:0:0:
316,81,168547,2,0,P|240:55|165:99,1,157.500006008148,8|0,0:0|0:0,0:0:0:0:
169,161,169228,6,0,P|185:186|113:291,1,157.500006008148,4|0,0:0|0:0,0:0:0:0:
67,259,169910,2,0,P|89:217|93:140,1,105.000004005432,8|0,0:0|0:0,0:0:0:0:
73,89,170422,2,0,P|65:56|64:25,1,52.5000020027161,4|0,0:0|0:0,0:0:0:0:
132,10,170763,1,4,0:0:0:0:
132,10,170933,2,0,P|164:19|191:34,1,52.5000020027161,4|0,0:0|0:0,0:0:0:0:
242,67,171274,2,0,P|294:74|352:49,1,105.000004005432,8|0,0:0|0:0,0:0:0:0:
342,56,171956,6,0,P|309:97|344:201,1,157.500006008148,4|0,0:0|0:0,0:0:0:0:
308,262,172638,2,0,P|282:259|199:280,1,105.000004005432,8|0,0:0|0:0,0:0:0:0:
134,257,173149,1,4,0:0:0:0:
134,257,173319,2,0,P|93:251|69:238,1,52.5000020027161,0|4,0:0|0:0,0:0:0:0:
83,172,173660,2,0,P|107:163|133:161,1,52.5000020027161,4|0,0:0|0:0,0:0:0:0:
214,219,174001,1,8,0:0:0:0:
214,219,174172,1,0,0:0:0:0:
214,219,174342,1,0,0:0:0:0:
214,219,174513,1,0,0:0:0:0:
292,188,174683,5,6,0:1:0:0:
