osu file format v14

[General]
AudioFilename: audio.mp3
AudioLeadIn: 0
PreviewTime: 106538
Countdown: 0
SampleSet: Drum
StackLeniency: 0.7
Mode: 0
LetterboxInBreaks: 0
EpilepsyWarning: 1
WidescreenStoryboard: 1

[Editor]
Bookmarks: 11084,21993,32902,43811,65629,87447,98356,109265,131089,152902,174719
DistanceSpacing: 0.6
BeatDivisor: 3
GridSize: 32
TimelineZoom: 4.1

[Metadata]
Title:Killin' It (Sped Up Ver.)
TitleUnicode:Killin' It (Sped Up Ver.)
Artist:Krewella
ArtistUnicode:Krewella
Creator:h3ct1c
Version:AYE1337's Insane
Source:
Tags:Hectic Daycore Shmiklak piroshki AYE1337 PantyDev h4d0uk3n1 get wet play hard ep monstercat drumstep dubstep edm electronic english Reisen Udongein Inaba touhou pink anime girl killing speed marvollo m_a_r_v_o_l_l_o
BeatmapID:2328510
BeatmapSetID:1029940

[Difficulty]
HPDrainRate:5
CircleSize:4.3
OverallDifficulty:8
ApproachRate:9.2
SliderMultiplier:1.8
SliderTickRate:1

[Events]
//Background and Video events
0,0,"killin_it.jpg",0,0
//Break Periods
2,338,5022
2,22156,32295
//Storyboard Layer 0 (Background)
//Storyboard Layer 1 (Fail)
//Storyboard Layer 2 (Pass)
//Storyboard Layer 3 (Foreground)
Sprite,Foreground,Centre,"sb/s/b.png",0,0 V,2,69683,69968,3,1.8,1,1.8 F,2,69683,69968,1,0 P,0,69683,69968,A R,0,69683,69968,1.57 C,0,69683,,148,0,204 M,0,69683,69725,320,160,320,161.2729 M,0,69725,69768,320,161.2729,320,162.5457
Sprite,Foreground,Centre,"sb/s/b.png",0,0 V,2,69853,70138,3,1.8,1,1.8 F,2,69853,70138,1,0 P,0,69853,70138,A R,0,69853,70138,1.57 C,0,69853,,148,0,204 M,0,69853,69895,320,297,320,281.3188 M,0,69895,69938,320,281.3188,320,265.6375
Sprite,Foreground,Centre,"sb/s/b.png",0,0 V,2,70024,70309,3,1.8,1,1.8 F,2,70024,70309,1,0 P,0,70024,70309,A R,0,70024,70309,1.57 C,0,70024,,148,0,204 M,0,70024,70066,320,132,320,147.6768 M,0,70066,70109,320,147.6768,320,163
Sprite,Foreground,Centre,"sb/s/b.png",0,0 V,2,70194,70479,3,1.8,1,1.8 F,2,70194,70479,1,0 P,0,70194,70479,A R,0,70194,70479,1.57 C,0,70194,,148,0,204 M,0,70194,70236,320,269,320,267.3072 M,0,70236,70279,320,267.3072,320,265.6143
Sprite,Foreground,Centre,"sb/s/b.png",0,0 V,2,70365,70650,3,1.8,1,1.8 F,2,70365,70650,1,0 P,0,70365,70650,A R,0,70365,70650,1.57 C,0,70365,,242,0,6 M,0,70365,70407,320,349,320,344.4305 M,0,70407,70450,320,344.4305,320,339.0575
Sprite,Foreground,Centre,"sb/s/b.png",0,0 V,2,70535,70820,3,1.8,1,1.8 F,2,70535,70820,1,0 P,0,70535,70820,A R,0,70535,70820,1.57 C,0,70535,,242,0,6 M,0,70535,70577,320,230,320,244.8412 M,0,70577,70620,320,244.8412,320,260.2696
Sprite,Foreground,Centre,"sb/s/b.png",0,0 V,2,70706,70991,3,1.8,1,1.8 F,2,70706,70991,1,0 P,0,70706,70991,A R,0,70706,70991,1.57 C,0,70706,,242,0,6 M,0,70706,70748,320,375,320,359.7015 M,0,70748,70791,320,359.7015,320,344.2575
Sprite,Foreground,Centre,"sb/s/b.png",0,0 V,2,70876,71161,3,1.8,1,1.8 F,2,70876,71161,1,0 P,0,70876,71161,A R,0,70876,71161,1.57 C,0,70876,,242,0,6 M,0,70876,70918,320,256,320,259.4323 M,0,70918,70961,320,259.4323,320,264.6386
Sprite,Foreground,Centre,"sb/s/b.png",0,0 V,2,71047,71502,3,1.8,1,1.8 F,2,71047,71502,1,0 P,0,71047,71502,A R,0,71047,71502,1.57 C,0,71047,,217,0,124 M,0,71047,71089,320,362,320,330.6647 M,0,71089,71132,320,330.6647,320,299.3295 M,0,71132,71174,320,299.3295,320,267.9943 M,0,71174,71217,320,267.9943,320,236.659 M,0,71217,71260,320,236.659,320,205.3237 M,0,71260,71302,320,205.3237,320,173.9885
Sprite,Foreground,Centre,"sb/s/b.png",0,0 V,2,80592,80877,3,1.8,1,1.8 F,2,80592,80877,1,0 P,0,80592,80877,A R,0,80592,80877,1.57 C,0,80592,,148,0,204 M,0,80592,80634,320,148,320,146.1048 M,0,80634,80677,320,146.1048,320,144.2096
Sprite,Foreground,Centre,"sb/s/b.png",0,0 V,2,80763,81048,3,1.8,1,1.8 F,2,80763,81048,1,0 P,0,80763,81048,A R,0,80763,81048,1.57 C,0,80763,,148,0,204 M,0,80763,80805,320,280,320,264.3188 M,0,80805,80848,320,264.3188,320,248.6375
Sprite,Foreground,Centre,"sb/s/b.png",0,0 V,2,80933,81218,3,1.8,1,1.8 F,2,80933,81218,1,0 P,0,80933,81218,A R,0,80933,81218,1.57 C,0,80933,,148,0,204 M,0,80933,80975,320,210,320,225.6205 M,0,80975,81018,320,225.6205,320,241
Sprite,Foreground,Centre,"sb/s/b.png",0,0 V,2,81103,81388,3,1.8,1,1.8 F,2,81103,81388,1,0 P,0,81103,81388,A R,0,81103,81388,1.57 C,0,81103,,148,0,204 M,0,81103,81145,320,342,320,342.9825 M,0,81145,81188,320,342.9825,320,343.9649
Sprite,Foreground,Centre,"sb/s/b.png",0,0 V,2,81274,81559,3,1.8,1,1.8 F,2,81274,81559,1,0 P,0,81274,81559,A R,0,81274,81559,1.57 C,0,81274,,242,0,6 M,0,81274,81316,320,318,320,318.497 M,0,81316,81359,320,318.497,320,317
Sprite,Foreground,Centre,"sb/s/b.png",0,0 V,2,81444,81729,3,1.8,1,1.8 F,2,81444,81729,1,0 P,0,81444,81729,A R,0,81444,81729,1.57 C,0,81444,,242,0,6 M,0,81444,81486,320,176,320,191.6571 M,0,81486,81529,320,191.6571,320,207
Sprite,Foreground,Centre,"sb/s/b.png",0,0 V,2,81615,81900,3,1.8,1,1.8 F,2,81615,81900,1,0 P,0,81615,81900,A R,0,81615,81900,1.57 C,0,81615,,242,0,6 M,0,81615,81657,320,238,320,222.3472 M,0,81657,81700,320,222.3472,320,207
Sprite,Foreground,Centre,"sb/s/b.png",0,0 V,2,81785,82070,3,1.8,1,1.8 F,2,81785,82070,1,0 P,0,81785,82070,A R,0,81785,82070,1.57 C,0,81785,,242,0,6 M,0,81785,81827,320,104,320,103.5243 M,0,81827,81870,320,103.5243,320,105
Sprite,Foreground,Centre,"sb/s/b.png",0,0 V,2,81956,82411,3,1.8,1,1.8 F,2,81956,82411,1,0 P,0,81956,82411,A R,0,81956,82411,1.57 C,0,81956,,217,0,124 M,0,81956,81998,320,136,320,167.3299 M,0,81998,82041,320,167.3299,320,198.6598 M,0,82041,82083,320,198.6598,320,229.9897 M,0,82083,82126,320,229.9897,320,261.3196 M,0,82126,82169,320,261.3196,320,292.6495 M,0,82169,82211,320,292.6495,320,323.9794
Sprite,Foreground,Centre,"sb/s/b.png",0,0 V,2,109228,109683,4,1.8,2,1.8 F,2,109228,109683,1,0 P,0,109228,109683,A R,0,109228,109683,1.57 C,0,109228,,217,0,124 M,0,109228,109270,320,188,320,194.0409 M,0,109270,109313,320,194.0409,320,207.6673 M,0,109313,109355,320,207.6673,320,225.5264 M,0,109355,109398,320,225.5264,320,201.8501 M,0,109398,109441,320,201.8501,320,182.9579 M,0,109441,109483,320,182.9579,320,168.8039
Sprite,Foreground,Centre,"sb/s/b.png",0,0 V,2,109569,110024,4,1.8,2,1.8 F,2,109569,110024,1,0 P,0,109569,110024,A R,0,109569,110024,1.57 C,0,109569,,148,0,204 M,0,109569,109611,320,178,320,178.8111 M,0,109611,109654,320,178.8111,320,180.6555 M,0,109654,109696,320,180.6555,320,183.5068 M,0,109696,109739,320,183.5068,320,187.3254 M,0,109739,109782,320,187.3254,320,192.0587 M,0,109782,109824,320,192.0587,320,197.4718
Sprite,Foreground,Centre,"sb/s/b.png",0,0 V,2,109910,110365,4,1.8,2,1.8 F,2,109910,110365,1,0 P,0,109910,110365,A R,0,109910,110365,1.57 C,0,109910,,242,0,6 M,0,109910,109952,320,267,320,293.788 M,0,109952,109995,320,293.788,320,312.9336 M,0,109995,110037,320,312.9336,320,321.5534 M,0,110037,110080,320,321.5534,320,318.4034 M,0,110080,110123,320,318.4034,320,303.9276 M,0,110123,110165,320,303.9276,320,280.2647
Sprite,Foreground,Centre,"sb/s/b.png",0,0 V,2,110251,110706,4,1.8,2,1.8 F,2,110251,110706,1,0 P,0,110251,110706,A R,0,110251,110706,1.57 C,0,110251,,217,0,124 M,0,110251,110293,320,277,320,285.3486 M,0,110293,110336,320,285.3486,320,293.297 M,0,110336,110378,320,293.297,320,300.7584 M,0,110378,110421,320,300.7584,320,307.6513 M,0,110421,110464,320,307.6513,320,313.9008 M,0,110464,110506,320,313.9008,320,319.6101
Sprite,Foreground,Centre,"sb/s/b.png",0,0 V,2,110592,111047,4,1.8,2,1.8 F,2,110592,111047,1,0 P,0,110592,111047,A R,0,110592,111047,1.57 C,0,110592,,148,0,204 M,0,110592,110634,320,390,320,393.3223 M,0,110634,110677,320,393.3223,320,396.6446 M,0,110677,110719,320,396.6446,320,413.8779 M,0,110719,110762,320,413.8779,320,432.7779 M,0,110762,110805,320,432.7779,320,436.0975 M,0,110805,110847,320,436.0975,320,439.2319
Sprite,Foreground,Centre,"sb/s/b.png",0,0 V,2,110933,111218,4,1.8,2,1.8 F,2,110933,111218,1,0 P,0,110933,111218,A R,0,110933,111218,1.57 C,0,110933,,148,0,204 M,0,110933,110975,320,428,320,424.6272 M,0,110975,111018,320,424.6272,320,421.2544
Sprite,Foreground,Centre,"sb/s/b.png",0,0 V,2,111103,111388,4,1.8,2,1.8 F,2,111103,111388,1,0 P,0,111103,111388,A R,0,111103,111388,1.57 C,0,111103,,148,0,204 M,0,111103,111145,320,383,320,379.6272 M,0,111145,111188,320,379.6272,320,376.2544
Sprite,Foreground,Centre,"sb/s/b.png",0,0 V,2,111274,111559,4,1.8,2,1.8 F,2,111274,111559,1,0 P,0,111274,111559,A R,0,111274,111559,1.57 C,0,111274,,148,0,204 M,0,111274,111316,320,316,320,312.6272 M,0,111316,111359,320,312.6272,320,309.2544
Sprite,Foreground,Centre,"sb/s/b.png",0,0 V,2,111444,111729,4,1.8,2,1.8 F,2,111444,111729,1,0 P,0,111444,111729,A R,0,111444,111729,1.57 C,0,111444,,242,0,6 M,0,111444,111486,320,277,320,261.0698 M,0,111486,111529,320,261.0698,320,233.2493
Sprite,Foreground,Centre,"sb/s/b.png",0,0 V,2,111615,111900,4,1.8,2,1.8 F,2,111615,111900,1,0 P,0,111615,111900,A R,0,111615,111900,1.57 C,0,111615,,242,0,6 M,0,111615,111657,320,203,320,171.5 M,0,111657,111700,320,171.5,320,145.2423
Sprite,Foreground,Centre,"sb/s/b.png",0,0 V,2,111785,112070,4,1.8,2,1.8 F,2,111785,112070,1,0 P,0,111785,112070,A R,0,111785,112070,1.57 C,0,111785,,242,0,6 M,0,111785,111827,320,137,320,163.4971 M,0,111827,111870,320,163.4971,320,194.6162
Sprite,Foreground,Centre,"sb/s/b.png",0,0 V,2,111956,112411,4,1.8,2,1.8 F,2,111956,112411,1,0 P,0,111956,112411,A R,0,111956,112411,1.57 C,0,111956,,217,0,124 M,0,111956,111998,320,75,320,71.00349 M,0,111998,112041,320,71.00349,320,67.00698 M,0,112041,112083,320,67.00698,320,69.42949 M,0,112083,112126,320,69.42949,320,91.35809 M,0,112126,112169,320,91.35809,320,113.2867 M,0,112169,112211,320,113.2867,320,135.2153
Sprite,Foreground,Centre,"sb/s/b.png",0,0 V,2,112297,112752,4,1.8,2,1.8 F,2,112297,112752,1,0 P,0,112297,112752,A R,0,112297,112752,1.57 C,0,112297,,148,0,204 M,0,112297,112339,320,143,320,136.7132 M,0,112339,112382,320,136.7132,320,130.4263 M,0,112382,112424,320,130.4263,320,124.1395 M,0,112424,112467,320,124.1395,320,117.8527 M,0,112467,112510,320,117.8527,320,111.5658 M,0,112510,112552,320,111.5658,320,105.279
Sprite,Foreground,Centre,"sb/s/b.png",0,0 V,2,112638,113093,4,1.8,2,1.8 F,2,112638,113093,1,0 P,0,112638,113093,A R,0,112638,113093,1.57 C,0,112638,,242,0,6 M,0,112638,112680,320,75,320,103.0818 M,0,112680,112723,320,103.0818,320,131.1636 M,0,112723,112765,320,131.1636,320,153.7617 M,0,112765,112808,320,153.7617,320,175.219 M,0,112808,112851,320,175.219,320,196.6763 M,0,112851,112893,320,196.6763,320,218.1336
Sprite,Foreground,Centre,"sb/s/b.png",0,0 V,2,112978,113263,4,1.8,2,1.8 F,2,112978,113263,1,0 P,0,112978,113263,A R,0,112978,113263,1.57 C,0,112978,,242,0,6 M,0,112978,113020,320,224,320,202.2265 M,0,113020,113063,320,202.2265,320,180.453
Sprite,Foreground,Centre,"sb/s/b.png",0,0 V,2,113149,113434,4,1.8,2,1.8 F,2,113149,113434,1,0 P,0,113149,113434,A R,0,113149,113434,1.57 C,0,113149,,242,0,6 M,0,113149,113191,320,182,320,203.7735 M,0,113191,113234,320,203.7735,320,225.547
Sprite,Foreground,Centre,"sb/s/b.png",0,0 V,2,113319,113604,4,1.8,2,1.8 F,2,113319,113604,1,0 P,0,113319,113604,A R,0,113319,113604,1.57 C,0,113319,,242,0,6 M,0,113319,113361,320,327,320,305.2265 M,0,113361,113404,320,305.2265,320,283.453
Sprite,Foreground,Centre,"sb/s/b.png",0,0 V,2,113490,113775,4,1.8,2,1.8 F,2,113490,113775,1,0 P,0,113490,113775,A R,0,113490,113775,1.57 C,0,113490,,217,0,124 M,0,113490,113532,320,290,320,303.5943 M,0,113532,113575,320,303.5943,320,318.2915
Sprite,Foreground,Centre,"sb/s/b.png",0,0 V,2,113660,113945,4,1.8,2,1.8 F,2,113660,113945,1,0 P,0,113660,113945,A R,0,113660,113945,1.57 C,0,113660,,217,0,124 M,0,113660,113702,320,411,320,410.2233 M,0,113702,113745,320,410.2233,320,407.6896
Sprite,Foreground,Centre,"sb/s/b.png",0,0 V,2,113831,114116,4,1.8,2,1.8 F,2,113831,114116,1,0 P,0,113831,114116,A R,0,113831,114116,1.57 C,0,113831,,217,0,124 M,0,113831,113873,320,376,320,362.4413 M,0,113873,113916,320,362.4413,320,350.218
Sprite,Foreground,Centre,"sb/s/b.png",0,0 V,2,114001,114286,4,1.8,2,1.8 F,2,114001,114286,1,0 P,0,114001,114286,A R,0,114001,114286,1.57 C,0,114001,,148,0,204 M,0,114001,114043,320,317,320,301.3412 M,0,114043,114086,320,301.3412,320,285.6825
Sprite,Foreground,Centre,"sb/s/b.png",0,0 V,2,114172,114457,4,1.8,2,1.8 F,2,114172,114457,1,0 P,0,114172,114457,A R,0,114172,114457,1.57 C,0,114172,,148,0,204 M,0,114172,114214,320,321,320,305.3412 M,0,114214,114257,320,305.3412,320,289.6825
Sprite,Foreground,Centre,"sb/s/b.png",0,0 V,2,114342,114627,4,1.8,2,1.8 F,2,114342,114627,1,0 P,0,114342,114627,A R,0,114342,114627,1.57 C,0,114342,,148,0,204 M,0,114342,114384,320,157,320,172.7011 M,0,114384,114427,320,172.7011,320,188.4023
Sprite,Foreground,Centre,"sb/s/b.png",0,0 V,2,114513,114798,4,1.8,2,1.8 F,2,114513,114798,1,0 P,0,114513,114798,A R,0,114513,114798,1.57 C,0,114513,,148,0,204 M,0,114513,114555,320,153,320,168.7011 M,0,114555,114598,320,168.7011,320,184.4023
Sprite,Foreground,Centre,"sb/s/b.png",0,0 V,2,114683,115138,4,1.8,2,1.8 F,2,114683,115138,1,0 P,0,114683,115138,A R,0,114683,115138,1.57 C,0,114683,,242,0,6 M,0,114683,114725,320,227,320,231.6727 M,0,114725,114768,320,231.6727,320,236.3454 M,0,114768,114810,320,236.3454,320,241.0182 M,0,114810,114853,320,241.0182,320,218.4417 M,0,114853,114896,320,218.4417,320,188.6166 M,0,114896,114938,320,188.6166,320,158.7915
Sprite,Foreground,Centre,"sb/s/b.png",0,0 V,2,115024,115479,4,1.8,2,1.8 F,2,115024,115479,1,0 P,0,115024,115479,A R,0,115024,115479,1.57 C,0,115024,,217,0,124 M,0,115024,115066,320,141,320,149.5903 M,0,115066,115109,320,149.5903,320,158.1806 M,0,115109,115151,320,158.1806,320,166.771 M,0,115151,115194,320,166.771,320,175.3613 M,0,115194,115237,320,175.3613,320,183.9516 M,0,115237,115279,320,183.9516,320,192.5419
Sprite,Foreground,Centre,"sb/s/b.png",0,0 V,2,115365,115820,4,1.8,2,1.8 F,2,115365,115820,1,0 P,0,115365,115820,A R,0,115365,115820,1.57 C,0,115365,,148,0,204 M,0,115365,115407,320,271,320,299.6694 M,0,115407,115450,320,299.6694,320,323.7075 M,0,115450,115492,320,323.7075,320,341.0453 M,0,115492,115535,320,341.0453,320,350.2442 M,0,115535,115578,320,350.2442,320,350.5352 M,0,115578,115620,320,350.5352,320,341.8825
Sprite,Foreground,Centre,"sb/s/b.png",0,0 V,2,115706,116161,4,1.8,2,1.8 F,2,115706,116161,1,0 P,0,115706,116161,A R,0,115706,116161,1.57 C,0,115706,,242,0,6 M,0,115706,115748,320,352,320,355.4416 M,0,115748,115791,320,355.4416,320,358.5744 M,0,115791,115833,320,358.5744,320,361.3942 M,0,115833,115876,320,361.3942,320,363.8973 M,0,115876,115919,320,363.8973,320,366.0804 M,0,115919,115961,320,366.0804,320,367.9404
Sprite,Foreground,Centre,"sb/s/b.png",0,0 V,2,116047,116502,4,1.8,2,1.8 F,2,116047,116502,1,0 P,0,116047,116502,A R,0,116047,116502,1.57 C,0,116047,,217,0,124 M,0,116047,116089,320,400,320,371.1099 M,0,116089,116132,320,371.1099,320,342.2198 M,0,116132,116174,320,342.2198,320,313.3297 M,0,116174,116217,320,313.3297,320,284.4395 M,0,116217,116260,320,284.4395,320,255.5495 M,0,116260,116302,320,255.5495,320,226.6593
Sprite,Foreground,Centre,"sb/s/b.png",0,0 V,2,116388,116673,4,1.8,2,1.8 F,2,116388,116673,1,0 P,0,116388,116673,A R,0,116388,116673,1.57 C,0,116388,,217,0,124 M,0,116388,116430,320,205,320,206.7632 M,0,116430,116473,320,206.7632,320,222.9698
Sprite,Foreground,Centre,"sb/s/b.png",0,0 V,2,116558,116843,4,1.8,2,1.8 F,2,116558,116843,1,0 P,0,116558,116843,A R,0,116558,116843,1.57 C,0,116558,,217,0,124 M,0,116558,116600,320,167,320,138.9141 M,0,116600,116643,320,138.9141,320,107.4212
Sprite,Foreground,Centre,"sb/s/b.png",0,0 V,2,116728,117013,4,1.8,2,1.8 F,2,116728,117013,1,0 P,0,116728,117013,A R,0,116728,117013,1.57 C,0,116728,,217,0,124 M,0,116728,116770,320,79,320,105.1474 M,0,116770,116813,320,105.1474,320,120.5588
Sprite,Foreground,Centre,"sb/s/b.png",0,0 V,2,116899,117184,4,1.8,2,1.8 F,2,116899,117184,1,0 P,0,116899,117184,A R,0,116899,117184,1.57 C,0,116899,,148,0,204 M,0,116899,116941,320,151,320,148.418 M,0,116941,116984,320,148.418,320,148.2907
Sprite,Foreground,Centre,"sb/s/b.png",0,0 V,2,117069,117354,4,1.8,2,1.8 F,2,117069,117354,1,0 P,0,117069,117354,A R,0,117069,117354,1.57 C,0,117069,,148,0,204 M,0,117069,117111,320,226,320,223.0242 M,0,117111,117154,320,223.0242,320,224
Sprite,Foreground,Centre,"sb/s/b.png",0,0 V,2,117240,117525,4,1.8,2,1.8 F,2,117240,117525,1,0 P,0,117240,117525,A R,0,117240,117525,1.57 C,0,117240,,148,0,204 M,0,117240,117282,320,301,320,297.9374 M,0,117282,117325,320,297.9374,320,299.0291
Sprite,Foreground,Centre,"sb/s/b.png",320,397 V,2,117410,117610,4,1.8,2,1.8 F,2,117410,117610,1,0 P,0,117410,117610,A R,0,117410,117610,1.57 C,0,117410,,242,0,6
Sprite,Foreground,Centre,"sb/s/b.png",320,409 V,2,117581,117781,4,1.8,2,1.8 F,2,117581,117781,1,0 P,0,117581,117781,A R,0,117581,117781,1.57 C,0,117581,,242,0,6
Sprite,Foreground,Centre,"sb/s/b.png",320,409 V,2,117751,117951,4,1.8,2,1.8 F,2,117751,117951,1,0 P,0,117751,117951,A R,0,117751,117951,1.57 C,0,117751,,217,0,124
Sprite,Foreground,Centre,"sb/s/b.png",320,274 V,2,117922,118122,4,1.8,2,1.8 F,2,117922,118122,1,0 P,0,117922,118122,A R,0,117922,118122,1.57 C,0,117922,,217,0,124
Sprite,Foreground,Centre,"sb/s/b.png",320,409 V,2,118092,118292,4,1.8,2,1.8 F,2,118092,118292,1,0 P,0,118092,118292,A R,0,118092,118292,1.57 C,0,118092,,148,0,204
Sprite,Foreground,Centre,"sb/s/b.png",320,397 V,2,118263,118463,4,1.8,2,1.8 F,2,118263,118463,1,0 P,0,118263,118463,A R,0,118263,118463,1.57 C,0,118263,,148,0,204
Sprite,Foreground,Centre,"sb/s/b.png",320,409 V,2,118433,118633,4,1.8,2,1.8 F,2,118433,118633,1,0 P,0,118433,118633,A R,0,118433,118633,1.57 C,0,118433,,242,0,6
Sprite,Foreground,Centre,"sb/s/b.png",320,405 V,2,118518,118718,4,1.8,2,1.8 F,2,118518,118718,1,0 P,0,118518,118718,A R,0,118518,118718,1.57 C,0,118518,,242,0,6
Sprite,Foreground,Centre,"sb/s/b.png",320,410 V,2,118603,118803,4,1.8,2,1.8 F,2,118603,118803,1,0 P,0,118603,118803,A R,0,118603,118803,1.57 C,0,118603,,242,0,6
Sprite,Foreground,Centre,"sb/s/b.png",320,398 V,2,118689,118889,4,1.8,2,1.8 F,2,118689,118889,1,0 P,0,118689,118889,A R,0,118689,118889,1.57 C,0,118689,,242,0,6
Sprite,Foreground,Centre,"sb/s/b.png",320,402 V,2,118774,118974,4,1.8,2,1.8 F,2,118774,118974,1,0 P,0,118774,118974,A R,0,118774,118974,1.57 C,0,118774,,217,0,124
Sprite,Foreground,Centre,"sb/s/b.png",320,256 V,2,118944,119144,4,1.8,2,1.8 F,2,118944,119144,1,0 P,0,118944,119144,A R,0,118944,119144,1.57 C,0,118944,,217,0,124
Sprite,Foreground,Centre,"sb/s/b.png",320,402 V,2,119115,119315,4,1.8,2,1.8 F,2,119115,119315,1,0 P,0,119115,119315,A R,0,119115,119315,1.57 C,0,119115,,217,0,124
Sprite,Foreground,Centre,"sb/s/b.png",320,404 V,2,119285,119485,4,1.8,2,1.8 F,2,119285,119485,1,0 P,0,119285,119485,A R,0,119285,119485,1.57 C,0,119285,,217,0,124
Sprite,Foreground,Centre,"sb/s/b.png",320,404 V,2,119370,119570,4,1.8,2,1.8 F,2,119370,119570,1,0 P,0,119370,119570,A R,0,119370,119570,1.57 C,0,119370,,217,0,124
Sprite,Foreground,Centre,"sb/s/b.png",0,0 V,2,119456,119741,4,1.8,2,1.8 F,2,119456,119741,1,0 P,0,119456,119741,A R,0,119456,119741,1.57 C,0,119456,,148,0,204 M,0,119456,119498,320,404,320,411.2939 M,0,119498,119541,320,411.2939,320,407.649
Sprite,Foreground,Centre,"sb/s/b.png",0,0 V,2,119626,119911,4,1.8,2,1.8 F,2,119626,119911,1,0 P,0,119626,119911,A R,0,119626,119911,1.57 C,0,119626,,148,0,204 M,0,119626,119668,320,366,320,368.8929 M,0,119668,119711,320,368.8929,320,363.1015
Sprite,Foreground,Centre,"sb/s/b.png",0,0 V,2,119797,120082,4,1.8,2,1.8 F,2,119797,120082,1,0 P,0,119797,120082,A R,0,119797,120082,1.57 C,0,119797,,148,0,204 M,0,119797,119839,320,277,320,268.7865 M,0,119839,119882,320,268.7865,320,269.4094
Sprite,Foreground,Centre,"sb/s/b.png",0,0 V,2,119967,120252,4,1.8,2,1.8 F,2,119967,120252,1,0 P,0,119967,120252,A R,0,119967,120252,1.57 C,0,119967,,148,0,204 M,0,119967,120009,320,221,320,208.5695 M,0,120009,120052,320,208.5695,320,221.0384
Sprite,Foreground,Centre,"sb/s/b.png",0,0 V,2,120138,120508,4,1.8,2,1.8 F,2,120138,120508,1,0 P,0,120138,120508,A R,0,120138,120508,1.57 C,0,120138,,242,0,6 M,0,120138,120180,320,334,320,333.2809 M,0,120180,120223,320,333.2809,320,332.5618 M,0,120223,120265,320,332.5618,320,331.8427 M,0,120265,120308,320,331.8427,320,331.1236
Sprite,Foreground,Centre,"sb/s/b.png",0,0 V,2,120478,120933,4,1.8,2,1.8 F,2,120478,120933,1,0 P,0,120478,120933,A R,0,120478,120933,1.57 C,0,120478,,242,0,6 M,0,120478,120520,320,274,320,273.1796 M,0,120520,120563,320,273.1796,320,272.3592 M,0,120563,120605,320,272.3592,320,271.5388 M,0,120605,120648,320,271.5388,320,270.7184 M,0,120648,120691,320,270.7184,320,269.898 M,0,120691,120733,320,269.898,320,269.0776
Sprite,Foreground,Centre,"sb/s/b.png",0,0 V,2,120819,121189,4,1.8,2,1.8 F,2,120819,121189,1,0 P,0,120819,121189,A R,0,120819,121189,1.57 C,0,120819,,217,0,124 M,0,120819,120861,320,244,320,240.4939 M,0,120861,120904,320,240.4939,320,236.9878 M,0,120904,120946,320,236.9878,320,233.4818 M,0,120946,120989,320,233.4818,320,230
Sprite,Foreground,Centre,"sb/s/b.png",0,0 V,2,121160,121615,4,1.8,2,1.8 F,2,121160,121615,1,0 P,0,121160,121615,A R,0,121160,121615,1.57 C,0,121160,,148,0,204 M,0,121160,121202,320,157,320,155.9484 M,0,121202,121245,320,155.9484,320,154.8969 M,0,121245,121287,320,154.8969,320,153.8453 M,0,121287,121330,320,153.8453,320,152.7937 M,0,121330,121373,320,152.7937,320,151.7421 M,0,121373,121415,320,151.7421,320,150.6906
Sprite,Foreground,Centre,"sb/s/b.png",0,0 V,2,121501,121956,4,1.8,2,1.8 F,2,121501,121956,1,0 P,0,121501,121956,A R,0,121501,121956,1.57 C,0,121501,,242,0,6 M,0,121501,121543,320,126,320,95.19809 M,0,121543,121586,320,95.19809,320,69.48804 M,0,121586,121628,320,69.48804,320,58.07321 M,0,121628,121671,320,58.07321,320,65.17703 M,0,121671,121714,320,65.17703,320,88.26518 M,0,121714,121756,320,88.26518,320,118.9401
Sprite,Foreground,Centre,"sb/s/b.png",0,0 V,2,121842,122127,4,1.8,2,1.8 F,2,121842,122127,1,0 P,0,121842,122127,A R,0,121842,122127,1.57 C,0,121842,,242,0,6 M,0,121842,121884,320,140,320,113.5601 M,0,121884,121927,320,113.5601,320,83.00991
Sprite,Foreground,Centre,"sb/s/b.png",0,0 V,2,122013,122298,4,1.8,2,1.8 F,2,122013,122298,1,0 P,0,122013,122298,A R,0,122013,122298,1.57 C,0,122013,,242,0,6 M,0,122013,122055,320,151,320,121.0628 M,0,122055,122098,320,121.0628,320,89.92197
Sprite,Foreground,Centre,"sb/s/b.png",0,0 V,2,122183,122468,4,1.8,2,1.8 F,2,122183,122468,1,0 P,0,122183,122468,A R,0,122183,122468,1.57 C,0,122183,,242,0,6 M,0,122183,122225,320,144,320,112.7882 M,0,122225,122268,320,112.7882,320,83.21585
Sprite,Foreground,Centre,"sb/s/b.png",0,0 V,2,122353,122638,4,1.8,2,1.8 F,2,122353,122638,1,0 P,0,122353,122638,A R,0,122353,122638,1.57 C,0,122353,,217,0,124 M,0,122353,122395,320,248,320,279.2568 M,0,122395,122438,320,279.2568,320,310.5135
Sprite,Foreground,Centre,"sb/s/b.png",0,0 V,2,122524,122809,4,1.8,2,1.8 F,2,122524,122809,1,0 P,0,122524,122809,A R,0,122524,122809,1.57 C,0,122524,,217,0,124 M,0,122524,122566,320,250,320,281.3073 M,0,122566,122609,320,281.3073,320,312.6147
Sprite,Foreground,Centre,"sb/s/b.png",0,0 V,2,122694,122979,4,1.8,2,1.8 F,2,122694,122979,1,0 P,0,122694,122979,A R,0,122694,122979,1.57 C,0,122694,,217,0,124 M,0,122694,122736,320,235,320,264.9705 M,0,122736,122779,320,264.9705,320,235
Sprite,Foreground,Centre,"sb/s/b.png",0,0 V,2,122865,123320,4,1.8,2,1.8 F,2,122865,123320,1,0 P,0,122865,123320,A R,0,122865,123320,1.57 C,0,122865,,148,0,204 M,0,122865,122907,320,365,320,380.7266 M,0,122907,122950,320,380.7266,320,400.8588 M,0,122950,122992,320,400.8588,320,425.1375 M,0,122992,123035,320,425.1375,320,413.0288 M,0,123035,123078,320,413.0288,320,403.1698 M,0,123078,123120,320,403.1698,320,399.573
Sprite,Foreground,Centre,"sb/s/b.png",0,0 V,2,123206,123661,4,1.8,2,1.8 F,2,123206,123661,1,0 P,0,123206,123661,A R,0,123206,123661,1.57 C,0,123206,,242,0,6 M,0,123206,123248,320,411,320,410.6725 M,0,123248,123291,320,410.6725,320,410.8313 M,0,123291,123333,320,410.8313,320,411.476 M,0,123333,123376,320,411.476,320,412.6045 M,0,123376,123419,320,412.6045,320,414.2134 M,0,123419,123461,320,414.2134,320,416.2979
Sprite,Foreground,Centre,"sb/s/b.png",0,0 V,2,123547,124002,4,1.8,2,1.8 F,2,123547,124002,1,0 P,0,123547,124002,A R,0,123547,124002,1.57 C,0,123547,,217,0,124 M,0,123547,123589,320,339,320,307.9675 M,0,123589,123632,320,307.9675,320,277.798 M,0,123632,123674,320,277.798,320,252.6582 M,0,123674,123717,320,252.6582,320,236.1322 M,0,123717,123760,320,236.1322,320,230.5884 M,0,123760,123802,320,230.5884,320,236.8417
Sprite,Foreground,Centre,"sb/s/b.png",0,0 V,2,123888,124173,4,1.8,2,1.8 F,2,123888,124173,1,0 P,0,123888,124173,A R,0,123888,124173,1.57 C,0,123888,,217,0,124 M,0,123888,123930,320,249,320,278.3049 M,0,123930,123973,320,278.3049,320,296.2724
Sprite,Foreground,Centre,"sb/s/b.png",0,0 V,2,124058,124343,4,1.8,2,1.8 F,2,124058,124343,1,0 P,0,124058,124343,A R,0,124058,124343,1.57 C,0,124058,,217,0,124 M,0,124058,124100,320,237,320,207.3992 M,0,124100,124143,320,207.3992,320,178.946
Sprite,Foreground,Centre,"sb/s/b.png",0,0 V,2,124228,124513,4,1.8,2,1.8 F,2,124228,124513,1,0 P,0,124228,124513,A R,0,124228,124513,1.57 C,0,124228,,217,0,124 M,0,124228,124270,320,129,320,150.4631 M,0,124270,124313,320,150.4631,320,181.8337
Sprite,Foreground,Centre,"sb/s/b.png",0,0 V,2,124399,124684,4,1.8,2,1.8 F,2,124399,124684,1,0 P,0,124399,124684,A R,0,124399,124684,1.57 C,0,124399,,148,0,204 M,0,124399,124441,320,101,320,105.1441 M,0,124441,124484,320,105.1441,320,109.2882
Sprite,Foreground,Centre,"sb/s/b.png",0,0 V,2,124569,124854,4,1.8,2,1.8 F,2,124569,124854,1,0 P,0,124569,124854,A R,0,124569,124854,1.57 C,0,124569,,148,0,204 M,0,124569,124611,320,196,320,180.7744 M,0,124611,124654,320,180.7744,320,165.5488
Sprite,Foreground,Centre,"sb/s/b.png",0,0 V,2,124740,125025,4,1.8,2,1.8 F,2,124740,125025,1,0 P,0,124740,125025,A R,0,124740,125025,1.57 C,0,124740,,148,0,204 M,0,124740,124782,320,76,320,86.90738 M,0,124782,124825,320,86.90738,320,97.81476
Sprite,Foreground,Centre,"sb/s/b.png",0,0 V,2,124910,125195,4,1.8,2,1.8 F,2,124910,125195,1,0 P,0,124910,125195,A R,0,124910,125195,1.57 C,0,124910,,242,0,6 M,0,124910,124952,320,228,320,222.4661 M,0,124952,124995,320,222.4661,320,221.4466
Sprite,Foreground,Centre,"sb/s/b.png",0,0 V,2,125081,125366,4,1.8,2,1.8 F,2,125081,125366,1,0 P,0,125081,125366,A R,0,125081,125366,1.57 C,0,125081,,242,0,6 M,0,125081,125123,320,267,320,271.9121 M,0,125123,125166,320,271.9121,320,272.3799
Sprite,Foreground,Centre,"sb/s/b.png",0,0 V,2,125251,125536,4,1.8,2,1.8 F,2,125251,125536,1,0 P,0,125251,125536,A R,0,125251,125536,1.57 C,0,125251,,242,0,6 M,0,125251,125293,320,313,320,307.4661 M,0,125293,125336,320,307.4661,320,306.4466
Sprite,Foreground,Centre,"sb/s/b.png",0,0 V,2,125422,125707,4,1.8,2,1.8 F,2,125422,125707,1,0 P,0,125422,125707,A R,0,125422,125707,1.57 C,0,125422,,242,0,6 M,0,125422,125464,320,353,320,357.9121 M,0,125464,125507,320,357.9121,320,358.3799
Sprite,Foreground,Centre,"sb/s/b.png",0,0 V,2,125592,126047,4,1.8,2,1.8 F,2,125592,126047,1,0 P,0,125592,126047,A R,0,125592,126047,1.57 C,0,125592,,217,0,124 M,0,125592,125634,320,400,320,425.7345 M,0,125634,125677,320,425.7345,320,433.5889 M,0,125677,125719,320,433.5889,320,432.9832 M,0,125719,125762,320,432.9832,320,432.3776 M,0,125762,125805,320,432.3776,320,431.7719 M,0,125805,125847,320,431.7719,320,431.1662
Sprite,Foreground,Centre,"sb/s/b.png",0,0 V,2,125933,126388,4,1.8,2,1.8 F,2,125933,126388,1,0 P,0,125933,126388,A R,0,125933,126388,1.57 C,0,125933,,148,0,204 M,0,125933,125975,320,424,320,424.3156 M,0,125975,126018,320,424.3156,320,424.6312 M,0,126018,126060,320,424.6312,320,424.9468 M,0,126060,126103,320,424.9468,320,425.2624 M,0,126103,126146,320,425.2624,320,425.578 M,0,126146,126188,320,425.578,320,425.8936
Sprite,Foreground,Centre,"sb/s/b.png",0,0 V,2,126274,126729,4,1.8,2,1.8 F,2,126274,126729,1,0 P,0,126274,126729,A R,0,126274,126729,1.57 C,0,126274,,242,0,6 M,0,126274,126316,320,384,320,358.2655 M,0,126316,126359,320,358.2655,320,350.4111 M,0,126359,126401,320,350.4111,320,351.0168 M,0,126401,126444,320,351.0168,320,351.6224 M,0,126444,126487,320,351.6224,320,352.2281 M,0,126487,126529,320,352.2281,320,352.8338
Sprite,Foreground,Centre,"sb/s/b.png",0,0 V,2,126615,127070,4,1.8,2,1.8 F,2,126615,127070,1,0 P,0,126615,127070,A R,0,126615,127070,1.57 C,0,126615,,217,0,124 M,0,126615,126657,320,362,320,361.6844 M,0,126657,126700,320,361.6844,320,361.3688 M,0,126700,126742,320,361.3688,320,361.0532 M,0,126742,126785,320,361.0532,320,360.7376 M,0,126785,126828,320,360.7376,320,360.422 M,0,126828,126870,320,360.422,320,360.1064
Sprite,Foreground,Centre,"sb/s/b.png",0,0 V,2,126956,127411,4,1.8,2,1.8 F,2,126956,127411,1,0 P,0,126956,127411,A R,0,126956,127411,1.57 C,0,126956,,148,0,204 M,0,126956,126998,320,312,320,286.8571 M,0,126998,127041,320,286.8571,320,261.7141 M,0,127041,127083,320,261.7141,320,258.3893 M,0,127083,127126,320,258.3893,320,257.7047 M,0,127126,127169,320,257.7047,320,257.02 M,0,127169,127211,320,257.02,320,256.3354
Sprite,Foreground,Centre,"sb/s/b.png",0,0 V,2,127297,127582,4,1.8,2,1.8 F,2,127297,127582,1,0 P,0,127297,127582,A R,0,127297,127582,1.57 C,0,127297,,148,0,204 M,0,127297,127339,320,254,320,223.0413 M,0,127339,127382,320,223.0413,320,198.3611
Sprite,Foreground,Centre,"sb/s/b.png",0,0 V,2,127467,127752,4,1.8,2,1.8 F,2,127467,127752,1,0 P,0,127467,127752,A R,0,127467,127752,1.57 C,0,127467,,148,0,204 M,0,127467,127509,320,108,320,135.3229 M,0,127509,127552,320,135.3229,320,166.5235
Sprite,Foreground,Centre,"sb/s/b.png",0,0 V,2,127638,127923,4,1.8,2,1.8 F,2,127638,127923,1,0 P,0,127638,127923,A R,0,127638,127923,1.57 C,0,127638,,148,0,204 M,0,127638,127680,320,247,320,219.5308 M,0,127680,127723,320,219.5308,320,188.3303
Sprite,Foreground,Centre,"sb/s/b.png",0,0 V,2,127808,128093,4,1.8,2,1.8 F,2,127808,128093,1,0 P,0,127808,128093,A R,0,127808,128093,1.57 C,0,127808,,242,0,6 M,0,127808,127850,320,79,320,110.3781 M,0,127850,127893,320,110.3781,320,141.7562
Sprite,Foreground,Centre,"sb/s/b.png",0,0 V,2,127978,128263,4,1.8,2,1.8 F,2,127978,128263,1,0 P,0,127978,128263,A R,0,127978,128263,1.57 C,0,127978,,242,0,6 M,0,127978,128020,320,252,320,220.5987 M,0,128020,128063,320,220.5987,320,189.1975
Sprite,Foreground,Centre,"sb/s/b.png",0,0 V,2,128149,128434,4,1.8,2,1.8 F,2,128149,128434,1,0 P,0,128149,128434,A R,0,128149,128434,1.57 C,0,128149,,242,0,6 M,0,128149,128191,320,161,320,157.0929 M,0,128191,128234,320,157.0929,320,161
Sprite,Foreground,Centre,"sb/s/b.png",0,0 V,2,128319,128859,4,1.8,2,1.8 F,2,128319,128859,1,0 P,0,128319,128859,A R,0,128319,128859,1.57 C,0,128319,,217,0,124 M,0,128319,128361,320,337,320,333.486 M,0,128361,128404,320,333.486,320,331.0081 M,0,128404,128446,320,331.0081,320,330.5725 M,0,128446,128489,320,330.5725,320,332.8432 M,0,128489,128532,320,332.8432,320,335.2598 M,0,128532,128574,320,335.2598,320,335.3195 M,0,128574,128617,320,335.3195,320,333.4295 M,0,128617,128659,320,333.4295,320,330.4575
Sprite,Foreground,Centre,"sb/s/b.png",0,0 V,2,135138,135423,4,1.8,2,1.8 F,2,135138,135423,1,0 P,0,135138,135423,A R,0,135138,135423,1.57 C,0,135138,,148,0,204 M,0,135138,135180,320,131,320,146.6332 M,0,135180,135223,320,146.6332,320,162.2665
Sprite,Foreground,Centre,"sb/s/b.png",0,0 V,2,135308,135593,4,1.8,2,1.8 F,2,135308,135593,1,0 P,0,135308,135593,A R,0,135308,135593,1.57 C,0,135308,,148,0,204 M,0,135308,135350,320,231,320,229.1235 M,0,135350,135393,320,229.1235,320,227.2469
Sprite,Foreground,Centre,"sb/s/b.png",0,0 V,2,135478,135763,4,1.8,2,1.8 F,2,135478,135763,1,0 P,0,135478,135763,A R,0,135478,135763,1.57 C,0,135478,,148,0,204 M,0,135478,135520,320,288,320,272.3282 M,0,135520,135563,320,272.3282,320,256.6563
Sprite,Foreground,Centre,"sb/s/b.png",0,0 V,2,135649,135934,4,1.8,2,1.8 F,2,135649,135934,1,0 P,0,135649,135934,A R,0,135649,135934,1.57 C,0,135649,,148,0,204 M,0,135649,135691,320,188,320,189.5988 M,0,135691,135734,320,189.5988,320,191.1977
Sprite,Foreground,Centre,"sb/s/b.png",0,0 V,2,135819,136104,4,1.8,2,1.8 F,2,135819,136104,1,0 P,0,135819,136104,A R,0,135819,136104,1.57 C,0,135819,,242,0,6 M,0,135819,135861,320,387,320,371.7856 M,0,135861,135904,320,371.7856,320,357.3864
Sprite,Foreground,Centre,"sb/s/b.png",0,0 V,2,135990,136275,4,1.8,2,1.8 F,2,135990,136275,1,0 P,0,135990,136275,A R,0,135990,136275,1.57 C,0,135990,,242,0,6 M,0,135990,136032,320,316,320,310.3962 M,0,136032,136075,320,310.3962,320,307
Sprite,Foreground,Centre,"sb/s/b.png",0,0 V,2,136160,136445,4,1.8,2,1.8 F,2,136160,136445,1,0 P,0,136160,136445,A R,0,136160,136445,1.57 C,0,136160,,242,0,6 M,0,136160,136202,320,404,320,389.6385 M,0,136202,136245,320,389.6385,320,374.4204
Sprite,Foreground,Centre,"sb/s/b.png",0,0 V,2,136331,136616,4,1.8,2,1.8 F,2,136331,136616,1,0 P,0,136331,136616,A R,0,136331,136616,1.57 C,0,136331,,242,0,6 M,0,136331,136373,320,327,320,330.7919 M,0,136373,136416,320,330.7919,320,336.8999
Sprite,Foreground,Centre,"sb/s/b.png",0,0 V,2,136501,136956,4,1.8,2,1.8 F,2,136501,136956,1,0 P,0,136501,136956,A R,0,136501,136956,1.57 C,0,136501,,217,0,124 M,0,136501,136543,320,203,320,199.6025 M,0,136543,136586,320,199.6025,320,196.205 M,0,136586,136628,320,196.205,320,192.8074 M,0,136628,136671,320,192.8074,320,189.4099 M,0,136671,136714,320,189.4099,320,186.0124 M,0,136714,136756,320,186.0124,320,182.6149
Sprite,Foreground,Centre,"sb/s/b.png",0,0 V,2,146047,146332,4,1.8,2,1.8 F,2,146047,146332,1,0 P,0,146047,146332,A R,0,146047,146332,1.57 C,0,146047,,242,0,6 M,0,146047,146089,320,123,320,114.9502 M,0,146089,146132,320,114.9502,320,106.9003
Sprite,Foreground,Centre,"sb/s/b.png",0,0 V,2,146217,146502,4,1.8,2,1.8 F,2,146217,146502,1,0 P,0,146217,146502,A R,0,146217,146502,1.57 C,0,146217,,242,0,6 M,0,146217,146259,320,161,320,156.8239 M,0,146259,146302,320,156.8239,320,152.6479
Sprite,Foreground,Centre,"sb/s/b.png",0,0 V,2,146388,146673,4,1.8,2,1.8 F,2,146388,146673,1,0 P,0,146388,146673,A R,0,146388,146673,1.57 C,0,146388,,242,0,6 M,0,146388,146430,320,245,320,253.1257 M,0,146430,146473,320,253.1257,320,261.2515
Sprite,Foreground,Centre,"sb/s/b.png",0,0 V,2,146558,146843,4,1.8,2,1.8 F,2,146558,146843,1,0 P,0,146558,146843,A R,0,146558,146843,1.57 C,0,146558,,242,0,6 M,0,146558,146600,320,206,320,209.7242 M,0,146600,146643,320,209.7242,320,213.4485
Sprite,Foreground,Centre,"sb/s/b.png",0,0 V,2,146728,147013,4,1.8,2,1.8 F,2,146728,147013,1,0 P,0,146728,147013,A R,0,146728,147013,1.57 C,0,146728,,217,0,124 M,0,146728,146770,320,358,320,364.8612 M,0,146770,146813,320,364.8612,320,372.5204
Sprite,Foreground,Centre,"sb/s/b.png",0,0 V,2,146899,147184,4,1.8,2,1.8 F,2,146899,147184,1,0 P,0,146899,147184,A R,0,146899,147184,1.57 C,0,146899,,217,0,124 M,0,146899,146941,320,347,320,341.4961 M,0,146941,146984,320,341.4961,320,336.9361
Sprite,Foreground,Centre,"sb/s/b.png",0,0 V,2,147069,147354,4,1.8,2,1.8 F,2,147069,147354,1,0 P,0,147069,147354,A R,0,147069,147354,1.57 C,0,147069,,217,0,124 M,0,147069,147111,320,395,320,389.4961 M,0,147111,147154,320,389.4961,320,384.9361
Sprite,Foreground,Centre,"sb/s/b.png",0,0 V,2,147240,147525,4,1.8,2,1.8 F,2,147240,147525,1,0 P,0,147240,147525,A R,0,147240,147525,1.57 C,0,147240,,217,0,124 M,0,147240,147282,320,277,320,269.5026 M,0,147282,147325,320,269.5026,320,261.5634
Sprite,Foreground,Centre,"sb/s/b.png",0,0 V,2,147410,147865,4,1.8,2,1.8 F,2,147410,147865,1,0 P,0,147410,147865,A R,0,147410,147865,1.57 C,0,147410,,148,0,204 M,0,147410,147452,320,421,320,424.3058 M,0,147452,147495,320,424.3058,320,427.6115 M,0,147495,147537,320,427.6115,320,430.9173 M,0,147537,147580,320,430.9173,320,434.2231 M,0,147580,147623,320,434.2231,320,437.5288 M,0,147623,147665,320,437.5288,320,440.8346
Sprite,Foreground,Centre,"sb/s/w.png",0,0 V,2,141956,142541,0.3,0.3,0.5,0.5 F,2,141956,142541,1,0 P,0,141956,142541,A R,0,141956,142541,0 C,0,141956,,217,0,124 M,0,141956,141998,493,321,492.2934,314.2871 M,0,141998,142041,492.2934,314.2871,491.5868,307.5742
Sprite,Foreground,Centre,"sb/s/w.png",0,0 V,2,142126,142711,0.3,0.3,0.5,0.5 F,2,142126,142711,1,0 P,0,142126,142711,A R,0,142126,142711,0 C,0,142126,,217,0,124 M,0,142126,142168,418,259,418.7066,252.2871 M,0,142168,142211,418.7066,252.2871,419.4132,245.5742
Sprite,Foreground,Centre,"sb/s/w.png",0,0 V,2,142297,143052,0.3,0.3,0.5,0.5 F,2,142297,143052,1,0 P,0,142297,143052,A R,0,142297,143052,0 C,0,142297,,217,0,124 M,0,142297,142339,497,156,496.6036,162.7383 M,0,142339,142382,496.6036,162.7383,496.2072,169.4767 M,0,142382,142424,496.2072,169.4767,495.8109,176.2151 M,0,142424,142467,495.8109,176.2151,495.4145,182.9534 M,0,142467,142510,495.4145,182.9534,495.0181,189.6918 M,0,142510,142552,495.0181,189.6918,494.6218,196.4301
Sprite,Foreground,Centre,"sb/s/w.png",0,0 V,2,142638,143308,0.3,0.3,0.5,0.5 F,2,142638,143308,1,0 P,0,142638,143308,A R,0,142638,143308,0 C,0,142638,,148,0,204 M,0,142638,142680,481,200,464.3106,173.5034 M,0,142680,142723,464.3106,173.5034,440.5241,153.1947 M,0,142723,142765,440.5241,153.1947,411.5987,141.1918 M,0,142765,142808,411.5987,141.1918,380.3659,139.1237
Sprite,Foreground,Centre,"sb/s/w.png",0,0 V,2,76501,77086,0.3,0.3,0.5,0.5 F,2,76501,77086,1,0 P,0,76501,77086,A R,0,76501,77086,0 C,0,76501,,148,0,204 M,0,76501,76543,180,259,179.088,265.6881 M,0,76543,76586,179.088,265.6881,178.176,272.3762
Sprite,Foreground,Centre,"sb/s/w.png",0,0 V,2,76672,77257,0.3,0.3,0.5,0.5 F,2,76672,77257,1,0 P,0,76672,77257,A R,0,76672,77257,0 C,0,76672,,148,0,204 M,0,76672,76714,261,331,261.5605,337.7267 M,0,76714,76757,261.5605,337.7267,262.1211,344.4534
Sprite,Foreground,Centre,"sb/s/w.png",0,0 V,2,76842,77597,0.3,0.3,0.5,0.5 F,2,76842,77597,1,0 P,0,76842,77597,A R,0,76842,77597,0 C,0,76842,,148,0,204 M,0,76842,76884,169,412,169.5976,405.2765 M,0,76884,76927,169.5976,405.2765,170.1953,398.553 M,0,76927,76969,170.1953,398.553,170.7929,391.8295 M,0,76969,77012,170.7929,391.8295,171.3906,385.106 M,0,77012,77055,171.3906,385.106,171.9882,378.3825 M,0,77055,77097,171.9882,378.3825,172.5859,371.6591
Sprite,Foreground,Centre,"sb/s/w.png",0,0 V,2,77183,77853,0.3,0.3,0.5,0.5 F,2,77183,77853,1,0 P,0,77183,77853,A R,0,77183,77853,0 C,0,77183,,242,0,6 M,0,77183,77225,175,358,188.5211,386.244 M,0,77225,77268,188.5211,386.244,209.9256,409.0305 M,0,77268,77310,209.9256,409.0305,237.3938,423.9786 M,0,77310,77353,237.3938,423.9786,268.1738,429.5823
Sprite,Foreground,Centre,"sb/s/w.png",0,0 V,2,54683,55523,0.3,0.3,0.5,0.5 F,2,54683,55523,1,0 P,0,54683,55523,A R,0,54683,55523,0 C,0,54683,,242,0,6 M,0,54683,54725,475,329,475.4809,335.7328 M,0,54725,54768,475.4809,335.7328,475.9618,342.4657 M,0,54768,54810,475.9618,342.4657,476.4427,349.1985 M,0,54810,54853,476.4427,349.1985,476.9237,355.9314 M,0,54853,54896,476.9237,355.9314,476.4427,349.1985 M,0,54896,54938,476.4427,349.1985,475.9618,342.4657 M,0,54938,54981,475.9618,342.4657,475.4809,335.7328 M,0,54981,55023,475.4809,335.7328,475,329
Sprite,Foreground,Centre,"sb/s/w.png",0,0 V,2,55365,56376,0.3,0.3,0.5,0.5 F,2,55365,56376,1,0 P,0,55365,56376,A R,0,55365,56376,0 C,0,55365,,217,0,124 M,0,55365,55407,475,329,445.7237,340.3702 M,0,55407,55450,445.7237,340.3702,414.4415,342.6418 M,0,55450,55492,414.4415,342.6418,383.9583,335.1636 M,0,55492,55535,383.9583,335.1636,356.3048,320.2078 M,0,55535,55578,356.3048,320.2078,327.9424,333.3325 M,0,55578,55620,327.9424,333.3325,297.0339,338.6594 M,0,55620,55663,297.0339,338.6594,266.3208,332.6674 M,0,55663,55705,266.3208,332.6674,240.4079,315.1213 M,0,55705,55748,240.4079,315.1213,222.5568,289.3551 M,0,55748,55791,222.5568,289.3551,213.6604,259.2591 M,0,55791,55833,213.6604,259.2591,213.5573,227.857 M,0,55833,55876,213.5573,227.857,221.6649,197.5074
Sprite,Foreground,Centre,"sb/s/b.png",0,0 V,2,58944,59229,3,1.8,1,1.8 F,2,58944,59229,1,0 P,0,58944,59229,A R,0,58944,59229,1.57 C,0,58944,,148,0,204 M,0,58944,58986,320,132,320,132.9618 M,0,58986,59029,320,132.9618,320,133.9237
Sprite,Foreground,Centre,"sb/s/b.png",0,0 V,2,59115,59400,3,1.8,1,1.8 F,2,59115,59400,1,0 P,0,59115,59400,A R,0,59115,59400,1.57 C,0,59115,,148,0,204 M,0,59115,59157,320,150,320,160.8564 M,0,59157,59200,320,160.8564,320,171.7128
Sprite,Foreground,Centre,"sb/s/b.png",0,0 V,2,59285,59570,3,1.8,1,1.8 F,2,59285,59570,1,0 P,0,59285,59570,A R,0,59285,59570,1.57 C,0,59285,,148,0,204 M,0,59285,59327,320,258,320,245.5669 M,0,59327,59370,320,245.5669,320,233.1339
Sprite,Foreground,Centre,"sb/s/b.png",0,0 V,2,59456,59741,3,1.8,1,1.8 F,2,59456,59741,1,0 P,0,59456,59741,A R,0,59456,59741,1.57 C,0,59456,,242,0,6 M,0,59456,59498,320,267,320,266.5158 M,0,59498,59541,320,266.5158,320,268.6709
Sprite,Foreground,Centre,"sb/s/b.png",0,0 V,2,59626,59911,3,1.8,1,1.8 F,2,59626,59911,1,0 P,0,59626,59911,A R,0,59626,59911,1.57 C,0,59626,,242,0,6 M,0,59626,59668,320,400,320,386.619 M,0,59668,59711,320,386.619,320,373.3354
Sprite,Foreground,Centre,"sb/s/b.png",0,0 V,2,59797,60082,3,1.8,1,1.8 F,2,59797,60082,1,0 P,0,59797,60082,A R,0,59797,60082,1.57 C,0,59797,,242,0,6 M,0,59797,59839,320,251,320,264.4118 M,0,59839,59882,320,264.4118,320,277.647
Sprite,Foreground,Centre,"sb/s/b.png",0,0 V,2,59967,60252,3,1.8,1,1.8 F,2,59967,60252,1,0 P,0,59967,60252,A R,0,59967,60252,1.57 C,0,59967,,242,0,6 M,0,59967,60009,320,384,320,383.6635 M,0,60009,60052,320,383.6635,320,381.263
Sprite,Foreground,Centre,"sb/s/b.png",0,0 V,2,60138,60849,3,1.8,1,1.8 F,2,60138,60849,1,0 P,0,60138,60849,A R,0,60138,60849,1.57 C,0,60138,,217,0,124 M,0,60138,60180,320,228,320,198.6701 M,0,60180,60223,320,198.6701,320,175.2734 M,0,60223,60265,320,175.2734,320,159.0789 M,0,60265,60308,320,159.0789,320,150.0094 M,0,60308,60351,320,150.0094,320,148.2294 M,0,60351,60393,320,148.2294,320,154.5983 M,0,60393,60436,320,154.5983,320,170.2446 M,0,60436,60478,320,170.2446,320,182.4363 M,0,60478,60521,320,182.4363,320,152.889 M,0,60521,60564,320,152.889,320,121.8099 M,0,60564,60606,320,121.8099,320,94.02896 M,0,60606,60649,320,94.02896,320,70.92849
Sprite,Foreground,Centre,"sb/s/b.png",0,0 V,2,48035,48320,3,1.8,1,1.8 F,2,48035,48320,1,0 P,0,48035,48320,A R,0,48035,48320,1.57 C,0,48035,,217,0,124 M,0,48035,48077,320,182,320,180.0216 M,0,48077,48120,320,180.0216,320,178.0432
Sprite,Foreground,Centre,"sb/s/b.png",0,0 V,2,48206,48491,3,1.8,1,1.8 F,2,48206,48491,1,0 P,0,48206,48491,A R,0,48206,48491,1.57 C,0,48206,,217,0,124 M,0,48206,48248,320,56,320,68.25745 M,0,48248,48291,320,68.25745,320,80.5149
Sprite,Foreground,Centre,"sb/s/b.png",0,0 V,2,48376,48661,3,1.8,1,1.8 F,2,48376,48661,1,0 P,0,48376,48661,A R,0,48376,48661,1.57 C,0,48376,,217,0,124 M,0,48376,48418,320,164,320,152.9837 M,0,48418,48461,320,152.9837,320,141.9673
Sprite,Foreground,Centre,"sb/s/b.png",0,0 V,2,48547,48832,3,1.8,1,1.8 F,2,48547,48832,1,0 P,0,48547,48832,A R,0,48547,48832,1.57 C,0,48547,,148,0,204 M,0,48547,48589,320,91,320,100.3444 M,0,48589,48632,320,100.3444,320,111.6948
Sprite,Foreground,Centre,"sb/s/b.png",0,0 V,2,48717,49002,3,1.8,1,1.8 F,2,48717,49002,1,0 P,0,48717,49002,A R,0,48717,49002,1.57 C,0,48717,,148,0,204 M,0,48717,48759,320,254,320,244.3412 M,0,48759,48802,320,244.3412,320,233.2018
Sprite,Foreground,Centre,"sb/s/b.png",0,0 V,2,48888,49173,3,1.8,1,1.8 F,2,48888,49173,1,0 P,0,48888,49173,A R,0,48888,49173,1.57 C,0,48888,,148,0,204 M,0,48888,48930,320,56,320,65.27834 M,0,48930,48973,320,65.27834,320,76.36301
Sprite,Foreground,Centre,"sb/s/b.png",0,0 V,2,49058,49343,3,1.8,1,1.8 F,2,49058,49343,1,0 P,0,49058,49343,A R,0,49058,49343,1.57 C,0,49058,,148,0,204 M,0,49058,49100,320,216,320,206.3375 M,0,49100,49143,320,206.3375,320,195.1345
Sprite,Foreground,Centre,"sb/s/b.png",0,0 V,2,49228,49939,3,1.8,1,1.8 F,2,49228,49939,1,0 P,0,49228,49939,A R,0,49228,49939,1.57 C,0,49228,,242,0,6 M,0,49228,49270,320,70,320,63.78764 M,0,49270,49313,320,63.78764,320,71.3703 M,0,49313,49355,320,71.3703,320,91.53482 M,0,49355,49398,320,91.53482,320,120.4581 M,0,49398,49441,320,120.4581,320,151.5142 M,0,49441,49483,320,151.5142,320,177.7842 M,0,49483,49526,320,177.7842,320,193.7384 M,0,49526,49568,320,193.7384,320,198.622 M,0,49568,49611,320,198.622,320,216.584 M,0,49611,49654,320,216.584,320,242.715 M,0,49654,49696,320,242.715,320,273.645 M,0,49696,49739,320,273.645,320,304.3973
Sprite,Foreground,Centre,"sb/s/b.png",0,0 V,2,11047,11502,3,1,1.5,1 F,2,11047,11502,1,0 P,0,11047,11502,A R,0,11047,11502,0 C,0,11047,,148,0,204 M,0,11047,11089,192,240,208.394,240 M,0,11089,11132,208.394,240,225.677,240 M,0,11132,11174,225.677,240,243.4853,240 M,0,11174,11217,243.4853,240,261.4442,240 M,0,11217,11260,261.4442,240,279.1761,240 M,0,11260,11302,279.1761,240,296.3733,240
Sprite,Foreground,Centre,"sb/s/b.png",320,240 V,2,11388,11588,3,1,1.5,1 F,2,11388,11588,1,0 P,0,11388,11588,A R,0,11388,11588,0 C,0,11388,,148,0,204
Sprite,Foreground,Centre,"sb/s/b.png",320,240 V,2,11558,11758,3,1,1.5,1 F,2,11558,11758,1,0 P,0,11558,11758,A R,0,11558,11758,0 C,0,11558,,148,0,204
Sprite,Foreground,Centre,"sb/s/b.png",0,0 V,2,11728,12268,3,1,1.5,1 F,2,11728,12268,1,0 P,0,11728,12268,A R,0,11728,12268,0 C,0,11728,,148,0,204 M,0,11728,11770,207,240,205.1033,240 M,0,11770,11813,205.1033,240,203.2067,240 M,0,11813,11855,203.2067,240,201.31,240 M,0,11855,11898,201.31,240,199.4133,240 M,0,11898,11941,199.4133,240,197.5167,240 M,0,11941,11983,197.5167,240,195.62,240 M,0,11983,12026,195.62,240,193.7233,240 M,0,12026,12068,193.7233,240,191.8267,240
Sprite,Foreground,Centre,"sb/s/b.png",191,240 V,2,12240,12440,3,1,1.5,1 F,2,12240,12440,1,0 P,0,12240,12440,A R,0,12240,12440,0 C,0,12240,,148,0,204
Sprite,Foreground,Centre,"sb/s/b.png",195,240 V,2,12410,12610,3,1,1.5,1 F,2,12410,12610,1,0 P,0,12410,12610,A R,0,12410,12610,0 C,0,12410,,242,0,6
Sprite,Foreground,Centre,"sb/s/b.png",191,240 V,2,12581,12781,3,1,1.5,1 F,2,12581,12781,1,0 P,0,12581,12781,A R,0,12581,12781,0 C,0,12581,,242,0,6
Sprite,Foreground,Centre,"sb/s/b.png",191,240 V,2,12751,12951,3,1,1.5,1 F,2,12751,12951,1,0 P,0,12751,12951,A R,0,12751,12951,0 C,0,12751,,242,0,6
Sprite,Foreground,Centre,"sb/s/b.png",0,0 V,2,13092,13632,3,1,1.5,1 F,2,13092,13632,1,0 P,0,13092,13632,A R,0,13092,13632,0 C,0,13092,,242,0,6 M,0,13092,13134,205,240,206.8649,240 M,0,13134,13177,206.8649,240,208.7298,240 M,0,13177,13219,208.7298,240,210.5947,240 M,0,13219,13262,210.5947,240,212.4596,240 M,0,13262,13305,212.4596,240,214.3246,240 M,0,13305,13347,214.3246,240,216.1895,240 M,0,13347,13390,216.1895,240,218.0544,240 M,0,13390,13432,218.0544,240,219.9193,240
Sprite,Foreground,Centre,"sb/s/b.png",0,0 V,2,13774,14314,3,1,1.5,1 F,2,13774,14314,1,0 P,0,13774,14314,A R,0,13774,14314,0 C,0,13774,,217,0,124 M,0,13774,13816,230,240,244.7722,240 M,0,13816,13859,244.7722,240,260.977,240 M,0,13859,13901,260.977,240,278.1998,240 M,0,13901,13944,278.1998,240,296.0003,240 M,0,13944,13987,296.0003,240,313.9242,240 M,0,13987,14029,313.9242,240,331.5633,240 M,0,14029,14072,331.5633,240,348.3473,240 M,0,14072,14114,348.3473,240,363.9867,240
Sprite,Foreground,Centre,"sb/s/b.png",364,240 V,2,14285,14485,3,1,1.5,1 F,2,14285,14485,1,0 P,0,14285,14485,A R,0,14285,14485,0 C,0,14285,,217,0,124
Sprite,Foreground,Centre,"sb/s/b.png",0,0 V,2,14456,14911,3,1,1.5,1 F,2,14456,14911,1,0 P,0,14456,14911,A R,0,14456,14911,0 C,0,14456,,217,0,124 M,0,14456,14498,434,240,432.0302,240 M,0,14498,14541,432.0302,240,430.0605,240 M,0,14541,14583,430.0605,240,428.0908,240 M,0,14583,14626,428.0908,240,426.121,240 M,0,14626,14669,426.121,240,424.1512,240 M,0,14669,14711,424.1512,240,422.1815,240
Sprite,Foreground,Centre,"sb/s/b.png",0,0 V,2,14797,15082,3,1,1.5,1 F,2,14797,15082,1,0 P,0,14797,15082,A R,0,14797,15082,0 C,0,14797,,148,0,204 M,0,14797,14839,441,240,454.4329,240 M,0,14839,14882,454.4329,240,467.6394,240
Sprite,Foreground,Centre,"sb/s/b.png",538,240 V,2,14967,15167,3,1,1.5,1 F,2,14967,15167,1,0 P,0,14967,15167,A R,0,14967,15167,0 C,0,14967,,148,0,204
Sprite,Foreground,Centre,"sb/s/b.png",0,0 V,2,15138,15423,3,1,1.5,1 F,2,15138,15423,1,0 P,0,15138,15423,A R,0,15138,15423,0 C,0,15138,,148,0,204 M,0,15138,15180,500,240,511.352,240 M,0,15180,15223,511.352,240,521.9382,240
Sprite,Foreground,Centre,"sb/s/b.png",0,0 V,2,15308,15678,3,1,1.5,1 F,2,15308,15678,1,0 P,0,15308,15678,A R,0,15308,15678,0 C,0,15308,,148,0,204 M,0,15308,15350,535,240,533.0885,240 M,0,15350,15393,533.0885,240,531.1771,240 M,0,15393,15435,531.1771,240,529.2656,240 M,0,15435,15478,529.2656,240,527.3541,240
Sprite,Foreground,Centre,"sb/s/b.png",527,240 V,2,15649,15849,3,1,1.5,1 F,2,15649,15849,1,0 P,0,15649,15849,A R,0,15649,15849,0 C,0,15649,,148,0,204
Sprite,Foreground,Centre,"sb/s/b.png",0,0 V,2,15819,16359,3,1,1.5,1 F,2,15819,16359,1,0 P,0,15819,16359,A R,0,15819,16359,0 C,0,15819,,242,0,6 M,0,15819,15861,446,240,432.8673,240 M,0,15861,15904,432.8673,240,417.6967,240 M,0,15904,15946,417.6967,240,401.0193,240 M,0,15946,15989,401.0193,240,383.4173,240 M,0,15989,16032,383.4173,240,365.4853,240 M,0,16032,16074,365.4853,240,347.8864,240 M,0,16074,16117,347.8864,240,331.2646,240 M,0,16117,16159,331.2646,240,316.1973,240
Sprite,Foreground,Centre,"sb/s/b.png",315,240 V,2,16331,16531,3,1,1.5,1 F,2,16331,16531,1,0 P,0,16331,16531,A R,0,16331,16531,0 C,0,16331,,242,0,6
Sprite,Foreground,Centre,"sb/s/b.png",0,0 V,2,16501,16956,3,1,1.5,1 F,2,16501,16956,1,0 P,0,16501,16956,A R,0,16501,16956,0 C,0,16501,,217,0,124 M,0,16501,16543,122,240,131.6995,240 M,0,16543,16586,131.6995,240,144.6683,240 M,0,16586,16628,144.6683,240,160.1685,240 M,0,16628,16671,160.1685,240,177.3231,240 M,0,16671,16714,177.3231,240,195.189,240 M,0,16714,16756,195.189,240,212.7324,240
Sprite,Foreground,Centre,"sb/s/b.png",237,240 V,2,16842,17042,3,1,1.5,1 F,2,16842,17042,1,0 P,0,16842,17042,A R,0,16842,17042,0 C,0,16842,,217,0,124
Sprite,Foreground,Centre,"sb/s/b.png",237,240 V,2,17013,17213,3,1,1.5,1 F,2,17013,17213,1,0 P,0,17013,17213,A R,0,17013,17213,0 C,0,17013,,217,0,124
Sprite,Foreground,Centre,"sb/s/b.png",0,0 V,2,17183,17723,3,1,1.5,1 F,2,17183,17723,1,0 P,0,17183,17723,A R,0,17183,17723,0 C,0,17183,,217,0,124 M,0,17183,17225,330,240,312.0882,240 M,0,17225,17268,312.0882,240,294.1763,240 M,0,17268,17310,294.1763,240,276.2645,240 M,0,17310,17353,276.2645,240,258.3526,240 M,0,17353,17396,258.3526,240,240.4408,240 M,0,17396,17438,240.4408,240,222.529,240 M,0,17438,17481,222.529,240,204.6171,240 M,0,17481,17523,204.6171,240,186.7053,240
Sprite,Foreground,Centre,"sb/s/b.png",186,240 V,2,17694,17894,3,1,1.5,1 F,2,17694,17894,1,0 P,0,17694,17894,A R,0,17694,17894,0 C,0,17694,,217,0,124
Sprite,Foreground,Centre,"sb/s/b.png",122,240 V,2,17865,18065,3,1,1.5,1 F,2,17865,18065,1,0 P,0,17865,18065,A R,0,17865,18065,0 C,0,17865,,148,0,204
Sprite,Foreground,Centre,"sb/s/b.png",186,240 V,2,18035,18235,3,1,1.5,1 F,2,18035,18235,1,0 P,0,18035,18235,A R,0,18035,18235,0 C,0,18035,,148,0,204
Sprite,Foreground,Centre,"sb/s/b.png",186,240 V,2,18206,18406,3,1,1.5,1 F,2,18206,18406,1,0 P,0,18206,18406,A R,0,18206,18406,0 C,0,18206,,148,0,204
Sprite,Foreground,Centre,"sb/s/b.png",0,0 V,2,18547,19087,3,1,1.5,1 F,2,18547,19087,1,0 P,0,18547,19087,A R,0,18547,19087,0 C,0,18547,,148,0,204 M,0,18547,18589,200,240,217.8884,240 M,0,18589,18632,217.8884,240,235.7768,240 M,0,18632,18674,235.7768,240,253.6651,240 M,0,18674,18717,253.6651,240,271.5535,240 M,0,18717,18760,271.5535,240,289.4419,240 M,0,18760,18802,289.4419,240,307.3303,240 M,0,18802,18845,307.3303,240,325.2186,240 M,0,18845,18887,325.2186,240,343,240
Sprite,Foreground,Centre,"sb/s/b.png",0,0 V,2,19228,19768,3,1,1.5,1 F,2,19228,19768,1,0 P,0,19228,19768,A R,0,19228,19768,0 C,0,19228,,242,0,6 M,0,19228,19270,428,240,445.2147,240 M,0,19270,19313,445.2147,240,461.0118,240 M,0,19313,19355,461.0118,240,474.7339,240 M,0,19355,19398,474.7339,240,485.8098,240 M,0,19398,19441,485.8098,240,494.0617,240 M,0,19441,19483,494.0617,240,498.4398,240 M,0,19483,19526,498.4398,240,499.1724,240 M,0,19526,19568,499.1724,240,496.2346,240
Sprite,Foreground,Centre,"sb/s/b.png",496,240 V,2,19740,19940,3,1,1.5,1 F,2,19740,19940,1,0 P,0,19740,19940,A R,0,19740,19940,0 C,0,19740,,242,0,6
Sprite,Foreground,Centre,"sb/s/b.png",0,0 V,2,19910,20365,3,1,1.5,1 F,2,19910,20365,1,0 P,0,19910,20365,A R,0,19910,20365,0 C,0,19910,,242,0,6 M,0,19910,19952,389,240,390.9698,240 M,0,19952,19995,390.9698,240,392.9395,240 M,0,19995,20037,392.9395,240,394.9092,240 M,0,20037,20080,394.9092,240,396.879,240 M,0,20080,20123,396.879,240,398.8488,240 M,0,20123,20165,398.8488,240,400.8185,240
Sprite,Foreground,Centre,"sb/s/b.png",0,0 V,2,20251,20536,3,1,1.5,1 F,2,20251,20536,1,0 P,0,20251,20536,A R,0,20251,20536,0 C,0,20251,,217,0,124 M,0,20251,20293,382,240,368.5671,240 M,0,20293,20336,368.5671,240,355.3606,240
Sprite,Foreground,Centre,"sb/s/b.png",268,240 V,2,20422,20622,3,1,1.5,1 F,2,20422,20622,1,0 P,0,20422,20622,A R,0,20422,20622,0 C,0,20422,,217,0,124
Sprite,Foreground,Centre,"sb/s/b.png",0,0 V,2,20592,20877,3,1,1.5,1 F,2,20592,20877,1,0 P,0,20592,20877,A R,0,20592,20877,0 C,0,20592,,217,0,124 M,0,20592,20634,321,240,309.4301,240 M,0,20634,20677,309.4301,240,299.2349,240
Sprite,Foreground,Centre,"sb/s/b.png",262,240 V,2,20763,20963,3,1,1.5,1 F,2,20763,20963,1,0 P,0,20763,20963,A R,0,20763,20963,0 C,0,20763,,217,0,124
Sprite,Foreground,Centre,"sb/s/b.png",262,240 V,2,20933,21133,3,1,1.5,1 F,2,20933,21133,1,0 P,0,20933,21133,A R,0,20933,21133,0 C,0,20933,,217,0,124
Sprite,Foreground,Centre,"sb/s/b.png",236,240 V,2,21103,21303,3,1,1.5,1 F,2,21103,21303,1,0 P,0,21103,21303,A R,0,21103,21303,0 C,0,21103,,217,0,124
Sprite,Foreground,Centre,"sb/s/b.png",315,240 V,2,21274,21474,3,1,1.5,1 F,2,21274,21474,1,0 P,0,21274,21474,A R,0,21274,21474,0 C,0,21274,,148,0,204
Sprite,Foreground,Centre,"sb/s/b.png",186,240 V,2,21444,21644,3,1,1.5,1 F,2,21444,21644,1,0 P,0,21444,21644,A R,0,21444,21644,0 C,0,21444,,148,0,204
Sprite,Foreground,Centre,"sb/s/b.png",324,240 V,2,21615,21815,3,1,1.5,1 F,2,21615,21815,1,0 P,0,21615,21815,A R,0,21615,21815,0 C,0,21615,,148,0,204
Sprite,Foreground,Centre,"sb/s/b.png",178,240 V,2,21785,21985,3,1,1.5,1 F,2,21785,21985,1,0 P,0,21785,21985,A R,0,21785,21985,0 C,0,21785,,148,0,204
Sprite,Foreground,Centre,"sb/s/b.png",297,240 V,2,21956,22156,3,1,1.5,1 F,2,21956,22156,1,0 P,0,21956,22156,A R,0,21956,22156,0 C,0,21956,,242,0,6
//Storyboard Sound Samples

[TimingPoints]
138,340.909090909091,4,3,4,85,1,0
11004,-100,4,3,3,5,0,0
11047,-125,4,3,4,85,0,0
11089,-125,4,3,3,85,0,0
11302,-125,4,3,3,5,0,0
11388,-125,4,3,3,85,0,0
13689,-125,4,3,3,5,0,0
13774,-125,4,3,3,85,0,0
14711,-125,4,3,3,5,0,0
14797,-166.666666666667,4,3,3,85,0,0
14882,-166.666666666667,4,3,3,5,0,0
14967,-166.666666666667,4,3,3,85,0,0
15223,-166.666666666667,4,3,3,5,0,0
15308,-125,4,3,3,85,0,0
16757,-125,4,3,3,5,0,0
16842,-125,4,3,3,85,0,0
18802,-125,4,3,3,5,0,0
18888,-125,4,3,3,85,0,0
20166,-125,4,3,3,5,0,0
20251,-166.666666666667,4,3,3,85,0,0
20336,-166.666666666667,4,3,3,5,0,0
20422,-166.666666666667,4,3,3,85,0,0
20677,-166.666666666667,4,3,3,5,0,0
20763,-166.666666666667,4,3,3,85,0,0
21956,-166.666666666667,4,3,2,85,0,0
32865,-166.666666666667,4,3,4,40,0,0
32907,-166.666666666667,4,3,3,40,0,0
33376,-111.111111111111,4,3,3,40,0,0
35592,-111.111111111111,4,3,3,45,0,0
36274,-111.111111111111,4,3,3,50,0,0
36956,-111.111111111111,4,3,3,55,0,0
37638,-111.111111111111,4,3,3,60,0,0
38319,-111.111111111111,4,3,3,65,0,0
39001,-111.111111111111,4,3,3,70,0,0
39683,-111.111111111111,4,3,3,75,0,0
40365,-111.111111111111,4,3,3,80,0,0
41047,-111.111111111111,4,3,3,85,0,0
43433,-333.333333333332,4,3,3,85,0,0
43689,-333.333333333332,4,3,3,5,0,0
43774,-71.4285714285714,4,3,3,100,0,0
44456,-83.3333333333333,4,3,3,100,0,0
45393,-83.3333333333333,4,3,3,5,0,0
45478,-83.3333333333333,4,3,3,100,0,0
45734,-83.3333333333333,4,3,3,5,0,0
45819,-83.3333333333333,4,3,3,100,0,0
45905,-83.3333333333333,4,3,3,5,0,0
45990,-83.3333333333333,4,3,3,100,0,0
46075,-83.3333333333333,4,3,3,5,0,0
46160,-83.3333333333333,4,3,3,100,0,0
46245,-83.3333333333333,4,3,3,5,0,0
46331,-83.3333333333333,4,3,3,100,0,0
46416,-83.3333333333333,4,3,3,5,0,0
46501,-76.9230769230769,4,3,3,100,0,0
46927,-76.9230769230769,4,3,3,5,0,0
47013,-76.9230769230769,4,3,3,100,0,0
47609,-76.9230769230769,4,3,3,5,0,0
47694,-76.9230769230769,4,3,3,100,0,0
47780,-76.9230769230769,4,3,3,5,0,0
47865,-76.9230769230769,4,3,3,100,0,0
48035,-166.666666666667,4,3,3,100,0,0
48120,-166.666666666667,4,3,3,5,0,0
48206,-166.666666666667,4,3,3,100,0,0
48291,-166.666666666667,4,3,3,5,0,0
48376,-166.666666666667,4,3,3,100,0,0
48461,-166.666666666667,4,3,3,5,0,0
48547,-166.666666666667,4,3,3,100,0,0
48632,-166.666666666667,4,3,3,5,0,0
48717,-166.666666666667,4,3,3,100,0,0
48802,-166.666666666667,4,3,3,5,0,0
48888,-166.666666666667,4,3,3,100,0,0
48973,-166.666666666667,4,3,3,5,0,0
49058,-166.666666666667,4,3,3,100,0,0
49143,-166.666666666667,4,3,3,5,0,0
49228,-71.4285714285714,4,3,4,100,0,0
49271,-71.4285714285714,4,3,3,100,0,0
49910,-83.3333333333333,4,3,3,100,0,0
50848,-83.3333333333333,4,3,3,5,0,0
50933,-83.3333333333333,4,3,3,100,0,0
51189,-83.3333333333333,4,3,3,5,0,0
51274,-83.3333333333333,4,3,3,100,0,0
51359,-83.3333333333333,4,3,3,5,0,0
51444,-111.111111111111,4,3,3,100,0,0
51530,-111.111111111111,4,3,3,5,0,0
51615,-100,4,3,3,100,0,0
51700,-100,4,3,3,5,0,0
51785,-90.9090909090909,4,3,3,100,0,0
51870,-90.9090909090909,4,3,3,5,0,0
51956,-90.9090909090909,4,3,3,100,0,0
54342,-111.111111111111,4,3,3,100,0,0
54427,-111.111111111111,4,3,3,5,0,0
54513,-111.111111111111,4,3,3,100,0,0
54683,-333.333333333333,4,3,3,100,0,0
55280,-333.333333333333,4,3,3,5,0,0
55365,-71.4285714285714,4,3,4,100,0,0
55407,-71.4285714285714,4,3,3,100,0,0
56047,-83.3333333333333,4,3,3,100,0,0
56302,-83.3333333333333,4,3,3,5,0,0
56388,-83.3333333333333,4,3,3,100,0,0
56473,-83.3333333333333,4,3,3,5,0,0
56558,-83.3333333333333,4,3,3,100,0,0
56643,-83.3333333333333,4,3,3,5,0,0
56728,-83.3333333333333,4,3,3,100,0,0
56814,-83.3333333333333,4,3,3,5,0,0
56899,-83.3333333333333,4,3,3,100,0,0
56984,-83.3333333333333,4,3,3,5,0,0
57069,-83.3333333333333,4,3,3,100,0,0
57155,-83.3333333333333,4,3,3,5,0,0
57240,-83.3333333333333,4,3,3,100,0,0
57410,-71.4285714285714,4,3,3,100,0,0
57836,-71.4285714285714,4,3,3,5,0,0
57922,-71.4285714285714,4,3,3,100,0,0
58518,-71.4285714285714,4,3,3,5,0,0
58603,-71.4285714285714,4,3,3,100,0,0
58689,-71.4285714285714,4,3,3,5,0,0
58774,-71.4285714285714,4,3,3,100,0,0
58944,-166.666666666667,4,3,3,100,0,0
59030,-166.666666666667,4,3,3,5,0,0
59115,-166.666666666667,4,3,3,100,0,0
59200,-166.666666666667,4,3,3,5,0,0
59285,-166.666666666667,4,3,3,100,0,0
59370,-166.666666666667,4,3,3,5,0,0
59456,-166.666666666667,4,3,3,100,0,0
59541,-166.666666666667,4,3,3,5,0,0
59626,-166.666666666667,4,3,3,100,0,0
59711,-166.666666666667,4,3,3,5,0,0
59797,-166.666666666667,4,3,3,100,0,0
59882,-166.666666666667,4,3,3,5,0,0
59967,-166.666666666667,4,3,3,100,0,0
60052,-166.666666666667,4,3,3,5,0,0
60138,-71.4285714285714,4,3,4,100,0,0
60180,-71.4285714285714,4,3,3,100,0,0
60819,-83.3333333333333,4,3,3,100,0,0
61757,-83.3333333333333,4,3,3,5,0,0
61842,-83.3333333333333,4,3,3,100,0,0
61927,-83.3333333333333,4,3,3,5,0,0
62013,-83.3333333333333,4,3,3,100,0,0
62098,-83.3333333333333,4,3,3,5,0,0
62183,-83.3333333333333,4,3,3,100,0,0
62268,-83.3333333333333,4,3,3,5,0,0
62353,-83.3333333333333,4,3,3,100,0,0
62439,-83.3333333333333,4,3,3,5,0,0
62524,-83.3333333333333,4,3,3,100,0,0
62609,-83.3333333333333,4,3,3,5,0,0
62694,-83.3333333333333,4,3,3,100,0,0
62865,-133.333333333333,4,3,3,85,0,0
63888,-133.333333333333,4,3,3,40,0,0
64228,-133.333333333333,4,3,3,50,0,0
64569,-133.333333333333,4,3,3,60,0,0
64910,-133.333333333333,4,3,3,85,0,0
65336,-133.333333333333,4,3,3,5,0,0
65422,-133.333333333333,4,3,3,85,0,0
65592,-71.4285714285714,4,3,4,100,0,0
65635,-71.4285714285714,4,3,3,100,0,0
65848,-71.4285714285714,4,3,3,5,0,0
65933,-71.4285714285714,4,3,3,100,0,0
66018,-71.4285714285714,4,3,3,5,0,0
66103,-250,4,3,3,100,0,0
66359,-250,4,3,3,5,0,0
66444,-71.4285714285714,4,3,3,100,0,0
66530,-71.4285714285714,4,3,3,5,0,0
66615,-71.4285714285714,4,3,3,100,0,0
67211,-71.4285714285714,4,3,3,100,0,0
67297,-71.4285714285714,4,3,3,100,0,0
67382,-71.4285714285714,4,3,3,5,0,0
67467,-71.4285714285714,4,3,3,100,0,0
67552,-71.4285714285714,4,3,3,5,0,0
67638,-142.857142857143,4,3,3,100,0,0
67723,-142.857142857143,4,3,3,5,0,0
67808,-142.857142857143,4,3,3,100,0,0
67893,-142.857142857143,4,3,3,5,0,0
67978,-142.857142857143,4,3,3,100,0,0
68064,-142.857142857143,4,3,3,5,0,0
68149,-142.857142857143,4,3,3,100,0,0
68234,-142.857142857143,4,3,3,5,0,0
68319,-71.4285714285714,4,3,3,100,0,0
68575,-71.4285714285714,4,3,3,5,0,0
68660,-58.8235294117647,4,3,3,100,0,0
68916,-58.8235294117647,4,3,3,5,0,0
69001,-58.8235294117647,4,3,3,100,0,0
69172,-71.4285714285714,4,3,3,100,0,0
69257,-71.4285714285714,4,3,3,5,0,0
69342,-71.4285714285714,4,3,3,100,0,0
69427,-71.4285714285714,4,3,3,5,0,0
69513,-71.4285714285714,4,3,3,100,0,0
69598,-71.4285714285714,4,3,3,5,0,0
69683,-142.857142857143,4,3,3,100,0,0
69768,-142.857142857143,4,3,3,5,0,0
69853,-142.857142857143,4,3,3,100,0,0
69939,-142.857142857143,4,3,3,5,0,0
70024,-142.857142857143,4,3,3,100,0,0
70109,-142.857142857143,4,3,3,5,0,0
70194,-142.857142857143,4,3,3,100,0,0
70280,-142.857142857143,4,3,3,5,0,0
70365,-142.857142857143,4,3,3,100,0,0
70450,-142.857142857143,4,3,3,5,0,0
70535,-142.857142857143,4,3,3,100,0,0
70620,-142.857142857143,4,3,3,5,0,0
70706,-142.857142857143,4,3,3,100,0,0
70791,-142.857142857143,4,3,3,5,0,0
70876,-142.857142857143,4,3,3,100,0,0
70961,-142.857142857143,4,3,3,5,0,0
71047,-71.4285714285714,4,3,4,100,0,0
71089,-71.4285714285714,4,3,3,100,0,0
71302,-71.4285714285714,4,3,3,5,0,0
71388,-71.4285714285714,4,3,3,100,0,0
71473,-71.4285714285714,4,3,3,5,0,0
71558,-250,4,3,3,100,0,0
71814,-250,4,3,3,5,0,0
71899,-71.4285714285714,4,3,3,100,0,0
71984,-71.4285714285714,4,3,3,5,0,0
72069,-71.4285714285714,4,3,3,100,0,0
72666,-71.4285714285714,4,3,3,5,0,0
72751,-71.4285714285714,4,3,3,100,0,0
72836,-71.4285714285714,4,3,3,5,0,0
72922,-71.4285714285714,4,3,3,100,0,0
73007,-71.4285714285714,4,3,3,5,0,0
73092,-71.4285714285714,4,3,3,100,0,0
73177,-71.4285714285714,4,3,3,5,0,0
73263,-111.111111111111,4,3,3,100,0,0
73348,-111.111111111111,4,3,3,5,0,0
73433,-100,4,3,3,100,0,0
73518,-100,4,3,3,5,0,0
73603,-90.9090909090909,4,3,3,100,0,0
73689,-90.9090909090909,4,3,3,5,0,0
73774,-71.4285714285714,4,3,3,100,0,0
75649,-142.857142857143,4,3,3,100,0,0
75990,-100,4,3,3,100,0,0
76075,-100,4,3,3,5,0,0
76160,-76.923076923077,4,3,3,100,0,0
76501,-333.333333333333,4,3,3,100,0,0
76586,-333.333333333333,4,3,3,5,0,0
76672,-333.333333333333,4,3,3,100,0,0
76757,-333.333333333333,4,3,3,5,0,0
76842,-333.333333333333,4,3,3,100,0,0
77098,-333.333333333333,4,3,3,5,0,0
77183,-71.4285714285714,4,3,4,100,0,0
77226,-71.4285714285714,4,3,3,100,0,0
78120,-71.4285714285714,4,3,3,5,0,0
78206,-71.4285714285714,4,3,3,100,0,0
78291,-71.4285714285714,4,3,3,5,0,0
78376,-71.4285714285714,4,3,3,100,0,0
78461,-71.4285714285714,4,3,3,5,0,0
78547,-142.857142857143,4,3,3,100,0,0
78632,-142.857142857143,4,3,3,5,0,0
78717,-142.857142857143,4,3,3,100,0,0
78802,-142.857142857143,4,3,3,5,0,0
78888,-142.857142857143,4,3,3,100,0,0
78973,-142.857142857143,4,3,3,5,0,0
79058,-142.857142857143,4,3,3,100,0,0
79143,-142.857142857143,4,3,3,5,0,0
79228,-71.4285714285714,4,3,3,100,0,0
79484,-71.4285714285714,4,3,3,5,0,0
79569,-71.4285714285714,4,3,3,100,0,0
79655,-71.4285714285714,4,3,3,5,0,0
79740,-250,4,3,3,100,0,0
79995,-250,4,3,3,5,0,0
80081,-71.4285714285714,4,3,3,100,0,0
80166,-71.4285714285714,4,3,3,5,0,0
80251,-71.4285714285714,4,3,3,100,0,0
80336,-71.4285714285714,4,3,3,5,0,0
80422,-71.4285714285714,4,3,3,100,0,0
80507,-71.4285714285714,4,3,3,5,0,0
80592,-142.857142857143,4,3,3,100,0,0
80677,-142.857142857143,4,3,3,5,0,0
80763,-142.857142857143,4,3,3,100,0,0
80848,-142.857142857143,4,3,3,5,0,0
80933,-142.857142857143,4,3,3,100,0,0
81018,-142.857142857143,4,3,3,5,0,0
81103,-142.857142857143,4,3,3,100,0,0
81189,-142.857142857143,4,3,3,5,0,0
81274,-142.857142857143,4,3,3,100,0,0
81359,-142.857142857143,4,3,3,5,0,0
81444,-142.857142857143,4,3,3,100,0,0
81530,-142.857142857143,4,3,3,5,0,0
81615,-142.857142857143,4,3,3,100,0,0
81700,-142.857142857143,4,3,3,5,0,0
81785,-142.857142857143,4,3,3,100,0,0
81870,-142.857142857143,4,3,3,5,0,0
81956,-71.4285714285714,4,3,4,100,0,0
81998,-71.4285714285714,4,3,3,100,0,0
82211,-71.4285714285714,4,3,3,5,0,0
82297,-71.4285714285714,4,3,3,100,0,0
82382,-71.4285714285714,4,3,3,5,0,0
82467,-250,4,3,3,100,0,0
82723,-250,4,3,3,5,0,0
82808,-71.4285714285714,4,3,3,100,0,0
82893,-71.4285714285714,4,3,3,5,0,0
82978,-71.4285714285714,4,3,3,100,0,0
83575,-71.4285714285714,4,3,3,5,0,0
83660,-71.4285714285714,4,3,3,100,0,0
83745,-71.4285714285714,4,3,3,5,0,0
83831,-71.4285714285714,4,3,3,100,0,0
83916,-71.4285714285714,4,3,3,5,0,0
84001,-71.4285714285714,4,3,3,100,0,0
84086,-71.4285714285714,4,3,3,5,0,0
84172,-71.4285714285714,4,3,3,100,0,0
84257,-71.4285714285714,4,3,3,5,0,0
84342,-71.4285714285714,4,3,3,100,0,0
84513,-71.4285714285714,4,3,3,100,0,0
84683,-250,4,3,4,85,0,0
85280,-250,4,3,3,5,0,0
85365,-200,4,3,3,85,0,0
85961,-200,4,3,3,5,0,0
86047,-166.666666666667,4,3,3,85,0,0
86643,-166.666666666667,4,3,3,5,0,0
86728,-142.857142857143,4,3,3,85,0,0
87325,-142.857142857143,4,3,3,5,0,0
87410,-125,4,3,4,85,0,0
87453,-125,4,3,3,85,0,0
87922,-166.666666666667,4,3,3,85,0,0
88092,-125,4,3,3,85,0,0
90052,-125,4,3,3,5,0,0
90138,-125,4,3,3,85,0,0
90649,-166.666666666667,4,3,3,85,0,0
90990,-125,4,3,3,85,0,0
92865,-125,4,3,4,85,0,0
92907,-125,4,3,3,85,0,0
93376,-166.666666666667,4,3,3,85,0,0
93547,-125,4,3,3,85,0,0
98319,-111.111111111111,4,3,4,50,0,0
98362,-111.111111111111,4,3,3,50,0,0
101047,-111.111111111111,4,3,3,55,0,0
101728,-111.111111111111,4,3,3,60,0,0
102410,-111.111111111111,4,3,3,65,0,0
103092,-111.111111111111,4,3,3,70,0,0
103774,-111.111111111111,4,3,3,75,0,0
104456,-111.111111111111,4,3,3,80,0,0
105138,-111.111111111111,4,3,3,85,0,0
108376,-250,4,3,3,85,0,0
109228,-71.4285714285714,4,3,3,100,0,0
109484,-71.4285714285714,4,3,3,5,0,0
109569,-250,4,3,3,100,0,0
109825,-250,4,3,3,5,0,0
109910,-71.4285714285714,4,3,3,100,0,0
110166,-71.4285714285714,4,3,3,5,0,0
110251,-250,4,3,3,100,0,0
110507,-250,4,3,3,5,0,0
110592,-71.4285714285714,4,3,3,100,0,0
110848,-71.4285714285714,4,3,3,5,0,0
110933,-71.4285714285714,4,3,3,100,0,0
111018,-71.4285714285714,4,3,3,5,0,0
111103,-71.4285714285714,4,3,3,100,0,0
111189,-71.4285714285714,4,3,3,5,0,0
111274,-71.4285714285714,4,3,3,100,0,0
111359,-71.4285714285714,4,3,3,5,0,0
111444,-71.4285714285714,4,3,3,100,0,0
111530,-71.4285714285714,4,3,3,5,0,0
111615,-71.4285714285714,4,3,3,100,0,0
111700,-71.4285714285714,4,3,3,5,0,0
111785,-71.4285714285714,4,3,3,100,0,0
111870,-71.4285714285714,4,3,3,5,0,0
111956,-71.4285714285714,4,3,3,100,0,0
112211,-71.4285714285714,4,3,3,5,0,0
112297,-250,4,3,3,100,0,0
112552,-250,4,3,3,5,0,0
112638,-71.4285714285714,4,3,3,100,0,0
112893,-71.4285714285714,4,3,3,5,0,0
112978,-71.4285714285714,4,3,3,100,0,0
113064,-71.4285714285714,4,3,3,5,0,0
113149,-71.4285714285714,4,3,3,100,0,0
113234,-71.4285714285714,4,3,3,5,0,0
113319,-71.4285714285714,4,3,3,100,0,0
113405,-71.4285714285714,4,3,3,5,0,0
113490,-142.857142857143,4,3,3,100,0,0
113575,-142.857142857143,4,3,3,5,0,0
113660,-142.857142857143,4,3,3,100,0,0
113745,-142.857142857143,4,3,3,5,0,0
113831,-142.857142857143,4,3,3,100,0,0
113916,-142.857142857143,4,3,3,5,0,0
114001,-142.857142857143,4,3,3,100,0,0
114086,-142.857142857143,4,3,3,5,0,0
114172,-142.857142857143,4,3,3,100,0,0
114257,-142.857142857143,4,3,3,5,0,0
114342,-142.857142857143,4,3,3,100,0,0
114427,-142.857142857143,4,3,3,5,0,0
114513,-142.857142857143,4,3,3,100,0,0
114598,-142.857142857143,4,3,3,5,0,0
114683,-71.4285714285714,4,3,4,100,0,0
114726,-71.4285714285714,4,3,3,100,0,0
114939,-71.4285714285714,4,3,3,5,0,0
115024,-250,4,3,3,100,0,0
115280,-250,4,3,3,5,0,0
115365,-71.4285714285714,4,3,3,100,0,0
115620,-71.4285714285714,4,3,3,5,0,0
115706,-250,4,3,3,100,0,0
115961,-250,4,3,3,5,0,0
116047,-71.4285714285714,4,3,3,100,0,0
116302,-71.4285714285714,4,3,3,5,0,0
116388,-71.4285714285714,4,3,3,100,0,0
116473,-71.4285714285714,4,3,3,5,0,0
116558,-71.4285714285714,4,3,3,100,0,0
116643,-71.4285714285714,4,3,3,5,0,0
116728,-71.4285714285714,4,3,3,100,0,0
116814,-71.4285714285714,4,3,3,5,0,0
116899,-111.111111111111,4,3,3,100,0,0
116984,-111.111111111111,4,3,3,5,0,0
117069,-90.9090909090909,4,3,3,100,0,0
117155,-90.9090909090909,4,3,3,5,0,0
117240,-76.9230769230769,4,3,3,100,0,0
117325,-76.9230769230769,4,3,3,5,0,0
117410,-76.9230769230769,4,3,3,100,0,0
119456,-200,4,3,3,100,0,0
119541,-200,4,3,3,5,0,0
119626,-142.857142857143,4,3,3,100,0,0
119711,-142.857142857143,4,3,3,5,0,0
119797,-111.111111111111,4,3,3,100,0,0
119882,-111.111111111111,4,3,3,5,0,0
119967,-90.9090909090909,4,3,3,100,0,0
120052,-90.9090909090909,4,3,3,5,0,0
120138,-333.333333333333,4,3,3,100,0,0
120734,-333.333333333333,4,3,3,5,0,0
120777,-333.333333333333,4,3,3,100,0,0
120819,-71.4285714285714,4,3,4,100,0,0
120862,-71.4285714285714,4,3,3,100,0,0
121160,-250,4,3,3,100,0,0
121416,-250,4,3,3,5,0,0
121501,-71.4285714285714,4,3,3,100,0,0
121757,-71.4285714285714,4,3,3,5,0,0
121842,-71.4285714285714,4,3,3,100,0,0
121927,-71.4285714285714,4,3,3,5,0,0
122013,-71.4285714285714,4,3,3,100,0,0
122098,-71.4285714285714,4,3,3,5,0,0
122183,-71.4285714285714,4,3,3,100,0,0
122268,-71.4285714285714,4,3,3,5,0,0
122353,-71.4285714285714,4,3,3,100,0,0
122439,-71.4285714285714,4,3,3,5,0,0
122524,-71.4285714285714,4,3,3,100,0,0
122609,-71.4285714285714,4,3,3,5,0,0
122694,-71.4285714285714,4,3,3,100,0,0
123120,-71.4285714285714,4,3,3,5,0,0
123206,-250,4,3,3,100,0,0
123461,-250,4,3,3,5,0,0
123547,-71.4285714285714,4,3,3,100,0,0
123802,-71.4285714285714,4,3,3,5,0,0
123888,-71.4285714285714,4,3,3,100,0,0
123973,-71.4285714285714,4,3,3,5,0,0
124058,-71.4285714285714,4,3,3,100,0,0
124143,-71.4285714285714,4,3,3,5,0,0
124228,-71.4285714285714,4,3,3,100,0,0
124314,-71.4285714285714,4,3,3,5,0,0
124399,-142.857142857143,4,3,3,100,0,0
124484,-142.857142857143,4,3,3,5,0,0
124569,-142.857142857143,4,3,3,100,0,0
124655,-142.857142857143,4,3,3,5,0,0
124740,-142.857142857143,4,3,3,100,0,0
124825,-142.857142857143,4,3,3,5,0,0
124910,-142.857142857143,4,3,3,100,0,0
124995,-142.857142857143,4,3,3,5,0,0
125081,-142.857142857143,4,3,3,100,0,0
125166,-142.857142857143,4,3,3,5,0,0
125251,-142.857142857143,4,3,3,100,0,0
125336,-142.857142857143,4,3,3,5,0,0
125422,-142.857142857143,4,3,3,100,0,0
125507,-142.857142857143,4,3,3,5,0,0
125592,-71.4285714285714,4,3,4,100,0,0
125635,-71.4285714285714,4,3,3,100,0,0
125848,-71.4285714285714,4,3,3,5,0,0
125933,-250,4,3,3,100,0,0
126189,-250,4,3,3,5,0,0
126274,-71.4285714285714,4,3,3,100,0,0
126530,-71.4285714285714,4,3,3,5,0,0
126615,-250,4,3,3,100,0,0
126870,-250,4,3,3,5,0,0
126956,-71.4285714285714,4,3,3,100,0,0
127211,-71.4285714285714,4,3,3,5,0,0
127297,-71.4285714285714,4,3,3,100,0,0
127382,-71.4285714285714,4,3,3,5,0,0
127467,-71.4285714285714,4,3,3,100,0,0
127552,-71.4285714285714,4,3,3,5,0,0
127638,-71.4285714285714,4,3,3,100,0,0
127723,-71.4285714285714,4,3,3,5,0,0
127808,-71.4285714285714,4,3,3,100,0,0
127893,-71.4285714285714,4,3,3,5,0,0
127978,-71.4285714285714,4,3,3,100,0,0
128064,-71.4285714285714,4,3,3,5,0,0
128149,-71.4285714285714,4,3,3,100,0,0
128319,-250,4,3,3,85,0,0
129683,-90.9090909090909,4,3,3,85,0,0
130706,-250,4,3,3,85,0,0
130961,-250,4,3,3,5,0,0
131047,-71.4285714285714,4,3,4,100,0,0
131089,-71.4285714285714,4,3,3,100,0,0
131302,-71.4285714285714,4,3,3,5,0,0
131388,-71.4285714285714,4,3,3,100,0,0
131473,-71.4285714285714,4,3,3,5,0,0
131558,-250,4,3,3,100,0,0
131814,-250,4,3,3,5,0,0
131899,-71.4285714285714,4,3,3,100,0,0
131984,-71.4285714285714,4,3,3,5,0,0
132069,-71.4285714285714,4,3,3,100,0,0
132666,-71.4285714285714,4,3,3,5,0,0
132751,-71.4285714285714,4,3,3,100,0,0
132836,-71.4285714285714,4,3,3,5,0,0
132922,-71.4285714285714,4,3,3,100,0,0
133007,-71.4285714285714,4,3,3,5,0,0
133092,-142.857142857143,4,3,3,100,0,0
133177,-142.857142857143,4,3,3,5,0,0
133263,-142.857142857143,4,3,3,100,0,0
133348,-142.857142857143,4,3,3,5,0,0
133433,-142.857142857143,4,3,3,100,0,0
133518,-142.857142857143,4,3,3,5,0,0
133603,-142.857142857143,4,3,3,100,0,0
133689,-142.857142857143,4,3,3,5,0,0
133774,-71.4285714285714,4,3,3,100,0,0
134030,-71.4285714285714,4,3,3,5,0,0
134115,-58.8235294117647,4,3,3,100,0,0
134370,-58.8235294117647,4,3,3,5,0,0
134456,-71.4285714285714,4,3,3,100,0,0
134711,-71.4285714285714,4,3,3,5,0,0
134797,-71.4285714285714,4,3,3,100,0,0
134882,-71.4285714285714,4,3,3,5,0,0
134967,-71.4285714285714,4,3,3,100,0,0
135052,-71.4285714285714,4,3,3,5,0,0
135138,-142.857142857143,4,3,3,100,0,0
135223,-142.857142857143,4,3,3,5,0,0
135308,-142.857142857143,4,3,3,100,0,0
135393,-142.857142857143,4,3,3,5,0,0
135478,-142.857142857143,4,3,3,100,0,0
135564,-142.857142857143,4,3,3,5,0,0
135649,-142.857142857143,4,3,3,100,0,0
135734,-142.857142857143,4,3,3,5,0,0
135819,-142.857142857143,4,3,3,100,0,0
135905,-142.857142857143,4,3,3,5,0,0
135990,-142.857142857143,4,3,3,100,0,0
136075,-142.857142857143,4,3,3,5,0,0
136160,-142.857142857143,4,3,3,100,0,0
136245,-142.857142857143,4,3,3,5,0,0
136331,-142.857142857143,4,3,3,100,0,0
136416,-142.857142857143,4,3,3,5,0,0
136501,-71.4285714285714,4,3,4,100,0,0
136544,-71.4285714285714,4,3,3,100,0,0
136757,-71.4285714285714,4,3,3,5,0,0
136842,-71.4285714285714,4,3,3,100,0,0
136927,-71.4285714285714,4,3,3,5,0,0
137013,-250,4,3,3,100,0,0
137268,-250,4,3,3,5,0,0
137353,-71.4285714285714,4,3,3,100,0,0
137439,-71.4285714285714,4,3,3,5,0,0
137524,-71.4285714285714,4,3,3,100,0,0
138120,-71.4285714285714,4,3,3,5,0,0
138206,-71.4285714285714,4,3,3,100,0,0
138291,-71.4285714285714,4,3,3,5,0,0
138376,-71.4285714285714,4,3,3,100,0,0
138547,-142.857142857143,4,3,3,100,0,0
138632,-142.857142857143,4,3,3,5,0,0
138717,-111.111111111111,4,3,3,100,0,0
138802,-111.111111111111,4,3,3,5,0,0
138888,-90.9090909090909,4,3,3,100,0,0
138973,-90.9090909090909,4,3,3,5,0,0
139058,-76.9230769230769,4,3,3,100,0,0
139143,-76.9230769230769,4,3,3,5,0,0
139228,-76.9230769230769,4,3,3,100,0,0
140592,-71.4285714285714,4,3,3,100,0,0
141103,-142.857142857143,4,3,3,100,0,0
141444,-100,4,3,3,100,0,0
141530,-100,4,3,3,5,0,0
141615,-76.923076923077,4,3,3,100,0,0
141956,-333.333333333333,4,3,3,100,0,0
142041,-333.333333333333,4,3,3,5,0,0
142126,-333.333333333333,4,3,3,100,0,0
142211,-333.333333333333,4,3,3,5,0,0
142297,-333.333333333333,4,3,3,100,0,0
142552,-333.333333333333,4,3,3,5,0,0
142638,-71.4285714285714,4,3,4,100,0,0
142680,-71.4285714285714,4,3,3,100,0,0
143575,-71.4285714285714,4,3,3,5,0,0
143660,-71.4285714285714,4,3,3,100,0,0
143745,-71.4285714285714,4,3,3,5,0,0
143831,-71.4285714285714,4,3,3,100,0,0
143916,-71.4285714285714,4,3,3,5,0,0
144001,-166.666666666667,4,3,3,100,0,0
144086,-166.666666666667,4,3,3,5,0,0
144172,-166.666666666667,4,3,3,100,0,0
144257,-166.666666666667,4,3,3,5,0,0
144342,-166.666666666667,4,3,3,100,0,0
144427,-166.666666666667,4,3,3,5,0,0
144513,-166.666666666667,4,3,3,100,0,0
144598,-166.666666666667,4,3,3,5,0,0
144683,-71.4285714285714,4,3,3,100,0,0
144939,-71.4285714285714,4,3,3,5,0,0
145024,-71.4285714285714,4,3,3,100,0,0
145109,-71.4285714285714,4,3,3,5,0,0
145194,-250,4,3,3,100,0,0
145450,-250,4,3,3,5,0,0
145535,-71.4285714285714,4,3,3,100,0,0
145620,-71.4285714285714,4,3,3,5,0,0
145706,-71.4285714285714,4,3,3,100,0,0
145791,-71.4285714285714,4,3,3,5,0,0
145876,-71.4285714285714,4,3,3,100,0,0
145961,-71.4285714285714,4,3,3,5,0,0
146047,-250,4,3,3,100,0,0
146132,-250,4,3,3,5,0,0
146217,-250,4,3,3,100,0,0
146302,-250,4,3,3,5,0,0
146388,-250,4,3,3,100,0,0
146473,-250,4,3,3,5,0,0
146558,-250,4,3,3,100,0,0
146643,-250,4,3,3,5,0,0
146728,-250,4,3,3,100,0,0
146814,-250,4,3,3,5,0,0
146899,-250,4,3,3,100,0,0
146984,-250,4,3,3,5,0,0
147069,-250,4,3,3,100,0,0
147155,-250,4,3,3,5,0,0
147240,-250,4,3,3,100,0,0
147325,-250,4,3,3,5,0,0
147410,-71.4285714285714,4,3,4,100,0,0
147453,-71.4285714285714,4,3,3,100,0,0
147666,-71.4285714285714,4,3,3,5,0,0
147751,-71.4285714285714,4,3,3,100,0,0
147836,-71.4285714285714,4,3,3,5,0,0
147922,-250,4,3,3,100,0,0
148177,-250,4,3,3,5,0,0
148263,-71.4285714285714,4,3,3,100,0,0
148348,-71.4285714285714,4,3,3,5,0,0
148433,-71.4285714285714,4,3,3,100,0,0
149030,-71.4285714285714,4,3,3,5,0,0
149115,-71.4285714285714,4,3,3,100,0,0
149200,-71.4285714285714,4,3,3,5,0,0
149285,-71.4285714285714,4,3,3,100,0,0
149370,-71.4285714285714,4,3,3,5,0,0
149456,-71.4285714285714,4,3,3,100,0,0
149541,-71.4285714285714,4,3,3,5,0,0
149626,-71.4285714285714,4,3,3,100,0,0
149711,-71.4285714285714,4,3,3,5,0,0
149797,-71.4285714285714,4,3,3,100,0,0
149882,-71.4285714285714,4,3,3,5,0,0
149967,-71.4285714285714,4,3,3,100,0,0
150052,-71.4285714285714,4,3,3,5,0,0
150138,-250,4,3,4,85,0,0
150734,-250,4,3,3,5,0,0
150819,-200,4,3,3,85,0,0
151416,-200,4,3,3,5,0,0
151501,-166.666666666667,4,3,3,85,0,0
152098,-166.666666666667,4,3,3,5,0,0
152183,-142.857142857143,4,3,3,85,0,0
152780,-142.857142857143,4,3,3,5,0,0
152865,-125,4,3,4,85,0,0
152907,-125,4,3,3,85,0,0
153120,-125,4,3,3,5,0,0
153206,-125,4,3,3,85,0,0
156530,-125,4,3,3,5,0,0
156615,-166.666666666667,4,3,3,85,0,0
156700,-166.666666666667,4,3,3,5,0,0
156785,-166.666666666667,4,3,3,85,0,0
157041,-166.666666666667,4,3,3,5,0,0
157126,-125,4,3,3,85,0,0
158575,-125,4,3,3,5,0,0
158660,-125,4,3,3,85,0,0
161984,-125,4,3,3,5,0,0
162069,-166.666666666667,4,3,3,85,0,0
162155,-166.666666666667,4,3,3,5,0,0
162240,-166.666666666667,4,3,3,85,0,0
162495,-166.666666666667,4,3,3,5,0,0
162581,-166.666666666667,4,3,3,85,0,0
163774,-125,4,3,4,85,0,0
163816,-125,4,3,3,85,0,0
164030,-125,4,3,3,5,0,0
164115,-125,4,3,3,85,0,0
167524,-166.666666666667,4,3,3,85,0,0
167609,-166.666666666667,4,3,3,5,0,0
167694,-166.666666666667,4,3,3,85,0,0
167950,-166.666666666667,4,3,3,5,0,0
168035,-125,4,3,3,85,0,0
169484,-125,4,3,3,5,0,0
169569,-125,4,3,3,85,0,0
172893,-125,4,3,3,5,0,0
172978,-166.666666666667,4,3,3,85,0,0
173064,-166.666666666667,4,3,3,5,0,0
173149,-166.666666666667,4,3,3,85,0,0
173405,-166.666666666667,4,3,3,5,0,0
173490,-166.666666666667,4,3,3,85,0,0
174683,-166.666666666667,4,3,2,85,0,0

[Colours]
Combo1 : 242,0,6
Combo2 : 217,0,124
Combo3 : 148,0,204

[HitObjects]
209,227,138,5,6,0:1:0:0:
256,192,5592,12,0,10876,0:0:0:0:
128,262,11047,6,0,P|171:276|236:267,1,108,6|0,0:1|0:0,0:0:0:0:
256,259,11388,1,0,0:0:0:0:
256,259,11558,1,0,0:0:0:0:
143,118,11728,2,0,L|127:269,1,144,8|0,0:0|0:0,0:0:0:0:
127,261,12240,1,4,0:0:0:0:
131,348,12410,5,0,0:0:0:0:
127,261,12581,1,4,0:0:0:0:
127,261,12751,1,4,0:0:0:0:
141,277,13092,2,0,L|156:133,1,144,8|0,0:0|0:0,0:0:0:0:
166,52,13774,6,0,P|213:29|303:48,1,144,4|0,0:0|0:0,0:0:0:0:
300,45,14285,1,0,0:0:0:0:
370,205,14456,2,0,L|358:96,1,108,8|0,0:0|0:0,0:0:0:0:
377,61,14797,6,0,P|393:61|413:66,1,26.9999991760254,0|0,0:0|0:0,0:0:0:0:
474,121,14967,1,4,0:0:0:0:
436,0,15138,2,0,P|449:8|464:22,1,26.9999991760254,0|0,0:0|0:0,0:0:0:0:
471,138,15308,2,0,L|460:241,1,72,4|4,0:0|0:0,0:0:0:0:
463,209,15649,1,0,0:0:0:0:
382,354,15819,6,0,P|320:322|239:354,1,144,8|0,0:0|0:0,0:0:0:0:
251,341,16331,1,0,0:0:0:0:
58,306,16501,6,0,P|115:348|175:330,1,108,4|0,0:0|0:0,0:0:0:0:
173,338,16842,1,0,0:0:0:0:
173,338,17013,1,0,0:0:0:0:
266,246,17183,2,0,L|115:261,1,144,8|0,0:0|0:0,0:0:0:0:
122,261,17694,1,4,0:0:0:0:
58,306,17865,5,0,0:0:0:0:
122,261,18035,1,4,0:0:0:0:
122,261,18206,1,4,0:0:0:0:
136,277,18547,2,0,L|279:261,1,144,8|0,0:0|0:0,0:0:0:0:
364,250,19228,6,0,P|424:208|426:125,1,144,4|0,0:0|0:0,0:0:0:0:
432,141,19740,1,0,0:0:0:0:
325,43,19910,2,0,L|337:152,1,108,8|0,0:0|0:0,0:0:0:0:
318,187,20251,6,0,P|302:187|282:182,1,26.9999991760254,0|0,0:0|0:0,0:0:0:0:
204,115,20422,1,4,0:0:0:0:
257,250,20592,2,0,P|243:242|228:227,1,26.9999991760254,0|0,0:0|0:0,0:0:0:0:
198,108,20763,1,4,0:0:0:0:
198,108,20933,1,4,0:0:0:0:
172,274,21103,1,0,0:0:0:0:
251,178,21274,5,8,0:0:0:0:
122,189,21444,1,0,0:0:0:0:
260,165,21615,1,0,0:0:0:0:
114,201,21785,1,0,0:0:0:0:
233,324,21956,5,6,0:1:0:0:
325,250,32865,5,14,0:1:0:0:
330,152,33035,1,8,0:0:0:0:
228,242,33206,1,12,0:0:0:0:
160,84,33376,2,0,L|155:40,2,40.4999987640381,8|8|12,0:0|0:0|0:0,0:0:0:0:
155,182,33717,1,8,0:0:0:0:
257,92,33888,2,0,P|313:76|353:75,1,80.9999975280763,4|8,0:0|0:0,0:0:0:0:
352,84,34143,1,8,0:0:0:0:
365,98,34228,5,4,0:0:0:0:
262,175,34399,1,8,0:0:0:0:
452,177,34569,1,4,0:0:0:0:
347,261,34740,2,0,L|342:305,2,40.4999987640381,8|8|4,0:0|0:0|0:0,0:0:0:0:
437,344,35081,1,8,0:0:0:0:
249,338,35251,2,0,P|208:335|158:311,1,80.9999975280763,4|8,0:0|0:0,0:0:0:0:
157,305,35507,1,8,0:0:0:0:
147,287,35592,5,4,0:0:0:0:
52,349,35763,1,8,0:0:0:0:
143,265,35933,1,4,0:0:0:0:
272,265,36103,2,0,L|277:221,2,40.4999987640381,8|8|4,0:0|0:0|0:0,0:0:0:0:
139,244,36444,1,8,0:0:0:0:
276,280,36615,2,0,P|324:287|361:284,1,80.9999975280763,4|8,0:0|0:0,0:0:0:0:
375,279,36870,1,8,0:0:0:0:
391,267,36956,5,4,0:0:0:0:
436,358,37126,1,8,0:0:0:0:
402,252,37297,1,4,0:0:0:0:
279,298,37467,2,0,L|274:342,2,40.4999987640381,8|8|4,0:0|0:0|0:0,0:0:0:0:
405,235,37808,1,8,0:0:0:0:
274,310,37978,2,0,P|227:318|183:317,1,80.9999975280763,4|8,0:0|0:0,0:0:0:0:
173,316,38234,1,8,0:0:0:0:
153,310,38319,5,12,0:0:0:0:
207,197,38490,1,12,0:0:0:0:
53,195,38660,1,8,0:0:0:0:
50,174,38745,1,8,0:0:0:0:
48,154,38831,1,8,0:0:0:0:
46,134,38916,1,8,0:0:0:0:
44,114,39001,1,12,0:0:0:0:
121,240,39172,1,12,0:0:0:0:
243,85,39342,2,0,L|292:90,3,40.4999987640381,8|8|8|8,0:0|0:0|0:0|0:0,0:0:0:0:
270,164,39683,5,12,0:0:0:0:
302,14,39853,1,12,0:0:0:0:
449,81,40024,1,12,0:0:0:0:
452,60,40109,1,8,0:0:0:0:
454,40,40194,1,8,0:0:0:0:
456,20,40280,1,8,0:0:0:0:
458,0,40365,1,12,0:0:0:0:
363,134,40535,1,12,0:0:0:0:
215,10,40706,2,0,L|166:15,3,40.4999987640381,12|8|8|8,0:0|0:0|0:0|0:0,0:0:0:0:
143,32,41047,5,8,0:0:0:0:
127,52,41132,1,8,0:0:0:0:
116,74,41217,1,8,0:0:0:0:
115,99,41302,1,8,0:0:0:0:
121,124,41388,1,8,0:0:0:0:
129,148,41473,1,8,0:0:0:0:
132,173,41558,1,8,0:0:0:0:
128,198,41643,1,8,0:0:0:0:
119,221,41728,6,0,P|102:241|84:251,3,40.4999987640381,8|8|8|8,0:0|0:0|0:0|0:0,0:0:0:0:
122,319,42069,2,0,P|147:323|165:334,3,40.4999987640381,12|8|8|8,0:0|0:0|0:0|0:0,0:0:0:0:
187,258,42410,5,0,0:0:0:0:
273,201,42751,1,0,0:0:0:0:
191,267,42922,5,0,0:0:0:0:
301,275,43092,1,0,0:0:0:0:
197,275,43263,5,0,0:0:0:0:
281,352,43433,2,0,B|301:357|301:357|322:352,1,40.4999987640381,2|0,0:2|0:0,0:0:0:0:
354,337,43774,6,0,B|402:309|457:341|457:341|339:206|491:109,1,377.999988464356,6|0,0:1|0:0,0:0:0:0:
511,230,44456,2,0,B|465:192|410:217|410:217|396:118|292:81|226:163,1,323.999990112305,8|0,0:0|0:0,0:0:0:0:
313,239,45138,6,0,L|290:29,1,161.999995056153,4|0,0:0|0:0,0:0:0:0:
292,51,45478,1,0,0:0:0:0:
175,123,45649,2,0,L|234:129,1,53.9999983520508,6|0,0:0|0:0,0:0:0:0:
354,37,45819,2,0,L|294:43,1,53.9999983520508,10|0,0:0|0:0,0:0:0:0:
386,236,45990,6,0,P|411:222|430:196,1,53.9999983520508,6|0,0:0|0:0,0:0:0:0:
472,151,46160,2,0,P|447:136|415:132,1,53.9999983520508,2|0,0:0|0:0,0:0:0:0:
350,117,46331,2,0,P|349:145|362:175,1,53.9999983520508,2|0,0:0|0:0,0:0:0:0:
358,315,46501,6,0,B|300:304|256:346|256:346|250:341|250:341|246:346|246:346|209:309|209:309|204:315|204:315|198:311|198:311|159:347|74:299,1,292.499986610413,4|0,0:0|0:0,0:0:0:0:
80,295,47013,1,4,0:0:0:0:
241,206,47183,2,0,B|213:230|213:230|202:325,1,116.999994644165,8|4,0:0|0:0,0:0:0:0:
162,175,47524,2,0,B|142:191|142:191|135:257,1,58.4999973220826,0|0,0:0|0:0,0:0:0:0:
292,260,47694,2,0,B|311:242|311:242|318:176,1,58.4999973220826,4|0,0:0|0:0,0:0:0:0:
262,137,47865,5,4,0:0:0:0:
60,126,48035,2,0,L|87:122,1,26.9999991760254,2|0,0:2|0:0,0:0:0:0:
109,0,48206,2,0,L|97:26,1,26.9999991760254,2|0,0:2|0:0,0:0:0:0:
193,108,48376,2,0,L|176:84,1,26.9999991760254,2|0,0:2|0:0,0:0:0:0:
266,35,48547,6,0,P|276:44|284:59,1,26.9999991760254,2|0,0:2|0:0,0:0:0:0:
284,198,48717,2,0,P|273:187|265:172,1,26.9999991760254,2|0,0:2|0:0,0:0:0:0:
333,0,48888,2,0,P|344:10|352:25,1,26.9999991760254,2|0,0:2|0:0,0:0:0:0:
352,160,49058,2,0,P|341:149|333:133,1,26.9999991760254,2|0,0:2|0:0,0:0:0:0:
425,14,49228,6,0,B|472:-8|540:20|545:87|515:143|445:142|445:142|491:164|508:208|481:264,1,377.999988464356,6|0,0:1|0:0,0:0:0:0:
445,142,49910,2,0,B|379:115|320:133|320:133|360:193|337:284|243:297,1,323.999990112305,8|0,0:0|0:0,0:0:0:0:
246,198,50592,6,0,L|400:278,1,161.999995056153,4|0,0:0|0:0,0:0:0:0:
414,285,50933,1,0,0:0:0:0:
340,384,51103,2,0,L|345:329,1,53.9999983520508,6|0,0:0|0:0,0:0:0:0:
414,216,51274,2,0,L|419:270,1,53.9999983520508,10|0,0:0|0:0,0:0:0:0:
225,289,51444,6,0,P|248:289|270:292,1,40.4999987640381,6|0,0:0|0:0,0:0:0:0:
246,198,51615,2,0,P|265:209|284:225,1,45,2|0,0:0|0:0,0:0:0:0:
323,141,51785,2,0,P|334:160|343:186,1,49.5000015106202,6|0,0:0|0:0,0:0:0:0:
340,299,51956,5,4,0:0:0:0:
483,316,52126,1,0,0:0:0:0:
416,204,52297,5,0,0:0:0:0:
405,353,52467,1,4,0:0:0:0:
500,300,52638,5,8,0:0:0:0:
324,312,52808,1,4,0:0:0:0:
428,183,52978,5,0,0:0:0:0:
400,371,53149,1,8,0:0:0:0:
175,335,53319,6,0,P|161:275|174:232,1,99.0000030212403,8|4,0:0|0:0,0:0:0:0:
319,216,53660,2,0,P|333:276|320:319,1,99.0000030212403,8|4,0:0|0:0,0:0:0:0:
323,311,53916,1,4,0:0:0:0:
323,311,54001,5,8,0:0:0:0:
249,281,54172,1,4,0:0:0:0:
244,192,54342,2,0,P|234:180|246:190,1,40.4999987640381,8|0,0:0|0:0,0:0:0:0:
317,136,54513,1,4,0:0:0:0:
411,273,54683,6,0,L|413:301,2,26.9999991760254,4|0|0,0:0|0:0|0:0,0:0:0:0:
411,273,55365,6,0,B|352:305|292:264|292:264|191:326|117:221|162:132,1,377.999988464356,10|0,0:1|0:0,0:0:0:0:
236,193,56047,2,0,B|202:273|104:263,1,161.999995056153,4|0,0:0|0:0,0:0:0:0:
81,249,56388,6,0,L|74:312,1,53.9999983520508,0|0,0:0|0:0,0:0:0:0:
142,384,56558,2,0,L|148:320,1,53.9999983520508,4|0,0:0|0:0,0:0:0:0:
0,327,56728,2,0,L|6:390,1,53.9999983520508,10|0,0:0|0:0,0:0:0:0:
44,177,56899,6,0,P|19:196|-1:219,1,53.9999983520508,6|0,0:0|0:0,0:0:0:0:
152,207,57069,2,0,P|160:233|163:260,1,53.9999983520508,2|0,0:0|0:0,0:0:0:0:
126,110,57240,2,0,L|118:139,2,26.9999991760254,2|0|0,0:0|0:0|0:0,0:0:0:0:
81,249,57410,6,0,B|83:361|225:367|241:266|241:266|281:250|347:282,1,314.999990386963,4|0,0:0|0:0,0:0:0:0:
333,278,57922,1,4,0:0:0:0:
446,352,58092,2,0,B|401:370|401:370|306:343,1,125.999996154785,0|4,0:0|0:0,0:0:0:0:
197,343,58433,2,0,B|219:352|219:352|267:338,1,62.9999980773926,0|0,0:0|0:0,0:0:0:0:
392,279,58603,2,0,B|369:288|369:288|322:274,1,62.9999980773926,4|0,0:0|0:0,0:0:0:0:
301,193,58774,5,4,0:0:0:0:
428,76,58944,2,0,L|400:78,1,26.9999991760254,2|0,0:2|0:0,0:0:0:0:
295,94,59115,2,0,L|312:117,1,26.9999991760254,2|0,0:2|0:0,0:0:0:0:
379,202,59285,2,0,L|390:176,1,26.9999991760254,4|0,0:0|0:0,0:0:0:0:
200,211,59456,6,0,P|213:210|231:214,1,26.9999991760254,8|0,0:0|0:0,0:0:0:0:
235,344,59626,2,0,P|234:329|238:312,1,26.9999991760254,2|0,0:2|0:0,0:0:0:0:
125,195,59797,2,0,P|125:209|121:226,1,26.9999991760254,2|0,0:2|0:0,0:0:0:0:
160,328,59967,2,0,P|146:328|129:324,1,26.9999991760254,2|0,0:2|0:0,0:0:0:0:
13,172,60138,6,0,B|25:95|147:64|199:122|199:122|215:129|215:129|223:114|223:114|207:56|269:7,1,377.999988464356,6|0,0:1|0:0,0:0:0:0:
397,218,60819,2,0,B|279:228|214:128|214:128|257:177|227:255,1,323.999990112305,8|0,0:0|0:0,0:0:0:0:
88,200,61501,2,0,P|157:190|116:238,1,161.999995056153,4|0,0:0|0:0,0:0:0:0:
114,268,61842,6,0,P|113:300|121:342,1,53.9999983520508,0|0,0:0|0:0,0:0:0:0:
193,293,62013,2,0,P|220:309|260:323,1,53.9999983520508,6|0,0:0|0:0,0:0:0:0:
234,229,62183,2,0,P|262:213|294:185,1,53.9999983520508,10|0,0:0|0:0,0:0:0:0:
444,350,62353,6,0,L|436:280,1,53.9999983520508,6|0,0:0|0:0,0:0:0:0:
315,280,62524,2,0,L|378:308,1,53.9999983520508,2|0,0:0|0:0,0:0:0:0:
441,210,62694,2,0,L|412:230,2,26.9999991760254,6|0|0,0:0|0:0|0:0,0:0:0:0:
465,132,62865,6,0,L|473:53,1,67.5000025749208,4|0,0:0|0:0,0:0:0:0:
380,122,63206,2,0,L|388:43,1,67.5000025749208,0|0,0:0|0:0,0:0:0:0:
250,61,63547,2,0,L|257:128,1,67.5000025749208,0|0,0:0|0:0,0:0:0:0:
259,144,63802,1,0,0:0:0:0:
262,160,63888,2,0,L|256:215,3,33.7500012874604,8|8|8|8,0:0|0:0|0:0|0:0,0:0:0:0:
254,210,64228,5,8,0:0:0:0:
238,239,64314,1,8,0:0:0:0:
210,258,64399,1,8,0:0:0:0:
177,262,64484,1,8,0:0:0:0:
146,249,64569,5,8,0:0:0:0:
104,224,64655,1,8,0:0:0:0:
55,234,64740,1,8,0:0:0:0:
27,275,64825,1,8,0:0:0:0:
34,324,64910,5,8,0:0:0:0:
110,384,65081,1,4,0:0:0:0:
30,335,65251,6,0,L|25:373,1,33.7500012874604,8|0,0:0|0:0,0:0:0:0:
114,372,65422,1,4,0:0:0:0:
245,326,65592,6,0,L|478:334,1,188.999994232178,6|0,0:1|0:0,0:0:0:0:
459,351,65933,2,0,L|451:281,1,62.9999980773926,0|0,0:0|0:0,0:0:0:0:
361,207,66103,6,0,L|297:204,1,54,0|0,0:0|0:0,0:0:0:0:
281,223,66444,6,0,L|289:145,1,62.9999980773926,0|0,0:0|0:0,0:0:0:0:
384,82,66615,6,0,L|437:83,6,31.4999990386963,0|0|0|0|0|0|0,0:0|0:0|0:0|0:0|0:0|0:0|0:0,0:0:0:0:
459,58,66956,6,0,L|226:50,1,188.999994232178,4|0,0:0|0:0,0:0:0:0:
243,68,67297,2,0,P|289:85|315:113,1,62.9999980773926,0|0,0:0|0:0,0:0:0:0:
174,106,67467,2,0,P|181:154|171:191,1,62.9999980773926,4|0,0:0|0:0,0:0:0:0:
65,2,67638,6,0,L|97:5,1,31.4999990386963,10|0,0:0|0:0,0:0:0:0:
67,70,67808,2,0,L|99:73,1,31.4999990386963,6|0,0:0|0:0,0:0:0:0:
69,138,67978,2,0,L|101:141,1,31.4999990386963,2|0,0:0|0:0,0:0:0:0:
71,206,68149,2,0,L|103:208,1,31.4999990386963,2|0,0:0|0:0,0:0:0:0:
248,181,68319,6,0,P|285:260|221:229,1,188.999994232178,4|0,0:0|0:0,0:0:0:0:
212,279,68660,6,0,B|376:261|376:261|447:312,1,229.500004377365,0|0,0:0|0:0,0:0:0:0:
440,309,69001,1,8,0:0:0:0:
383,102,69172,2,0,B|417:110|417:110|441:88,1,62.9999980773926,0|0,0:0|0:0,0:0:0:0:
404,218,69342,2,0,B|393:184|393:184|362:174,1,62.9999980773926,0|0,0:0|0:0,0:0:0:0:
493,141,69513,2,0,B|469:166|469:166|476:198,1,62.9999980773926,0|0,0:0|0:0,0:0:0:0:
253,104,69683,6,0,L|290:107,1,31.4999990386963,4|0,0:0|0:0,0:0:0:0:
277,241,69853,2,0,L|280:209,1,31.4999990386963,2|0,0:2|0:0,0:0:0:0:
183,76,70024,2,0,L|180:107,1,31.4999990386963,2|0,0:2|0:0,0:0:0:0:
207,213,70194,2,0,L|170:209,1,31.4999990386963,4|0,0:0|0:0,0:0:0:0:
58,293,70365,6,0,P|72:289|88:283,1,31.4999990386963,8|0,0:0|0:0,0:0:0:0:
56,174,70535,2,0,P|51:187|48:205,1,31.4999990386963,2|0,0:2|0:0,0:0:0:0:
171,319,70706,2,0,P|175:303|178:287,1,31.4999990386963,2|0,0:2|0:0,0:0:0:0:
169,200,70876,2,0,P|154:203|138:209,1,31.4999990386963,2|0,0:2|0:0,0:0:0:0:
296,306,71047,6,0,L|319:82,1,188.999994232178,6|0,0:1|0:0,0:0:0:0:
298,91,71388,2,0,L|360:84,1,62.9999980773926,0|0,0:0|0:0,0:0:0:0:
410,197,71558,6,0,L|402:264,1,54,0|0,0:0|0:0,0:0:0:0:
396,281,71899,6,0,L|462:273,1,62.9999980773926,0|0,0:0|0:0,0:0:0:0:
509,176,72069,6,0,L|514:126,6,31.4999990386963,0|0|0|0|0|0|0,0:0|0:0|0:0|0:0|0:0|0:0|0:0,0:0:0:0:
478,86,72410,6,0,L|458:273,1,188.999994232178,4|0,0:0|0:0,0:0:0:0:
455,301,72751,2,0,B|429:321|429:321|429:351,1,62.9999980773926,0|0,0:0|0:0,0:0:0:0:
352,359,72922,2,0,B|347:326|347:326|321:311,1,62.9999980773926,6|0,0:0|0:0,0:0:0:0:
353,242,73092,2,0,B|383:254|383:254|409:239,1,62.9999980773926,10|0,0:0|0:0,0:0:0:0:
238,328,73263,6,0,P|237:304|240:283,1,40.4999987640381,6|0,0:0|0:0,0:0:0:0:
143,308,73433,2,0,P|154:289|170:269,1,45,2|0,0:0|0:0,0:0:0:0:
88,228,73603,2,0,P|107:217|132:208,1,49.5000015106202,2|0,0:3|0:0,0:0:0:0:
93,104,73774,5,4,0:0:0:0:
250,38,73944,1,0,0:0:0:0:
148,16,74115,5,0,0:0:0:0:
212,151,74285,1,4,0:0:0:0:
254,21,74456,5,8,0:0:0:0:
86,114,74626,1,8,0:0:0:0:
152,0,74797,5,4,0:0:0:0:
208,165,74967,1,4,0:0:0:0:
354,57,75138,6,0,P|392:56|422:62,3,62.9999980773926,8|4|4|4,0:0|0:0|0:0|0:0,0:0:0:0:
443,76,75478,1,8,0:0:0:0:
465,108,75564,1,4,0:0:0:0:
473,146,75649,6,0,L|454:143,1,15.7499995193482,4|4,0:0|0:0,0:0:0:0:
465,185,75734,2,0,L|448:177,1,15.7499995193482,4|4,0:0|0:0,0:0:0:0:
444,217,75819,5,8,0:0:0:0:
339,240,75990,2,0,P|336:225|346:240,1,45,4|0,0:0|0:0,0:0:0:0:
236,153,76160,2,0,P|276:160|235:157,1,116.999994644165,8|4,0:0|0:0,0:0:0:0:
116,203,76501,6,0,L|113:225,1,13.4999995880127,2|0,0:2|0:0,0:0:0:0:
197,275,76672,2,0,L|199:299,1,13.4999995880127,0|0,0:0|0:0,0:0:0:0:
105,356,76842,2,0,L|109:311,1,40.4999987640381,0|0,0:0|0:0,0:0:0:0:
111,302,77183,6,0,P|154:359|225:372,1,125.999996154785,10|0,0:1|0:0,0:0:0:0:
304,312,77524,2,0,P|320:312|338:315,6,31.4999990386963,0|0|0|0|0|0|0,0:0|0:0|0:0|0:0|0:0|0:0|0:0,0:0:0:0:
396,278,77865,2,0,P|328:278|231:186,1,188.999994232178,4|0,0:0|0:0,0:0:0:0:
233,175,78206,2,0,B|266:163|266:163|301:167,1,62.9999980773926,0|0,0:0|0:0,0:0:0:0:
286,45,78376,2,0,B|312:67|312:67|326:99,1,62.9999980773926,4|0,0:0|0:0,0:0:0:0:
447,147,78547,6,0,L|388:140,1,31.4999990386963,10|0,0:0|0:0,0:0:0:0:
437,214,78717,2,0,L|378:207,1,31.4999990386963,6|0,0:0|0:0,0:0:0:0:
427,281,78888,2,0,L|368:274,1,31.4999990386963,2|0,0:0|0:0,0:0:0:0:
417,348,79058,2,0,L|358:341,1,31.4999990386963,2|0,0:0|0:0,0:0:0:0:
217,194,79228,6,0,L|405:210,1,188.999994232178,4|0,0:0|0:0,0:0:0:0:
432,193,79569,2,0,L|348:184,1,62.9999980773926,0|0,0:0|0:0,0:0:0:0:
270,117,79740,6,0,L|337:124,1,54,0|0,0:0|0:0,0:0:0:0:
354,118,80081,6,0,B|353:84|353:84|333:52,1,62.9999980773926,0|0,0:0|0:0,0:0:0:0:
236,43,80251,2,0,B|207:60|207:60|189:94,1,62.9999980773926,0|0,0:0|0:0,0:0:0:0:
223,182,80422,2,0,B|252:198|252:198|290:196,1,62.9999980773926,0|0,0:0|0:0,0:0:0:0:
103,92,80592,6,0,L|70:88,1,31.4999990386963,4|0,0:0|0:0,0:0:0:0:
58,224,80763,2,0,L|61:192,1,31.4999990386963,2|0,0:2|0:0,0:0:0:0:
148,154,80933,2,0,L|144:185,1,31.4999990386963,2|0,0:2|0:0,0:0:0:0:
103,286,81103,2,0,L|135:288,1,31.4999990386963,4|0,0:0|0:0,0:0:0:0:
292,262,81274,6,0,P|276:263|261:261,1,31.4999990386963,8|0,0:0|0:0,0:0:0:0:
311,120,81444,2,0,P|312:135|310:151,1,31.4999990386963,2|0,0:2|0:0,0:0:0:0:
223,182,81615,2,0,P|222:166|224:151,1,31.4999990386963,2|0,0:2|0:0,0:0:0:0:
238,48,81785,2,0,P|253:47|269:49,1,31.4999990386963,2|0,0:2|0:0,0:0:0:0:
388,80,81956,6,0,L|364:310,1,188.999994232178,6|0,0:1|0:0,0:0:0:0:
369,299,82297,2,0,L|298:306,1,62.9999980773926,0|0,0:0|0:0,0:0:0:0:
305,173,82467,6,0,L|311:107,1,54,0|0,0:0|0:0,0:0:0:0:
312,87,82808,6,0,L|241:94,1,62.9999980773926,0|0,0:0|0:0,0:0:0:0:
197,192,82978,6,0,L|191:240,6,31.4999990386963,0|0|0|0|0|0|0,0:0|0:0|0:0|0:0|0:0|0:0|0:0,0:0:0:0:
152,278,83319,6,0,L|173:79,1,188.999994232178,4|0,0:0|0:0,0:0:0:0:
184,65,83660,2,0,B|155:63|155:63|117:73,1,62.9999980773926,0|0,0:0|0:0,0:0:0:0:
26,141,83831,2,0,B|42:116|42:116|52:78,1,62.9999980773926,4|0,0:0|0:0,0:0:0:0:
12,7,84001,2,0,B|40:5|40:5|78:15,1,62.9999980773926,10|0,0:0|0:0,0:0:0:0:
131,133,84172,6,0,P|129:93|117:62,1,62.9999980773926,6|0,0:0|0:0,0:0:0:0:
227,103,84342,2,0,P|205:69|179:48,1,62.9999980773926,2|0,0:0|0:0,0:0:0:0:
295,23,84513,2,0,P|259:4|226:-1,1,62.9999980773926,2|0,0:0|0:0,0:0:0:0:
350,153,84683,6,0,P|394:212|424:181,1,126,6|0,0:1|0:0,0:0:0:0:
419,192,85365,2,0,P|473:177|468:256,1,157.5,0|0,0:0|0:0,0:0:0:0:
473,254,86047,2,0,P|424:305|513:326,1,188.999994232178,0|0,0:0|0:0,0:0:0:0:
505,335,86728,2,0,L|269:359,1,220.499993270874,0|0,0:0|0:0,0:0:0:0:
285,357,87410,5,6,0:1:0:0:
294,373,87751,1,0,0:0:0:0:
179,317,87922,2,0,L|185:275,1,26.9999991760254,4|4,0:0|0:0,0:0:0:0:
216,225,88092,2,0,L|206:133,1,72,8|0,0:0|0:0,0:0:0:0:
290,233,88433,2,0,L|297:161,1,72,0|4,0:0|0:0,0:0:0:0:
363,256,88774,5,4,0:0:0:0:
427,160,88944,2,0,B|438:195|438:195|434:231,1,72,8|0,0:0|0:0,0:0:0:0:
434,230,89285,1,4,0:0:0:0:
366,333,89456,2,0,P|402:320|446:328,1,72,8|0,0:0|0:0,0:0:0:0:
481,384,89797,2,0,P|501:354|507:319,1,72,0|0,0:0|0:0,0:0:0:0:
512,230,90138,5,4,0:0:0:0:
505,238,90478,1,0,0:0:0:0:
501,114,90649,2,0,L|516:83,1,26.9999991760254,4|4,0:0|0:0,0:0:0:0:
436,69,90819,1,8,0:0:0:0:
385,159,90990,2,0,P|346:166|304:152,1,72,8|0,0:0|0:0,0:0:0:0:
248,104,91331,1,8,0:0:0:0:
262,235,91501,5,4,0:0:0:0:
170,237,91672,1,8,0:0:0:0:
226,308,91842,1,4,0:0:0:0:
159,228,92013,1,4,0:0:0:0:
238,92,92183,2,0,L|247:183,2,72,8|0|0,0:0|0:0|0:0,0:0:0:0:
155,98,92694,1,4,0:0:0:0:
322,86,92865,5,6,0:1:0:0:
328,97,93206,1,0,0:0:0:0:
245,195,93376,2,0,L|196:189,1,26.9999991760254,4|4,0:0|0:0,0:0:0:0:
281,265,93547,2,0,P|317:287|393:286,1,108,8|0,0:0|0:0,0:0:0:0:
397,282,93888,1,0,0:0:0:0:
349,208,94058,1,8,0:0:0:0:
282,358,94228,6,0,P|233:341|198:347,1,72,4|8,0:0|0:0,0:0:0:0:
143,277,94569,1,0,0:0:0:0:
127,359,94740,1,4,0:0:0:0:
7,341,94910,2,0,L|0:270,1,72,8|0,0:0|0:0,0:0:0:0:
67,128,95251,2,0,L|59:199,1,72,4|8,0:0|0:0,0:0:0:0:
65,216,95507,1,0,0:0:0:0:
74,230,95592,6,0,P|120:239|149:238,1,72,4|0,0:0|0:0,0:0:0:0:
229,61,95933,2,0,P|201:116|201:184,1,108,4|0,0:0|0:0,0:0:0:0:
203,178,96274,1,8,0:0:0:0:
236,268,96615,1,4,0:0:0:0:
236,232,96700,1,4,0:0:0:0:
215,211,96785,1,4,0:0:0:0:
213,189,96870,1,4,0:0:0:0:
203,178,96956,5,8,0:0:0:0:
180,75,97126,1,4,0:0:0:0:
180,75,97297,1,4,0:0:0:0:
112,232,97467,1,8,0:0:0:0:
112,232,97638,1,8,0:0:0:0:
76,64,97808,1,4,0:0:0:0:
32,160,97978,1,4,0:0:0:0:
112,232,98149,1,0,0:0:0:0:
255,141,98319,6,0,P|301:145|352:164,1,80.9999975280763,6|8,0:1|0:0,0:0:0:0:
413,210,98660,1,4,0:0:0:0:
272,260,98831,2,0,L|284:216,2,40.4999987640381,8|8|4,0:0|0:0|0:0,0:0:0:0:
337,321,99172,1,8,0:0:0:0:
191,286,99342,2,0,L|93:275,1,80.9999975280763,4|8,0:0|0:0,0:0:0:0:
91,285,99598,1,8,0:0:0:0:
73,295,99683,5,4,0:0:0:0:
73,295,99853,1,8,0:0:0:0:
151,202,100024,2,0,L|59:192,1,80.9999975280763,4|8,0:0|0:0,0:0:0:0:
50,199,100280,1,8,0:0:0:0:
31,207,100365,1,4,0:0:0:0:
31,207,100535,1,8,0:0:0:0:
132,117,100706,2,0,L|212:108,1,80.9999975280763,4|8,0:0|0:0,0:0:0:0:
229,97,100961,1,8,0:0:0:0:
246,86,101047,5,4,0:0:0:0:
247,86,101217,1,8,0:0:0:0:
235,221,101388,1,4,0:0:0:0:
327,119,101558,2,0,L|357:76,2,40.4999987640381,8|8|4,0:0|0:0|0:0,0:0:0:0:
327,119,101899,1,8,0:0:0:0:
432,270,102069,2,0,P|381:285|337:275,1,80.9999975280763,4|8,0:0|0:0,0:0:0:0:
335,272,102325,1,8,0:0:0:0:
319,260,102410,6,0,P|283:241|229:235,1,80.9999975280763,4|8,0:0|0:0,0:0:0:0:
379,192,102751,2,0,P|417:155|431:112,1,80.9999975280763,4|8,0:0|0:0,0:0:0:0:
430,108,103007,1,8,0:0:0:0:
427,89,103092,5,4,0:0:0:0:
427,89,103263,1,8,0:0:0:0:
312,3,103433,2,0,P|274:40|260:83,1,80.9999975280763,4|8,0:0|0:0,0:0:0:0:
260,85,103689,1,8,0:0:0:0:
260,105,103774,5,12,0:0:0:0:
260,105,103944,1,12,0:0:0:0:
132,65,104115,2,0,L|78:59,3,40.4999987640381,8|8|8|8,0:0|0:0|0:0|0:0,0:0:0:0:
72,73,104456,2,0,P|38:106|23:144,1,80.9999975280763,12|12,0:0|0:0,0:0:0:0:
9,250,104797,1,12,0:0:0:0:
6,270,104882,1,8,0:0:0:0:
4,290,104967,1,12,0:0:0:0:
2,310,105052,1,8,0:0:0:0:
0,330,105138,6,0,L|89:320,1,80.9999975280763,12|12,0:0|0:0,0:0:0:0:
174,254,105478,1,8,0:0:0:0:
177,234,105564,1,8,0:0:0:0:
179,214,105649,1,8,0:0:0:0:
181,194,105734,1,8,0:0:0:0:
183,174,105819,2,0,L|272:164,1,80.9999975280763,12|12,0:0|0:0,0:0:0:0:
350,246,106160,2,0,L|354:291,3,40.4999987640381,8|8|8|8,0:0|0:0|0:0|0:0,0:0:0:0:
358,306,106501,5,12,0:0:0:0:
381,324,106586,1,8,0:0:0:0:
411,328,106672,1,8,0:0:0:0:
438,316,106757,1,8,0:0:0:0:
456,292,106842,1,12,0:0:0:0:
438,267,106927,1,8,0:0:0:0:
430,238,107013,1,8,0:0:0:0:
432,207,107098,1,8,0:0:0:0:
444,180,107183,6,0,P|442:155|435:132,3,40.4999987640381,12|8|8|8,0:0|0:0|0:0|0:0,0:0:0:0:
387,86,107524,2,0,P|388:61|395:38,3,40.4999987640381,12|8|8|8,0:0|0:0|0:0|0:0,0:0:0:0:
449,0,107865,5,4,0:0:0:0:
449,0,108035,1,4,0:0:0:0:
323,12,108206,5,8,0:0:0:0:
387,86,108376,2,0,L|385:58,1,18,4|4,0:0|0:0,0:0:0:0:
296,114,108547,2,0,L|298:86,1,18,4|8,0:0|0:0,0:0:0:0:
356,184,108717,1,4,0:0:0:0:
325,20,108888,5,8,0:1:0:0:
387,78,109058,1,4,0:0:0:0:
204,132,109228,6,0,B|162:134|120:170|120:170|91:128|33:108,1,188.999994232178,6|0,0:1|0:0,0:0:0:0:
20,122,109569,6,0,P|48:128|72:144,1,54,8|0,0:0|0:0,0:0:0:0:
42,211,109910,6,0,P|97:263|194:220,1,188.999994232178,0|0,0:0|0:0,0:0:0:0:
209,221,110251,6,0,P|195:247|174:266,1,54,8|0,0:0|0:0,0:0:0:0:
206,334,110592,6,0,B|272:341|272:341|320:377|320:377|390:384,1,188.999994232178,4|0,0:0|0:0,0:0:0:0:
403,372,110933,2,0,L|338:365,1,62.9999980773926,8|0,0:0|0:0,0:0:0:0:
275,327,111103,2,0,L|210:320,1,62.9999980773926,0|0,0:0|0:0,0:0:0:0:
364,260,111274,2,0,L|299:253,1,62.9999980773926,2|0,0:0|0:0,0:0:0:0:
209,221,111444,6,0,B|238:204|238:204|253:171,1,62.9999980773926,6|0,0:0|0:0,0:0:0:0:
325,147,111615,2,0,B|325:113|325:113|304:83,1,62.9999980773926,10|0,0:0|0:0,0:0:0:0:
187,81,111785,2,0,B|169:109|169:109|172:146,1,62.9999980773926,2|0,0:0|0:0,0:0:0:0:
252,19,111956,6,0,B|338:8|338:8|437:104,1,188.999994232178,4|0,0:0|0:0,0:0:0:0:
437,87,112297,6,0,L|395:46,1,54,8|0,0:0|0:0,0:0:0:0:
335,19,112638,6,0,B|304:80|304:80|419:187,1,188.999994232178,0|0,0:0|0:0,0:0:0:0:
416,168,112978,2,0,L|370:124,1,62.9999980773926,8|0,0:0|0:0,0:0:0:0:
247,126,113149,2,0,L|293:170,1,62.9999980773926,0|0,0:0|0:0,0:0:0:0:
398,271,113319,2,0,L|352:227,1,62.9999980773926,4|0,0:0|0:0,0:0:0:0:
237,234,113490,6,0,P|231:243|223:266,1,31.4999990386963,2|0,0:2|0:0,0:0:0:0:
208,355,113660,2,0,P|218:355|242:351,1,31.4999990386963,8|0,0:0|0:0,0:0:0:0:
328,320,113831,2,0,P|323:310|307:291,1,31.4999990386963,2|0,0:2|0:0,0:0:0:0:
147,261,114001,6,0,L|151:224,1,31.4999990386963,2|0,0:2|0:0,0:0:0:0:
233,265,114172,2,0,L|237:228,1,31.4999990386963,4|0,0:0|0:0,0:0:0:0:
247,101,114342,2,0,L|244:139,1,31.4999990386963,8|0,0:0|0:0,0:0:0:0:
161,97,114513,2,0,L|158:135,1,31.4999990386963,2|0,0:2|0:0,0:0:0:0:
316,171,114683,6,0,B|416:186|416:186|451:83,1,188.999994232178,6|0,0:1|0:0,0:0:0:0:
465,85,115024,6,0,L|445:149,1,54,8|0,0:0|0:0,0:0:0:0:
425,215,115365,6,0,P|360:288|242:263,1,188.999994232178,0|0,0:0|0:0,0:0:0:0:
249,296,115706,6,0,P|264:302|312:314,1,54,8|0,0:0|0:0,0:0:0:0:
391,344,116047,6,0,L|308:153,1,188.999994232178,4|0,0:0|0:0,0:0:0:0:
301,149,116388,2,0,B|271:150|271:150|231:174,1,62.9999980773926,8|0,0:0|0:0,0:0:0:0:
177,111,116558,2,0,B|191:84|191:84|190:37,1,62.9999980773926,2|0,0:0|0:0,0:0:0:0:
272,23,116728,2,0,B|287:48|287:48|328:71,1,62.9999980773926,2|0,0:0|0:0,0:0:0:0:
87,95,116899,6,0,P|62:92|36:93,1,40.4999987640381,6|0,0:0|0:0,0:0:0:0:
81,170,117069,2,0,P|56:167|32:168,1,49.5000015106202,10|0,0:0|0:0,0:0:0:0:
83,245,117240,2,0,P|58:242|16:244,1,58.4999973220826,6|0,0:0|0:0,0:0:0:0:
25,341,117410,5,4,0:0:0:0:
168,353,117581,1,8,0:0:0:0:
168,353,117751,5,8,0:0:0:0:
179,218,117922,1,4,0:0:0:0:
168,353,118092,5,8,0:0:0:0:
25,341,118263,1,4,0:0:0:0:
168,353,118433,5,4,0:0:0:0:
179,349,118518,1,0,0:0:0:0:
201,354,118603,1,8,0:0:0:0:
234,342,118689,1,8,0:0:0:0:
280,346,118774,5,8,0:0:0:0:
280,200,118944,1,4,0:0:0:0:
280,346,119115,1,8,0:0:0:0:
423,348,119285,1,4,0:0:0:0:
423,348,119370,1,4,0:0:0:0:
423,348,119456,6,0,P|423:356|429:347,1,22.5,8|0,0:0|0:0,0:0:0:0:
504,310,119626,2,0,P|518:307|506:305,1,31.4999990386963,4|0,0:0|0:0,0:0:0:0:
509,221,119797,2,0,P|519:209|507:219,1,40.4999987640381,8|0,0:0|0:0,0:0:0:0:
436,165,119967,2,0,P|434:151|434:167,1,49.5000015106202,4|0,0:0|0:0,0:0:0:0:
336,278,120138,6,0,L|308:275,1,26.9999991760254,0|0,0:0|0:0,0:0:0:0:
156,218,120478,2,0,L|205:212,1,40.4999987640381,0|0,0:0|0:0,0:0:0:0:
176,188,120819,6,0,L|301:174,1,125.999996154785,2|4,0:1|0:0,0:0:0:0:
430,101,121160,6,0,L|362:93,1,54,8|0,0:0|0:0,0:0:0:0:
369,70,121501,6,0,P|337:4|276:77,1,188.999994232178,4|0,0:0|0:0,0:0:0:0:
256,84,121842,2,0,P|236:49|235:7,1,62.9999980773926,8|0,0:0|0:0,0:0:0:0:
170,95,122013,2,0,P|160:56|169:16,1,62.9999980773926,0|0,0:0|0:0,0:0:0:0:
82,88,122183,2,0,P|82:48|102:11,1,62.9999980773926,2|0,0:0|0:0,0:0:0:0:
97,192,122353,6,0,L|88:264,1,62.9999980773926,6|0,0:0|0:0,0:0:0:0:
176,194,122524,2,0,L|184:266,1,62.9999980773926,10|0,0:0|0:0,0:0:0:0:
256,179,122694,2,0,L|267:213,2,31.4999990386963,2|0|0,0:0|0:0|0:0,0:0:0:0:
279,309,122865,6,0,B|233:331|207:370|207:370|150:340|112:344,1,188.999994232178,4|0,0:0|0:0,0:0:0:0:
99,355,123206,6,0,P|138:357|165:364,1,54,8|0,0:0|0:0,0:0:0:0:
188,283,123547,6,0,P|171:202|57:193,1,188.999994232178,0|0,0:0|0:0,0:0:0:0:
55,193,123888,2,0,B|60:220|60:220|96:245,1,62.9999980773926,8|0,0:0|0:0,0:0:0:0:
196,181,124058,2,0,B|205:155|205:155|186:115,1,62.9999980773926,0|0,0:0|0:0,0:0:0:0:
126,73,124228,2,0,B|105:90|105:90|101:134,1,62.9999980773926,4|0,0:0|0:0,0:0:0:0:
253,45,124399,6,0,L|286:54,1,31.4999990386963,2|0,0:2|0:0,0:0:0:0:
343,140,124569,2,0,L|334:106,1,31.4999990386963,8|0,0:0|0:0,0:0:0:0:
381,20,124740,2,0,L|356:44,1,31.4999990386963,2|0,0:2|0:0,0:0:0:0:
447,172,124910,6,0,P|429:165|407:167,1,31.4999990386963,2|0,0:2|0:0,0:0:0:0:
292,211,125081,2,0,P|309:217|331:215,1,31.4999990386963,4|0,0:0|0:0,0:0:0:0:
445,257,125251,2,0,P|427:250|405:252,1,31.4999990386963,8|0,0:0|0:0,0:0:0:0:
291,297,125422,2,0,P|308:303|330:301,1,31.4999990386963,2|0,0:2|0:0,0:0:0:0:
449,344,125592,6,0,B|425:378|425:378|269:375,1,188.999994232178,6|0,0:1|0:0,0:0:0:0:
251,368,125933,6,0,L|308:370,1,54,8|0,0:0|0:0,0:0:0:0:
366,328,126274,6,0,B|342:294|342:294|186:297,1,188.999994232178,0|0,0:0|0:0,0:0:0:0:
169,306,126615,6,0,L|226:304,1,54,8|0,0:0|0:0,0:0:0:0:
289,256,126956,6,0,B|329:203|329:203|467:200,1,188.999994232178,4|0,0:0|0:0,0:0:0:0:
476,198,127297,2,0,B|476:169|476:169|453:140,1,62.9999980773926,8|0,0:0|0:0,0:0:0:0:
402,52,127467,2,0,B|387:77|387:77|392:113,1,62.9999980773926,2|0,0:0|0:0,0:0:0:0:
335,191,127638,2,0,B|320:165|320:165|325:129,1,62.9999980773926,2|0,0:0|0:0,0:0:0:0:
180,23,127808,6,0,L|186:91,1,62.9999980773926,6|0,0:0|0:0,0:0:0:0:
241,196,127978,2,0,L|246:133,1,62.9999980773926,10|0,0:0|0:0,0:0:0:0:
113,105,128149,2,0,L|81:101,2,31.4999990386963,2|0|0,0:0|0:0|0:0,0:0:0:0:
146,281,128319,6,0,B|106:262|117:292|73:273,1,72,0|0,0:0|0:0,0:0:0:0:
76,274,129683,6,0,P|57:296|50:334,2,66.0000020141602,8|4|4,0:0|0:0|0:0,0:0:0:0:
155,255,130024,2,0,P|145:227|116:202,2,66.0000020141602,4|4|4,0:0|0:0|0:0,0:0:0:0:
131,332,130365,1,4,0:0:0:0:
163,337,130478,1,4,0:0:0:0:
193,325,130592,1,4,0:0:0:0:
257,282,130706,6,0,P|291:280|317:283,1,54,2|0,0:2|0:0,0:0:0:0:
381,319,131047,6,0,L|401:123,1,188.999994232178,6|0,0:1|0:0,0:0:0:0:
385,110,131388,2,0,L|320:112,1,62.9999980773926,0|0,0:0|0:0,0:0:0:0:
269,217,131558,6,0,L|263:270,1,54,0|0,0:0|0:0,0:0:0:0:
251,293,131899,2,0,L|187:282,1,62.9999980773926,0|0,0:0|0:0,0:0:0:0:
139,170,132069,6,0,L|144:123,6,31.4999990386963,0|0|0|0|0|0|0,0:0|0:0|0:0|0:0|0:0|0:0|0:0,0:0:0:0:
111,99,132410,6,0,L|90:293,1,188.999994232178,4|0,0:0|0:0,0:0:0:0:
94,312,132751,2,0,B|132:317|132:317|167:304,1,62.9999980773926,0|0,0:0|0:0,0:0:0:0:
211,230,132922,2,0,B|196:194|196:194|167:170,1,62.9999980773926,8|8,0:0|0:0,0:0:0:0:
225,384,133092,6,0,L|220:339,1,31.4999990386963,6|0,0:0|0:0,0:0:0:0:
293,384,133263,2,0,L|288:339,1,31.4999990386963,10|0,0:0|0:0,0:0:0:0:
361,384,133433,2,0,L|356:339,1,31.4999990386963,10|0,0:0|0:0,0:0:0:0:
429,384,133603,2,0,L|424:339,1,31.4999990386963,6|0,0:0|0:0,0:0:0:0:
454,237,133774,6,0,P|434:166|387:237,1,188.999994232178,4|0,0:0|0:0,0:0:0:0:
361,250,134115,6,0,B|344:94|344:94|398:42,1,229.500004377365,0|0,0:0|0:0,0:0:0:0:
405,34,134456,1,8,0:0:0:0:
296,18,134626,2,0,B|308:41|308:41|348:64,1,62.9999980773926,0|0,0:0|0:0,0:0:0:0:
255,111,134797,2,0,B|277:124|277:124|323:124,1,62.9999980773926,0|0,0:0|0:0,0:0:0:0:
265,210,134967,2,0,B|291:210|291:210|331:187,1,62.9999980773926,0|0,0:0|0:0,0:0:0:0:
136,75,135138,6,0,L|130:124,1,31.4999990386963,4|0,0:0|0:0,0:0:0:0:
190,175,135308,2,0,L|140:169,1,31.4999990386963,2|0,0:2|0:0,0:0:0:0:
85,232,135478,2,0,L|90:182,1,31.4999990386963,2|0,0:2|0:0,0:0:0:0:
31,132,135649,2,0,L|80:137,1,31.4999990386963,4|0,0:0|0:0,0:0:0:0:
151,331,135819,6,0,P|156:311|168:290,1,31.4999990386963,8|0,0:0|0:0,0:0:0:0:
241,260,135990,2,0,P|227:254|212:251,1,31.4999990386963,2|0,0:2|0:0,0:0:0:0:
293,348,136160,2,0,P|286:333|283:318,1,31.4999990386963,2|0,0:2|0:0,0:0:0:0:
373,271,136331,2,0,P|353:276|332:288,1,31.4999990386963,2|0,0:2|0:0,0:0:0:0:
301,147,136501,6,0,L|89:124,1,188.999994232178,2|0,0:1|0:0,0:0:0:0:
81,120,136842,2,0,L|87:185,1,62.9999980773926,4|0,0:0|0:0,0:0:0:0:
158,246,137013,6,0,L|214:251,1,54,0|0,0:0|0:0,0:0:0:0:
242,257,137353,2,0,L|235:319,1,62.9999980773926,0|0,0:0|0:0,0:0:0:0:
137,358,137524,6,0,L|94:353,6,31.4999990386963,0|0|0|0|0|0|0,0:0|0:0|0:0|0:0|0:0|0:0|0:0,0:0:0:0:
77,320,137865,6,0,L|274:340,1,188.999994232178,4|0,0:0|0:0,0:0:0:0:
292,354,138206,2,0,B|312:326|312:326|308:289,1,62.9999980773926,0|0,0:0|0:0,0:0:0:0:
417,278,138376,1,8,0:0:0:0:
417,278,138461,1,8,0:0:0:0:
417,278,138547,6,0,P|435:275|455:273,1,31.4999990386963,6|0,0:0|0:0,0:0:0:0:
391,206,138717,2,0,P|409:203|434:201,1,40.4999987640381,10|0,0:0|0:0,0:0:0:0:
375,134,138888,2,0,P|393:131|426:130,1,49.5000015106202,10|0,0:0|0:0,0:0:0:0:
362,62,139058,2,0,P|380:59|421:57,1,58.4999973220826,6|0,0:0|0:0,0:0:0:0:
304,187,139228,5,4,0:0:0:0:
156,179,139399,1,0,0:0:0:0:
235,103,139569,5,0,0:0:0:0:
225,267,139740,1,4,0:0:0:0:
146,167,139910,5,8,0:0:0:0:
314,198,140081,1,8,0:0:0:0:
227,91,140251,5,4,0:0:0:0:
228,278,140422,1,4,0:0:0:0:
62,221,140592,6,0,P|29:223|-4:231,3,62.9999980773926,8|4|4|4,0:0|0:0|0:0|0:0,0:0:0:0:
0,267,140933,5,8,0:0:0:0:
2,298,141018,1,4,0:0:0:0:
16,325,141103,2,0,L|30:308,1,15.7499995193482,4|4,0:0|0:0,0:0:0:0:
41,344,141189,2,0,L|49:322,1,15.7499995193482,4|4,0:0|0:0,0:0:0:0:
71,351,141274,5,8,0:0:0:0:
170,357,141444,2,0,P|166:348|176:358,1,45,4|0,0:0|0:0,0:0:0:0:
300,326,141615,2,0,P|273:296|311:316,1,116.999994644165,8|4,0:0|0:0,0:0:0:0:
429,265,141956,6,0,L|427:246,1,13.4999995880127,2|0,0:2|0:0,0:0:0:0:
354,203,142126,2,0,L|356:184,1,13.4999995880127,4|0,0:0|0:0,0:0:0:0:
433,100,142297,2,0,L|430:151,1,40.4999987640381,4|0,0:0|0:0,0:0:0:0:
417,144,142638,6,0,P|375:96|307:84,1,125.999996154785,10|0,0:1|0:0,0:0:0:0:
209,132,142978,2,0,P|188:132|165:130,6,31.4999990386963,0|0|0|0|0|0|0,0:0|0:0|0:0|0:0|0:0|0:0|0:0,0:0:0:0:
142,158,143319,2,0,P|228:174|282:264,1,188.999994232178,4|0,0:0|0:0,0:0:0:0:
305,274,143660,2,0,B|334:257|334:257|350:218,1,62.9999980773926,0|0,0:0|0:0,0:0:0:0:
315,150,143831,2,0,B|314:116|314:116|289:83,1,62.9999980773926,0|0,0:0|0:0,0:0:0:0:
232,31,144001,6,0,L|236:74,1,26.9999991760254,10|0,0:0|0:0,0:0:0:0:
161,38,144172,2,0,L|165:81,1,26.9999991760254,2|0,0:0|0:0,0:0:0:0:
90,45,144342,2,0,L|94:88,1,26.9999991760254,2|0,0:0|0:0,0:0:0:0:
19,52,144513,2,0,L|23:95,1,26.9999991760254,2|0,0:0|0:0,0:0:0:0:
72,259,144683,6,0,L|92:67,1,188.999994232178,4|0,0:0|0:0,0:0:0:0:
90,45,145024,2,0,L|96:118,1,62.9999980773926,0|0,0:0|0:0,0:0:0:0:
204,179,145194,6,0,L|209:122,1,54,4|0,0:0|0:0,0:0:0:0:
214,93,145535,2,0,B|248:105|248:105|278:134,1,62.9999980773926,0|0,0:0|0:0,0:0:0:0:
268,230,145706,2,0,B|240:253|240:253|200:264,1,62.9999980773926,0|0,0:0|0:0,0:0:0:0:
129,207,145876,2,0,B|122:171|122:171|132:131,1,62.9999980773926,0|0,0:0|0:0,0:0:0:0:
312,67,146047,6,0,L|301:45,1,18,4|0,0:0|0:0,0:0:0:0:
397,105,146217,2,0,L|418:94,1,18,2|0,0:2|0:0,0:0:0:0:
352,189,146388,2,0,L|362:210,1,18,2|0,0:2|0:0,0:0:0:0:
266,150,146558,2,0,L|244:160,1,18,2|0,0:2|0:0,0:0:0:0:
340,302,146728,6,0,P|332:312|324:332,1,18,8|0,0:0|0:0,0:0:0:0:
221,291,146899,2,0,P|210:283|190:275,1,18,2|0,0:2|0:0,0:0:0:0:
107,339,147069,2,0,P|96:331|76:323,1,18,2|0,0:2|0:0,0:0:0:0:
118,221,147240,2,0,P|125:210|133:190,1,18,2|0,0:2|0:0,0:0:0:0:
182,365,147410,6,0,L|381:386,1,188.999994232178,6|0,0:1|0:0,0:0:0:0:
400,376,147751,2,0,L|392:308,1,62.9999980773926,4|0,0:0|0:0,0:0:0:0:
295,268,147922,6,0,L|227:260,1,54,0|0,0:0|0:0,0:0:0:0:
214,244,148263,2,0,L|220:179,1,62.9999980773926,0|0,0:0|0:0,0:0:0:0:
336,154,148433,6,0,L|372:157,6,31.4999990386963,0|0|0|0|0|0|0,0:0|0:0|0:0|0:0|0:0|0:0|0:0,0:0:0:0:
405,132,148774,6,0,L|206:111,1,188.999994232178,4|0,0:0|0:0,0:0:0:0:
189,97,149115,2,0,B|163:110|163:110|145:140,1,62.9999980773926,0|0,0:0|0:0,0:0:0:0:
214,244,149285,2,0,B|215:214|215:214|198:184,1,62.9999980773926,0|0,0:0|0:0,0:0:0:0:
78,193,149456,2,0,B|102:209|102:209|137:209,1,62.9999980773926,10|0,0:0|0:0,0:0:0:0:
84,349,149626,6,0,P|98:321|109:286,1,62.9999980773926,2|0,0:0|0:0,0:0:0:0:
169,372,149797,2,0,P|175:341|177:305,1,62.9999980773926,2|0,0:0|0:0,0:0:0:0:
258,370,149967,2,0,P|256:338|248:303,1,62.9999980773926,2|0,0:0|0:0,0:0:0:0:
384,275,150138,6,0,P|420:238|365:209,1,126,6|0,0:1|0:0,0:0:0:0:
371,206,150819,2,0,P|321:213|350:143,1,157.5,0|0,0:0|0:0,0:0:0:0:
345,142,151501,2,0,P|391:117|311:82,1,188.999994232178,0|0,0:0|0:0,0:0:0:0:
312,78,152183,2,0,L|85:54,1,220.499993270874,0|0,0:0|0:0,0:0:0:0:
92,54,152865,6,0,P|65:116|62:176,1,108,2|0,0:1|0:0,0:0:0:0:
67,180,153206,1,0,0:0:0:0:
67,180,153376,1,0,0:0:0:0:
199,233,153547,2,0,L|214:87,1,144,8|0,0:0|0:0,0:0:0:0:
227,102,154058,1,4,0:0:0:0:
206,11,154228,5,0,0:0:0:0:
227,102,154399,1,4,0:0:0:0:
227,102,154569,1,4,0:0:0:0:
227,102,154910,2,0,L|211:245,1,144,8|0,0:0|0:0,0:0:0:0:
206,348,155592,6,0,P|266:348|366:292,1,144,4|0,0:0|0:0,0:0:0:0:
341,314,156103,1,0,0:0:0:0:
388,163,156274,2,0,L|401:290,1,108,8|0,0:0|0:0,0:0:0:0:
421,286,156615,6,0,L|459:260,1,26.9999991760254,0|0,0:0|0:0,0:0:0:0:
477,187,156785,1,4,0:0:0:0:
501,313,156956,2,0,L|520:271,1,26.9999991760254,0|0,0:0|0:0,0:0:0:0:
480,175,157126,2,0,L|471:97,1,72,4|4,0:0|0:0,0:0:0:0:
472,103,157467,1,0,0:0:0:0:
381,13,157638,6,0,P|336:43|250:9,1,144,8|0,0:0|0:0,0:0:0:0:
255,16,158149,1,0,0:0:0:0:
185,132,158319,6,0,P|237:180|229:232,1,108,4|0,0:0|0:0,0:0:0:0:
234,238,158660,1,0,0:0:0:0:
234,238,158831,1,0,0:0:0:0:
10,266,159001,2,0,L|155:223,1,144,8|0,0:0|0:0,0:0:0:0:
162,240,159513,1,4,0:0:0:0:
234,238,159683,5,0,0:0:0:0:
162,240,159853,1,4,0:0:0:0:
162,240,160024,1,4,0:0:0:0:
162,240,160365,2,0,L|23:280,1,144,8|0,0:0|0:0,0:0:0:0:
97,333,161047,6,0,P|95:261|57:184,1,144,4|0,0:0|0:0,0:0:0:0:
66,196,161558,1,0,0:0:0:0:
140,45,161728,2,0,L|131:167,1,108,8|0,0:0|0:0,0:0:0:0:
142,168,162069,6,0,L|160:196,1,26.9999991760254,0|0,0:0|0:0,0:0:0:0:
257,202,162240,1,4,0:0:0:0:
145,263,162410,2,0,L|174:278,1,26.9999991760254,0|0,0:0|0:0,0:0:0:0:
273,195,162581,1,4,0:0:0:0:
273,195,162751,1,4,0:0:0:0:
231,324,162922,1,0,0:0:0:0:
318,261,163092,5,8,0:0:0:0:
189,250,163263,1,0,0:0:0:0:
327,274,163433,1,0,0:0:0:0:
181,238,163603,1,0,0:0:0:0:
314,101,163774,6,0,P|374:107|430:150,1,108,6|0,0:1|0:0,0:0:0:0:
430,150,164115,1,0,0:0:0:0:
430,150,164285,1,0,0:0:0:0:
428,293,164456,2,0,L|430:120,1,144,8|0,0:0|0:0,0:0:0:0:
444,165,164967,1,4,0:0:0:0:
485,99,165138,5,0,0:0:0:0:
444,165,165308,1,4,0:0:0:0:
444,165,165478,1,4,0:0:0:0:
444,165,165819,2,0,L|442:308,1,144,8|0,0:0|0:0,0:0:0:0:
339,370,166501,6,0,P|263:362|210:319,1,144,4|0,0:0|0:0,0:0:0:0:
211,321,167013,1,0,0:0:0:0:
144,175,167183,2,0,L|149:291,1,108,8|0,0:0|0:0,0:0:0:0:
140,300,167524,6,0,L|107:286,1,26.9999991760254,0|0,0:0|0:0,0:0:0:0:
55,233,167694,1,4,0:0:0:0:
71,355,167865,2,0,L|49:326,1,26.9999991760254,0|0,0:0|0:0,0:0:0:0:
49,220,168035,2,0,L|44:137,1,72,4|4,0:0|0:0,0:0:0:0:
44,148,168376,1,0,0:0:0:0:
100,28,168547,6,0,P|166:76|254:59,1,144,8|0,0:0|0:0,0:0:0:0:
225,73,169058,1,0,0:0:0:0:
428,29,169228,6,0,P|367:25|299:46,1,108,4|0,0:0|0:0,0:0:0:0:
301,50,169569,1,0,0:0:0:0:
301,50,169740,1,0,0:0:0:0:
376,237,169910,2,0,L|402:85,1,144,8|0,0:0|0:0,0:0:0:0:
414,112,170422,1,4,0:0:0:0:
429,25,170592,5,0,0:0:0:0:
414,112,170763,1,4,0:0:0:0:
414,112,170933,1,4,0:0:0:0:
414,112,171274,2,0,L|389:253,1,144,8|0,0:0|0:0,0:0:0:0:
272,210,171956,6,0,P|195:193|104:206,1,144,4|0,0:0|0:0,0:0:0:0:
130,198,172467,1,0,0:0:0:0:
16,296,172638,2,0,L|127:278,1,108,8|0,0:0|0:0,0:0:0:0:
138,289,172978,6,0,L|169:304,1,26.9999991760254,0|0,0:0|0:0,0:0:0:0:
262,315,173149,1,4,0:0:0:0:
143,373,173319,2,0,L|177:370,1,26.9999991760254,0|0,0:0|0:0,0:0:0:0:
273,303,173490,1,4,0:0:0:0:
273,303,173660,1,4,0:0:0:0:
346,382,173831,1,0,0:0:0:0:
446,247,174001,5,8,0:0:0:0:
435,376,174172,1,0,0:0:0:0:
459,238,174342,1,0,0:0:0:0:
423,384,174513,1,0,0:0:0:0:
357,263,174683,5,6,0:1:0:0:
