osu file format v14

[General]
AudioFilename: audio.mp3
AudioLeadIn: 0
PreviewTime: 40564
Countdown: 0
SampleSet: Soft
StackLeniency: 0.7
Mode: 0
LetterboxInBreaks: 0
WidescreenStoryboard: 0

[Editor]
DistanceSpacing: 1.8
BeatDivisor: 4
GridSize: 8
TimelineZoom: 1

[Metadata]
Title:Human
TitleUnicode:Human
Artist:Krewella
ArtistUnicode:Krewella
Creator:- Dzy -
Version:Hard
Source:
Tags:AMV anime unity krewella human i am only human amv feels
BeatmapID:969374
BeatmapSetID:451888

[Difficulty]
HPDrainRate:5
CircleSize:4
OverallDifficulty:6
ApproachRate:7
SliderMultiplier:1.5
SliderTickRate:1

[Events]
//Background and Video events
0,0,"maxresdefault.jpg",0,0
Video,0,"Human - AMV.mp4"
//Break Periods
//Storyboard Layer 0 (Background)
//Storyboard Layer 1 (Fail)
//Storyboard Layer 2 (Pass)
//Storyboard Layer 3 (Foreground)
//Storyboard Sound Samples

[TimingPoints]
260,428.571428571429,4,2,1,25,1,0
13974,-200,4,2,1,25,0,0
27688,-133.333333333333,4,2,1,25,0,0
31136,-200,4,2,1,35,0,0
41402,-100,4,2,1,35,0,0
55117,-100,4,2,1,35,0,1
82438,428.571428571429,4,2,1,35,1,1
96198,428.571428571429,4,2,1,35,1,0
96198,-200,4,2,1,35,0,0
115912,-200,4,2,1,35,0,0

[Colours]
Combo1 : 255,192,0
Combo2 : 80,139,239
Combo3 : 155,155,255
Combo4 : 242,24,57

[HitObjects]
128,80,260,5,0,0:0:0:0:
256,48,474,1,0,0:0:0:0:
312,168,688,1,0,0:0:0:0:
184,224,902,2,0,P|152:264|168:360,1,150
288,312,1545,2,0,P|336:288|448:304,1,150
429,294,2188,5,0,0:0:0:0:
480,168,2402,1,0,0:0:0:0:
344,184,2617,1,0,0:0:0:0:
480,200,2831,1,0,0:0:0:0:
392,96,3045,1,0,0:0:0:0:
448,216,3260,2,0,B|432:256|432:256|448:312|448:312|424:360,1,150
296,312,3902,6,0,P|248:288|192:288,1,75
136,184,4331,2,0,L|128:96,1,75
248,48,4760,1,0,0:0:0:0:
352,128,4974,2,0,P|384:192|400:288,1,150
280,200,5617,6,0,L|248:112,1,75
192,248,6045,2,0,P|160:184|144:88,1,150
264,40,6688,2,0,P|208:40|88:16,1,150
0,96,7331,1,0,0:0:0:0:
120,160,7545,1,0,0:0:0:0:
24,256,7760,6,0,P|80:304|184:328,1,150
272,256,8402,2,0,P|336:248|448:256,1,150
421,251,9045,5,0,0:0:0:0:
488,128,9260,1,0,0:0:0:0:
352,128,9474,2,0,P|296:128|176:104,1,150
72,72,10117,2,0,L|8:8,1,75
48,152,10545,6,0,P|88:240|88:320,1,150
224,312,11188,2,0,P|264:296|400:304,1,150
480,368,11831,1,0,0:0:0:0:
440,240,12045,2,0,L|376:88,1,150
256,40,12688,1,0,0:0:0:0:
128,88,12902,2,0,B|120:128|120:128|152:192|152:192|136:248,1,150
141,228,13545,1,0,0:0:0:0:
328,304,13974,6,0,B|344:280|344:280|376:256|376:256|392:216|376:160,1,150
264,112,15260,1,0,0:0:0:0:
128,112,15688,2,0,B|116:151|132:191|132:191|164:215|164:215|180:239,1,150
312,272,16974,2,0,P|368:296|384:320,1,75
176,328,18045,6,0,L|136:296,1,37.5
112,192,18474,1,0,0:0:0:0:
176,112,18902,2,0,P|216:152|232:168,2,75
40,88,19974,1,0,0:0:0:0:
168,32,20188,1,0,0:0:0:0:
104,152,20402,1,0,0:0:0:0:
96,16,20617,1,0,0:0:0:0:
184,120,20831,6,0,P|216:160|248:264,1,150
360,328,22117,1,0,0:0:0:0:
400,200,22545,2,0,P|419:128|448:88,1,112.5
440,96,23402,1,0,0:0:0:0:
304,88,23831,2,0,P|272:120|256:144,1,75
224,280,24688,5,0,0:0:0:0:
224,280,24902,1,0,0:0:0:0:
352,240,25331,2,0,P|400:240|440:256,2,75
216,256,26402,1,0,0:0:0:0:
272,128,26617,1,0,0:0:0:0:
352,240,26831,1,0,0:0:0:0:
96,144,27260,1,0,0:0:0:0:
344,40,27688,2,0,P|376:88|392:208,1,168.750006437302
360,296,28545,2,0,L|320:240,1,56.2500021457673
224,256,28974,2,0,L|264:320,1,56.2500021457673
168,360,29402,6,0,B|152:336|152:336|160:256|128:240,1,112.500004291535
192,56,30260,2,0,B|208:80|208:80|200:160|232:176,1,112.500004291535
264,32,31117,2,0,P|368:96|208:104,1,393.750015020371
208,119,32831,1,0,0:0:0:0:
40,152,34545,2,0,B|80:120|80:120|144:168|144:168|120:256|160:304|216:312,1,300
312,232,36688,2,0,L|336:144,2,75
200,160,37974,2,0,B|184:112|120:64|40:112|48:192|104:224|144:240|144:240|168:312|112:360|48:344,1,450
63,346,40974,1,0,0:0:0:0:
312,256,41402,6,0,P|368:216|392:128,1,150
288,64,42045,1,0,0:0:0:0:
184,152,42260,1,0,0:0:0:0:
184,152,42367,1,0,0:0:0:0:
184,152,42474,2,0,P|200:216|200:256,1,75
120,328,42902,1,0,0:0:0:0:
256,304,43117,6,0,P|288:272|304:232,1,75
300,245,43438,1,0,0:0:0:0:
300,245,43545,1,0,0:0:0:0:
344,120,43760,2,0,P|376:152|400:208,1,75
392,312,44188,1,0,0:0:0:0:
256,304,44402,2,0,P|208:264|96:240,1,150
125,239,44938,5,0,0:0:0:0:
125,239,45045,1,0,0:0:0:0:
72,112,45260,2,0,P|40:152|40:200,1,75
168,136,45688,2,0,P|184:80|176:48,1,75
48,80,46117,2,0,P|80:184|112:232,1,150
232,232,46760,5,0,0:0:0:0:
288,112,46974,2,0,L|384:80,1,75
232,40,47402,2,0,P|184:64|128:64,1,75
32,40,47831,2,0,P|56:96|64:208,1,150
66,183,48367,1,0,0:0:0:0:
66,183,48474,1,0,0:0:0:0:
120,328,48688,6,0,P|160:320|280:352,1,150
360,248,49331,2,0,P|368:296|360:344,1,75
280,216,49760,2,0,P|296:176|312:120,1,75
305,145,50081,5,0,0:0:0:0:
305,145,50188,1,0,0:0:0:0:
184,96,50402,2,0,P|120:88|56:160,2,150
256,192,51688,12,0,55117,0:0:0:0:
256,184,55545,5,0,0:0:0:0:
40,24,55974,2,0,P|144:40|200:88,1,150
264,168,56617,1,0,0:0:0:0:
352,72,56831,1,0,0:0:0:0:
384,88,56938,1,0,0:0:0:0:
400,120,57045,1,0,0:0:0:0:
400,160,57152,1,0,0:0:0:0:
392,192,57260,2,0,L|352:240,3,37.5
352,288,57688,2,0,P|296:320|184:312,1,150
24,128,58545,2,0,P|96:144|136:216,1,150
112,336,59188,1,0,0:0:0:0:
136,320,59295,1,0,0:0:0:0:
160,304,59402,2,0,P|208:296|312:304,1,150
432,352,60045,1,0,0:0:0:0:
416,216,60260,6,0,L|368:128,1,75
256,96,60688,2,0,L|296:176,1,75
336,288,61117,1,0,0:0:0:0:
200,264,61331,1,0,0:0:0:0:
288,160,61545,2,0,P|344:128|432:128,1,150
392,256,62188,5,0,0:0:0:0:
360,280,62295,1,0,0:0:0:0:
320,296,62402,2,0,P|280:288|232:256,1,75
216,200,62831,2,0,L|263:157,4,37.5
24,120,63688,6,0,P|96:128|152:208,1,150
416,160,64545,2,0,P|344:152|288:72,1,150
24,56,65402,6,0,L|168:136,1,150
272,200,66045,1,0,0:0:0:0:
272,200,66152,1,0,0:0:0:0:
272,200,66260,2,0,P|320:248|344:344,1,150
208,312,66902,1,0,0:0:0:0:
88,248,67117,1,0,0:0:0:0:
72,224,67224,1,0,0:0:0:0:
56,200,67331,2,0,L|64:160,4,37.5
160,120,67974,2,0,P|224:160|272:240,1,150
248,352,68617,1,0,0:0:0:0:
376,312,68831,6,0,L|384:136,1,150
136,56,69688,2,0,L|128:232,1,150
240,280,70331,1,0,0:0:0:0:
312,168,70545,6,0,P|296:96|216:56,1,150
104,88,71188,1,0,0:0:0:0:
232,136,71402,2,0,L|144:272,1,150
150,261,72045,1,0,0:0:0:0:
288,256,72260,6,0,P|344:208|360:112,1,150
248,64,72902,1,0,0:0:0:0:
248,64,73010,1,0,0:0:0:0:
248,64,73117,2,0,P|168:64|152:72,1,75
72,144,73545,2,0,P|88:192|128:232,1,75
304,248,73974,5,0,0:0:0:0:
176,280,74188,1,0,0:0:0:0:
240,160,74402,2,0,P|296:144|336:144,1,75
200,72,74831,2,0,P|152:88|120:112,1,75
56,208,75260,1,0,0:0:0:0:
56,208,75367,1,0,0:0:0:0:
56,208,75474,2,0,P|96:248|104:288,1,75
304,312,76545,5,0,0:0:0:0:
400,200,76760,1,0,0:0:0:0:
256,232,76974,1,0,0:0:0:0:
369,135,77188,2,0,P|401:199|401:207,1,75
304,312,77617,1,0,0:0:0:0:
432,272,77831,1,0,0:0:0:0:
328,200,78045,1,0,0:0:0:0:
176,256,78260,2,0,P|112:280|96:296,1,75
240,320,78688,1,0,0:0:0:0:
192,192,78902,1,0,0:0:0:0:
272,296,79117,6,0,P|280:224|272:112,1,150
168,64,79760,1,0,0:0:0:0:
168,64,79867,1,0,0:0:0:0:
168,64,79974,1,0,0:0:0:0:
432,96,80402,1,0,0:0:0:0:
368,216,80617,1,0,0:0:0:0:
466,317,80831,2,0,L|235:261,1,225
120,208,81688,5,0,0:0:0:0:
248,264,81902,1,0,0:0:0:0:
256,224,82010,1,0,0:0:0:0:
264,184,82117,1,0,0:0:0:0:
272,144,82224,1,0,0:0:0:0:
280,104,82331,1,0,0:0:0:0:
288,56,82438,2,0,P|232:80|208:112,1,75
144,184,82866,2,0,P|152:128|136:80,1,75
40,136,83295,1,0,0:0:0:0:
40,168,83402,1,0,0:0:0:0:
40,200,83509,1,0,0:0:0:0:
40,232,83616,1,0,0:0:0:0:
40,264,83723,2,0,L|88:280,3,37.5
144,256,84152,6,0,P|184:248|304:272,1,150
408,328,84795,1,0,0:0:0:0:
368,200,85009,6,0,P|344:152|336:48,1,150
200,72,85652,1,0,0:0:0:0:
104,168,85866,2,0,P|112:224|144:264,1,75
240,296,86295,5,0,0:0:0:0:
272,280,86402,1,0,0:0:0:0:
304,264,86509,2,0,P|328:208|328:160,1,75
280,72,86938,2,0,P|256:128|256:176,1,75
392,144,87366,2,0,P|408:104|416:48,1,75
256,192,87688,12,0,89295,0:0:0:0:
184,176,89509,6,0,P|240:224|256:256,1,75
384,168,89938,2,0,P|352:147|328:120,1,75
192,96,90366,1,0,0:0:0:0:
328,88,90580,1,0,0:0:0:0:
272,208,90795,1,0,0:0:0:0:
455,136,91009,2,0,P|367:80|327:88,1,150
272,208,91652,1,0,0:0:0:0:
360,296,91866,2,0,L|400:320,4,37.5
232,360,92509,1,0,0:0:0:0:
128,280,92723,5,0,0:0:0:0:
112,248,92830,1,0,0:0:0:0:
96,216,92938,1,0,0:0:0:0:
80,184,93045,1,0,0:0:0:0:
64,152,93152,1,0,0:0:0:0:
136,40,93366,1,0,0:0:0:0:
136,40,93473,1,0,0:0:0:0:
136,40,93580,2,0,P|192:64|216:96,1,75
216,208,94009,1,0,0:0:0:0:
312,112,94223,1,0,0:0:0:0:
256,192,94438,12,0,96152,0:0:0:0:
96,152,96626,6,0,P|160:152|176:152,1,75
280,232,97483,2,0,P|216:232|200:232,1,75
72,248,98340,1,0,0:0:0:0:
192,320,98769,1,0,0:0:0:0:
56,344,99198,1,0,0:0:0:0:
128,232,99626,2,0,P|168:200|200:184,2,75
320,176,102198,1,0,0:0:0:0:
320,176,102626,1,0,0:0:0:0:
320,176,103055,6,0,P|272:200|72:96,1,300
200,64,105198,2,0,L|288:48,2,75
200,64,106483,1,0,0:0:0:0:
256,192,107983,1,0,0:0:0:0:
256,192,108198,1,0,0:0:0:0:
144,328,109912,6,0,B|184:288|184:288|240:280|296:328|296:328|376:336|400:256|400:256,1,300
304,176,112055,1,0,0:0:0:0:
304,176,112483,1,0,0:0:0:0:
304,176,112912,2,0,P|248:160|232:160,1,75
72,240,115912,2,0,L|152:232,1,75
264,296,116769,2,0,B|296:272|296:272|344:280|368:352|368:352|424:312|400:264|424:216,1,300
48,32,120198,6,0,B|80:88|80:88|128:40|216:48|264:112|248:176,1,300
250,159,122769,1,0,0:0:0:0:
480,296,123626,6,0,B|448:320|392:312|392:312|288:312|288:312|224:328|176:304,1,300
120,192,125769,2,0,L|72:128,2,75
240,256,127055,6,0,B|320:160|320:280|400:184|408:112,1,225
256,192,128769,12,0,131340,0:0:0:0:
