osu file format v14

[General]
AudioFilename: audio.mp3
AudioLeadIn: 0
PreviewTime: 0
Countdown: 1
SampleSet: Normal
StackLeniency: 0.7
Mode: 0
LetterboxInBreaks: 0
WidescreenStoryboard: 1

[Editor]
Bookmarks: 11942,14813,45870,48157,51967,52396,55016,55445,67210,100745,103031,133898,149522,152571,155619
DistanceSpacing: 1.2
BeatDivisor: 8
GridSize: 4
TimelineZoom: 3.199999

[Metadata]
Title:Feel Me (Nightcore Ver)
TitleUnicode:Feel Me (Nightcore Ver)
Artist:Krewella
ArtistUnicode:Krewella
Creator:- Sashiro -
Version:Loveless (AR 9)
Source:
Tags:nightcore, nightstep, training, night, core, step,
BeatmapID:1554613
BeatmapSetID:662784

[Difficulty]
HPDrainRate:4
CircleSize:4
OverallDifficulty:8
ApproachRate:9
SliderMultiplier:2.4
SliderTickRate:3

[Events]
//Background and Video events
0,0,"1589027.jpg",0,0
//Break Periods
2,2818,11355
2,37162,39173
2,40211,42222
2,115425,127582
2,134097,139776
2,145482,148922
//Storyboard Layer 0 (Background)
//Storyboard Layer 1 (Fail)
//Storyboard Layer 2 (Pass)
//Storyboard Layer 3 (Foreground)
//Storyboard Sound Samples

[TimingPoints]
0,375,4,1,0,65,1,0
0,-100,4,1,0,65,0,0
142,381.07335662115,4,1,0,65,1,0
24911,-83.3333333333333,4,1,0,50,0,1
25483,-200,4,1,0,50,0,1
26245,-83.3333333333333,4,1,0,50,0,1
27007,-200,4,1,0,50,0,1
27769,-100,4,1,0,50,0,1
30437,-200,4,1,0,50,0,1
30818,-100,4,1,0,50,0,1
31199,-83.3333333333333,4,1,0,50,0,1
31580,-200,4,1,0,50,0,1
32342,-100,4,1,0,50,0,1
33104,-500,4,1,0,50,0,1
33866,-100,4,1,0,50,0,1
36725,-100,4,1,0,100,0,0
85121,-100,4,1,0,100,0,0
85883,-83.3333333333333,4,1,0,50,0,1
86455,-200,4,1,0,50,0,1
87217,-100,4,1,0,50,0,1
87598,-83.3333333333333,4,1,0,50,0,1
87979,-200,4,1,0,50,0,1
88741,-100,4,1,0,50,0,1
91409,-200,4,1,0,50,0,1
91790,-100,4,1,0,50,0,1
92171,-83.3333333333333,4,1,0,50,0,1
92552,-200,4,1,0,50,0,1
93314,-100,4,1,0,50,0,1
94076,-500,4,1,0,50,0,1
94838,-100,4,1,0,50,0,1
97696,-100,4,1,0,100,0,0
128182,-100,4,2,0,10,0,0
131231,-100,4,2,0,20,0,0
134279,-100,4,1,0,75,0,0
140376,-100,4,1,0,100,0,0
152571,-100,4,1,0,85,0,0
153572,-100,4,1,0,75,0,0
153953,-100,4,1,0,50,0,0
154334,-100,4,1,0,25,0,0
154715,-100,4,1,0,10,0,0
155096,-100,4,1,0,0,0,0

[Colours]
Combo1 : 255,0,128
Combo2 : 255,183,219
Combo3 : 255,62,158
Combo4 : 255,0,255

[HitObjects]
256,192,142,5,0,0:0:0:0:
256,192,523,12,0,2618,0:0:0:0:
64,160,11955,5,0,0:0:0:0:
116,276,12145,1,0,0:0:0:0:
240,280,12336,1,0,0:0:0:0:
152,56,12526,1,0,0:0:0:0:
396,168,12717,1,0,0:0:0:0:
332,276,12907,1,0,0:0:0:0:
160,276,13098,1,0,0:0:0:0:
320,200,13288,1,0,0:0:0:0:
88,96,13479,1,0,0:0:0:0:
344,64,13669,1,0,0:0:0:0:
60,192,13860,2,0,L|112:184,4,30
172,300,14241,1,0,0:0:0:0:
356,248,14432,6,0,L|376:224,1,30
356,248,14527,6,0,L|384:276,1,30
356,248,14622,6,0,L|336:272,1,30
356,248,14717,6,0,L|332:228,1,30
256,60,15003,5,0,0:0:0:0:
328,128,15194,1,0,0:0:0:0:
364,216,15384,1,0,0:0:0:0:
324,292,15575,1,0,0:0:0:0:
196,264,15765,1,0,0:0:0:0:
416,64,15956,6,0,L|360:100,2,60
408,280,16337,1,0,0:0:0:0:
132,48,16527,5,0,0:0:0:0:
216,60,16718,1,0,0:0:0:0:
268,132,16909,1,0,0:0:0:0:
160,140,17099,1,0,0:0:0:0:
160,324,17290,1,0,0:0:0:0:
396,124,17480,1,0,0:0:0:0:
272,196,17671,2,0,L|280:224,4,30
252,332,18052,5,0,0:0:0:0:
144,140,18242,1,0,0:0:0:0:
252,332,18433,1,0,0:0:0:0:
340,144,18623,1,0,0:0:0:0:
252,332,18814,1,0,0:0:0:0:
400,316,19004,1,0,0:0:0:0:
448,232,19148,2,0,L|396:224,4,30
336,228,19576,1,0,0:0:0:0:
180,120,19767,1,0,0:0:0:0:
88,256,19957,5,0,0:0:0:0:
368,104,20148,1,0,0:0:0:0:
396,304,20338,1,0,0:0:0:0:
132,80,20529,1,0,0:0:0:0:
448,232,20719,2,0,L|396:224,4,30
328,92,21100,1,0,0:0:0:0:
132,80,21291,1,0,0:0:0:0:
68,304,21481,1,0,0:0:0:0:
132,80,21672,1,0,0:0:0:0:
368,332,21863,1,0,0:0:0:0:
356,96,22053,1,0,0:0:0:0:
220,248,22244,5,0,0:0:0:0:
204,80,22434,1,0,0:0:0:0:
368,228,22625,1,0,0:0:0:0:
460,136,22815,1,0,0:0:0:0:
148,200,23006,1,0,0:0:0:0:
196,92,23196,1,0,0:0:0:0:
220,264,23387,1,0,0:0:0:0:
288,100,23577,1,0,0:0:0:0:
448,232,23768,2,0,L|396:224,4,30
256,192,24149,12,0,24721,0:0:0:0:
36,112,24911,5,0,0:0:0:0:
48,148,25006,1,0,0:0:0:0:
68,168,25102,2,0,B|112:128|112:128|136:64|168:176|184:96|292:40|232:124,1,251.999992309571
257,133,25483,2,0,B|264:168|316:104|336:120|228:240|283:245|384:112|399:155|300:324|336:104|360:288|416:280,1,240
232,348,26435,5,0,0:0:0:0:
200,352,26530,1,0,0:0:0:0:
176,348,26626,2,0,B|96:280|96:280|104:172|112:276|140:232|52:220|196:216,1,251.999992309571
193,220,27007,2,0,P|186:185|28:60,1,240
120,88,28150,5,0,0:0:0:0:
252,44,28341,1,0,0:0:0:0:
360,72,28531,1,0,0:0:0:0:
392,216,28722,1,0,0:0:0:0:
256,316,28913,1,0,0:0:0:0:
116,264,29103,1,0,0:0:0:0:
76,76,29293,5,0,0:0:0:0:
64,316,29484,1,0,0:0:0:0:
376,324,29675,1,0,0:0:0:0:
144,56,29865,1,0,0:0:0:0:
400,64,30056,1,0,0:0:0:0:
112,312,30246,1,0,0:0:0:0:
92,124,30437,2,0,L|124:120,4,30
420,120,31008,5,0,0:0:0:0:
416,156,31103,1,0,0:0:0:0:
416,184,31199,2,0,B|392:248|392:248|336:240|308:196|252:232|320:260|196:192,1,251.999992309571
218,204,31580,2,0,P|112:160|148:64,1,240
320,96,32533,5,0,0:0:0:0:
92,324,32723,1,0,0:0:0:0:
180,44,32914,1,0,0:0:0:0:
48,168,33104,2,0,P|76:136|124:116,1,96
40,184,34057,5,0,0:0:0:0:
216,48,34248,1,0,0:0:0:0:
440,140,34438,1,0,0:0:0:0:
88,160,34629,1,0,0:0:0:0:
448,236,34819,1,0,0:0:0:0:
96,304,35010,1,0,0:0:0:0:
452,348,35200,1,0,0:0:0:0:
136,112,35391,5,0,0:0:0:0:
228,288,35581,1,0,0:0:0:0:
316,96,35772,1,0,0:0:0:0:
432,168,35962,1,0,0:0:0:0:
228,288,36153,1,0,0:0:0:0:
92,152,36344,2,0,L|228:148,1,120
280,192,36724,6,0,L|232:192,5,30
80,292,39773,6,0,L|72:344,5,30
240,36,42822,6,0,L|292:44,5,30
172,72,43584,6,0,L|148:108,5,30
240,132,44346,6,0,L|292:124,5,30
328,160,45108,6,0,L|276:152,5,30
112,164,45870,5,0,0:0:0:0:
124,130,45965,1,0,0:0:0:0:
144,100,46060,1,0,0:0:0:0:
171,76,46155,1,0,0:0:0:0:
202,59,46251,1,0,0:0:0:0:
237,50,46346,1,0,0:0:0:0:
273,49,46441,1,0,0:0:0:0:
308,57,46536,1,0,0:0:0:0:
340,73,46632,1,0,0:0:0:0:
368,96,46727,1,0,0:0:0:0:
389,125,46822,5,0,0:0:0:0:
402,159,46917,1,0,0:0:0:0:
408,194,47013,1,0,0:0:0:0:
405,230,47108,1,0,0:0:0:0:
393,264,47203,1,0,0:0:0:0:
374,294,47299,1,0,0:0:0:0:
348,319,47394,1,0,0:0:0:0:
317,337,47489,1,0,0:0:0:0:
282,347,47584,1,0,0:0:0:0:
246,349,47680,1,0,0:0:0:0:
211,342,47775,1,0,0:0:0:0:
178,326,47870,1,0,0:0:0:0:
150,304,47965,1,0,0:0:0:0:
129,276,48061,1,0,0:0:0:0:
114,243,48156,1,0,0:0:0:0:
116,76,48919,6,0,L|188:76,2,60
384,88,49300,2,0,L|412:120,1,30
152,296,49490,2,0,L|128:252,1,30
72,104,49681,1,0,0:0:0:0:
196,112,49776,2,0,L|264:100,1,60
255,101,49919,2,0,L|299:141,1,60
299,141,50062,2,0,L|239:201,2,60
48,192,50443,1,0,0:0:0:0:
260,192,50634,6,0,L|292:192,1,30
260,192,50729,6,0,L|296:216,1,30
268,192,50824,6,0,L|264:232,1,30
260,192,50919,6,0,L|224:220,1,30
260,192,51015,6,0,L|220:192,1,30
260,192,51110,6,0,L|260:156,1,30
352,60,51586,5,0,0:0:0:0:
404,140,51777,1,0,0:0:0:0:
464,228,51967,6,0,L|430:234,1,30
435,234,52063,6,0,L|389:233,1,30
414,241,52158,6,0,L|368:242,1,30
384,241,52253,6,0,L|332:227,1,30
355,233,52349,6,0,L|302:212,1,30
72,184,52729,5,0,0:0:0:0:
412,120,52920,1,0,0:0:0:0:
88,76,53111,1,0,0:0:0:0:
316,324,53301,1,0,0:0:0:0:
328,56,53492,1,0,0:0:0:0:
136,288,53682,1,0,0:0:0:0:
400,160,53873,1,0,0:0:0:0:
104,60,54063,1,0,0:0:0:0:
388,280,54254,1,0,0:0:0:0:
120,288,54444,1,0,0:0:0:0:
260,56,54635,1,0,0:0:0:0:
252,328,54825,1,0,0:0:0:0:
156,176,55016,6,0,L|188:176,1,30
192,176,55111,6,0,L|228:176,1,30
232,176,55207,6,0,L|282:176,1,30
272,176,55302,6,0,L|312:176,1,30
308,176,55397,6,0,L|364:176,1,30
260,192,55778,6,0,L|260:156,1,30
72,324,55968,1,0,0:0:0:0:
68,188,56159,5,0,0:0:0:0:
88,88,56350,1,0,0:0:0:0:
164,40,56540,1,0,0:0:0:0:
192,256,56731,6,0,L|164:232,1,30
192,256,56826,6,0,L|220:276,1,30
192,256,56921,6,0,L|168:296,1,30
192,256,57017,6,0,L|208:224,1,30
192,256,57112,6,0,L|176:288,1,30
192,256,57207,6,0,L|236:260,1,30
116,320,57493,1,0,0:0:0:0:
368,244,57683,1,0,0:0:0:0:
88,212,57874,1,0,0:0:0:0:
96,104,58064,6,0,L|120:84,1,30
128,84,58160,6,0,L|160:84,1,30
168,88,58255,6,0,L|188:112,1,30
192,120,58350,6,0,L|172:144,1,30
328,72,58636,5,0,0:0:0:0:
316,304,58827,1,0,0:0:0:0:
428,304,59017,1,0,0:0:0:0:
424,88,59208,1,0,0:0:0:0:
256,192,59589,12,0,60351,0:0:0:0:
200,288,60732,5,0,0:0:0:0:
32,192,60923,1,0,0:0:0:0:
96,104,61113,6,0,L|120:84,1,30
96,104,61208,6,0,L|68:128,1,30
96,104,61304,6,0,L|120:128,1,30
96,104,61399,6,0,L|64:76,1,30
40,32,61685,1,0,0:0:0:0:
424,336,61875,1,0,0:0:0:0:
168,252,62066,1,0,0:0:0:0:
356,216,62256,1,0,0:0:0:0:
152,112,62447,1,0,0:0:0:0:
424,96,62638,6,0,L|460:76,1,30
144,280,62828,2,0,L|116:304,1,30
416,292,63019,2,0,L|448:324,1,30
148,56,63209,2,0,L|128:28,1,30
256,296,63400,2,0,L|232:344,1,30
432,48,63590,2,0,L|408:72,1,30
80,276,63781,2,0,L|108:248,1,30
464,296,63971,2,0,L|448:268,1,30
256,196,64162,6,0,L|280:172,1,30
256,196,64257,6,0,L|280:216,1,30
256,196,64353,6,0,L|228:224,1,30
256,196,64448,6,0,L|232:176,1,30
288,316,64924,5,0,0:0:0:0:
104,88,65114,1,0,0:0:0:0:
288,316,65305,1,0,0:0:0:0:
212,60,65495,1,0,0:0:0:0:
288,316,65686,1,0,0:0:0:0:
424,72,65877,5,0,0:0:0:0:
92,80,66067,1,0,0:0:0:0:
408,288,66257,1,0,0:0:0:0:
56,264,66448,1,0,0:0:0:0:
408,288,66639,1,0,0:0:0:0:
256,32,66829,1,0,0:0:0:0:
224,336,67020,1,0,0:0:0:0:
368,208,67210,6,0,L|392:188,1,30
368,208,67305,6,0,L|340:180,1,30
368,208,67401,6,0,L|396:232,1,30
368,208,67496,6,0,L|336:236,1,30
96,152,67973,6,0,B|96:136|96:136|100:152|100:152|100:136|100:136|104:152|104:152|104:136|104:136|108:152|108:152|108:136|108:136|112:152|112:152|112:136|112:136|116:152|116:152|116:136|116:136|120:152|120:152|120:136|120:136|124:152|124:152,1,210
120,168,68354,1,0,0:0:0:0:
232,108,68544,2,0,P|295:84|368:108,1,120
432,176,68925,1,0,0:0:0:0:
160,284,69068,6,0,L|188:264,1,30
184,266,69163,6,0,L|212:286,1,30
208,283,69259,6,0,L|236:263,1,30
232,265,69354,6,0,L|260:285,1,30
388,284,69687,6,0,L|428:312,1,30
256,52,69878,2,0,L|256:12,1,30
224,336,70068,2,0,L|180:352,1,30
440,128,70259,6,0,L|460:156,1,30
458,152,70354,6,0,L|438:180,1,30
441,176,70450,6,0,L|461:204,1,30
459,200,70545,6,0,L|439:228,1,30
256,192,71021,12,0,72545,0:0:0:0:
80,264,72927,5,0,0:0:0:0:
160,72,73117,1,0,0:0:0:0:
332,56,73308,2,0,L|364:56,4,30
128,264,73689,1,0,0:0:0:0:
184,64,73879,1,0,0:0:0:0:
304,260,74070,1,0,0:0:0:0:
440,52,74260,1,0,0:0:0:0:
304,260,74451,1,0,0:0:0:0:
128,56,74641,1,0,0:0:0:0:
304,260,74832,5,0,0:0:0:0:
468,344,75022,1,0,0:0:0:0:
296,264,75213,2,0,L|264:240,1,30
40,112,75403,2,0,L|64:144,1,30
416,120,75594,2,0,L|448:124,4,30
96,272,75975,5,0,0:0:0:0:
252,320,76166,1,0,0:0:0:0:
108,148,76356,1,0,0:0:0:0:
252,320,76547,1,0,0:0:0:0:
164,32,76737,1,0,0:0:0:0:
252,320,76928,1,0,0:0:0:0:
212,160,77118,1,0,0:0:0:0:
252,320,77309,1,0,0:0:0:0:
336,36,77499,1,0,0:0:0:0:
252,320,77690,5,0,0:0:0:0:
372,200,77880,1,0,0:0:0:0:
112,52,78071,1,0,0:0:0:0:
160,312,78262,1,0,0:0:0:0:
448,308,78452,1,0,0:0:0:0:
416,120,78643,2,0,L|448:124,4,30
32,80,79024,5,0,0:0:0:0:
124,48,79215,1,0,0:0:0:0:
68,160,79405,1,0,0:0:0:0:
244,48,79596,1,0,0:0:0:0:
60,272,79786,1,0,0:0:0:0:
388,64,79977,1,0,0:0:0:0:
124,344,80167,1,0,0:0:0:0:
480,140,80357,5,0,0:0:0:0:
68,240,80548,1,0,0:0:0:0:
344,28,80739,1,0,0:0:0:0:
392,344,80929,1,0,0:0:0:0:
40,84,81120,1,0,0:0:0:0:
144,344,81310,1,0,0:0:0:0:
324,44,81501,1,0,0:0:0:0:
416,120,81691,6,0,L|448:124,4,30
256,192,82072,5,0,0:0:0:0:
176,192,82262,1,0,0:0:0:0:
328,192,82453,1,0,0:0:0:0:
108,192,82643,1,0,0:0:0:0:
392,192,82834,1,0,0:0:0:0:
40,192,83024,1,0,0:0:0:0:
468,192,83215,1,0,0:0:0:0:
256,348,83405,5,0,0:0:0:0:
252,32,83597,1,0,0:0:0:0:
28,188,83787,1,0,0:0:0:0:
476,192,83978,1,0,0:0:0:0:
40,40,84168,1,0,0:0:0:0:
468,340,84358,1,0,0:0:0:0:
468,32,84549,1,0,0:0:0:0:
448,232,84740,2,0,L|396:224,4,30
256,192,85121,12,0,85693,0:0:0:0:
476,272,85883,5,0,0:0:0:0:
464,236,85978,1,0,0:0:0:0:
444,216,86074,2,0,B|420:160|420:160|340:160|384:212|384:212|284:216|272:188,1,251.999992309571
290,203,86455,2,0,B|285:191|234:183|182:115|278:151|266:114|250:139|290:247|134:159|122:219,1,240
280,36,87407,5,0,0:0:0:0:
312,32,87502,1,0,0:0:0:0:
336,36,87598,2,0,B|416:104|416:104|408:212|400:108|372:152|460:164|316:168,1,251.999992309571
319,164,87979,2,0,B|326:199|416:216|356:284|388:316|352:248|460:260|268:268,1,240
392,296,89122,5,0,0:0:0:0:
260,340,89313,1,0,0:0:0:0:
152,312,89503,1,0,0:0:0:0:
120,168,89694,1,0,0:0:0:0:
256,68,89885,1,0,0:0:0:0:
396,120,90075,1,0,0:0:0:0:
436,308,90265,1,0,0:0:0:0:
448,68,90456,1,0,0:0:0:0:
136,60,90647,1,0,0:0:0:0:
368,328,90837,1,0,0:0:0:0:
112,320,91028,1,0,0:0:0:0:
400,72,91218,1,0,0:0:0:0:
420,260,91409,2,0,L|388:264,4,30
92,264,91980,5,0,0:0:0:0:
96,228,92075,1,0,0:0:0:0:
96,200,92171,2,0,B|160:192|160:192|176:144|208:48|184:200|192:124|252:200|304:128,1,251.999992309571
288,144,92552,2,0,B|408:228|408:228|395:189|359:285,1,240
192,288,93505,5,0,0:0:0:0:
420,60,93695,1,0,0:0:0:0:
332,340,93886,1,0,0:0:0:0:
464,216,94076,2,0,B|416:212|416:212|384:240|400:252,1,96
472,200,95029,5,0,0:0:0:0:
296,336,95220,1,0,0:0:0:0:
72,244,95410,1,0,0:0:0:0:
424,224,95601,1,0,0:0:0:0:
64,148,95791,1,0,0:0:0:0:
416,80,95982,1,0,0:0:0:0:
60,36,96172,1,0,0:0:0:0:
376,272,96363,1,0,0:0:0:0:
284,96,96553,1,0,0:0:0:0:
196,288,96744,1,0,0:0:0:0:
80,216,96934,1,0,0:0:0:0:
284,96,97125,1,0,0:0:0:0:
420,232,97316,2,0,L|284:236,1,120
232,192,97696,6,0,L|280:192,5,30
76,244,98458,6,0,L|96:284,5,30
408,72,99221,6,0,L|416:40,5,30
408,300,99983,6,0,L|440:332,5,30
284,336,100745,5,0,0:0:0:0:
318,324,100840,1,0,0:0:0:0:
348,304,100935,1,0,0:0:0:0:
372,277,101030,1,0,0:0:0:0:
389,246,101126,1,0,0:0:0:0:
398,211,101221,1,0,0:0:0:0:
399,175,101316,1,0,0:0:0:0:
391,140,101411,1,0,0:0:0:0:
375,108,101507,1,0,0:0:0:0:
352,80,101602,1,0,0:0:0:0:
323,59,101697,5,0,0:0:0:0:
289,46,101792,1,0,0:0:0:0:
254,40,101888,1,0,0:0:0:0:
218,43,101983,1,0,0:0:0:0:
184,55,102078,1,0,0:0:0:0:
154,74,102174,1,0,0:0:0:0:
129,100,102269,1,0,0:0:0:0:
111,131,102364,1,0,0:0:0:0:
101,166,102459,1,0,0:0:0:0:
99,202,102555,1,0,0:0:0:0:
106,237,102650,1,0,0:0:0:0:
122,270,102745,1,0,0:0:0:0:
144,298,102840,1,0,0:0:0:0:
172,319,102936,1,0,0:0:0:0:
205,334,103031,1,0,0:0:0:0:
256,192,103793,5,0,0:0:0:0:
256,192,103983,1,0,0:0:0:0:
256,192,104174,1,0,0:0:0:0:
256,0,104364,1,0,0:0:0:0:
168,8,104555,1,0,0:0:0:0:
112,64,104745,1,0,0:0:0:0:
88,144,104936,1,0,0:0:0:0:
352,36,105126,1,0,0:0:0:0:
256,0,105317,1,0,0:0:0:0:
256,196,105508,6,0,L|256:228,1,30
256,196,105603,6,0,L|280:232,1,30
256,196,105698,6,0,L|296:192,1,30
256,196,105794,6,0,L|284:160,1,30
256,196,105889,6,0,L|256:156,1,30
256,196,105984,6,0,L|220:196,1,30
124,288,106460,5,0,0:0:0:0:
204,340,106651,1,0,0:0:0:0:
292,328,106842,6,0,L|298:294,1,30
298,299,106937,6,0,L|297:253,1,30
305,278,107032,6,0,L|306:232,1,30
305,248,107127,6,0,L|291:196,1,30
297,219,107223,6,0,L|276:166,1,30
248,8,107603,5,0,0:0:0:0:
184,348,107794,1,0,0:0:0:0:
140,24,107985,1,0,0:0:0:0:
388,252,108175,1,0,0:0:0:0:
120,264,108366,1,0,0:0:0:0:
352,72,108556,1,0,0:0:0:0:
224,336,108747,1,0,0:0:0:0:
124,40,108937,1,0,0:0:0:0:
344,324,109128,1,0,0:0:0:0:
352,56,109318,1,0,0:0:0:0:
120,196,109509,1,0,0:0:0:0:
392,188,109699,1,0,0:0:0:0:
240,92,109890,6,0,L|240:124,1,30
240,128,109986,6,0,L|240:164,1,30
240,168,110081,6,0,L|240:218,1,30
240,208,110176,6,0,L|240:248,1,30
240,244,110271,6,0,L|240:300,1,30
256,196,110652,6,0,L|220:196,1,30
388,8,110842,1,0,0:0:0:0:
252,4,111033,5,0,0:0:0:0:
152,24,111224,1,0,0:0:0:0:
104,100,111414,1,0,0:0:0:0:
320,128,111605,6,0,L|296:100,1,30
320,128,111700,6,0,L|340:156,1,30
320,128,111796,6,0,L|360:104,1,30
320,128,111891,6,0,L|288:144,1,30
320,128,111986,6,0,L|352:112,1,30
320,128,112081,6,0,L|324:172,1,30
384,52,112367,1,0,0:0:0:0:
308,304,112557,1,0,0:0:0:0:
276,24,112748,1,0,0:0:0:0:
168,32,112939,6,0,L|148:56,1,30
148,64,113034,6,0,L|148:96,1,30
152,104,113129,6,0,L|176:124,1,30
184,128,113225,6,0,L|208:108,1,30
136,264,113510,5,0,0:0:0:0:
368,252,113701,1,0,0:0:0:0:
368,364,113891,1,0,0:0:0:0:
152,360,114082,1,0,0:0:0:0:
256,192,114463,12,0,115225,0:0:0:0:
136,48,128182,5,2,0:0:0:0:
240,112,128277,1,2,0:0:0:0:
112,176,128373,1,2,0:0:0:0:
240,240,128468,1,2,0:0:0:0:
120,296,128563,1,2,0:0:0:0:
256,336,128658,5,2,0:0:0:0:
396,260,128754,1,2,0:0:0:0:
176,224,128849,1,2,0:0:0:0:
356,168,128944,1,2,0:0:0:0:
192,72,129040,1,2,0:0:0:0:
240,200,129135,5,2,0:0:0:0:
372,80,129230,1,2,0:0:0:0:
148,120,129325,1,2,0:0:0:0:
184,284,129421,1,2,0:0:0:0:
296,92,129516,1,2,0:0:0:0:
356,260,129611,5,2,0:0:0:0:
208,140,129706,1,2,0:0:0:0:
200,272,129802,1,2,0:0:0:0:
336,148,129897,1,2,0:0:0:0:
404,304,129992,1,2,0:0:0:0:
188,268,130088,5,2,0:0:0:0:
144,96,130183,1,2,0:0:0:0:
188,268,130278,1,2,0:0:0:0:
52,336,130373,1,2,0:0:0:0:
64,136,130469,1,2,0:0:0:0:
192,80,130564,5,2,0:0:0:0:
332,112,130659,1,2,0:0:0:0:
404,184,130754,1,2,0:0:0:0:
400,312,130850,1,2,0:0:0:0:
292,308,130945,1,2,0:0:0:0:
248,200,131040,5,2,0:0:0:0:
136,284,131135,1,2,0:0:0:0:
160,216,131231,5,4,0:0:0:0:
96,140,131326,1,4,0:0:0:0:
80,212,131421,1,4,0:0:0:0:
96,284,131517,1,4,0:0:0:0:
164,312,131612,1,4,0:0:0:0:
268,324,131707,2,8,B|396:276|396:276|288:216|400:188|356:56|236:40,1,420
144,60,132755,5,4,0:0:0:0:
300,112,132850,1,4,0:0:0:0:
152,164,132945,1,4,0:0:0:0:
332,196,133041,1,4,0:0:0:0:
148,264,133136,1,4,0:0:0:0:
216,152,133231,2,8,B|332:172|332:172|388:316|184:228|136:352,1,420
256,200,140376,5,0,0:0:0:0:
440,284,140567,1,0,0:0:0:0:
404,112,140758,1,0,0:0:0:0:
100,80,140948,1,0,0:0:0:0:
92,256,141139,1,0,0:0:0:0:
204,308,141329,1,0,0:0:0:0:
292,108,141520,1,0,0:0:0:0:
168,136,141710,5,0,0:0:0:0:
244,208,141901,1,0,0:0:0:0:
168,136,142091,1,0,0:0:0:0:
196,296,142282,1,0,0:0:0:0:
168,136,142472,1,0,0:0:0:0:
340,288,142663,1,0,0:0:0:0:
168,136,142853,1,0,0:0:0:0:
380,112,143044,5,0,0:0:0:0:
148,156,143235,1,0,0:0:0:0:
256,128,143425,6,0,L|296:148,1,30
256,128,143520,2,0,L|208:144,1,30
256,128,143616,6,0,L|296:148,1,30
256,128,143711,2,0,L|208:144,1,30
196,296,143997,1,0,0:0:0:0:
172,156,144187,1,0,0:0:0:0:
340,288,144378,1,0,0:0:0:0:
112,192,144568,1,0,0:0:0:0:
140,56,144759,1,0,0:0:0:0:
256,128,144949,6,0,L|296:148,1,30
256,128,145044,2,0,L|208:144,1,30
256,128,145140,6,0,L|296:148,1,30
256,128,145235,2,0,L|208:144,1,30
28,264,149522,5,0,0:0:0:0:
74,226,149617,1,0,0:0:0:0:
127,197,149712,1,0,0:0:0:0:
182,175,149807,1,0,0:0:0:0:
241,162,149903,1,0,0:0:0:0:
301,160,149998,1,0,0:0:0:0:
359,174,150093,1,0,0:0:0:0:
408,208,150188,1,0,0:0:0:0:
437,260,150284,1,0,0:0:0:0:
420,291,150379,5,0,0:0:0:0:
367,264,150474,1,0,0:0:0:0:
328,219,150569,1,0,0:0:0:0:
293,170,150665,1,0,0:0:0:0:
251,127,150760,1,0,0:0:0:0:
200,96,150855,1,0,0:0:0:0:
144,73,150951,1,0,0:0:0:0:
93,43,151046,1,0,0:0:0:0:
92,86,151141,5,0,0:0:0:0:
102,145,151236,1,0,0:0:0:0:
119,203,151332,1,0,0:0:0:0:
143,258,151427,1,0,0:0:0:0:
178,306,151522,1,0,0:0:0:0:
225,343,151617,1,0,0:0:0:0:
284,338,151713,1,0,0:0:0:0:
341,318,151808,1,0,0:0:0:0:
389,283,151903,1,0,0:0:0:0:
421,232,151998,1,0,0:0:0:0:
431,174,152094,1,0,0:0:0:0:
417,116,152189,1,0,0:0:0:0:
378,71,152284,1,0,0:0:0:0:
323,47,152380,1,0,0:0:0:0:
263,41,152475,1,0,0:0:0:0:
256,192,152571,12,0,155619,0:0:0:0:
