osu file format v14

[General]
AudioFilename: audio.mp3
AudioLeadIn: 0
PreviewTime: 44818
Countdown: 0
SampleSet: Normal
StackLeniency: 0.7
Mode: 1
LetterboxInBreaks: 0
WidescreenStoryboard: 0

[Editor]
Bookmarks: 12405,23439,34473,45508,51025,56542,67577,78611,89646,111715,122749,133784,144818,155853,166887,177922
DistanceSpacing: 1
BeatDivisor: 4
GridSize: 32
TimelineZoom: 2.2

[Metadata]
Title:Come and Get it
TitleUnicode:Come and Get it
Artist:Krewella
ArtistUnicode:Krewella
Creator:gaston_2199
Version:Oni
Source:
Tags:dnb drum and bass
BeatmapID:1932772
BeatmapSetID:925263

[Difficulty]
HPDrainRate:6
CircleSize:2
OverallDifficulty:6
ApproachRate:10
SliderMultiplier:1.4
SliderTickRate:1

[Events]
//Background and Video events
0,0,"BG.jpg",0,-130
//Break Periods
2,100880,111265
//Storyboard Layer 0 (Background)
//Storyboard Layer 1 (Fail)
//Storyboard Layer 2 (Pass)
//Storyboard Layer 3 (Foreground)
//Storyboard Layer 4 (Overlay)
//Storyboard Sound Samples

[TimingPoints]
12405,344.827586206897,4,1,0,80,1,0
12405,-133.333333333333,4,1,0,80,0,0
14129,-131.578947368421,4,1,0,80,0,0
14646,-129.87012987013,4,1,0,80,0,0
14818,-128.205128205128,4,1,0,80,0,0
14991,-126.582278481013,4,1,0,80,0,0
15163,-125,4,1,0,80,0,0
16887,-123.456790123457,4,1,0,80,0,0
17405,-121.951219512195,4,1,0,80,0,0
17577,-120.481927710843,4,1,0,80,0,0
17749,-119.047619047619,4,1,0,80,0,0
17922,-117.647058823529,4,1,0,80,0,0
19991,-116.279069767442,4,1,0,80,0,0
20163,-114.942528735632,4,1,0,80,0,0
20336,-113.636363636364,4,1,0,80,0,0
20508,-112.359550561798,4,1,0,80,0,0
20680,-111.111111111111,4,1,0,80,0,0
21025,-109.89010989011,4,1,0,80,0,0
21370,-108.695652173913,4,1,0,80,0,0
21542,-106.382978723404,4,1,0,80,0,0
21715,-104.166666666667,4,1,0,80,0,0
21887,-102.040816326531,4,1,0,80,0,0
22060,-100,4,1,0,80,0,0
45508,-100,4,1,0,80,0,1
67577,-100,4,1,0,80,0,0
89646,-100,4,1,0,80,0,1
100680,-100,4,1,0,80,0,0
111715,-142.857142857143,4,1,0,80,0,0
122749,-133.333333333333,4,1,0,80,0,0
124646,-129.87012987013,4,1,0,80,0,0
124818,-126.582278481013,4,1,0,80,0,0
125163,-125,4,1,0,80,0,0
125336,-123.456790123457,4,1,0,80,0,0
125422,-121.951219512195,4,1,0,80,0,0
125508,-120.481927710843,4,1,0,80,0,0
127405,-117.647058823529,4,1,0,80,0,0
127577,-114.942528735632,4,1,0,80,0,0
127922,-113.636363636364,4,1,0,80,0,0
128094,-112.359550561798,4,1,0,80,0,0
128180,-111.111111111111,4,1,0,80,0,0
128267,-109.89010989011,4,1,0,80,0,0
128611,-108.695652173913,4,1,0,80,0,0
128956,-107.52688172043,4,1,0,80,0,0
129301,-106.382978723404,4,1,0,80,0,0
129473,-105.263157894737,4,1,0,80,0,0
129646,-104.166666666667,4,1,0,80,0,0
129991,-103.092783505155,4,1,0,80,0,0
130336,-102.040816326531,4,1,0,80,0,0
130680,-101.010101010101,4,1,0,80,0,0
130853,-100,4,1,0,80,0,0
155853,-100,4,1,0,80,0,1
175163,-100,4,1,0,80,0,0
177922,-133.333333333333,4,1,0,80,0,0

[HitObjects]
256,192,12405,5,0,0:0:0:0:
256,192,12749,1,8,0:0:0:0:
256,192,13267,1,0,0:0:0:0:
256,192,13439,1,8,0:0:0:0:
256,192,14129,1,8,0:0:0:0:
256,192,14818,1,8,0:0:0:0:
256,192,14991,1,0,0:0:0:0:
256,192,15163,1,0,0:0:0:0:
256,192,15508,1,8,0:0:0:0:
256,192,16025,1,0,0:0:0:0:
256,192,16198,1,8,0:0:0:0:
256,192,16887,1,8,0:0:0:0:
256,192,17577,1,8,0:0:0:0:
256,192,17749,1,8,0:0:0:0:
256,192,17922,1,0,0:0:0:0:
256,192,18267,1,8,0:0:0:0:
256,192,18611,1,0,0:0:0:0:
256,192,18784,1,0,0:0:0:0:
256,192,18956,1,8,0:0:0:0:
256,192,19301,1,0,0:0:0:0:
256,192,19646,1,8,0:0:0:0:
256,192,20163,1,0,0:0:0:0:
256,192,20336,1,8,0:0:0:0:
256,192,20508,1,8,0:0:0:0:
256,192,20680,1,0,0:0:0:0:
256,192,21025,1,8,0:0:0:0:
256,192,21198,1,0,0:0:0:0:
256,192,21542,1,0,0:0:0:0:
256,192,21715,1,8,0:0:0:0:
256,192,21887,1,0,0:0:0:0:
256,192,22060,1,8,0:0:0:0:
256,192,22146,1,0,0:0:0:0:
256,192,22232,1,8,0:0:0:0:
256,192,22318,1,8,0:0:0:0:
256,192,22405,1,0,0:0:0:0:
256,192,22491,1,0,0:0:0:0:
256,192,22577,1,8,0:0:0:0:
256,192,22663,1,0,0:0:0:0:
256,192,22749,1,8,0:0:0:0:
256,192,22836,1,8,0:0:0:0:
256,192,22922,1,8,0:0:0:0:
256,192,23008,1,0,0:0:0:0:
256,192,23094,1,8,0:0:0:0:
256,192,23180,1,8,0:0:0:0:
256,192,23267,1,0,0:0:0:0:
256,192,23439,1,12,0:0:0:0:
256,192,23784,1,8,0:0:0:0:
256,192,23956,1,0,0:0:0:0:
276,166,24042,1,8,0:0:0:0:
256,192,24129,1,0,0:0:0:0:
256,192,24301,1,0,0:0:0:0:
256,192,24473,1,8,0:0:0:0:
256,192,24646,1,0,0:0:0:0:
256,192,24732,1,0,0:0:0:0:
256,192,24818,1,8,0:0:0:0:
256,192,24905,1,8,0:0:0:0:
256,192,24991,1,0,0:0:0:0:
256,192,25163,1,8,0:0:0:0:
256,192,25336,1,0,0:0:0:0:
256,192,25508,1,8,0:0:0:0:
256,192,25594,1,8,0:0:0:0:
256,192,25680,1,0,0:0:0:0:
256,192,25853,1,8,0:0:0:0:
256,192,26025,1,0,0:0:0:0:
256,192,26198,1,0,0:0:0:0:
256,192,26284,1,0,0:0:0:0:
256,192,26370,1,0,0:0:0:0:
256,192,26542,1,8,0:0:0:0:
256,192,26715,1,0,0:0:0:0:
256,192,26801,1,0,0:0:0:0:
256,192,26887,1,8,0:0:0:0:
256,192,27060,1,0,0:0:0:0:
256,192,27232,1,8,0:0:0:0:
256,192,27318,1,0,0:0:0:0:
256,192,27405,1,8,0:0:0:0:
256,192,27491,1,8,0:0:0:0:
256,192,27577,1,0,0:0:0:0:
256,192,27749,1,0,0:0:0:0:
256,192,27922,1,8,0:0:0:0:
256,192,28094,1,0,0:0:0:0:
256,192,28439,1,0,0:0:0:0:
256,192,28611,1,8,0:0:0:0:
256,192,28784,1,0,0:0:0:0:
256,192,28870,1,0,0:0:0:0:
256,192,28956,1,8,0:0:0:0:
256,192,29042,1,0,0:0:0:0:
256,192,29129,1,0,0:0:0:0:
256,192,29301,1,8,0:0:0:0:
256,192,29473,1,8,0:0:0:0:
256,192,29560,1,8,0:0:0:0:
256,192,29646,1,0,0:0:0:0:
256,192,29818,1,0,0:0:0:0:
256,192,29991,1,8,0:0:0:0:
256,192,30163,1,0,0:0:0:0:
256,192,30249,1,0,0:0:0:0:
256,192,30336,1,8,0:0:0:0:
252,197,30422,1,8,0:0:0:0:
256,192,30508,1,8,0:0:0:0:
256,192,30680,1,8,0:0:0:0:
256,192,30853,1,0,0:0:0:0:
256,192,31025,1,8,0:0:0:0:
256,192,31111,1,8,0:0:0:0:
256,192,31198,1,0,0:0:0:0:
256,192,31370,1,8,0:0:0:0:
256,192,31542,1,0,0:0:0:0:
256,192,31629,1,0,0:0:0:0:
256,192,31715,1,8,0:0:0:0:
256,192,31887,1,8,0:0:0:0:
256,192,32060,1,8,0:0:0:0:
256,192,32232,1,8,0:0:0:0:
256,192,32405,1,8,0:0:0:0:
256,192,32577,1,8,0:0:0:0:
256,192,32749,1,8,0:0:0:0:
256,192,32922,1,8,0:0:0:0:
256,192,33094,1,8,0:0:0:0:
256,192,33180,1,8,0:0:0:0:
256,192,33267,1,8,0:0:0:0:
256,192,33353,1,0,0:0:0:0:
256,192,33439,1,8,0:0:0:0:
256,192,33525,1,8,0:0:0:0:
256,192,33611,1,0,0:0:0:0:
256,192,33698,1,0,0:0:0:0:
256,192,33784,1,8,0:0:0:0:
256,192,33956,1,0,0:0:0:0:
256,192,34129,1,8,0:0:0:0:
256,192,34301,1,8,0:0:0:0:
256,192,34473,1,4,0:0:0:0:
256,192,34818,1,8,0:0:0:0:
256,192,34991,1,0,0:0:0:0:
256,192,35336,1,0,0:0:0:0:
256,192,35508,1,8,0:0:0:0:
256,192,35680,1,8,0:0:0:0:
256,192,35767,1,8,0:0:0:0:
256,192,35853,1,0,0:0:0:0:
256,192,36025,1,0,0:0:0:0:
256,192,36198,1,8,0:0:0:0:
256,192,36370,1,0,0:0:0:0:
256,192,36715,1,0,0:0:0:0:
256,192,36887,1,8,0:0:0:0:
256,160,37060,1,0,0:0:0:0:
256,192,37232,1,0,0:0:0:0:
256,192,37577,1,8,0:0:0:0:
256,192,37749,1,0,0:0:0:0:
256,192,38094,1,0,0:0:0:0:
256,192,38267,1,8,0:0:0:0:
256,192,38439,1,0,0:0:0:0:
256,192,38525,1,8,0:0:0:0:
256,192,38611,1,0,0:0:0:0:
256,192,38784,1,0,0:0:0:0:
256,192,38956,1,8,0:0:0:0:
256,192,39129,1,0,0:0:0:0:
256,192,39473,1,0,0:0:0:0:
256,192,39646,1,8,0:0:0:0:
256,192,39818,1,0,0:0:0:0:
256,160,39905,1,0,0:0:0:0:
256,192,39991,1,0,0:0:0:0:
256,192,40336,1,8,0:0:0:0:
256,192,40508,1,0,0:0:0:0:
256,192,40853,1,0,0:0:0:0:
256,192,41025,1,8,0:0:0:0:
256,192,41198,1,8,0:0:0:0:
256,192,41284,1,8,0:0:0:0:
256,192,41370,1,0,0:0:0:0:
256,192,41542,1,0,0:0:0:0:
256,192,41715,1,8,0:0:0:0:
256,192,41887,1,0,0:0:0:0:
256,192,42232,1,0,0:0:0:0:
256,192,42405,1,8,0:0:0:0:
256,160,42577,1,0,0:0:0:0:
256,192,42749,1,8,0:0:0:0:
256,160,42836,1,0,0:0:0:0:
256,192,42922,1,0,0:0:0:0:
256,192,43094,1,8,0:0:0:0:
256,192,43267,1,0,0:0:0:0:
256,160,43353,1,0,0:0:0:0:
256,160,43439,1,8,0:0:0:0:
256,160,43525,1,8,0:0:0:0:
256,160,43611,1,0,0:0:0:0:
260,183,43698,1,0,0:0:0:0:
256,160,43784,1,8,0:0:0:0:
256,192,43956,1,0,0:0:0:0:
256,160,44129,1,8,0:0:0:0:
256,192,44215,1,8,0:0:0:0:
256,160,44301,1,8,0:0:0:0:
256,160,44387,1,0,0:0:0:0:
256,160,44473,1,8,0:0:0:0:
256,160,44560,1,8,0:0:0:0:
256,160,44646,1,0,0:0:0:0:
256,160,44732,1,0,0:0:0:0:
256,192,44818,1,8,0:0:0:0:
256,192,44991,1,0,0:0:0:0:
256,192,45163,1,8,0:0:0:0:
256,192,45336,1,8,0:0:0:0:
256,192,45508,1,4,0:0:0:0:
256,192,45853,1,8,0:0:0:0:
256,192,46025,1,0,0:0:0:0:
256,192,46198,1,8,0:0:0:0:
256,192,46284,1,0,0:0:0:0:
256,192,46370,1,8,0:0:0:0:
256,192,46542,1,0,0:0:0:0:
256,192,46715,1,0,0:0:0:0:
256,192,46887,1,8,0:0:0:0:
256,192,47060,1,0,0:0:0:0:
256,192,47146,1,0,0:0:0:0:
256,192,47232,1,8,0:0:0:0:
256,192,47405,1,8,0:0:0:0:
256,192,47577,1,8,0:0:0:0:
256,192,47749,1,0,0:0:0:0:
256,192,47922,1,8,0:0:0:0:
261,158,48008,1,0,0:0:0:0:
256,192,48094,1,8,0:0:0:0:
256,192,48267,1,4,0:0:0:0:
256,192,48611,1,8,0:0:0:0:
256,192,48784,1,0,0:0:0:0:
256,192,48870,1,0,0:0:0:0:
256,192,48956,1,8,0:0:0:0:
256,192,49129,1,0,0:0:0:0:
256,192,49301,1,8,0:0:0:0:
256,192,49473,1,8,0:0:0:0:
256,192,49560,1,0,0:0:0:0:
256,192,49646,1,0,0:0:0:0:
256,192,49991,1,8,0:0:0:0:
256,192,50163,1,0,0:0:0:0:
256,192,50508,1,0,0:0:0:0:
256,192,50680,1,8,0:0:0:0:
256,192,50853,1,8,0:0:0:0:
256,192,51025,1,4,0:0:0:0:
256,192,51370,1,8,0:0:0:0:
256,192,51542,1,0,0:0:0:0:
272,173,51629,1,0,0:0:0:0:
256,192,51715,1,8,0:0:0:0:
256,192,51887,1,8,0:0:0:0:
256,192,52060,1,0,0:0:0:0:
256,192,52232,1,0,0:0:0:0:
256,192,52405,1,8,0:0:0:0:
256,192,52577,1,0,0:0:0:0:
256,192,52749,1,8,0:0:0:0:
256,192,52922,1,8,0:0:0:0:
256,192,53008,1,0,0:0:0:0:
256,192,53094,1,8,0:0:0:0:
256,192,53267,1,0,0:0:0:0:
256,192,53439,1,8,0:0:0:0:
256,192,53611,1,0,0:0:0:0:
228,133,53698,1,0,0:0:0:0:
256,192,53784,1,8,0:0:0:0:
256,192,53870,1,8,0:0:0:0:
256,192,53956,1,8,0:0:0:0:
256,192,54042,1,0,0:0:0:0:
256,192,54129,1,8,0:0:0:0:
256,192,54215,1,8,0:0:0:0:
256,192,54301,1,0,0:0:0:0:
256,192,54387,1,0,0:0:0:0:
256,192,54473,1,8,0:0:0:0:
256,192,54732,1,0,0:0:0:0:
256,192,54991,1,0,0:0:0:0:
256,192,55163,1,8,0:0:0:0:
256,192,55249,1,8,0:0:0:0:
256,192,55422,1,0,0:0:0:0:
256,192,55508,1,0,0:0:0:0:
256,192,55680,1,0,0:0:0:0:
256,192,55853,1,8,0:0:0:0:
256,192,56025,1,0,0:0:0:0:
256,192,56198,1,8,0:0:0:0:
256,192,56370,1,8,0:0:0:0:
256,192,56542,1,4,0:0:0:0:
256,192,56887,1,8,0:0:0:0:
256,192,57060,1,0,0:0:0:0:
256,192,57232,1,8,0:0:0:0:
256,192,57318,1,0,0:0:0:0:
256,192,57405,1,8,0:0:0:0:
256,192,57577,1,8,0:0:0:0:
270,166,57663,1,8,0:0:0:0:
256,192,57749,1,0,0:0:0:0:
259,179,57836,1,0,0:0:0:0:
256,192,57922,1,8,0:0:0:0:
256,192,58094,1,0,0:0:0:0:
256,192,58180,1,0,0:0:0:0:
256,192,58267,1,8,0:0:0:0:
256,192,58439,1,8,0:0:0:0:
256,192,58611,1,8,0:0:0:0:
256,192,58784,1,0,0:0:0:0:
256,192,58956,1,8,0:0:0:0:
256,192,59129,1,0,0:0:0:0:
256,192,59301,1,4,0:0:0:0:
256,192,59646,1,8,0:0:0:0:
256,192,59818,1,0,0:0:0:0:
262,174,59905,1,8,0:0:0:0:
256,192,59991,1,0,0:0:0:0:
256,192,60163,1,0,0:0:0:0:
256,192,60336,1,8,0:0:0:0:
256,192,60508,1,0,0:0:0:0:
256,192,60594,1,0,0:0:0:0:
256,192,60680,1,0,0:0:0:0:
256,192,61025,1,8,0:0:0:0:
256,192,61198,1,0,0:0:0:0:
256,192,61542,1,0,0:0:0:0:
276,176,61629,1,0,0:0:0:0:
256,192,61715,1,8,0:0:0:0:
256,192,61887,1,8,0:0:0:0:
256,192,62060,1,4,0:0:0:0:
256,192,62405,1,8,0:0:0:0:
256,192,62577,1,0,0:0:0:0:
272,173,62663,1,0,0:0:0:0:
256,192,62749,1,8,0:0:0:0:
256,192,62922,1,8,0:0:0:0:
256,192,63094,1,8,0:0:0:0:
279,170,63180,1,8,0:0:0:0:
256,192,63267,1,0,0:0:0:0:
286,175,63353,1,0,0:0:0:0:
256,192,63439,1,8,0:0:0:0:
256,192,63611,1,0,0:0:0:0:
256,192,63784,1,8,0:0:0:0:
256,192,63956,1,8,0:0:0:0:
256,192,64042,1,0,0:0:0:0:
256,192,64129,1,8,0:0:0:0:
256,192,64301,1,0,0:0:0:0:
256,192,64473,1,8,0:0:0:0:
256,192,64646,1,0,0:0:0:0:
256,192,64818,1,0,0:0:0:0:
256,192,65163,1,8,0:0:0:0:
256,192,65336,1,0,0:0:0:0:
256,192,65680,1,0,0:0:0:0:
256,192,65853,1,8,0:0:0:0:
268,162,66025,1,0,0:0:0:0:
256,192,66198,1,8,0:0:0:0:
256,192,66284,1,8,0:0:0:0:
267,163,66370,1,8,0:0:0:0:
267,163,66456,1,0,0:0:0:0:
267,163,66542,1,8,0:0:0:0:
267,163,66629,1,8,0:0:0:0:
256,192,66715,1,0,0:0:0:0:
267,163,66801,1,0,0:0:0:0:
256,192,66887,1,8,0:0:0:0:
256,192,67060,1,0,0:0:0:0:
256,192,67232,1,8,0:0:0:0:
256,192,67405,5,8,0:0:0:0:
256,192,67577,1,4,0:0:0:0:
256,192,67922,1,8,0:0:0:0:
256,192,68094,1,0,0:0:0:0:
256,192,68180,1,0,0:0:0:0:
256,192,68267,1,8,0:0:0:0:
256,192,68439,1,0,0:0:0:0:
256,192,68611,1,8,0:0:0:0:
256,192,68784,1,0,0:0:0:0:
256,192,69129,1,0,0:0:0:0:
256,192,69301,1,8,0:0:0:0:
248,196,69473,1,8,0:0:0:0:
256,192,69560,1,0,0:0:0:0:
256,192,69646,1,8,0:0:0:0:
256,192,69818,1,0,0:0:0:0:
256,192,69991,1,8,0:0:0:0:
256,192,70163,1,0,0:0:0:0:
256,192,70336,1,8,0:0:0:0:
256,192,70508,1,0,0:0:0:0:
256,192,70680,1,8,0:0:0:0:
256,182,70853,1,0,0:0:0:0:
257,184,70939,1,0,0:0:0:0:
257,184,71025,1,8,0:0:0:0:
256,192,71198,1,0,0:0:0:0:
256,192,71370,1,8,0:0:0:0:
256,192,71542,1,8,0:0:0:0:
257,184,71629,1,8,0:0:0:0:
253,200,71715,1,0,0:0:0:0:
256,192,71887,1,0,0:0:0:0:
256,192,72060,1,8,0:0:0:0:
253,200,72232,1,0,0:0:0:0:
256,192,72318,1,0,0:0:0:0:
256,192,72405,1,8,0:0:0:0:
256,192,72577,1,0,0:0:0:0:
256,192,72749,1,8,0:0:0:0:
256,192,72922,1,8,0:0:0:0:
253,200,73094,1,0,0:0:0:0:
256,192,73439,1,8,0:0:0:0:
256,192,73611,1,0,0:0:0:0:
256,192,73698,1,0,0:0:0:0:
256,192,73784,1,8,0:0:0:0:
256,192,73956,1,0,0:0:0:0:
256,192,74129,1,8,0:0:0:0:
256,192,74301,1,0,0:0:0:0:
256,192,74646,1,0,0:0:0:0:
256,192,74818,1,8,0:0:0:0:
256,192,74991,1,8,0:0:0:0:
256,192,75077,1,0,0:0:0:0:
256,192,75163,1,8,0:0:0:0:
256,192,75336,1,0,0:0:0:0:
256,192,75508,1,8,0:0:0:0:
256,192,75680,1,0,0:0:0:0:
256,192,75853,1,8,0:0:0:0:
256,192,76025,1,8,0:0:0:0:
256,192,76198,1,8,0:0:0:0:
256,192,76370,1,8,0:0:0:0:
256,192,76542,1,8,0:0:0:0:
256,192,76715,1,8,0:0:0:0:
256,192,76887,1,8,0:0:0:0:
256,192,77060,1,8,0:0:0:0:
256,192,77232,1,8,0:0:0:0:
256,192,77318,1,8,0:0:0:0:
256,192,77405,1,8,0:0:0:0:
256,192,77491,1,0,0:0:0:0:
256,192,77577,1,8,0:0:0:0:
256,192,77663,1,8,0:0:0:0:
256,192,77749,1,0,0:0:0:0:
257,184,77836,1,0,0:0:0:0:
256,192,77922,1,8,0:0:0:0:
256,192,78094,1,0,0:0:0:0:
256,192,78267,1,8,0:0:0:0:
256,192,78439,1,8,0:0:0:0:
256,192,78611,1,4,0:0:0:0:
256,192,78956,1,8,0:0:0:0:
256,192,79129,1,0,0:0:0:0:
256,192,79473,1,0,0:0:0:0:
256,192,79646,1,8,0:0:0:0:
256,192,79818,1,8,0:0:0:0:
256,192,79905,1,8,0:0:0:0:
256,192,79991,1,0,0:0:0:0:
256,192,80163,1,0,0:0:0:0:
256,192,80336,1,8,0:0:0:0:
256,192,80508,1,0,0:0:0:0:
256,192,80853,1,0,0:0:0:0:
256,192,81025,1,8,0:0:0:0:
256,160,81198,1,0,0:0:0:0:
256,192,81370,1,0,0:0:0:0:
256,192,81715,1,8,0:0:0:0:
256,192,81887,1,0,0:0:0:0:
256,192,82232,1,0,0:0:0:0:
256,192,82405,1,8,0:0:0:0:
256,192,82577,1,0,0:0:0:0:
256,192,82663,1,8,0:0:0:0:
256,192,82749,1,0,0:0:0:0:
256,192,82922,1,0,0:0:0:0:
256,192,83094,1,8,0:0:0:0:
256,192,83267,1,0,0:0:0:0:
256,192,83611,1,0,0:0:0:0:
256,192,83784,1,8,0:0:0:0:
256,192,83956,1,0,0:0:0:0:
256,160,84042,1,0,0:0:0:0:
256,192,84129,1,0,0:0:0:0:
256,192,84473,1,8,0:0:0:0:
256,192,84646,1,0,0:0:0:0:
256,192,84991,1,0,0:0:0:0:
256,192,85163,1,8,0:0:0:0:
256,192,85336,1,8,0:0:0:0:
256,192,85422,1,8,0:0:0:0:
256,192,85508,1,0,0:0:0:0:
256,192,85680,1,0,0:0:0:0:
256,192,85853,1,8,0:0:0:0:
256,192,86025,5,0,0:0:0:0:
256,192,86370,5,0,0:0:0:0:
256,192,86542,1,8,0:0:0:0:
256,160,86715,1,0,0:0:0:0:
256,192,86887,1,8,0:0:0:0:
256,160,86973,1,0,0:0:0:0:
256,192,87060,1,0,0:0:0:0:
256,192,87232,1,8,0:0:0:0:
256,192,87405,1,0,0:0:0:0:
256,160,87491,1,0,0:0:0:0:
256,160,87577,1,8,0:0:0:0:
256,160,87663,1,8,0:0:0:0:
256,160,87749,1,0,0:0:0:0:
259,184,87836,1,0,0:0:0:0:
256,160,87922,1,8,0:0:0:0:
256,192,88094,1,0,0:0:0:0:
256,160,88267,1,8,0:0:0:0:
256,192,88353,1,8,0:0:0:0:
256,160,88439,1,8,0:0:0:0:
256,160,88525,1,0,0:0:0:0:
256,160,88611,1,8,0:0:0:0:
256,160,88698,1,8,0:0:0:0:
256,160,88784,1,0,0:0:0:0:
256,160,88870,1,0,0:0:0:0:
256,192,88956,1,8,0:0:0:0:
256,192,89129,1,0,0:0:0:0:
256,192,89301,1,8,0:0:0:0:
256,192,89473,1,8,0:0:0:0:
256,192,89646,1,4,0:0:0:0:
256,192,89991,1,8,0:0:0:0:
256,192,90163,1,0,0:0:0:0:
256,192,90336,1,8,0:0:0:0:
256,192,90508,1,8,0:0:0:0:
256,192,90680,1,0,0:0:0:0:
256,192,90853,1,0,0:0:0:0:
256,192,91025,1,8,0:0:0:0:
248,162,91198,1,0,0:0:0:0:
256,192,91370,1,8,0:0:0:0:
256,192,91542,1,8,0:0:0:0:
256,192,91715,1,8,0:0:0:0:
256,192,91887,1,0,0:0:0:0:
256,192,92060,1,8,0:0:0:0:
256,192,92232,1,8,0:0:0:0:
256,192,92405,1,4,0:0:0:0:
256,192,92749,1,8,0:0:0:0:
256,192,92922,1,0,0:0:0:0:
256,192,93094,1,8,0:0:0:0:
256,192,93267,1,8,0:0:0:0:
256,192,93439,1,0,0:0:0:0:
256,192,93611,1,8,0:0:0:0:
256,192,93784,1,0,0:0:0:0:
256,192,94129,1,8,0:0:0:0:
256,192,94301,1,0,0:0:0:0:
256,192,94473,1,8,0:0:0:0:
256,192,94818,1,8,0:0:0:0:
256,192,95163,1,4,0:0:0:0:
256,192,95508,1,8,0:0:0:0:
256,192,95680,1,0,0:0:0:0:
256,192,95853,1,8,0:0:0:0:
256,192,96025,1,8,0:0:0:0:
256,192,96198,1,0,0:0:0:0:
256,192,96370,1,0,0:0:0:0:
256,192,96542,1,8,0:0:0:0:
256,192,96715,1,0,0:0:0:0:
256,192,96887,1,8,0:0:0:0:
256,192,97060,1,8,0:0:0:0:
256,192,97232,1,8,0:0:0:0:
256,192,97405,1,0,0:0:0:0:
256,192,97577,1,8,0:0:0:0:
256,192,97749,1,8,0:0:0:0:
256,192,97922,1,0,0:0:0:0:
256,192,98267,1,0,0:0:0:0:
256,192,98439,1,0,0:0:0:0:
256,192,98525,1,0,0:0:0:0:
256,192,98611,1,8,0:0:0:0:
252,206,98870,1,0,0:0:0:0:
256,192,99129,1,0,0:0:0:0:
256,192,99301,1,8,0:0:0:0:
256,192,99387,1,8,0:0:0:0:
256,192,99473,1,8,0:0:0:0:
256,192,99560,1,0,0:0:0:0:
256,192,99646,1,8,0:0:0:0:
256,192,99732,1,8,0:0:0:0:
256,192,99818,1,0,0:0:0:0:
256,192,99905,1,0,0:0:0:0:
256,192,99991,1,8,0:0:0:0:
256,192,100163,1,0,0:0:0:0:
256,192,100336,1,8,0:0:0:0:
256,192,100508,1,8,0:0:0:0:
256,192,100680,1,4,0:0:0:0:
256,192,111715,5,8,0:0:0:0:
256,192,113094,1,0,0:0:0:0:
256,192,114473,1,8,0:0:0:0:
256,192,115853,1,8,0:0:0:0:
256,192,117232,1,8,0:0:0:0:
256,192,118611,1,0,0:0:0:0:
256,192,119991,1,8,0:0:0:0:
256,192,121370,1,8,0:0:0:0:
256,192,122749,1,0,0:0:0:0:
256,192,123267,1,8,0:0:0:0:
256,192,123784,1,8,0:0:0:0:
256,192,124129,1,0,0:0:0:0:
256,192,124301,1,0,0:0:0:0:
256,192,124646,1,0,0:0:0:0:
256,192,124818,1,8,0:0:0:0:
256,192,125163,1,8,0:0:0:0:
256,192,125336,1,8,0:0:0:0:
256,192,125422,1,8,0:0:0:0:
256,192,125508,1,0,0:0:0:0:
256,192,126025,1,8,0:0:0:0:
256,192,126542,1,8,0:0:0:0:
256,192,126887,1,0,0:0:0:0:
256,192,127060,1,8,0:0:0:0:
256,192,127405,1,0,0:0:0:0:
256,192,127577,1,8,0:0:0:0:
256,192,127922,1,8,0:0:0:0:
256,192,128094,1,8,0:0:0:0:
256,192,128180,1,8,0:0:0:0:
256,192,128267,1,0,0:0:0:0:
256,192,128611,1,8,0:0:0:0:
256,192,128956,1,8,0:0:0:0:
256,192,129301,1,8,0:0:0:0:
256,192,129473,1,8,0:0:0:0:
256,192,129646,1,8,0:0:0:0:
256,192,129991,1,8,0:0:0:0:
256,192,130336,1,8,0:0:0:0:
256,192,130680,1,8,0:0:0:0:
256,192,130853,1,8,0:0:0:0:
256,192,131025,12,0,132405,0:0:0:0:
256,192,132922,5,0,0:0:0:0:
256,192,133094,1,8,0:0:0:0:
256,192,133267,1,0,0:0:0:0:
256,192,133439,1,8,0:0:0:0:
256,192,133611,1,8,0:0:0:0:
256,192,133784,1,4,0:0:0:0:
266,163,134129,1,0,0:0:0:0:
256,192,134473,1,8,0:0:0:0:
292,150,134818,1,0,0:0:0:0:
256,192,134991,1,8,0:0:0:0:
256,192,135163,1,0,0:0:0:0:
256,192,135508,1,0,0:0:0:0:
256,192,135853,1,8,0:0:0:0:
261,197,136025,1,8,0:0:0:0:
267,174,136198,1,0,0:0:0:0:
256,192,136370,1,8,0:0:0:0:
256,192,136542,1,0,0:0:0:0:
268,185,136887,1,0,0:0:0:0:
256,192,137232,1,8,0:0:0:0:
268,185,137577,1,0,0:0:0:0:
256,192,137749,1,8,0:0:0:0:
256,192,137922,1,0,0:0:0:0:
256,192,138267,1,0,0:0:0:0:
256,192,138611,1,8,0:0:0:0:
256,192,138784,1,0,0:0:0:0:
256,192,138956,1,8,0:0:0:0:
256,192,139129,1,8,0:0:0:0:
256,192,139301,1,4,0:0:0:0:
272,178,139646,1,0,0:0:0:0:
256,192,139991,1,8,0:0:0:0:
261,197,140336,1,0,0:0:0:0:
261,197,140508,1,8,0:0:0:0:
256,192,140680,1,0,0:0:0:0:
256,192,141025,1,0,0:0:0:0:
256,192,141370,1,8,0:0:0:0:
261,197,141542,1,8,0:0:0:0:
261,197,141715,1,0,0:0:0:0:
261,197,141887,1,8,0:0:0:0:
256,192,142060,1,0,0:0:0:0:
261,197,142405,1,0,0:0:0:0:
256,192,142749,1,8,0:0:0:0:
261,197,143094,1,0,0:0:0:0:
261,197,143267,1,8,0:0:0:0:
256,192,143439,1,0,0:0:0:0:
256,192,143784,1,0,0:0:0:0:
256,192,144129,1,8,0:0:0:0:
256,192,144301,1,0,0:0:0:0:
256,192,144473,1,8,0:0:0:0:
256,192,144646,1,8,0:0:0:0:
256,192,144818,1,0,0:0:0:0:
261,197,145163,1,8,0:0:0:0:
256,192,145508,1,0,0:0:0:0:
256,192,145853,1,8,0:0:0:0:
256,192,146025,1,0,0:0:0:0:
256,192,146198,1,0,0:0:0:0:
261,197,146542,1,8,0:0:0:0:
256,192,146887,1,0,0:0:0:0:
256,192,147060,1,0,0:0:0:0:
256,192,147232,1,8,0:0:0:0:
256,192,147405,1,0,0:0:0:0:
256,192,147577,1,0,0:0:0:0:
261,197,147922,1,8,0:0:0:0:
256,192,148267,1,0,0:0:0:0:
256,192,148611,1,8,0:0:0:0:
256,192,148784,1,0,0:0:0:0:
256,192,148870,1,0,0:0:0:0:
256,192,148956,1,0,0:0:0:0:
256,192,149215,1,0,0:0:0:0:
256,192,149473,1,0,0:0:0:0:
256,192,149646,1,8,0:0:0:0:
256,192,149905,1,8,0:0:0:0:
256,192,150163,1,8,0:0:0:0:
256,192,150336,1,0,0:0:0:0:
256,192,150680,1,8,0:0:0:0:
256,192,151025,1,0,0:0:0:0:
256,192,151370,1,8,0:0:0:0:
256,192,151542,1,8,0:0:0:0:
256,192,151715,1,0,0:0:0:0:
256,192,151887,1,8,0:0:0:0:
243,193,151973,1,0,0:0:0:0:
256,192,152060,1,8,0:0:0:0:
256,192,152232,1,0,0:0:0:0:
256,192,152405,1,8,0:0:0:0:
261,197,152577,1,8,0:0:0:0:
261,197,152663,1,8,0:0:0:0:
256,192,152749,1,8,0:0:0:0:
256,192,152922,1,0,0:0:0:0:
256,192,153094,1,8,0:0:0:0:
256,192,153180,1,0,0:0:0:0:
256,192,153267,1,8,0:0:0:0:
256,192,153439,1,8,0:0:0:0:
274,151,153525,1,0,0:0:0:0:
256,192,153611,1,8,0:0:0:0:
256,192,153784,1,8,0:0:0:0:
256,192,153870,1,0,0:0:0:0:
256,192,153956,1,8,0:0:0:0:
256,192,154129,1,8,0:0:0:0:
264,144,154215,1,0,0:0:0:0:
256,192,154301,1,8,0:0:0:0:
256,192,154473,1,8,0:0:0:0:
256,192,154560,1,8,0:0:0:0:
256,192,154646,1,8,0:0:0:0:
256,192,154732,1,0,0:0:0:0:
256,192,154818,1,8,0:0:0:0:
256,192,154905,1,8,0:0:0:0:
256,192,154991,1,0,0:0:0:0:
250,182,155077,1,0,0:0:0:0:
256,192,155163,1,8,0:0:0:0:
256,192,155336,1,0,0:0:0:0:
256,192,155508,1,8,0:0:0:0:
256,192,155680,1,8,0:0:0:0:
256,192,155853,1,4,0:0:0:0:
256,192,156198,1,8,0:0:0:0:
256,192,156370,1,4,0:0:0:0:
256,192,156715,1,4,0:0:0:0:
256,192,157060,1,8,0:0:0:0:
256,192,157146,1,8,0:0:0:0:
256,192,157232,1,8,0:0:0:0:
256,192,157405,1,0,0:0:0:0:
252,177,157491,1,0,0:0:0:0:
256,192,157577,1,8,0:0:0:0:
256,192,157749,1,8,0:0:0:0:
256,192,157922,1,8,0:0:0:0:
256,192,158094,1,0,0:0:0:0:
256,192,158267,1,8,0:0:0:0:
256,192,158353,1,0,0:0:0:0:
256,192,158439,1,8,0:0:0:0:
256,192,158611,1,4,0:0:0:0:
256,192,158956,1,4,0:0:0:0:
256,192,159129,1,4,0:0:0:0:
256,192,159473,1,4,0:0:0:0:
256,192,159818,1,8,0:0:0:0:
245,189,159905,1,0,0:0:0:0:
256,192,159991,1,0,0:0:0:0:
256,192,160336,1,8,0:0:0:0:
256,192,160508,1,0,0:0:0:0:
256,192,160853,1,0,0:0:0:0:
256,192,161025,1,8,0:0:0:0:
256,192,161198,1,8,0:0:0:0:
256,192,161370,1,4,0:0:0:0:
256,192,161715,1,8,0:0:0:0:
256,192,161887,1,4,0:0:0:0:
256,192,162232,1,4,0:0:0:0:
256,192,162577,1,8,0:0:0:0:
256,192,162663,1,8,0:0:0:0:
256,192,162749,1,8,0:0:0:0:
256,192,162922,1,0,0:0:0:0:
256,192,163094,1,8,0:0:0:0:
256,192,163180,1,0,0:0:0:0:
256,192,163267,1,8,0:0:0:0:
256,192,163439,1,8,0:0:0:0:
256,192,163611,1,0,0:0:0:0:
256,192,163784,1,8,0:0:0:0:
256,192,163956,1,0,0:0:0:0:
256,192,164042,1,0,0:0:0:0:
256,192,164129,1,8,0:0:0:0:
256,192,164215,1,8,0:0:0:0:
256,192,164301,1,8,0:0:0:0:
256,192,164387,1,0,0:0:0:0:
256,192,164473,1,8,0:0:0:0:
256,192,164560,1,8,0:0:0:0:
256,192,164646,1,0,0:0:0:0:
256,192,164732,1,0,0:0:0:0:
256,192,164818,1,8,0:0:0:0:
256,192,165077,1,0,0:0:0:0:
256,192,165336,1,0,0:0:0:0:
256,192,165508,1,8,0:0:0:0:
256,192,165594,1,8,0:0:0:0:
256,192,165767,1,0,0:0:0:0:
256,192,165853,1,0,0:0:0:0:
256,192,166025,1,0,0:0:0:0:
256,192,166198,1,8,0:0:0:0:
256,192,166370,1,0,0:0:0:0:
256,192,166542,1,8,0:0:0:0:
256,192,166715,1,8,0:0:0:0:
256,192,166887,1,4,0:0:0:0:
256,192,167232,1,8,0:0:0:0:
256,192,167405,1,0,0:0:0:0:
256,192,167577,1,8,0:0:0:0:
256,192,167663,1,0,0:0:0:0:
256,192,167749,1,8,0:0:0:0:
256,192,167922,1,8,0:0:0:0:
270,166,168008,1,8,0:0:0:0:
256,192,168094,1,0,0:0:0:0:
259,179,168180,1,0,0:0:0:0:
256,192,168267,1,8,0:0:0:0:
256,192,168439,1,0,0:0:0:0:
256,192,168525,1,0,0:0:0:0:
256,192,168611,1,8,0:0:0:0:
256,192,168784,1,8,0:0:0:0:
256,192,168956,1,8,0:0:0:0:
256,192,169129,1,0,0:0:0:0:
256,192,169301,1,8,0:0:0:0:
256,192,169473,1,0,0:0:0:0:
256,192,169646,1,4,0:0:0:0:
256,192,169991,1,8,0:0:0:0:
256,192,170163,1,0,0:0:0:0:
256,192,170249,1,8,0:0:0:0:
256,192,170336,1,0,0:0:0:0:
256,192,170508,1,0,0:0:0:0:
256,192,170680,1,8,0:0:0:0:
256,192,170853,1,0,0:0:0:0:
256,192,170939,1,0,0:0:0:0:
256,192,171025,1,0,0:0:0:0:
256,192,171370,1,8,0:0:0:0:
256,192,171542,1,0,0:0:0:0:
256,192,171887,1,0,0:0:0:0:
234,135,171973,1,0,0:0:0:0:
256,192,172060,1,8,0:0:0:0:
256,192,172232,1,8,0:0:0:0:
256,192,172405,1,4,0:0:0:0:
256,192,172749,1,8,0:0:0:0:
256,192,172922,1,0,0:0:0:0:
272,173,173008,1,0,0:0:0:0:
256,192,173094,1,8,0:0:0:0:
256,192,173267,1,8,0:0:0:0:
256,192,173439,1,8,0:0:0:0:
279,170,173525,1,8,0:0:0:0:
256,192,173611,1,0,0:0:0:0:
286,175,173698,1,0,0:0:0:0:
256,192,173784,1,8,0:0:0:0:
256,192,173956,1,0,0:0:0:0:
256,192,174129,1,8,0:0:0:0:
256,192,174301,1,8,0:0:0:0:
256,192,174387,1,0,0:0:0:0:
256,192,174473,1,8,0:0:0:0:
256,192,174646,1,0,0:0:0:0:
256,192,174818,5,8,0:0:0:0:
256,192,174991,1,0,0:0:0:0:
256,192,175163,1,4,0:0:0:0:
256,192,175336,12,0,177749,0:0:0:0:
256,192,177922,5,4,0:0:0:0:
256,192,180680,1,8,0:0:0:0:
256,192,182060,1,0,0:0:0:0:
256,192,183439,1,8,0:0:0:0:
256,192,186198,1,8,0:0:0:0:
256,192,187577,1,0,0:0:0:0:
256,192,188956,1,8,0:0:0:0:
256,192,191715,1,8,0:0:0:0:
256,192,193094,1,0,0:0:0:0:
256,192,194473,1,8,0:0:0:0:
256,192,197232,1,8,0:0:0:0:
256,192,198611,1,0,0:0:0:0:
256,192,199991,1,8,0:0:0:0:
