osu file format v14

[General]
AudioFilename: audio.mp3
AudioLeadIn: 0
PreviewTime: 41462
Countdown: 0
SampleSet: None
StackLeniency: 0.7
Mode: 3
LetterboxInBreaks: 0
SpecialStyle: 0
WidescreenStoryboard: 1

[Editor]
DistanceSpacing: 1
BeatDivisor: 4
GridSize: 4
TimelineZoom: 1.6

[Metadata]
Title:Come & Get It (Nightcore Mix)
TitleUnicode:Come & Get It (Nightcore Mix)
Artist:Krewella
ArtistUnicode:Krewella
Creator:juankristal
Version:Get it?
Source:
Tags:electronic and Kyshiro Ami
BeatmapID:1460977
BeatmapSetID:690287

[Difficulty]
HPDrainRate:7
CircleSize:4
OverallDifficulty:8.3
ApproachRate:9
SliderMultiplier:2
SliderTickRate:1

[Events]
//Background and Video events
0,0,"sunset-anime-girl-1366x768.jpg",0,0
//Break Periods
//Storyboard Layer 0 (Background)
//Storyboard Layer 1 (Fail)
//Storyboard Layer 2 (Pass)
//Storyboard Layer 3 (Foreground)
//Storyboard Sound Samples

[TimingPoints]
11960,307.377049180328,4,2,0,50,1,0
41468,-100,4,2,0,50,0,1
61140,-100,4,2,0,50,0,0
139828,-100,4,2,0,50,0,1
157041,-100,4,2,0,50,0,0

[Colours]
Combo1 : 0,96,191
Combo2 : 255,255,128
Combo3 : 255,128,64
Combo4 : 255,53,53
Combo5 : 48,3,107

[HitObjects]
64,192,11960,5,0,0:0:0:0:
320,192,12267,1,0,0:0:0:0:
448,192,12267,1,0,0:0:0:0:
192,192,12421,1,0,0:0:0:0:
320,192,12574,1,0,0:0:0:0:
64,192,12728,1,0,0:0:0:0:
320,192,12882,1,0,0:0:0:0:
448,192,12882,1,0,0:0:0:0:
192,192,13035,1,0,0:0:0:0:
192,192,13343,1,0,0:0:0:0:
320,192,13496,1,0,0:0:0:0:
448,192,13496,1,0,0:0:0:0:
64,192,13650,1,0,0:0:0:0:
320,192,13804,1,0,0:0:0:0:
192,192,13957,1,0,0:0:0:0:
320,192,14111,1,0,0:0:0:0:
448,192,14111,1,0,0:0:0:0:
64,192,14265,1,0,0:0:0:0:
64,192,14419,1,0,0:0:0:0:
192,192,14726,1,0,0:0:0:0:
320,192,14726,1,0,0:0:0:0:
448,192,14880,1,0,0:0:0:0:
64,192,15033,1,0,0:0:0:0:
448,192,15187,1,0,0:0:0:0:
320,192,15341,1,0,0:0:0:0:
192,192,15341,1,0,0:0:0:0:
64,192,15494,1,0,0:0:0:0:
64,192,15802,1,0,0:0:0:0:
192,192,15955,1,0,0:0:0:0:
320,192,15955,1,0,0:0:0:0:
448,192,16109,1,0,0:0:0:0:
192,192,16263,1,0,0:0:0:0:
64,192,16416,1,0,0:0:0:0:
192,192,16570,1,0,0:0:0:0:
320,192,16570,1,0,0:0:0:0:
448,192,16724,1,0,0:0:0:0:
448,192,16878,1,0,0:0:0:0:
64,192,17185,1,0,0:0:0:0:
448,192,17185,1,0,0:0:0:0:
192,192,17339,1,0,0:0:0:0:
320,192,17492,1,0,0:0:0:0:
192,192,17646,1,0,0:0:0:0:
448,192,17800,1,0,0:0:0:0:
64,192,17800,1,0,0:0:0:0:
320,192,17953,1,0,0:0:0:0:
320,192,18261,1,0,0:0:0:0:
64,192,18414,1,0,0:0:0:0:
448,192,18414,1,0,0:0:0:0:
192,192,18568,1,0,0:0:0:0:
448,192,18722,1,0,0:0:0:0:
320,192,18875,1,0,0:0:0:0:
64,192,19029,1,0,0:0:0:0:
448,192,19029,1,0,0:0:0:0:
192,192,19183,1,0,0:0:0:0:
320,192,19337,1,0,0:0:0:0:
448,192,19337,1,0,0:0:0:0:
64,192,19644,1,0,0:0:0:0:
320,192,19644,1,0,0:0:0:0:
448,192,19798,1,0,0:0:0:0:
448,192,20105,1,0,0:0:0:0:
64,192,20259,1,0,0:0:0:0:
320,192,20259,1,0,0:0:0:0:
192,192,20412,1,0,0:0:0:0:
320,192,20566,1,0,0:0:0:0:
448,192,20566,1,0,0:0:0:0:
64,192,20643,1,0,0:0:0:0:
192,192,20720,1,0,0:0:0:0:
320,192,20797,1,0,0:0:0:0:
64,192,20873,1,0,0:0:0:0:
192,192,20950,1,0,0:0:0:0:
320,192,21027,1,0,0:0:0:0:
448,192,21104,1,0,0:0:0:0:
64,192,21181,1,0,0:0:0:0:
192,192,21181,1,0,0:0:0:0:
448,192,21258,1,0,0:0:0:0:
320,192,21335,1,0,0:0:0:0:
192,192,21411,1,0,0:0:0:0:
64,192,21488,1,0,0:0:0:0:
448,192,21488,1,0,0:0:0:0:
320,192,21565,1,0,0:0:0:0:
192,192,21642,1,0,0:0:0:0:
64,192,21719,1,0,0:0:0:0:
320,192,21796,1,0,0:0:0:0:
448,192,21796,1,0,0:0:0:0:
448,192,21949,1,0,0:0:0:0:
64,192,22103,1,0,0:0:0:0:
192,192,22103,1,0,0:0:0:0:
448,192,22257,1,0,0:0:0:0:
448,192,22410,1,0,0:0:0:0:
64,192,22564,1,0,0:0:0:0:
320,192,22564,1,0,0:0:0:0:
448,192,22718,1,0,0:0:0:0:
192,192,22718,1,0,0:0:0:0:
448,192,22871,1,0,0:0:0:0:
64,192,23025,1,0,0:0:0:0:
320,192,23179,1,0,0:0:0:0:
192,192,23179,1,0,0:0:0:0:
448,192,23332,1,0,0:0:0:0:
64,192,23332,1,0,0:0:0:0:
320,192,23486,1,0,0:0:0:0:
192,192,23640,1,0,0:0:0:0:
320,192,23794,1,0,0:0:0:0:
448,192,23794,1,0,0:0:0:0:
64,192,23947,1,0,0:0:0:0:
192,192,23947,1,0,0:0:0:0:
192,192,24101,1,0,0:0:0:0:
320,192,24101,1,0,0:0:0:0:
448,192,24255,1,0,0:0:0:0:
64,192,24255,1,0,0:0:0:0:
192,192,24408,1,0,0:0:0:0:
320,192,24562,1,0,0:0:0:0:
448,192,24562,1,0,0:0:0:0:
64,192,24716,1,0,0:0:0:0:
192,192,24716,1,0,0:0:0:0:
320,192,24869,1,0,0:0:0:0:
64,192,25023,1,0,0:0:0:0:
448,192,25023,1,0,0:0:0:0:
192,192,25177,1,0,0:0:0:0:
320,192,25177,1,0,0:0:0:0:
448,192,25330,1,0,0:0:0:0:
64,192,25407,1,0,0:0:0:0:
320,192,25484,1,0,0:0:0:0:
192,192,25638,1,0,0:0:0:0:
448,192,25791,1,0,0:0:0:0:
64,192,25791,1,0,0:0:0:0:
192,192,25945,1,0,0:0:0:0:
320,192,25945,1,0,0:0:0:0:
64,192,26099,1,0,0:0:0:0:
320,192,26253,1,0,0:0:0:0:
448,192,26253,1,0,0:0:0:0:
64,192,26406,1,0,0:0:0:0:
192,192,26406,1,0,0:0:0:0:
448,192,26560,1,0,0:0:0:0:
64,192,26714,1,0,0:0:0:0:
64,192,26867,1,0,0:0:0:0:
320,192,27021,1,0,0:0:0:0:
448,192,27021,1,0,0:0:0:0:
64,192,27175,1,0,0:0:0:0:
64,192,27328,1,0,0:0:0:0:
448,192,27482,1,0,0:0:0:0:
192,192,27482,1,0,0:0:0:0:
320,192,27636,1,0,0:0:0:0:
64,192,27636,1,0,0:0:0:0:
64,192,27789,1,0,0:0:0:0:
192,192,27943,1,0,0:0:0:0:
320,192,28097,1,0,0:0:0:0:
448,192,28097,1,0,0:0:0:0:
192,192,28250,1,0,0:0:0:0:
64,192,28250,1,0,0:0:0:0:
448,192,28404,1,0,0:0:0:0:
192,192,28558,1,0,0:0:0:0:
64,192,28712,1,0,0:0:0:0:
320,192,28712,1,0,0:0:0:0:
192,192,28865,1,0,0:0:0:0:
448,192,28865,1,0,0:0:0:0:
320,192,29019,1,0,0:0:0:0:
448,192,29019,1,0,0:0:0:0:
64,192,29173,1,0,0:0:0:0:
192,192,29173,1,0,0:0:0:0:
192,192,29326,1,0,0:0:0:0:
64,192,29326,1,0,0:0:0:0:
64,192,29480,1,0,0:0:0:0:
192,192,29480,1,0,0:0:0:0:
192,192,29634,1,0,0:0:0:0:
64,192,29634,1,0,0:0:0:0:
320,192,29787,1,0,0:0:0:0:
448,192,29787,1,0,0:0:0:0:
448,192,29941,1,0,0:0:0:0:
320,192,29941,1,0,0:0:0:0:
320,192,30095,1,0,0:0:0:0:
448,192,30095,1,0,0:0:0:0:
448,192,30248,1,0,0:0:0:0:
320,192,30248,1,0,0:0:0:0:
320,192,30402,1,0,0:0:0:0:
448,192,30402,1,0,0:0:0:0:
64,192,30479,1,0,0:0:0:0:
192,192,30556,1,0,0:0:0:0:
320,192,30633,1,0,0:0:0:0:
64,192,30710,1,0,0:0:0:0:
448,192,30710,1,0,0:0:0:0:
192,192,30786,1,0,0:0:0:0:
320,192,30863,1,0,0:0:0:0:
64,192,30940,1,0,0:0:0:0:
448,192,31017,1,0,0:0:0:0:
192,192,31017,1,0,0:0:0:0:
448,192,31171,1,0,0:0:0:0:
320,192,31171,1,0,0:0:0:0:
64,192,31324,1,0,0:0:0:0:
192,192,31324,1,0,0:0:0:0:
192,192,31478,1,0,0:0:0:0:
320,192,31478,1,0,0:0:0:0:
64,192,31632,128,0,31939:0:0:0:0:
448,192,31632,128,0,31939:0:0:0:0:
192,192,31939,1,0,0:0:0:0:
320,192,31939,1,0,0:0:0:0:
448,192,32093,128,0,32400:0:0:0:0:
192,192,32093,128,0,32400:0:0:0:0:
320,192,32400,1,0,0:0:0:0:
64,192,32400,1,0,0:0:0:0:
448,192,32554,1,0,0:0:0:0:
192,192,32554,1,0,0:0:0:0:
64,192,32707,1,0,0:0:0:0:
448,192,32707,1,0,0:0:0:0:
320,192,32861,128,0,33169:0:0:0:0:
64,192,32861,128,0,33169:0:0:0:0:
448,192,33169,1,0,0:0:0:0:
192,192,33169,1,0,0:0:0:0:
64,192,33322,128,0,33630:0:0:0:0:
192,192,33322,128,0,33630:0:0:0:0:
448,192,33630,1,0,0:0:0:0:
320,192,33630,1,0,0:0:0:0:
448,192,33783,1,0,0:0:0:0:
64,192,33783,1,0,0:0:0:0:
64,192,33937,1,0,0:0:0:0:
320,192,33937,1,0,0:0:0:0:
448,192,34091,128,0,34398:0:0:0:0:
192,192,34091,128,0,34398:0:0:0:0:
64,192,34398,1,0,0:0:0:0:
320,192,34398,1,0,0:0:0:0:
192,192,34552,128,0,34859:0:0:0:0:
320,192,34552,128,0,34859:0:0:0:0:
448,192,34859,1,0,0:0:0:0:
64,192,34859,1,0,0:0:0:0:
448,192,35013,1,0,0:0:0:0:
192,192,35013,1,0,0:0:0:0:
192,192,35166,1,0,0:0:0:0:
64,192,35166,1,0,0:0:0:0:
448,192,35320,128,0,35628:0:0:0:0:
320,192,35320,128,0,35628:0:0:0:0:
192,192,35628,128,0,35935:0:0:0:0:
64,192,35628,128,0,35935:0:0:0:0:
448,192,35935,1,0,0:0:0:0:
320,192,35935,1,0,0:0:0:0:
448,192,36089,1,0,0:0:0:0:
64,192,36089,1,0,0:0:0:0:
192,192,36242,1,0,0:0:0:0:
320,192,36242,1,0,0:0:0:0:
192,192,36396,1,0,0:0:0:0:
64,192,36396,1,0,0:0:0:0:
448,192,36473,1,0,0:0:0:0:
320,192,36550,128,0,36857:0:0:0:0:
64,192,36550,128,0,36857:0:0:0:0:
448,192,36857,1,0,0:0:0:0:
192,192,36857,1,0,0:0:0:0:
192,192,37011,128,0,37318:0:0:0:0:
320,192,37011,128,0,37318:0:0:0:0:
64,192,37318,1,0,0:0:0:0:
448,192,37318,1,0,0:0:0:0:
448,192,37472,1,0,0:0:0:0:
192,192,37472,1,0,0:0:0:0:
64,192,37625,1,0,0:0:0:0:
192,192,37625,1,0,0:0:0:0:
320,192,37779,128,0,38087:0:0:0:0:
448,192,37779,128,0,38087:0:0:0:0:
192,192,38087,1,0,0:0:0:0:
64,192,38087,1,0,0:0:0:0:
64,192,38240,128,0,38548:0:0:0:0:
448,192,38240,128,0,38548:0:0:0:0:
320,192,38548,1,0,0:0:0:0:
192,192,38548,1,0,0:0:0:0:
448,192,38701,1,0,0:0:0:0:
64,192,38701,1,0,0:0:0:0:
448,192,38855,1,0,0:0:0:0:
192,192,38855,1,0,0:0:0:0:
64,192,39009,1,0,0:0:0:0:
192,192,39009,1,0,0:0:0:0:
448,192,39162,1,0,0:0:0:0:
64,192,39316,1,0,0:0:0:0:
192,192,39316,1,0,0:0:0:0:
320,192,39470,1,0,0:0:0:0:
448,192,39547,1,0,0:0:0:0:
64,192,39623,1,0,0:0:0:0:
192,192,39623,1,0,0:0:0:0:
448,192,39700,1,0,0:0:0:0:
320,192,39777,1,0,0:0:0:0:
192,192,39854,1,0,0:0:0:0:
448,192,39931,1,0,0:0:0:0:
64,192,39931,1,0,0:0:0:0:
320,192,40085,1,0,0:0:0:0:
192,192,40085,1,0,0:0:0:0:
448,192,40238,1,0,0:0:0:0:
64,192,40238,1,0,0:0:0:0:
192,192,40315,1,0,0:0:0:0:
320,192,40392,1,0,0:0:0:0:
192,192,40469,1,0,0:0:0:0:
64,192,40546,1,0,0:0:0:0:
448,192,40546,1,0,0:0:0:0:
320,192,40622,1,0,0:0:0:0:
192,192,40699,1,0,0:0:0:0:
64,192,40776,1,0,0:0:0:0:
320,192,40853,1,0,0:0:0:0:
448,192,40853,1,0,0:0:0:0:
448,192,41007,1,0,0:0:0:0:
320,192,41007,1,0,0:0:0:0:
64,192,41160,1,0,0:0:0:0:
192,192,41160,1,0,0:0:0:0:
192,192,41314,1,0,0:0:0:0:
64,192,41314,1,0,0:0:0:0:
64,192,41468,128,0,41775:0:0:0:0:
320,192,41468,128,0,41621:0:0:0:0:
448,192,41468,128,0,41775:0:0:0:0:
192,192,41775,1,0,0:0:0:0:
320,192,41775,1,0,0:0:0:0:
320,192,41929,1,0,0:0:0:0:
192,192,41929,1,0,0:0:0:0:
192,192,42082,1,0,0:0:0:0:
320,192,42082,1,0,0:0:0:0:
192,192,42236,1,0,0:0:0:0:
320,192,42236,1,0,0:0:0:0:
64,192,42390,1,0,0:0:0:0:
448,192,42390,1,0,0:0:0:0:
192,192,42544,1,0,0:0:0:0:
448,192,42544,1,0,0:0:0:0:
64,192,42697,1,0,0:0:0:0:
320,192,42697,1,0,0:0:0:0:
64,192,42851,1,0,0:0:0:0:
320,192,42851,1,0,0:0:0:0:
320,192,43005,1,0,0:0:0:0:
64,192,43005,1,0,0:0:0:0:
64,192,43158,1,0,0:0:0:0:
320,192,43158,1,0,0:0:0:0:
64,192,43312,1,0,0:0:0:0:
320,192,43312,1,0,0:0:0:0:
64,192,43466,1,0,0:0:0:0:
320,192,43466,1,0,0:0:0:0:
320,192,43619,1,0,0:0:0:0:
64,192,43619,1,0,0:0:0:0:
64,192,43773,1,0,0:0:0:0:
320,192,43773,1,0,0:0:0:0:
192,192,43927,1,0,0:0:0:0:
448,192,43927,128,0,44234:0:0:0:0:
320,192,44080,128,0,44234:0:0:0:0:
64,192,44234,1,0,0:0:0:0:
192,192,44234,1,0,0:0:0:0:
192,192,44388,1,0,0:0:0:0:
64,192,44388,1,0,0:0:0:0:
320,192,44541,1,0,0:0:0:0:
448,192,44541,1,0,0:0:0:0:
320,192,44695,1,0,0:0:0:0:
448,192,44695,1,0,0:0:0:0:
64,192,44849,1,0,0:0:0:0:
192,192,44849,1,0,0:0:0:0:
64,192,45003,1,0,0:0:0:0:
192,192,45003,1,0,0:0:0:0:
320,192,45079,1,0,0:0:0:0:
64,192,45156,1,0,0:0:0:0:
448,192,45156,128,0,45464:0:0:0:0:
64,192,45464,1,0,0:0:0:0:
192,192,45464,1,0,0:0:0:0:
320,192,45617,128,0,45925:0:0:0:0:
448,192,45617,1,0,0:0:0:0:
192,192,45925,1,0,0:0:0:0:
448,192,45925,1,0,0:0:0:0:
448,192,46078,128,0,46386:0:0:0:0:
64,192,46078,1,0,0:0:0:0:
320,192,46232,128,0,46386:0:0:0:0:
192,192,46232,1,0,0:0:0:0:
64,192,46386,128,0,46693:0:0:0:0:
192,192,46386,128,0,46693:0:0:0:0:
320,192,46693,1,0,0:0:0:0:
448,192,46693,1,0,0:0:0:0:
448,192,46847,1,0,0:0:0:0:
320,192,46847,1,0,0:0:0:0:
320,192,47000,1,0,0:0:0:0:
448,192,47000,1,0,0:0:0:0:
320,192,47154,1,0,0:0:0:0:
448,192,47154,1,0,0:0:0:0:
64,192,47308,1,0,0:0:0:0:
192,192,47308,1,0,0:0:0:0:
64,192,47462,1,0,0:0:0:0:
320,192,47462,1,0,0:0:0:0:
192,192,47615,1,0,0:0:0:0:
448,192,47615,1,0,0:0:0:0:
192,192,47769,1,0,0:0:0:0:
448,192,47769,1,0,0:0:0:0:
448,192,47923,1,0,0:0:0:0:
192,192,47923,1,0,0:0:0:0:
192,192,48076,1,0,0:0:0:0:
448,192,48076,1,0,0:0:0:0:
448,192,48230,1,0,0:0:0:0:
192,192,48230,1,0,0:0:0:0:
192,192,48384,1,0,0:0:0:0:
448,192,48384,1,0,0:0:0:0:
448,192,48537,1,0,0:0:0:0:
192,192,48537,1,0,0:0:0:0:
448,192,48691,1,0,0:0:0:0:
192,192,48691,1,0,0:0:0:0:
64,192,48845,1,0,0:0:0:0:
192,192,48845,1,0,0:0:0:0:
448,192,48922,1,0,0:0:0:0:
320,192,48998,1,0,0:0:0:0:
192,192,49152,1,0,0:0:0:0:
64,192,49152,1,0,0:0:0:0:
448,192,49229,1,0,0:0:0:0:
64,192,49306,1,0,0:0:0:0:
320,192,49383,1,0,0:0:0:0:
192,192,49460,1,0,0:0:0:0:
64,192,49460,1,0,0:0:0:0:
64,192,49690,1,0,0:0:0:0:
320,192,49690,1,0,0:0:0:0:
448,192,49921,1,0,0:0:0:0:
320,192,49921,1,0,0:0:0:0:
64,192,50074,1,0,0:0:0:0:
192,192,50074,1,0,0:0:0:0:
448,192,50151,1,0,0:0:0:0:
448,192,50305,1,0,0:0:0:0:
192,192,50382,1,0,0:0:0:0:
64,192,50382,1,0,0:0:0:0:
64,192,50535,1,0,0:0:0:0:
320,192,50689,1,0,0:0:0:0:
448,192,50689,1,0,0:0:0:0:
448,192,50843,1,0,0:0:0:0:
192,192,50843,1,0,0:0:0:0:
192,192,50996,1,0,0:0:0:0:
320,192,50996,1,0,0:0:0:0:
448,192,51150,1,0,0:0:0:0:
64,192,51150,1,0,0:0:0:0:
320,192,51304,128,0,51611:0:0:0:0:
64,192,51304,128,0,51611:0:0:0:0:
192,192,51611,1,0,0:0:0:0:
448,192,51611,1,0,0:0:0:0:
448,192,51765,1,0,0:0:0:0:
192,192,51765,1,0,0:0:0:0:
448,192,51919,1,0,0:0:0:0:
192,192,51919,1,0,0:0:0:0:
192,192,52072,1,0,0:0:0:0:
448,192,52072,1,0,0:0:0:0:
320,192,52226,128,0,52380:0:0:0:0:
64,192,52226,128,0,52380:0:0:0:0:
192,192,52380,128,0,52533:0:0:0:0:
448,192,52380,128,0,52533:0:0:0:0:
320,192,52533,128,0,52687:0:0:0:0:
64,192,52533,128,0,52687:0:0:0:0:
192,192,52687,1,0,0:0:0:0:
448,192,52687,1,0,0:0:0:0:
448,192,52841,1,0,0:0:0:0:
192,192,52841,1,0,0:0:0:0:
192,192,52994,1,0,0:0:0:0:
448,192,52994,1,0,0:0:0:0:
448,192,53148,1,0,0:0:0:0:
192,192,53148,1,0,0:0:0:0:
64,192,53302,1,0,0:0:0:0:
320,192,53302,1,0,0:0:0:0:
320,192,53455,1,0,0:0:0:0:
64,192,53455,1,0,0:0:0:0:
64,192,53609,1,0,0:0:0:0:
320,192,53609,1,0,0:0:0:0:
320,192,53763,1,0,0:0:0:0:
448,192,53763,128,0,53916:0:0:0:0:
192,192,53916,1,0,0:0:0:0:
64,192,53916,128,0,54070:0:0:0:0:
320,192,54070,128,0,54224:0:0:0:0:
192,192,54070,1,0,0:0:0:0:
448,192,54224,1,0,0:0:0:0:
64,192,54224,1,0,0:0:0:0:
64,192,54378,1,0,0:0:0:0:
448,192,54378,1,0,0:0:0:0:
448,192,54531,1,0,0:0:0:0:
64,192,54531,1,0,0:0:0:0:
64,192,54685,1,0,0:0:0:0:
448,192,54685,1,0,0:0:0:0:
448,192,54839,1,0,0:0:0:0:
64,192,54839,1,0,0:0:0:0:
192,192,54915,1,0,0:0:0:0:
320,192,54992,1,0,0:0:0:0:
448,192,54992,128,0,55146:0:0:0:0:
64,192,55146,128,0,55300:0:0:0:0:
320,192,55300,128,0,55453:0:0:0:0:
448,192,55300,1,0,0:0:0:0:
192,192,55453,128,0,55761:0:0:0:0:
64,192,55453,1,0,0:0:0:0:
320,192,55761,128,0,55914:0:0:0:0:
64,192,55838,1,0,0:0:0:0:
192,192,55914,128,0,56068:0:0:0:0:
448,192,55914,1,0,0:0:0:0:
320,192,56068,128,0,56222:0:0:0:0:
64,192,56068,1,0,0:0:0:0:
64,192,56222,128,0,56529:0:0:0:0:
448,192,56222,128,0,56529:0:0:0:0:
192,192,56529,1,0,0:0:0:0:
320,192,56529,1,0,0:0:0:0:
192,192,56683,1,0,0:0:0:0:
320,192,56683,1,0,0:0:0:0:
320,192,56837,1,0,0:0:0:0:
192,192,56837,1,0,0:0:0:0:
192,192,56990,1,0,0:0:0:0:
320,192,56990,1,0,0:0:0:0:
64,192,57144,128,0,57298:0:0:0:0:
448,192,57144,128,0,57298:0:0:0:0:
320,192,57298,128,0,57451:0:0:0:0:
192,192,57298,128,0,57451:0:0:0:0:
64,192,57451,128,0,57605:0:0:0:0:
448,192,57451,128,0,57605:0:0:0:0:
192,192,57605,1,0,0:0:0:0:
320,192,57605,1,0,0:0:0:0:
192,192,57759,1,0,0:0:0:0:
320,192,57759,1,0,0:0:0:0:
448,192,57912,1,0,0:0:0:0:
64,192,57912,1,0,0:0:0:0:
448,192,58066,1,0,0:0:0:0:
64,192,58066,1,0,0:0:0:0:
320,192,58220,1,0,0:0:0:0:
192,192,58220,1,0,0:0:0:0:
64,192,58373,1,0,0:0:0:0:
320,192,58373,1,0,0:0:0:0:
320,192,58527,1,0,0:0:0:0:
448,192,58527,1,0,0:0:0:0:
64,192,58681,128,0,59910:0:0:0:0:
192,192,58681,1,0,0:0:0:0:
192,192,58835,1,0,0:0:0:0:
320,192,58988,1,0,0:0:0:0:
448,192,58988,1,0,0:0:0:0:
192,192,59142,1,0,0:0:0:0:
448,192,59296,1,0,0:0:0:0:
192,192,59449,1,0,0:0:0:0:
448,192,59603,1,0,0:0:0:0:
320,192,59603,1,0,0:0:0:0:
192,192,59757,1,0,0:0:0:0:
320,192,59910,1,0,0:0:0:0:
448,192,59910,1,0,0:0:0:0:
64,192,59987,1,0,0:0:0:0:
320,192,60064,1,0,0:0:0:0:
192,192,60141,1,0,0:0:0:0:
448,192,60218,1,0,0:0:0:0:
320,192,60218,1,0,0:0:0:0:
64,192,60295,1,0,0:0:0:0:
448,192,60371,1,0,0:0:0:0:
192,192,60448,1,0,0:0:0:0:
320,192,60525,1,0,0:0:0:0:
64,192,60525,1,0,0:0:0:0:
64,192,60679,1,0,0:0:0:0:
192,192,60679,1,0,0:0:0:0:
320,192,60832,1,0,0:0:0:0:
448,192,60832,1,0,0:0:0:0:
320,192,60986,1,0,0:0:0:0:
448,192,60986,1,0,0:0:0:0:
64,192,61140,1,0,0:0:0:0:
192,192,61140,1,0,0:0:0:0:
64,192,61294,1,0,0:0:0:0:
320,192,61447,1,0,0:0:0:0:
448,192,61447,1,0,0:0:0:0:
448,192,61601,1,0,0:0:0:0:
192,192,61755,1,0,0:0:0:0:
64,192,61908,1,0,0:0:0:0:
320,192,61908,1,0,0:0:0:0:
192,192,62062,1,0,0:0:0:0:
448,192,62062,1,0,0:0:0:0:
64,192,62216,1,0,0:0:0:0:
320,192,62369,1,0,0:0:0:0:
448,192,62523,1,0,0:0:0:0:
64,192,62523,1,0,0:0:0:0:
192,192,62677,1,0,0:0:0:0:
320,192,62677,1,0,0:0:0:0:
448,192,62830,1,0,0:0:0:0:
192,192,62984,1,0,0:0:0:0:
64,192,63138,1,0,0:0:0:0:
192,192,63138,1,0,0:0:0:0:
320,192,63291,1,0,0:0:0:0:
448,192,63291,1,0,0:0:0:0:
320,192,63445,1,0,0:0:0:0:
192,192,63445,1,0,0:0:0:0:
64,192,63599,1,0,0:0:0:0:
448,192,63599,1,0,0:0:0:0:
64,192,63753,1,0,0:0:0:0:
320,192,63906,1,0,0:0:0:0:
448,192,63906,1,0,0:0:0:0:
192,192,64060,1,0,0:0:0:0:
448,192,64214,1,0,0:0:0:0:
64,192,64367,1,0,0:0:0:0:
192,192,64367,1,0,0:0:0:0:
320,192,64521,1,0,0:0:0:0:
448,192,64521,1,0,0:0:0:0:
64,192,64675,1,0,0:0:0:0:
448,192,64752,1,0,0:0:0:0:
192,192,64828,1,0,0:0:0:0:
64,192,64828,1,0,0:0:0:0:
320,192,64982,1,0,0:0:0:0:
448,192,65136,1,0,0:0:0:0:
64,192,65136,1,0,0:0:0:0:
320,192,65289,1,0,0:0:0:0:
192,192,65443,1,0,0:0:0:0:
320,192,65597,1,0,0:0:0:0:
448,192,65597,1,0,0:0:0:0:
192,192,65750,1,0,0:0:0:0:
64,192,65750,1,0,0:0:0:0:
64,192,65904,1,0,0:0:0:0:
320,192,66058,1,0,0:0:0:0:
448,192,66058,1,0,0:0:0:0:
64,192,66212,1,0,0:0:0:0:
448,192,66365,1,0,0:0:0:0:
192,192,66365,1,0,0:0:0:0:
64,192,66519,1,0,0:0:0:0:
320,192,66673,1,0,0:0:0:0:
448,192,66826,1,0,0:0:0:0:
64,192,66826,1,0,0:0:0:0:
192,192,66980,1,0,0:0:0:0:
320,192,66980,1,0,0:0:0:0:
64,192,67134,1,0,0:0:0:0:
448,192,67287,1,0,0:0:0:0:
320,192,67441,1,0,0:0:0:0:
64,192,67441,1,0,0:0:0:0:
192,192,67595,1,0,0:0:0:0:
448,192,67595,1,0,0:0:0:0:
64,192,67748,1,0,0:0:0:0:
320,192,67902,1,0,0:0:0:0:
64,192,68056,5,0,0:0:0:0:
192,192,68056,1,0,0:0:0:0:
320,192,68210,1,0,0:0:0:0:
448,192,68210,1,0,0:0:0:0:
448,192,68363,1,0,0:0:0:0:
64,192,68517,5,0,0:0:0:0:
192,192,68517,1,0,0:0:0:0:
64,192,68671,1,0,0:0:0:0:
192,192,68671,1,0,0:0:0:0:
192,192,68824,1,0,0:0:0:0:
64,192,68824,1,0,0:0:0:0:
192,192,68978,1,0,0:0:0:0:
64,192,68978,1,0,0:0:0:0:
320,192,69132,1,0,0:0:0:0:
448,192,69132,1,0,0:0:0:0:
448,192,69285,1,0,0:0:0:0:
320,192,69285,1,0,0:0:0:0:
320,192,69439,1,0,0:0:0:0:
448,192,69439,1,0,0:0:0:0:
320,192,69593,1,0,0:0:0:0:
448,192,69593,1,0,0:0:0:0:
64,192,69746,1,0,0:0:0:0:
192,192,69746,1,0,0:0:0:0:
320,192,69823,1,0,0:0:0:0:
448,192,69900,1,0,0:0:0:0:
64,192,69977,1,0,0:0:0:0:
320,192,70054,1,0,0:0:0:0:
448,192,70054,1,0,0:0:0:0:
192,192,70131,1,0,0:0:0:0:
64,192,70207,1,0,0:0:0:0:
320,192,70284,1,0,0:0:0:0:
448,192,70361,1,0,0:0:0:0:
64,192,70361,1,0,0:0:0:0:
192,192,70515,1,0,0:0:0:0:
448,192,70515,1,0,0:0:0:0:
320,192,70669,1,0,0:0:0:0:
448,192,70669,1,0,0:0:0:0:
64,192,70822,1,0,0:0:0:0:
192,192,70822,1,0,0:0:0:0:
320,192,70976,1,0,0:0:0:0:
448,192,70976,128,0,71283:0:0:0:0:
64,192,70976,128,0,71283:0:0:0:0:
192,192,71283,1,0,0:0:0:0:
320,192,71283,1,0,0:0:0:0:
64,192,71437,128,0,71744:0:0:0:0:
320,192,71437,128,0,71744:0:0:0:0:
192,192,71744,1,0,0:0:0:0:
448,192,71744,1,0,0:0:0:0:
64,192,71898,1,0,0:0:0:0:
320,192,71898,1,0,0:0:0:0:
320,192,72052,1,0,0:0:0:0:
192,192,72052,1,0,0:0:0:0:
64,192,72205,128,0,72513:0:0:0:0:
192,192,72205,128,0,72513:0:0:0:0:
448,192,72513,1,0,0:0:0:0:
320,192,72513,1,0,0:0:0:0:
192,192,72666,128,0,72974:0:0:0:0:
448,192,72666,128,0,72974:0:0:0:0:
64,192,72974,1,0,0:0:0:0:
320,192,72974,1,0,0:0:0:0:
448,192,73128,1,0,0:0:0:0:
192,192,73128,1,0,0:0:0:0:
64,192,73281,1,0,0:0:0:0:
192,192,73281,1,0,0:0:0:0:
320,192,73435,128,0,73742:0:0:0:0:
448,192,73435,128,0,73742:0:0:0:0:
64,192,73742,1,0,0:0:0:0:
192,192,73742,1,0,0:0:0:0:
320,192,73896,128,0,74203:0:0:0:0:
192,192,73896,128,0,74203:0:0:0:0:
448,192,74203,1,0,0:0:0:0:
64,192,74203,1,0,0:0:0:0:
192,192,74357,1,0,0:0:0:0:
320,192,74357,1,0,0:0:0:0:
448,192,74511,1,0,0:0:0:0:
64,192,74511,1,0,0:0:0:0:
64,192,74664,128,0,74972:0:0:0:0:
448,192,74664,128,0,74972:0:0:0:0:
192,192,74972,128,0,75279:0:0:0:0:
320,192,74972,128,0,75279:0:0:0:0:
448,192,75279,1,0,0:0:0:0:
64,192,75279,1,0,0:0:0:0:
64,192,75433,1,0,0:0:0:0:
192,192,75433,1,0,0:0:0:0:
320,192,75587,1,0,0:0:0:0:
448,192,75587,1,0,0:0:0:0:
64,192,75740,1,0,0:0:0:0:
448,192,75740,1,0,0:0:0:0:
320,192,75817,1,0,0:0:0:0:
64,192,75894,128,0,76201:0:0:0:0:
192,192,75894,128,0,76201:0:0:0:0:
320,192,76201,1,0,0:0:0:0:
448,192,76201,1,0,0:0:0:0:
320,192,76355,128,0,76662:0:0:0:0:
192,192,76355,128,0,76662:0:0:0:0:
448,192,76662,1,0,0:0:0:0:
64,192,76662,1,0,0:0:0:0:
320,192,76816,1,0,0:0:0:0:
448,192,76816,1,0,0:0:0:0:
64,192,76970,1,0,0:0:0:0:
192,192,76970,1,0,0:0:0:0:
320,192,77123,128,0,77431:0:0:0:0:
64,192,77123,128,0,77431:0:0:0:0:
448,192,77431,1,0,0:0:0:0:
192,192,77431,1,0,0:0:0:0:
192,192,77585,128,0,77892:0:0:0:0:
64,192,77585,128,0,77892:0:0:0:0:
448,192,77892,1,0,0:0:0:0:
192,192,78046,1,0,0:0:0:0:
320,192,78046,1,0,0:0:0:0:
448,192,78199,1,0,0:0:0:0:
64,192,78353,1,0,0:0:0:0:
192,192,78353,1,0,0:0:0:0:
320,192,78507,1,0,0:0:0:0:
448,192,78507,1,0,0:0:0:0:
64,192,78660,1,0,0:0:0:0:
192,192,78660,1,0,0:0:0:0:
320,192,78814,1,0,0:0:0:0:
448,192,78814,1,0,0:0:0:0:
192,192,78891,1,0,0:0:0:0:
64,192,78968,1,0,0:0:0:0:
448,192,78968,1,0,0:0:0:0:
320,192,79045,1,0,0:0:0:0:
192,192,79121,1,0,0:0:0:0:
320,192,79198,1,0,0:0:0:0:
448,192,79275,1,0,0:0:0:0:
64,192,79275,1,0,0:0:0:0:
192,192,79429,1,0,0:0:0:0:
320,192,79429,1,0,0:0:0:0:
64,192,79582,1,0,0:0:0:0:
448,192,79582,1,0,0:0:0:0:
320,192,79659,1,0,0:0:0:0:
192,192,79736,1,0,0:0:0:0:
64,192,79813,1,0,0:0:0:0:
320,192,79890,1,0,0:0:0:0:
448,192,79890,1,0,0:0:0:0:
192,192,79967,1,0,0:0:0:0:
64,192,80044,1,0,0:0:0:0:
192,192,80120,1,0,0:0:0:0:
448,192,80197,1,0,0:0:0:0:
320,192,80197,1,0,0:0:0:0:
448,192,80351,1,0,0:0:0:0:
64,192,80351,1,0,0:0:0:0:
64,192,80505,1,0,0:0:0:0:
320,192,80505,1,0,0:0:0:0:
192,192,80658,1,0,0:0:0:0:
320,192,80658,1,0,0:0:0:0:
64,192,80812,128,0,81119:0:0:0:0:
448,192,80812,128,0,81119:0:0:0:0:
320,192,81119,1,0,0:0:0:0:
320,192,81273,1,0,0:0:0:0:
320,192,81427,1,0,0:0:0:0:
64,192,81427,1,0,0:0:0:0:
320,192,81580,1,0,0:0:0:0:
64,192,81734,1,0,0:0:0:0:
64,192,81888,1,0,0:0:0:0:
192,192,82041,1,0,0:0:0:0:
320,192,82041,1,0,0:0:0:0:
320,192,82195,1,0,0:0:0:0:
320,192,82349,1,0,0:0:0:0:
320,192,82503,1,0,0:0:0:0:
320,192,82656,1,0,0:0:0:0:
64,192,82656,1,0,0:0:0:0:
320,192,82810,1,0,0:0:0:0:
320,192,82964,1,0,0:0:0:0:
320,192,83117,1,0,0:0:0:0:
448,192,83271,1,0,0:0:0:0:
192,192,83271,128,0,83578:0:0:0:0:
320,192,83425,128,0,83578:0:0:0:0:
64,192,83578,1,0,0:0:0:0:
64,192,83732,1,0,0:0:0:0:
64,192,83886,1,0,0:0:0:0:
448,192,83886,1,0,0:0:0:0:
64,192,84039,1,0,0:0:0:0:
192,192,84193,1,0,0:0:0:0:
192,192,84347,1,0,0:0:0:0:
320,192,84500,1,0,0:0:0:0:
448,192,84500,128,0,84654:0:0:0:0:
64,192,84654,128,0,84808:0:0:0:0:
192,192,84808,128,0,84962:0:0:0:0:
320,192,84962,128,0,85269:0:0:0:0:
448,192,85115,1,0,0:0:0:0:
64,192,85269,128,0,85423:0:0:0:0:
192,192,85423,128,0,85576:0:0:0:0:
320,192,85576,128,0,85730:0:0:0:0:
64,192,85730,128,0,86037:0:0:0:0:
448,192,85730,128,0,86037:0:0:0:0:
192,192,86037,1,0,0:0:0:0:
192,192,86191,1,0,0:0:0:0:
192,192,86345,1,0,0:0:0:0:
448,192,86345,1,0,0:0:0:0:
192,192,86498,1,0,0:0:0:0:
320,192,86652,1,0,0:0:0:0:
320,192,86806,1,0,0:0:0:0:
192,192,86960,1,0,0:0:0:0:
448,192,86960,1,0,0:0:0:0:
192,192,87113,1,0,0:0:0:0:
192,192,87267,1,0,0:0:0:0:
192,192,87421,1,0,0:0:0:0:
192,192,87574,1,0,0:0:0:0:
320,192,87574,1,0,0:0:0:0:
192,192,87728,1,0,0:0:0:0:
192,192,87882,1,0,0:0:0:0:
192,192,88035,1,0,0:0:0:0:
192,192,88189,1,0,0:0:0:0:
64,192,88189,1,0,0:0:0:0:
320,192,88189,128,0,88650:0:0:0:0:
448,192,88650,1,0,0:0:0:0:
64,192,88727,1,0,0:0:0:0:
448,192,88804,1,0,0:0:0:0:
192,192,88804,1,0,0:0:0:0:
320,192,89034,1,0,0:0:0:0:
192,192,89034,1,0,0:0:0:0:
64,192,89265,1,0,0:0:0:0:
448,192,89265,1,0,0:0:0:0:
320,192,89419,1,0,0:0:0:0:
448,192,89419,1,0,0:0:0:0:
192,192,89495,1,0,0:0:0:0:
64,192,89572,1,0,0:0:0:0:
192,192,89649,1,0,0:0:0:0:
448,192,89726,1,0,0:0:0:0:
320,192,89803,1,0,0:0:0:0:
192,192,89880,1,0,0:0:0:0:
320,192,89956,1,0,0:0:0:0:
64,192,90033,1,0,0:0:0:0:
448,192,90033,1,0,0:0:0:0:
64,192,90187,1,0,0:0:0:0:
192,192,90187,1,0,0:0:0:0:
320,192,90341,1,0,0:0:0:0:
448,192,90341,1,0,0:0:0:0:
64,192,90494,1,0,0:0:0:0:
192,192,90494,1,0,0:0:0:0:
320,192,90648,1,0,0:0:0:0:
448,192,90648,1,0,0:0:0:0:
192,192,91878,1,0,0:0:0:0:
320,192,93107,1,0,0:0:0:0:
64,192,94337,1,0,0:0:0:0:
448,192,95566,1,0,0:0:0:0:
64,192,96796,1,0,0:0:0:0:
320,192,98025,1,0,0:0:0:0:
192,192,99255,1,0,0:0:0:0:
448,192,100484,1,0,0:0:0:0:
64,192,100484,1,0,0:0:0:0:
448,192,101099,1,0,0:0:0:0:
192,192,101714,1,0,0:0:0:0:
192,192,102328,1,0,0:0:0:0:
320,192,102943,1,0,0:0:0:0:
320,192,103558,1,0,0:0:0:0:
192,192,104173,1,0,0:0:0:0:
192,192,104787,1,0,0:0:0:0:
448,192,105402,1,0,0:0:0:0:
448,192,106017,1,0,0:0:0:0:
64,192,106632,1,0,0:0:0:0:
64,192,107246,1,0,0:0:0:0:
320,192,107861,1,0,0:0:0:0:
320,192,108476,1,0,0:0:0:0:
192,192,109091,1,0,0:0:0:0:
192,192,109705,1,0,0:0:0:0:
448,192,110320,1,0,0:0:0:0:
64,192,110320,1,0,0:0:0:0:
320,192,110628,1,0,0:0:0:0:
192,192,110781,1,0,0:0:0:0:
448,192,110935,1,0,0:0:0:0:
64,192,110935,1,0,0:0:0:0:
192,192,111242,1,0,0:0:0:0:
320,192,111242,1,0,0:0:0:0:
64,192,111550,1,0,0:0:0:0:
192,192,111550,1,0,0:0:0:0:
320,192,111703,1,0,0:0:0:0:
320,192,112011,1,0,0:0:0:0:
192,192,112164,1,0,0:0:0:0:
64,192,112164,1,0,0:0:0:0:
320,192,112472,1,0,0:0:0:0:
192,192,112472,1,0,0:0:0:0:
448,192,112625,1,0,0:0:0:0:
320,192,112702,1,0,0:0:0:0:
64,192,112779,1,0,0:0:0:0:
192,192,112779,1,0,0:0:0:0:
448,192,113240,1,0,0:0:0:0:
192,192,113394,1,0,0:0:0:0:
64,192,113394,1,0,0:0:0:0:
320,192,113701,1,0,0:0:0:0:
192,192,113701,1,0,0:0:0:0:
448,192,114009,1,0,0:0:0:0:
320,192,114009,1,0,0:0:0:0:
64,192,114162,1,0,0:0:0:0:
192,192,114623,1,0,0:0:0:0:
64,192,114623,1,0,0:0:0:0:
192,192,114931,1,0,0:0:0:0:
448,192,115085,1,0,0:0:0:0:
192,192,115161,1,0,0:0:0:0:
64,192,115238,1,0,0:0:0:0:
320,192,115238,1,0,0:0:0:0:
320,192,115546,1,0,0:0:0:0:
448,192,115546,1,0,0:0:0:0:
64,192,115853,1,0,0:0:0:0:
320,192,115853,1,0,0:0:0:0:
192,192,116160,1,0,0:0:0:0:
320,192,116160,1,0,0:0:0:0:
448,192,116314,1,0,0:0:0:0:
192,192,116314,1,0,0:0:0:0:
64,192,116468,1,0,0:0:0:0:
448,192,116468,1,0,0:0:0:0:
192,192,116775,1,0,0:0:0:0:
64,192,116775,1,0,0:0:0:0:
320,192,117082,1,0,0:0:0:0:
448,192,117082,1,0,0:0:0:0:
64,192,117390,1,0,0:0:0:0:
320,192,117390,1,0,0:0:0:0:
192,192,117544,1,0,0:0:0:0:
320,192,117544,1,0,0:0:0:0:
192,192,119388,1,0,0:0:0:0:
448,192,119541,1,0,0:0:0:0:
64,192,119541,1,0,0:0:0:0:
192,192,119695,1,0,0:0:0:0:
64,192,120156,1,0,0:0:0:0:
448,192,120156,1,0,0:0:0:0:
320,192,120156,128,0,122615:0:0:0:0:
192,192,120464,1,0,0:0:0:0:
64,192,120617,1,0,0:0:0:0:
448,192,120771,1,0,0:0:0:0:
192,192,120925,1,0,0:0:0:0:
448,192,121078,1,0,0:0:0:0:
64,192,121078,1,0,0:0:0:0:
64,192,121232,1,0,0:0:0:0:
448,192,121539,1,0,0:0:0:0:
192,192,121693,1,0,0:0:0:0:
64,192,121847,1,0,0:0:0:0:
448,192,122000,1,0,0:0:0:0:
64,192,122154,1,0,0:0:0:0:
192,192,122308,1,0,0:0:0:0:
448,192,122462,1,0,0:0:0:0:
64,192,122615,128,0,125074:0:0:0:0:
192,192,122615,1,0,0:0:0:0:
320,192,122923,1,0,0:0:0:0:
192,192,123076,1,0,0:0:0:0:
448,192,123230,1,0,0:0:0:0:
192,192,123384,1,0,0:0:0:0:
448,192,123537,1,0,0:0:0:0:
320,192,123537,1,0,0:0:0:0:
320,192,123691,1,0,0:0:0:0:
448,192,123845,1,0,0:0:0:0:
320,192,124152,1,0,0:0:0:0:
448,192,124460,1,0,0:0:0:0:
192,192,124613,1,0,0:0:0:0:
448,192,124767,1,0,0:0:0:0:
320,192,124921,1,0,0:0:0:0:
448,192,125074,128,0,127533:0:0:0:0:
192,192,125074,1,0,0:0:0:0:
320,192,125382,1,0,0:0:0:0:
192,192,125535,1,0,0:0:0:0:
64,192,125689,1,0,0:0:0:0:
320,192,125843,1,0,0:0:0:0:
192,192,125996,1,0,0:0:0:0:
64,192,125996,1,0,0:0:0:0:
64,192,126150,1,0,0:0:0:0:
320,192,126304,1,0,0:0:0:0:
64,192,126611,1,0,0:0:0:0:
320,192,126919,1,0,0:0:0:0:
192,192,127072,1,0,0:0:0:0:
64,192,127226,1,0,0:0:0:0:
320,192,127380,1,0,0:0:0:0:
192,192,127533,128,0,129992:0:0:0:0:
64,192,127533,1,0,0:0:0:0:
448,192,127841,1,0,0:0:0:0:
64,192,127994,1,0,0:0:0:0:
320,192,128148,1,0,0:0:0:0:
448,192,128302,1,0,0:0:0:0:
64,192,128455,1,0,0:0:0:0:
320,192,128455,1,0,0:0:0:0:
320,192,128609,1,0,0:0:0:0:
448,192,128763,1,0,0:0:0:0:
320,192,129070,1,0,0:0:0:0:
64,192,129224,1,0,0:0:0:0:
448,192,129378,1,0,0:0:0:0:
320,192,129531,1,0,0:0:0:0:
64,192,129685,1,0,0:0:0:0:
448,192,129839,1,0,0:0:0:0:
320,192,129992,1,0,0:0:0:0:
192,192,130146,1,0,0:0:0:0:
320,192,130300,1,0,0:0:0:0:
192,192,130453,1,0,0:0:0:0:
320,192,130607,1,0,0:0:0:0:
192,192,130761,1,0,0:0:0:0:
320,192,130914,1,0,0:0:0:0:
192,192,131068,1,0,0:0:0:0:
64,192,131068,1,0,0:0:0:0:
320,192,131222,1,0,0:0:0:0:
64,192,131222,1,0,0:0:0:0:
448,192,131375,1,0,0:0:0:0:
64,192,131529,1,0,0:0:0:0:
448,192,131683,1,0,0:0:0:0:
64,192,131837,1,0,0:0:0:0:
448,192,131990,1,0,0:0:0:0:
320,192,131990,1,0,0:0:0:0:
192,192,132144,1,0,0:0:0:0:
64,192,132144,1,0,0:0:0:0:
320,192,132451,1,0,0:0:0:0:
448,192,132451,1,0,0:0:0:0:
64,192,132605,1,0,0:0:0:0:
320,192,132759,1,0,0:0:0:0:
192,192,132912,1,0,0:0:0:0:
320,192,133066,1,0,0:0:0:0:
64,192,133220,1,0,0:0:0:0:
320,192,133373,1,0,0:0:0:0:
64,192,133527,1,0,0:0:0:0:
192,192,133604,1,0,0:0:0:0:
448,192,133681,1,0,0:0:0:0:
320,192,133681,1,0,0:0:0:0:
320,192,133911,1,0,0:0:0:0:
448,192,133911,1,0,0:0:0:0:
320,192,134142,1,0,0:0:0:0:
448,192,134142,1,0,0:0:0:0:
64,192,134296,1,0,0:0:0:0:
192,192,134296,1,0,0:0:0:0:
64,192,134526,1,0,0:0:0:0:
320,192,134526,1,0,0:0:0:0:
192,192,134757,1,0,0:0:0:0:
448,192,134757,1,0,0:0:0:0:
64,192,134910,1,0,0:0:0:0:
320,192,134910,1,0,0:0:0:0:
64,192,135064,1,0,0:0:0:0:
192,192,135218,1,0,0:0:0:0:
448,192,135218,1,0,0:0:0:0:
320,192,135525,1,0,0:0:0:0:
64,192,135525,1,0,0:0:0:0:
64,192,135679,1,0,0:0:0:0:
192,192,135832,1,0,0:0:0:0:
448,192,135832,1,0,0:0:0:0:
448,192,135986,1,0,0:0:0:0:
320,192,136140,1,0,0:0:0:0:
64,192,136140,1,0,0:0:0:0:
320,192,136294,1,0,0:0:0:0:
192,192,136294,1,0,0:0:0:0:
64,192,136447,1,0,0:0:0:0:
192,192,136447,1,0,0:0:0:0:
320,192,136601,1,0,0:0:0:0:
448,192,136601,1,0,0:0:0:0:
64,192,136755,1,0,0:0:0:0:
320,192,136755,1,0,0:0:0:0:
192,192,136908,1,0,0:0:0:0:
320,192,137062,1,0,0:0:0:0:
448,192,137062,1,0,0:0:0:0:
320,192,137216,1,0,0:0:0:0:
448,192,137369,1,0,0:0:0:0:
64,192,137369,1,0,0:0:0:0:
192,192,137446,1,0,0:0:0:0:
320,192,137523,1,0,0:0:0:0:
64,192,137600,1,0,0:0:0:0:
448,192,137677,1,0,0:0:0:0:
192,192,137754,1,0,0:0:0:0:
320,192,137830,1,0,0:0:0:0:
64,192,137907,1,0,0:0:0:0:
320,192,137984,1,0,0:0:0:0:
192,192,138061,1,0,0:0:0:0:
448,192,138138,1,0,0:0:0:0:
64,192,138215,1,0,0:0:0:0:
320,192,138291,1,0,0:0:0:0:
192,192,138368,1,0,0:0:0:0:
448,192,138445,1,0,0:0:0:0:
320,192,138522,1,0,0:0:0:0:
192,192,138599,1,0,0:0:0:0:
64,192,138599,1,0,0:0:0:0:
448,192,138676,1,0,0:0:0:0:
320,192,138753,1,0,0:0:0:0:
448,192,138829,1,0,0:0:0:0:
192,192,138906,1,0,0:0:0:0:
64,192,138906,1,0,0:0:0:0:
320,192,138983,1,0,0:0:0:0:
448,192,139060,1,0,0:0:0:0:
320,192,139137,1,0,0:0:0:0:
64,192,139214,1,0,0:0:0:0:
192,192,139214,1,0,0:0:0:0:
64,192,139367,1,0,0:0:0:0:
448,192,139521,1,0,0:0:0:0:
448,192,139675,1,0,0:0:0:0:
64,192,139828,128,0,140136:0:0:0:0:
192,192,139828,128,0,140136:0:0:0:0:
448,192,140136,1,0,0:0:0:0:
320,192,140136,1,0,0:0:0:0:
64,192,140289,128,0,140443:0:0:0:0:
192,192,140289,128,0,140443:0:0:0:0:
64,192,140597,128,0,140750:0:0:0:0:
192,192,140597,128,0,140750:0:0:0:0:
320,192,140750,1,0,0:0:0:0:
448,192,140750,1,0,0:0:0:0:
448,192,140904,1,0,0:0:0:0:
64,192,140981,1,0,0:0:0:0:
320,192,141058,1,0,0:0:0:0:
192,192,141058,1,0,0:0:0:0:
320,192,141212,1,0,0:0:0:0:
192,192,141212,1,0,0:0:0:0:
192,192,141365,1,0,0:0:0:0:
320,192,141365,1,0,0:0:0:0:
320,192,141519,1,0,0:0:0:0:
192,192,141519,1,0,0:0:0:0:
320,192,141673,1,0,0:0:0:0:
192,192,141673,1,0,0:0:0:0:
192,192,141826,1,0,0:0:0:0:
320,192,141826,1,0,0:0:0:0:
320,192,141980,1,0,0:0:0:0:
192,192,141980,1,0,0:0:0:0:
192,192,142134,1,0,0:0:0:0:
320,192,142134,1,0,0:0:0:0:
64,192,142287,128,0,142595:0:0:0:0:
320,192,142441,128,0,142595:0:0:0:0:
192,192,142595,1,0,0:0:0:0:
448,192,142595,1,0,0:0:0:0:
64,192,142748,128,0,142902:0:0:0:0:
320,192,142748,128,0,142902:0:0:0:0:
64,192,143056,128,0,143210:0:0:0:0:
320,192,143056,128,0,143210:0:0:0:0:
448,192,143210,1,0,0:0:0:0:
192,192,143210,1,0,0:0:0:0:
448,192,143363,1,0,0:0:0:0:
192,192,143440,1,0,0:0:0:0:
64,192,143517,1,0,0:0:0:0:
320,192,143517,128,0,143824:0:0:0:0:
448,192,143824,128,0,143978:0:0:0:0:
192,192,143824,1,0,0:0:0:0:
64,192,143978,128,0,144285:0:0:0:0:
320,192,143978,1,0,0:0:0:0:
192,192,144285,128,0,144439:0:0:0:0:
320,192,144285,1,0,0:0:0:0:
448,192,144439,128,0,144593:0:0:0:0:
64,192,144439,1,0,0:0:0:0:
320,192,144593,128,0,144746:0:0:0:0:
64,192,144746,128,0,145054:0:0:0:0:
448,192,144746,128,0,145054:0:0:0:0:
192,192,145054,1,0,0:0:0:0:
320,192,145054,1,0,0:0:0:0:
64,192,145207,128,0,145361:0:0:0:0:
448,192,145207,128,0,145361:0:0:0:0:
64,192,145515,128,0,145669:0:0:0:0:
448,192,145515,128,0,145669:0:0:0:0:
320,192,145669,1,0,0:0:0:0:
192,192,145669,1,0,0:0:0:0:
64,192,145822,1,0,0:0:0:0:
192,192,145899,1,0,0:0:0:0:
320,192,145976,1,0,0:0:0:0:
448,192,145976,1,0,0:0:0:0:
320,192,146130,1,0,0:0:0:0:
448,192,146130,1,0,0:0:0:0:
320,192,146283,1,0,0:0:0:0:
448,192,146283,1,0,0:0:0:0:
320,192,146437,1,0,0:0:0:0:
448,192,146437,1,0,0:0:0:0:
320,192,146591,1,0,0:0:0:0:
448,192,146591,1,0,0:0:0:0:
320,192,146744,1,0,0:0:0:0:
448,192,146744,1,0,0:0:0:0:
448,192,146898,1,0,0:0:0:0:
320,192,146898,1,0,0:0:0:0:
320,192,147052,1,0,0:0:0:0:
448,192,147052,1,0,0:0:0:0:
64,192,147205,1,0,0:0:0:0:
192,192,147205,1,0,0:0:0:0:
448,192,147282,1,0,0:0:0:0:
320,192,147359,1,0,0:0:0:0:
448,192,147436,1,0,0:0:0:0:
192,192,147513,1,0,0:0:0:0:
64,192,147513,1,0,0:0:0:0:
320,192,147590,1,0,0:0:0:0:
448,192,147666,1,0,0:0:0:0:
192,192,147743,1,0,0:0:0:0:
64,192,147820,1,0,0:0:0:0:
448,192,147820,1,0,0:0:0:0:
320,192,148051,1,0,0:0:0:0:
192,192,148051,1,0,0:0:0:0:
64,192,148281,1,0,0:0:0:0:
192,192,148281,1,0,0:0:0:0:
448,192,148435,1,0,0:0:0:0:
320,192,148435,1,0,0:0:0:0:
192,192,148512,1,0,0:0:0:0:
64,192,148665,1,0,0:0:0:0:
320,192,148742,1,0,0:0:0:0:
448,192,148742,1,0,0:0:0:0:
320,192,148896,1,0,0:0:0:0:
64,192,149050,1,0,0:0:0:0:
448,192,149050,1,0,0:0:0:0:
448,192,149203,1,0,0:0:0:0:
192,192,149203,1,0,0:0:0:0:
64,192,149357,1,0,0:0:0:0:
192,192,149357,1,0,0:0:0:0:
448,192,149511,1,0,0:0:0:0:
64,192,149511,1,0,0:0:0:0:
192,192,149664,128,0,149972:0:0:0:0:
320,192,149664,128,0,149972:0:0:0:0:
448,192,149972,1,0,0:0:0:0:
64,192,149972,1,0,0:0:0:0:
64,192,150125,1,0,0:0:0:0:
448,192,150125,1,0,0:0:0:0:
448,192,150279,1,0,0:0:0:0:
64,192,150279,1,0,0:0:0:0:
64,192,150433,1,0,0:0:0:0:
448,192,150433,1,0,0:0:0:0:
192,192,150587,128,0,150740:0:0:0:0:
320,192,150587,128,0,150740:0:0:0:0:
448,192,150740,128,0,150894:0:0:0:0:
64,192,150740,128,0,150894:0:0:0:0:
192,192,150894,128,0,151048:0:0:0:0:
320,192,150894,128,0,151048:0:0:0:0:
64,192,151048,1,0,0:0:0:0:
448,192,151048,1,0,0:0:0:0:
448,192,151201,1,0,0:0:0:0:
64,192,151201,1,0,0:0:0:0:
64,192,151355,1,0,0:0:0:0:
448,192,151355,1,0,0:0:0:0:
448,192,151509,1,0,0:0:0:0:
64,192,151509,1,0,0:0:0:0:
192,192,151662,1,0,0:0:0:0:
320,192,151662,1,0,0:0:0:0:
192,192,151816,1,0,0:0:0:0:
320,192,151816,1,0,0:0:0:0:
320,192,151970,1,0,0:0:0:0:
192,192,151970,1,0,0:0:0:0:
448,192,152123,1,0,0:0:0:0:
64,192,152123,1,0,0:0:0:0:
320,192,152277,1,0,0:0:0:0:
64,192,152277,1,0,0:0:0:0:
448,192,152431,1,0,0:0:0:0:
320,192,152431,1,0,0:0:0:0:
64,192,152585,1,0,0:0:0:0:
192,192,152585,1,0,0:0:0:0:
192,192,152738,1,0,0:0:0:0:
64,192,152738,1,0,0:0:0:0:
64,192,152892,1,0,0:0:0:0:
192,192,152892,1,0,0:0:0:0:
192,192,153046,1,0,0:0:0:0:
64,192,153046,1,0,0:0:0:0:
64,192,153199,1,0,0:0:0:0:
192,192,153199,1,0,0:0:0:0:
448,192,153276,1,0,0:0:0:0:
192,192,153353,1,0,0:0:0:0:
320,192,153353,128,0,153660:0:0:0:0:
64,192,153660,128,0,153814:0:0:0:0:
448,192,153660,1,0,0:0:0:0:
192,192,153814,128,0,154121:0:0:0:0:
320,192,153814,1,0,0:0:0:0:
448,192,154121,128,0,154275:0:0:0:0:
320,192,154121,1,0,0:0:0:0:
64,192,154198,1,0,0:0:0:0:
192,192,154275,128,0,154429:0:0:0:0:
320,192,154275,1,0,0:0:0:0:
448,192,154429,128,0,154582:0:0:0:0:
64,192,154582,128,0,154890:0:0:0:0:
320,192,154582,128,0,154890:0:0:0:0:
192,192,154890,1,0,0:0:0:0:
448,192,154890,1,0,0:0:0:0:
448,192,155044,1,0,0:0:0:0:
192,192,155044,1,0,0:0:0:0:
192,192,155197,1,0,0:0:0:0:
448,192,155197,1,0,0:0:0:0:
448,192,155351,1,0,0:0:0:0:
192,192,155351,1,0,0:0:0:0:
320,192,155505,128,0,155658:0:0:0:0:
64,192,155505,128,0,155658:0:0:0:0:
192,192,155658,128,0,155812:0:0:0:0:
448,192,155658,128,0,155812:0:0:0:0:
320,192,155812,128,0,155966:0:0:0:0:
64,192,155812,128,0,155966:0:0:0:0:
192,192,155966,1,0,0:0:0:0:
448,192,155966,1,0,0:0:0:0:
448,192,156119,1,0,0:0:0:0:
192,192,156119,1,0,0:0:0:0:
192,192,156273,1,0,0:0:0:0:
448,192,156273,1,0,0:0:0:0:
448,192,156427,1,0,0:0:0:0:
192,192,156427,1,0,0:0:0:0:
320,192,156580,1,0,0:0:0:0:
64,192,156580,1,0,0:0:0:0:
64,192,156734,1,0,0:0:0:0:
320,192,156734,1,0,0:0:0:0:
320,192,156888,1,0,0:0:0:0:
64,192,156888,1,0,0:0:0:0:
448,192,157041,128,0,158271:0:0:0:0:
192,192,157349,1,0,0:0:0:0:
192,192,157656,1,0,0:0:0:0:
320,192,157964,1,0,0:0:0:0:
320,192,158117,1,0,0:0:0:0:
64,192,158271,128,0,159500:0:0:0:0:
192,192,158578,1,0,0:0:0:0:
448,192,158886,1,0,0:0:0:0:
320,192,159039,1,0,0:0:0:0:
192,192,159193,1,0,0:0:0:0:
320,192,159347,1,0,0:0:0:0:
448,192,159500,1,0,0:0:0:0:
192,192,159500,1,0,0:0:0:0:
