osu file format v14

[General]
AudioFilename: Come & Get It by Krewella (converted).mp3
AudioLeadIn: 0
PreviewTime: 55846
Countdown: 0
SampleSet: Normal
StackLeniency: 0.6
Mode: 0
LetterboxInBreaks: 1
WidescreenStoryboard: 1

[Editor]
Bookmarks: 12419,23454,34488,45523,47937,56557,67592,78626,89661,100695,111730,122764,133799,144833,155868,166902,177937
DistanceSpacing: 1.3
BeatDivisor: 4
GridSize: 4
TimelineZoom: 1.9

[Metadata]
Title:Come & Get It
TitleUnicode:Come & Get It
Artist:Krewella
ArtistUnicode:Krewella
Creator:Aleks719
Version:Advanced
Source:
Tags:reiji-rj vass_bass edm
BeatmapID:2532210
BeatmapSetID:129281

[Difficulty]
HPDrainRate:4.3
CircleSize:3.5
OverallDifficulty:4.7
ApproachRate:6.2
SliderMultiplier:1.4
SliderTickRate:2

[Events]
//Background and Video events
0,0,"riding_by_cookie-wallpaper-1366x768.jpg",0,0
//Break Periods
2,100895,110350
//Storyboard Layer 0 (Background)
//Storyboard Layer 1 (Fail)
//Storyboard Layer 2 (Pass)
//Storyboard Layer 3 (Foreground)
//Storyboard Layer 4 (Overlay)
//Storyboard Sound Samples

[TimingPoints]
6,344.827586206897,4,1,0,40,1,0
12419,-133.333333333333,4,1,0,40,0,0
15178,-133.333333333333,4,1,0,45,0,0
16902,-133.333333333333,4,1,0,50,0,0
19316,-133.333333333333,4,1,0,55,0,0
22074,-133.333333333333,4,1,0,60,0,0
22764,-100,4,1,0,65,0,0
23454,-100,4,1,0,70,0,0
34488,-100,4,1,0,80,0,1
44661,-100,4,1,0,70,0,0
45523,-100,4,1,0,80,0,1
45868,-100,4,1,0,70,0,0
56557,-100,4,1,0,70,0,1
56902,-100,4,1,0,70,0,0
78626,-100,4,1,0,70,0,1
88971,-100,4,1,0,70,0,0
89661,-100,4,1,0,70,0,1
90006,-100,4,1,0,70,0,0
95178,-100,4,1,0,70,0,1
95523,-100,4,1,0,70,0,0
111730,-166.666666666667,4,2,0,80,0,0
122764,-125,4,3,0,50,0,0
125523,-125,4,3,0,60,0,0
128281,-125,4,1,0,60,0,0
129661,-125,4,1,0,65,0,0
133799,-166.666666666667,4,1,0,70,0,0
155868,-100,4,1,0,70,0,1
156902,-100,4,1,0,70,0,1
166816,-100,4,1,0,70,0,0
166902,-100,4,1,0,70,0,1
167247,-100,4,1,0,70,0,0
177937,-100,4,1,0,80,0,1
178109,-100,4,1,0,70,0,0

[Colours]
Combo1 : 0,70,140
Combo2 : 119,0,119
Combo3 : 193,198,15
Combo4 : 242,0,0
Combo5 : 0,124,185
Combo6 : 242,121,0
Combo7 : 0,157,0

[HitObjects]
336,292,12419,5,0,0:0:0:0:
336,292,12764,2,0,P|344:196|320:132,1,157.500006008148,8|8,3:0|3:0,0:0:0:0:
336,108,13454,2,0,P|248:156|144:140,1,210.000008010865
20,64,14488,2,0,P|0:112|4:164,1,105.000004005432
64,288,15178,5,0,0:0:0:0:
64,288,15523,2,0,P|176:272|252:344,1,210.000008010865,4|0,3:0|0:0,0:0:0:0:
245,330,16902,1,0,0:0:0:0:
488,104,17592,2,0,L|496:48,2,52.5000020027161,0|8|0,0:0|3:0|0:0,0:0:0:0:
360,156,18281,6,0,P|376:224|356:308,1,157.500006008148,0|8,0:0|3:0,0:0:0:0:
332,328,18971,2,0,L|228:320,1,105.000004005432
84,360,19661,2,0,P|60:284|76:208,1,157.500006008148,0|8,0:0|3:0,0:0:0:0:
92,180,20350,2,0,P|100:156|104:124,2,52.5000020027161,0|8|0,0:0|3:0|0:0,0:0:0:0:
199,77,21040,1,0,0:0:0:0:
199,77,21212,2,0,P|211:129|199:185,1,105.000004005432
206,207,21730,2,0,L|150:221,1,52.5000020027161
256,192,22074,12,4,23454,0:0:0:0:
272,128,24143,5,2,0:2:0:0:
440,200,24488,2,0,P|448:232|440:268,1,70,8|2,0:0|2:0,0:0:0:0:
360,232,24833,2,0,P|368:148|412:116,1,140,0|8,0:0|0:0,0:0:0:0:
372,316,25523,2,0,L|296:328,1,70
221,283,25868,1,0,0:0:0:0:
41,316,26212,6,0,P|41:284|45:244,1,70,0|2,0:0|2:0,0:0:0:0:
56,156,26557,1,8,0:0:0:0:
56,156,26730,2,0,P|132:148|196:156,1,140
280,196,27247,1,8,0:0:0:0:
280,196,27592,6,0,P|356:204|420:196,1,140,0|8,0:0|0:0,0:0:0:0:
416,108,28109,2,0,P|340:100|276:108,1,140
192,140,28626,1,8,0:0:0:0:
8,216,28971,6,0,P|4:180|8:144,2,70,4|2|8,0:0|2:0|0:0,0:0:0:0:
4,308,29488,2,0,P|76:300|148:308,1,140
232,348,30006,2,0,L|240:276,1,70,8|2,0:0|2:0,0:0:0:0:
324,320,30350,6,0,L|332:248,2,70,0|0|8,2:0|0:0|0:0,0:0:0:0:
416,296,30868,2,0,P|440:232|436:160,1,140,2|0,2:0|0:0,0:0:0:0:
408,76,31385,1,0,0:0:0:0:
216,76,31730,6,0,L|145:104,1,70,0|8,0:0|0:0,0:0:0:0:
192,184,32074,2,0,L|262:155,1,70,0|8,0:0|0:0,0:0:0:0:
340,120,32419,6,0,L|368:190,1,70,0|8,0:0|0:0,0:0:0:0:
448,152,32763,2,0,L|419:81,1,70,0|8,0:0|0:0,0:0:0:0:
256,192,33023,12,0,33799,0:0:0:0:
320,120,34488,6,2,P|252:124|172:120,1,140,6|8,0:0|0:0,0:0:0:0:
92,96,35006,2,2,B|80:168|80:168|92:236,1,140,2|0,0:0|0:0,0:0:0:0:
120,320,35523,1,8,0:0:0:0:
120,320,35868,2,2,P|192:328|264:320,1,140,0|8,0:0|0:0,0:0:0:0:
348,332,36385,2,2,P|344:264|348:192,1,140,0|0,0:0|0:0,0:0:0:0:
364,104,36902,1,8,0:0:0:0:
364,104,37247,6,2,P|304:72|232:76,1,140,2|8,0:0|0:0,0:0:0:0:
152,116,37764,2,2,P|82:119|21:87,1,140,2|0,0:0|0:0,0:0:0:0:
4,63,38281,1,8,0:0:0:0:
4,63,38626,2,2,P|12:134|2:207,1,140,0|10,0:0|0:0,0:0:0:0:
120,352,39316,5,0,0:0:0:0:
305,361,39661,1,8,0:0:0:0:
168,236,40006,2,2,B|152:188|152:188|156:152|156:152|136:100,1,140,6|8,0:0|0:0,0:0:0:0:
68,44,40523,2,2,P|144:12|196:32,1,140,2|0,0:0|0:0,0:0:0:0:
247,108,41040,1,8,0:0:0:0:
416,39,41385,2,2,P|445:105|457:177,1,140,0|8,0:0|0:0,0:0:0:0:
377,217,41902,6,2,P|373:289|401:353,1,140,0|0,0:0|0:0,0:0:0:0:
320,310,42419,2,0,P|283:304|247:306,1,70,8|0,0:0|0:0,0:0:0:0:
161,325,42764,1,8,0:0:0:0:
161,325,43109,1,8,0:0:0:0:
102,147,43454,1,8,0:0:0:0:
102,147,43799,1,8,0:0:0:0:
286,183,44143,2,0,B|376:153|378:244|465:264|532:213|488:155,1,280,8|8,0:0|0:0,0:0:0:0:
208,332,45523,6,2,B|212:300|212:300|124:288|124:288|126:269,1,140,6|8,0:0|0:0,0:0:0:0:
304,332,46212,2,0,B|300:300|300:300|388:288|388:288|385:269,1,140,0|8,0:0|0:0,0:0:0:0:
204,104,46902,6,0,L|204:174,1,70
308,174,47247,2,0,L|308:104,1,70,8|8,0:0|0:3,0:0:0:0:
392,136,47592,2,0,P|396:101|389:67,1,70,0|8,0:0|0:3,0:0:0:0:
308,104,47937,2,0,P|303:138|310:172,2,70,8|0|0,0:0|0:3|0:0,0:0:0:0:
64,144,48626,5,0,0:0:0:0:
12,232,48971,2,2,P|48:236|88:228,1,70,0|0,0:0|0:3,0:0:0:0:
156,180,49316,2,2,P|192:176|224:181,1,70,8|0,0:0|0:3,0:0:0:0:
488,256,49661,6,2,L|416:352,1,105
404,260,50006,2,2,L|324:232,1,70,8|2,0:0|0:0,0:0:0:0:
156,252,50523,2,0,L|240:212,2,70
144,160,51040,1,6,0:0:0:0:
432,20,51385,6,0,L|420:92,1,70,8|8,0:0|0:2,0:0:0:0:
332,156,51730,1,0,0:0:0:0:
332,52,51902,1,8,0:3:0:0:
432,20,52074,6,0,L|420:92,2,70,8|8|0,0:0|0:2|0:0,0:0:0:0:
280,120,52764,1,0,0:0:0:0:
224,200,52937,1,0,0:0:0:0:
256,192,53109,12,10,55868,0:0:0:0:
164,120,56557,6,2,B|156:152|156:152|164:164|164:164|140:168|140:168|164:180|164:180|156:224,1,140,6|8,0:0|0:0,0:0:0:0:
40,340,57074,1,8,0:3:0:0:
12,248,57247,1,0,0:0:0:0:
36,156,57419,1,8,0:3:0:0:
64,64,57592,6,2,L|8:8,2,70,10|2|2,0:0|0:0|0:0,0:0:0:0:
152,156,58109,6,0,P|192:168|224:164,1,70,0|8,0:0|0:0,0:0:0:0:
280,72,58454,2,0,P|240:60|204:64,1,70,8|0,0:3|0:0,0:0:0:0:
120,256,58799,6,2,B|100:284|100:284|96:308|96:308|80:332,2,70,2|8|2,0:0|0:0|0:0,0:0:0:0:
208,236,59316,2,2,P|248:228|284:232,1,70
208,236,59661,2,0,P|248:228|284:232,5,70,0|8|0|8|8|8,0:0|0:3|0:0|0:3|0:0|0:3,0:0:0:0:
344,88,60695,6,2,B|376:80|376:80|396:68|396:68|416:60,1,70,4|0,0:3|0:0,0:0:0:0:
392,204,61040,2,2,L|316:180,1,70,8|2,0:0|0:0,0:0:0:0:
392,204,61557,2,2,L|316:180,2,70,0|10|0,0:0|0:0|0:0,0:0:0:0:
316,180,62074,6,2,B|288:172|288:172|272:180|272:180|256:180|256:180|240:172|240:172|232:156|232:156|184:128,1,140,6|8,0:0|0:0,0:0:0:0:
112,140,62592,1,8,0:3:0:0:
36,196,62764,1,0,0:0:0:0:
112,140,62937,1,8,0:3:0:0:
112,288,63109,6,2,L|144:360,2,70,10|2|2,0:0|0:0|0:0,0:0:0:0:
112,140,63626,2,0,P|140:112|172:104,1,70,0|8,0:0|0:0,0:0:0:0:
36,152,63971,2,0,P|76:156|108:144,1,70,8|0,0:3|0:0,0:0:0:0:
176,92,64316,6,2,P|136:64|96:64,2,70,2|8|2,0:0|0:0|0:0,0:0:0:0:
308,120,64833,2,0,L|388:132,1,70,2|0,0:0|0:0,0:0:0:0:
212,132,65178,1,10,0:0:0:0:
212,132,65350,1,10,0:3:0:0:
440,236,65695,1,8,0:3:0:0:
436,248,65868,1,8,0:0:0:0:
432,260,66040,1,8,0:3:0:0:
352,188,66212,2,0,P|204:128|168:208,1,280,8|10,0:0|0:0,0:0:0:0:
84,272,67592,6,2,P|68:200|92:124,1,140,4|8,0:0|0:0,0:0:0:0:
224,40,68281,2,0,L|300:48,1,70,2|0,0:0|0:0,0:0:0:0:
296,92,68626,1,10,0:0:0:0:
384,44,68799,2,0,B|412:92|412:92|404:184,1,140,2|2,0:0|0:0,0:0:0:0:
240,268,69316,2,0,P|256:228|284:208,1,70,8|0,0:0|0:0,0:0:0:0:
336,292,69661,1,2,0:0:0:0:
148,244,70006,1,8,0:0:0:0:
240,268,70350,6,0,P|164:292|88:276,2,140,6|10|2,0:0|0:0|0:0,0:0:0:0:
264,176,71212,1,0,0:0:0:0:
288,84,71385,2,0,L|364:84,1,70,8|2,0:0|0:0,0:0:0:0:
408,72,71730,2,0,P|428:104|432:144,1,70,4|2,0:0|0:0,0:0:0:0:
448,276,72074,2,0,L|368:272,1,70,10|0,0:0|0:0,0:0:0:0:
264,268,72419,1,2,0:0:0:0:
56,260,72764,2,0,B|40:292|40:292|48:332,1,70,10|0,0:0|0:0,0:0:0:0:
112,188,73109,6,0,L|88:28,1,140,6|10,0:0|0:0,0:0:0:0:
192,52,73626,1,0,0:0:0:0:
192,52,73799,2,0,L|264:56,1,70,2|0,0:0|0:0,0:0:0:0:
372,36,74143,1,10,0:0:0:0:
372,36,74316,2,0,P|408:100|408:176,1,140,2|2,0:0|0:0,0:0:0:0:
364,284,74833,2,0,L|292:288,2,70,8|0|2,0:0|0:0|0:0,0:0:0:0:
364,284,75350,2,0,L|292:288,2,70,8|2|0,0:0|0:0|0:0,0:0:0:0:
319,203,75868,6,0,P|209:100|158:114,2,210,6|2|6,0:0|0:0|0:0,0:0:0:0:
184,168,77247,2,0,L|496:152,1,280,0|4,0:0|0:0,0:0:0:0:
300,136,78626,6,2,P|380:116|444:152,1,140,6|8,0:0|0:0,0:0:0:0:
364,216,79144,2,2,B|212:228,1,140,2|8,0:0|0:3,0:0:0:0:
112,192,79661,1,8,0:0:0:0:
120,300,79833,1,8,0:3:0:0:
20,248,80006,2,2,P|4:164|12:96,1,140,4|8,0:3|0:0,0:0:0:0:
212,172,80523,2,2,P|228:256|220:324,1,140,2|8,0:0|0:3,0:0:0:0:
120,300,81040,1,8,0:0:0:0:
112,192,81212,1,8,0:3:0:0:
144,88,81385,6,2,P|176:64|208:56,1,70,4|0,0:3|0:0,0:0:0:0:
356,92,81730,2,2,P|324:116|292:124,1,70,10|0,0:0|0:0,0:0:0:0:
188,192,82075,2,2,L|260:220,1,70,0|8,2:0|0:3,0:0:0:0:
356,264,82419,2,0,P|360:304|380:328,1,70,8|8,0:0|0:3,0:0:0:0:
12,156,82764,2,0,L|240:136,2,210
436,56,84143,6,2,P|488:112|480:184,1,140,6|8,0:0|0:0,0:0:0:0:
448,256,84661,2,2,B|308:248,1,140,2|8,0:0|0:3,0:0:0:0:
168,220,85178,5,8,0:0:0:0:
100,328,85350,1,8,0:3:0:0:
88,188,85523,2,2,B|240:192,1,140,4|8,0:3|0:0,0:0:0:0:
328,264,86040,2,2,P|352:188|316:120,1,140,2|8,0:0|0:3,0:0:0:0:
244,44,86557,2,0,L|172:52,1,70,8|8,0:0|0:3,0:0:0:0:
60,64,86902,5,8,0:0:0:0:
48,168,87075,1,8,0:3:0:0:
144,128,87247,1,8,0:0:0:0:
240,136,87419,2,0,L|400:112,1,140
48,156,87937,2,0,P|40:192|48:232,1,70,8|8,0:0|0:3,0:0:0:0:
92,244,88281,2,0,L|376:192,1,280
88,348,89661,6,2,B|96:340|96:340|88:332|100:328|100:328|92:316|104:312|104:312|96:300|108:296|108:296|100:284|128:196,1,140,6|0,0:0|0:0,0:0:0:0:
68,120,90178,1,8,0:3:0:0:
132,192,90350,1,8,0:0:0:0:
228,200,90523,1,8,0:3:0:0:
296,124,90695,6,0,B|260:96|260:96|216:96,2,70,2|2|2,0:0|0:0|0:2,0:0:0:0:
368,188,91212,5,2,0:2:0:0:
460,160,91385,1,2,0:2:0:0:
476,64,91557,1,2,0:2:0:0:
460,160,91730,2,0,L|472:240,1,80,8|8,0:0|0:3,0:0:0:0:
380,268,92074,2,0,L|368:188,1,80,2|8,0:2|0:3,0:0:0:0:
292,96,92419,6,2,B|232:104|232:104|220:96|220:96|168:104|168:104|156:96,1,140,4|2,0:0|0:0,0:0:0:0:
76,196,93109,2,0,P|60:232|60:264,1,70,8|8,0:0|0:3,0:0:0:0:
172,332,93454,2,0,P|188:296|184:264,1,70,0|2,0:0|0:2,0:0:0:0:
240,168,93799,6,0,L|316:176,1,70,2|0,0:0|0:0,0:0:0:0:
416,116,94143,1,2,0:0:0:0:
336,48,94316,2,0,L|264:44,1,70,2|8,0:0|0:0,0:0:0:0:
336,48,94661,2,0,L|264:44,1,70,2|2,0:0|0:0,0:0:0:0:
144,280,95178,2,0,L|296:244,1,140
400,312,95868,1,8,0:0:0:0:
340,152,96212,6,0,B|348:120|348:120|336:84,1,70,2|2,0:0|0:0,0:0:0:0:
325,62,96557,5,0,0:0:0:0:
232,108,96730,1,2,0:2:0:0:
148,44,96902,2,0,L|72:52,1,70,0|2,0:0|2:0,0:0:0:0:
40,164,97247,2,0,L|120:168,1,70,8|8,0:0|0:3,0:0:0:0:
256,192,97592,12,8,100006,0:0:0:0:
272,124,100695,5,4,0:2:0:0:
368,136,111730,5,0,0:0:0:0:
152,100,112419,1,0,0:0:0:0:
228,304,113109,1,2,0:0:0:0:
404,104,113799,6,0,P|436:180|416:264,1,167.999994873047,0|2,0:0|0:0,0:0:0:0:
200,280,115178,2,0,P|168:204|188:120,1,167.999994873047,0|2,0:0|0:0,0:0:0:0:
396,188,116557,6,0,P|428:264|408:348,1,167.999994873047,0|2,0:0|0:0,0:0:0:0:
260,184,117936,2,0,P|228:108|248:24,1,167.999994873047,0|2,0:0|0:0,0:0:0:0:
460,68,119316,6,0,L|376:76,1,83.9999974365235,2|0,0:0|0:0,0:0:0:0:
268,56,120006,2,0,P|280:96|272:140,1,83.9999974365235,2|0,0:0|0:0,0:0:0:0:
296,244,120695,2,0,L|208:252,1,83.9999974365235,2|0,0:0|0:0,0:0:0:0:
104,264,121385,1,2,0:0:0:0:
104,264,122074,1,0,0:0:0:0:
116,156,122419,1,0,0:0:0:0:
128,48,122764,5,6,0:2:0:0:
128,48,123109,2,0,L|184:44,1,56,0|8,0:0|0:0,0:0:0:0:
216,32,123454,2,0,P|268:52|328:48,1,112,8|0,0:2|0:0,0:0:0:0:
468,28,124143,1,8,0:2:0:0:
468,28,124316,2,0,P|480:80|472:144,1,112,8|8,0:0|0:0,0:0:0:0:
140,312,124833,6,0,P|200:296|252:304,1,112,8|8,0:2|0:0,0:0:0:0:
124,324,125350,1,8,0:0:0:0:
124,324,125523,2,0,P|92:272|96:224,1,112,2|0,0:2|0:0,0:0:0:0:
228,96,126212,2,0,L|288:80,1,56,8|0,0:2|0:0,0:0:0:0:
304,164,126557,2,0,P|332:220|320:280,1,112,8|2,0:3|0:2,0:0:0:0:
196,232,127074,2,0,P|168:176|176:124,1,112,8|8,0:2|0:3,0:0:0:0:
256,52,127592,5,8,0:2:0:0:
256,52,127937,1,8,0:2:0:0:
364,64,128281,6,0,P|392:124|392:176,1,112,10|8,0:2|0:0,0:0:0:0:
172,168,128971,1,8,0:0:0:0:
348,244,129316,2,0,P|372:272|376:292,1,56,8|8,0:0|0:2,0:0:0:0:
277,180,129661,2,0,P|329:152|396:172,1,112,8|8,0:0|0:0,0:0:0:0:
277,180,130350,2,0,P|329:152|396:172,1,112,8|8,0:0|0:0,0:0:0:0:
256,192,130868,12,8,133109,0:0:0:0:
388,124,133799,5,4,0:0:0:0:
388,124,134488,1,8,0:0:0:0:
448,244,134833,1,2,0:0:0:0:
448,244,135006,2,2,P|380:280|352:328,1,125.999996154785,0|0,0:0|0:0,0:0:0:0:
220,284,135868,1,8,0:0:0:0:
220,284,136040,2,0,L|84:288,1,125.999996154785,0|4,0:0|0:0,0:0:0:0:
72,288,137247,5,8,0:0:0:0:
116,160,137592,1,2,2:0:0:0:
116,160,137764,2,0,L|248:152,1,125.999996154785,2|0,2:0|0:0,0:0:0:0:
184,176,138626,2,0,L|320:144,1,125.999996154785,4|4,0:0|0:2,0:0:0:0:
332,120,139316,5,4,0:0:0:0:
416,308,140006,1,8,0:0:0:0:
404,132,140350,1,2,0:0:0:0:
404,132,140523,2,2,P|340:160|276:152,1,125.999996154785,0|0,0:0|0:0,0:0:0:0:
152,68,141385,1,8,0:0:0:0:
152,68,141557,1,0,0:0:0:0:
152,68,142074,6,0,P|104:140|112:232,1,167.999994873047,4|8,0:0|0:0,0:0:0:0:
300,344,143454,2,0,P|336:276|328:216,1,125.999996154785
36,212,144143,2,0,L|132:192,1,83.9999974365235,8|2,0:0|0:2,0:0:0:0:
152,124,144833,6,0,P|216:96|234:91,3,83.9999974365235
216,160,146040,1,0,0:0:0:0:
152,124,146212,2,0,P|216:96|229:91,2,83.9999974365235
112,199,147074,2,0,L|159:229,1,41.9999987182618
208,95,147592,6,0,P|216:96|292:104,3,83.9999974365235
152,224,148799,1,0,0:0:0:0:
20,200,148971,2,0,P|12:152|13:123,2,62.9999980773926,0|2|2,0:0|2:0|2:0,0:0:0:0:
144,232,149661,2,0,P|152:288|150:303,2,62.9999980773926,8|2|2,0:0|2:0|2:0,0:0:0:0:
88,120,150350,6,2,P|152:100|174:96,1,83.9999974365235,2|0,0:0|0:0,0:0:0:0:
88,120,151040,2,2,P|152:100|179:100,1,83.9999974365235,2|0,0:0|0:0,0:0:0:0:
512,364,151730,5,2,0:0:0:0:
488,188,152074,1,8,0:0:0:0:
396,180,152419,1,0,0:0:0:0:
496,156,152764,1,8,0:0:0:0:
286,117,153109,5,2,3:0:0:0:
112,68,153454,1,2,3:0:0:0:
178,57,153799,1,2,3:0:0:0:
256,132,154144,1,2,3:0:0:0:
152,160,154488,2,0,P|144:244|213:291,1,167.999994873047
66,94,155868,6,2,L|228:51,1,140,6|8,0:0|0:0,0:0:0:0:
109,155,156385,2,2,L|271:112,1,140
444,148,156902,1,8,0:0:0:0:
428,108,157247,5,0,0:0:0:0:
304,132,157592,1,8,0:0:0:0:
104,52,157937,2,0,P|84:88|88:124,1,70,0|8,0:0|0:3,0:0:0:0:
192,248,158281,2,0,L|176:172,1,70,8|8,0:0|0:3,0:0:0:0:
192,248,158626,6,0,L|176:172,1,70,8|8,0:0|0:3,0:0:0:0:
420,36,159143,2,0,P|460:92|471:176,1,140,2|2,0:0|0:0,0:0:0:0:
146,180,159661,1,8,0:0:0:0:
261,144,159833,1,2,0:0:0:0:
292,296,160006,5,2,0:0:0:0:
172,304,160178,1,0,0:0:0:0:
52,312,160350,1,10,0:0:0:0:
172,304,160523,1,2,0:0:0:0:
172,304,160868,5,2,0:0:0:0:
164,184,161040,1,10,0:0:0:0:
52,312,161385,6,0,B|62:311|62:311|60:298|74:293|74:293|71:277|87:271|87:271|81:258|93:252|93:252|89:239|100:229|100:229|90:214|101:204|101:204|87:193,1,140,6|8,0:0|0:0,0:0:0:0:
120,64,161902,2,2,B|130:71|130:71|136:62|142:73|142:73|153:63|159:74|159:74|169:64|175:75|175:75|186:65|196:76|196:76|202:66|208:77|208:77|215:68|225:79|225:79|227:70|237:81,1,140
376,88,162419,1,8,0:0:0:0:
376,88,162592,1,2,0:0:0:0:
392,120,162764,6,0,B|372:156|372:156|377:190,1,70,0|2,0:0|0:2,0:0:0:0:
424,284,163109,2,0,L|344:289,1,70,8|2,0:0|0:2,0:0:0:0:
200,204,163454,2,0,L|271:211,1,70,0|8,0:0|0:3,0:0:0:0:
277,203,163799,2,0,P|271:174|283:136,1,70,8|8,0:0|0:3,0:0:0:0:
256,192,164143,12,8,166212,0:0:0:0:
463,300,166902,6,2,P|375:348|319:342,1,140,6|8,0:0|0:0,0:0:0:0:
215,324,167419,2,0,L|138:338,2,70
320,224,167937,2,2,L|392:206,2,70,10|0|2,0:0|0:0|0:0,0:0:0:0:
168,224,168454,1,0,0:0:0:0:
240,160,168626,1,8,0:0:0:0:
328,140,168799,2,0,B|376:128|376:128|408:140,1,70
476,232,169143,5,10,0:0:0:0:
468,240,169316,1,10,0:0:0:0:
460,248,169488,1,10,0:0:0:0:
416,300,169661,6,2,P|388:304|345:298,1,70
324,200,170006,2,0,P|276:196|235:216,1,70,8|0,0:0|0:0,0:0:0:0:
132,240,170350,1,0,0:0:0:0:
116,272,170695,2,0,P|84:232|87:191,1,70,8|8,0:0|0:0,0:0:0:0:
136,64,171040,5,2,0:0:0:0:
316,52,171385,1,8,0:0:0:0:
408,80,171557,1,2,0:0:0:0:
416,88,171902,1,2,0:0:0:0:
416,88,172074,1,8,0:0:0:0:
228,92,172419,6,2,P|128:96|87:130,1,140,2|8,0:0|0:0,0:0:0:0:
105,288,172937,2,0,P|114:249|128:220,2,70
242,352,173454,2,2,L|311:341,2,70,10|0|2,0:0|0:0|0:0,0:0:0:0:
368,228,174143,1,8,0:0:0:0:
412,316,174488,1,0,0:0:0:0:
372,127,174661,6,2,P|376:75|392:40,2,70,0|8|2,0:0|0:0|0:0,0:0:0:0:
316,224,175178,2,0,P|280:244|248:248,1,70,4|0,0:2|2:0,0:0:0:0:
148,228,175523,2,0,P|137:141|96:96,2,140
140,240,176385,2,0,P|248:284|356:260,1,210,2|0,0:2|0:0,0:0:0:0:
459,261,177247,5,2,0:2:0:0:
286,312,177592,1,0,0:0:0:0:
397,170,177937,1,4,0:0:0:0:
