osu file format v14

[General]
AudioFilename: audio.mp3
AudioLeadIn: 0
PreviewTime: 163888
Countdown: 0
SampleSet: Soft
StackLeniency: 0.7
Mode: 0
LetterboxInBreaks: 0
WidescreenStoryboard: 1

[Editor]
Bookmarks: 130,6750,19992,33233,46474,59716,72957,86198,99440,112681,125923,139164,152405,164405,165647,192130
DistanceSpacing: 1.5
BeatDivisor: 4
GridSize: 32
TimelineZoom: 3.499999

[Metadata]
Title:Be There
TitleUnicode:Be There
Artist:Krewella
ArtistUnicode:Krewella
Creator:Mir
Version:Hard
Source:
Tags:chill bass dance Mixed Kids Records
BeatmapID:1486203
BeatmapSetID:702336

[Difficulty]
HPDrainRate:4
CircleSize:3.5
OverallDifficulty:6
ApproachRate:7.5
SliderMultiplier:1.4
SliderTickRate:1

[Events]
//Background and Video events
0,0,"original rockside.jpg",0,0
//Break Periods
2,139364,151298
//Storyboard Layer 0 (Background)
//Storyboard Layer 1 (Fail)
//Storyboard Layer 2 (Pass)
//Storyboard Layer 3 (Foreground)
//Storyboard Sound Samples

[TimingPoints]
130,413.793103448276,4,2,1,80,1,0
6750,-125,4,2,1,50,0,0
46474,-100,4,2,1,70,0,0
59716,-100,4,2,1,85,0,1
71198,-100,4,2,1,55,0,1
72957,-125,4,2,1,50,0,0
112681,-100,4,2,1,60,0,0
125923,-100,4,2,1,85,0,1
127164,-100,4,2,1,85,0,1
128819,-100,4,2,1,85,0,1
129233,-100,4,2,1,85,0,1
130474,-100,4,2,1,85,0,1
132543,-100,4,2,1,85,0,1
133785,-100,4,2,1,85,0,1
135440,-100,4,2,1,85,0,1
135854,-100,4,2,1,85,0,1
137095,-100,4,2,1,85,0,1
137509,-100,4,2,1,75,0,1
137923,-100,4,2,1,65,0,1
138336,-100,4,2,1,55,0,1
138750,-100,4,2,1,45,0,1
139164,-100,4,2,1,70,0,0
152405,-100,4,2,1,70,0,0
165647,-100,4,2,1,85,0,1
166888,-100,4,2,1,85,0,1
168543,-100,4,2,1,85,0,1
168957,-100,4,2,1,85,0,1
170198,-100,4,2,1,85,0,1
172267,-100,4,2,1,85,0,1
173509,-100,4,2,1,85,0,1
175164,-100,4,2,1,85,0,1
175578,-100,4,2,1,85,0,1
176819,-100,4,2,1,85,0,1
177233,-100,4,2,1,85,0,1
178888,-100,4,2,1,80,0,0
179302,-100,4,2,1,80,0,0
179354,-100,4,2,1,5,0,0
179405,-100,4,2,1,80,0,0
179457,-100,4,2,1,5,0,0
179509,-100,4,2,1,80,0,0
179561,-100,4,2,1,5,0,0
179612,-100,4,2,1,80,0,0
179664,-100,4,2,1,5,0,0
179716,-100,4,2,1,80,0,0
180130,-83.3333333333333,4,2,1,85,0,1
181784,-83.3333333333333,4,2,1,85,0,1
182198,-83.3333333333333,4,2,1,85,0,1
183439,-83.3333333333333,4,2,1,85,0,1
185508,-83.3333333333333,4,2,1,85,0,1
186750,-83.3333333333333,4,2,1,85,0,1
188405,-83.3333333333333,4,2,1,85,0,1
188819,-83.3333333333333,4,2,1,85,0,1
190061,-83.3333333333333,4,2,1,85,0,1
190475,-83.3333333333333,4,2,1,75,0,1
190889,-83.3333333333333,4,2,1,65,0,1
191302,-83.3333333333333,4,2,1,55,0,1
191716,-83.3333333333333,4,2,1,45,0,1
192130,-100,4,2,1,30,0,0

[Colours]
Combo1 : 240,193,142
Combo2 : 173,199,245
Combo3 : 211,187,238
Combo4 : 255,157,206

[HitObjects]
152,93,6750,6,0,L|97:97,2,56,2|0|0,3:2|0:2|0:2,0:0:0:0:
201,163,7371,2,0,P|193:236|209:278,1,112,0|0,0:2|0:2,0:0:0:0:
398,311,8405,6,0,P|426:313|454:311,2,56,2|0|0,0:2|0:2|0:2,0:0:0:0:
419,230,9026,2,0,P|427:169|366:86,1,168,0|0,0:2|0:2,0:0:0:0:
177,101,10061,6,0,P|171:71|170:37,2,56,2|0|0,0:2|0:2|0:2,0:0:0:0:
240,156,10681,2,0,P|171:158|132:186,1,112,0|0,0:2|0:2,0:0:0:0:
78,241,11302,2,0,L|84:358,1,112,0|0,0:2|0:0,0:0:0:0:
323,276,12336,1,0,0:2:0:0:
481,330,12750,1,0,0:2:0:0:
481,330,12957,1,0,0:0:0:0:
449,164,13371,6,0,L|453:121,2,37.3333333333333,2|0|0,0:2|0:2|0:2,0:0:0:0:
414,208,13785,1,0,0:0:0:0:
357,145,13992,2,0,P|289:127|245:138,1,112,0|0,0:2|0:2,0:0:0:0:
5,200,15026,6,0,L|3:144,2,56,2|0|0,0:2|0:2|0:2,0:0:0:0:
73,252,15647,2,0,B|122:269|122:269|235:242,1,168,0|0,0:2|0:2,0:0:0:0:
399,277,16681,6,0,L|407:212,2,56,2|0|0,0:2|0:2|0:2,0:0:0:0:
447,345,17302,2,0,P|389:321|339:339,1,112,0|0,0:2|0:2,0:0:0:0:
270,375,17923,1,0,0:2:0:0:
103,356,18336,6,0,B|100:298|126:278|126:278|99:252|107:190,1,168,2|0,0:2|0:2,0:0:0:0:
510,85,19992,6,0,P|456:76|408:99,2,84,2|0|0,3:2|0:2|0:2,0:0:0:0:
472,160,20819,2,0,L|484:254,2,84,2|0|0,0:2|0:2|0:2,0:0:0:0:
429,84,21647,5,2,0:2:0:0:
313,133,21957,1,0,0:2:0:0:
202,72,22267,1,0,0:2:0:0:
130,115,22474,6,0,L|119:292,1,168,2|0,0:2|0:2,0:0:0:0:
180,341,23302,6,0,P|143:362|96:363,2,84,2|0|0,0:2|0:2|0:2,0:0:0:0:
260,316,24130,2,0,P|301:318|337:339,2,84,2|0|0,0:2|0:2|0:2,0:0:0:0:
198,258,24957,5,2,0:2:0:0:
268,153,25267,1,0,0:2:0:0:
226,33,25578,1,0,0:2:0:0:
147,62,25785,6,0,L|341:62,1,168,2|0,0:2|0:2,0:0:0:0:
385,108,26612,6,0,P|398:62|386:18,2,84,2|0|0,0:2|0:2|0:2,0:0:0:0:
348,184,27440,2,0,P|340:225|353:264,2,84,2|0|0,0:2|0:2|0:2,0:0:0:0:
385,108,28267,5,2,0:2:0:0:
449,216,28578,1,0,0:2:0:0:
410,335,28888,1,0,0:2:0:0:
326,346,29095,6,0,B|246:311|250:388|142:338,1,168,2|0,0:2|0:2,0:0:0:0:
99,290,29923,6,0,L|93:235,1,37.3333333333333,2|0,0:2|0:2,0:0:0:0:
136,148,30336,6,0,P|197:133|261:156,1,112,2|0,0:2|0:2,0:0:0:0:
397,224,31164,2,0,P|336:239|272:216,1,112,0|0,0:2|0:2,0:0:0:0:
247,149,31785,1,0,0:2:0:0:
247,149,32405,1,0,0:2:0:0:
115,328,33233,6,0,L|35:323,2,56,2|0|0,3:2|0:2|0:2,0:0:0:0:
188,369,33854,2,0,P|163:308|180:253,1,112,0|0,0:2|0:2,0:0:0:0:
418,321,34888,6,0,L|498:316,2,56,2|0|0,0:2|0:2|0:2,0:0:0:0:
345,362,35509,2,0,P|370:301|353:246,1,112,0|0,0:2|0:2,0:0:0:0:
310,189,36130,1,0,0:2:0:0:
153,128,36543,6,0,L|106:124,1,37.3333333333333,2|0,0:2|0:2,0:0:0:0:
200,50,36957,2,0,L|153:46,1,37.3333333333333,2|0,0:2|0:2,0:0:0:0:
241,126,37371,6,0,L|352:135,1,112,2|2,0:2|0:2,0:0:0:0:
214,231,38198,6,0,L|167:235,1,37.3333333333333,2|0,0:2|0:2,0:0:0:0:
261,309,38612,2,0,L|214:313,1,37.3333333333333,2|0,0:2|0:2,0:0:0:0:
302,233,39026,6,0,L|413:223,1,112,2|2,0:2|0:2,0:0:0:0:
326,79,39854,6,0,L|335:20,2,56,2|0|0,0:2|0:2|0:2,0:0:0:0:
256,126,40474,2,0,P|153:121|129:132,1,112,0|0,0:2|0:2,0:0:0:0:
77,277,41509,6,0,L|68:336,2,56,2|0|0,0:2|0:2|0:2,0:0:0:0:
147,230,42129,2,0,P|250:235|274:224,1,112,0|0,0:2|0:2,0:0:0:0:
320,177,42750,1,0,0:2:0:0:
223,0,43164,6,0,L|227:35,1,37.3333333333333,2|0,0:2|0:2,0:0:0:0:
158,124,43578,2,0,L|154:86,1,37.3333333333333,2|0,0:2|0:2,0:0:0:0:
246,121,43992,6,0,L|255:232,1,112,2|2,0:2|0:2,0:0:0:0:
405,100,44819,6,0,L|401:137,1,37.3333333333333,2|0,0:2|0:2,0:0:0:0:
486,64,45233,2,0,L|489:26,1,37.3333333333333,2|0,0:2|0:2,0:0:0:0:
483,149,45647,6,0,L|473:260,1,112,2|2,0:2|0:2,0:0:0:0:
273,252,46474,6,0,L|278:365,2,105,2|0|0,3:2|0:2|0:2,0:0:0:0:
191,210,47302,2,0,L|186:323,2,105,8|0|0,0:2|0:2|0:2,0:0:0:0:
230,127,48130,2,0,P|193:121|145:134,1,70,10|0,0:2|0:2,0:0:0:0:
100,194,48543,1,10,0:2:0:0:
11,35,48957,5,8,0:2:0:0:
68,105,49164,1,0,0:2:0:0:
130,39,49371,1,8,0:2:0:0:
312,44,49785,6,0,L|432:44,2,105,10|0|0,0:2|0:2|0:2,0:0:0:0:
314,135,50612,2,0,L|434:135,2,105,8|0|0,0:2|0:2|0:2,0:0:0:0:
237,184,51440,2,0,P|220:234|223:273,1,70,10|0,0:2|0:2,0:0:0:0:
298,296,51854,2,0,P|311:328|315:362,1,70,10|0,0:2|0:2,0:0:0:0:
225,351,52267,6,0,L|70:342,1,140,8|8,0:2|0:2,0:0:0:0:
22,276,52888,1,8,0:2:0:0:
22,276,52992,1,8,0:2:0:0:
22,276,53095,6,0,B|2:310|2:310|-1:351,2,70,10|0|0,0:2|0:2|0:2,0:0:0:0:
95,220,53716,2,0,P|123:161|94:88,1,140,8|0,0:2|0:0,0:0:0:0:
23,44,54336,1,8,0:2:0:0:
198,90,54750,6,0,L|210:18,2,70,10|0|0,0:2|0:2|0:2,0:0:0:0:
261,156,55371,2,0,P|304:156|393:92,1,140,8|0,0:2|0:2,0:0:0:0:
424,23,55992,1,8,0:2:0:0:
496,182,56405,6,0,L|490:245,1,46.6666666666667,10|0,0:2|0:2,0:0:0:0:
369,232,56819,2,0,L|375:295,1,46.6666666666667,10|0,0:2|0:2,0:0:0:0:
462,361,57233,6,0,P|376:339|314:365,1,140,2|2,0:2|0:2,0:0:0:0:
249,190,58061,6,0,L|243:253,1,46.6666666666667,2|0,0:2|0:2,0:0:0:0:
122,240,58475,2,0,L|128:303,1,46.6666666666667,2|0,0:2|0:2,0:0:0:0:
215,369,58888,5,2,0:2:0:0:
353,250,59302,1,2,3:2:0:0:
458,58,59716,6,0,L|330:58,1,105,0|0,3:2|0:2,0:0:0:0:
304,78,60130,1,0,0:2:0:0:
205,41,60336,1,0,3:2:0:0:
127,111,60543,1,8,0:2:0:0:
127,111,60647,1,0,3:0:0:0:
127,111,60750,1,0,3:0:0:0:
195,190,60957,6,0,B|203:248|203:248|177:317,2,105,2|2|2,3:2|0:2|0:2,0:0:0:0:
127,111,61785,2,0,L|28:121,1,70,0|0,3:2|0:2,0:0:0:0:
8,211,62198,6,0,L|26:344,1,105,10|2,0:2|0:2,0:0:0:0:
57,354,62612,1,0,0:0:0:0:
155,318,62819,1,2,0:2:0:0:
262,342,63026,6,0,P|331:346|380:316,1,105,0|0,3:2|0:2,0:0:0:0:
393,288,63440,1,0,0:2:0:0:
324,208,63647,1,0,0:2:0:0:
377,117,63854,1,8,0:2:0:0:
377,117,63957,1,0,3:0:0:0:
377,117,64061,1,0,3:2:0:0:
324,208,64267,6,0,L|187:208,2,105,0|2|0,3:2|0:2|0:2,0:0:0:0:
377,117,65095,2,0,B|410:109|410:109|466:119,1,70,2|0,3:2|0:0,0:0:0:0:
495,208,65509,6,0,L|485:305,1,70,8|0,0:2|3:2,0:0:0:0:
421,354,65923,1,8,0:2:0:0:
421,354,66026,1,8,0:2:0:0:
421,354,66130,1,0,3:2:0:0:
324,301,66336,6,0,B|278:314|278:314|194:308,1,105,0|0,3:2|0:2,0:0:0:0:
168,304,66750,1,0,0:2:0:0:
89,234,66957,1,0,0:2:0:0:
106,130,67164,1,8,0:2:0:0:
106,130,67267,1,0,3:2:0:0:
106,130,67371,1,0,3:2:0:0:
211,127,67578,6,0,B|265:138|265:138|333:113,2,105,2|2|2,3:2|0:2|0:2,0:0:0:0:
126,64,68405,2,0,B|108:95|108:95|103:159,1,70,0|0,3:2|0:2,0:0:0:0:
100,234,68819,2,0,L|96:328,1,70,10|0,0:2|3:2,0:0:0:0:
179,369,69233,1,0,0:0:0:0:
228,276,69440,1,2,0:2:0:0:
292,355,69647,6,0,P|352:348|388:331,1,70,0|0,3:2|0:2,0:0:0:0:
374,334,69957,1,0,0:2:0:0:
388,323,70061,2,0,L|390:233,1,70,0|0,3:2|0:2,0:0:0:0:
428,155,70474,1,8,0:2:0:0:
428,155,70578,1,0,3:2:0:0:
428,155,70681,1,0,3:2:0:0:
324,172,70888,5,2,3:2:0:0:
256,192,70992,12,0,72543,0:0:0:0:
188,171,72957,6,0,L|189:96,2,56,2|0|0,3:2|0:2|0:2,0:0:0:0:
246,231,73578,2,0,P|191:219|123:253,1,112,0|0,0:2|0:2,0:0:0:0:
75,291,74198,1,0,0:0:0:0:
73,122,74612,6,0,L|67:200,2,56,2|0|0,0:2|0:2|0:2,0:0:0:0:
15,66,75233,2,0,P|70:78|138:44,1,112,0|0,0:2|0:2,0:0:0:0:
186,6,75853,1,0,0:2:0:0:
350,42,76267,6,0,L|415:35,2,56,2|0|0,0:2|0:2|0:2,0:0:0:0:
287,99,76888,2,0,P|269:157|297:216,1,112,0|0,0:2|0:2,0:0:0:0:
346,261,77509,1,0,0:2:0:0:
190,325,77923,6,0,B|120:289|111:364|18:315,1,168,2|0,0:2|0:0,0:0:0:0:
50,68,79164,1,0,0:2:0:0:
187,164,79578,6,0,L|182:231,2,56,2|0|0,3:2|0:2|0:2,0:0:0:0:
234,94,80198,2,0,P|285:80|354:112,1,112,0|0,3:2|0:2,0:0:0:0:
392,164,80819,1,0,0:0:0:0:
452,320,81233,6,0,L|525:316,2,56,2|0|0,3:2|0:2|0:2,0:0:0:0:
379,276,81854,2,0,P|334:264|267:293,1,112,0|0,3:2|0:2,0:0:0:0:
225,354,82474,1,0,0:2:0:0:
71,284,82888,6,0,L|66:339,2,56,2|0|0,3:2|0:2|0:2,0:0:0:0:
35,207,83509,2,0,B|26:158|26:158|50:83,1,112,0|0,3:2|0:2,0:0:0:0:
71,18,84130,1,0,0:2:0:0:
170,152,84543,6,0,L|305:162,1,112,2|0,3:2|0:2,0:0:0:0:
354,117,85164,2,0,P|363:183|326:233,1,112,0|0,3:2|0:0,0:0:0:0:
261,246,85785,1,0,0:0:0:0:
82,299,86198,6,0,P|42:308|2:299,2,84,2|0|0,3:2|0:2|3:2,0:0:0:0:
40,224,87026,2,0,L|28:130,2,84,2|0|0,0:2|0:2|0:2,0:0:0:0:
83,300,87853,5,2,3:2:0:0:
199,251,88163,1,0,0:2:0:0:
310,312,88473,1,0,0:0:0:0:
382,269,88681,6,0,P|404:218|382:146,1,112,2|8,0:2|0:0,0:0:0:0:
332,43,89509,6,0,L|420:46,2,84,2|0|0,3:2|0:2|3:2,0:0:0:0:
252,70,90336,2,0,L|168:67,2,84,2|0|0,0:2|0:2|0:2,0:0:0:0:
314,126,91163,5,2,3:2:0:0:
244,231,91473,1,0,0:2:0:0:
286,351,91784,1,0,3:2:0:0:
341,288,91991,6,0,L|470:290,1,112,2|8,0:2|0:0,0:0:0:0:
376,140,92819,6,0,P|368:98|381:59,2,84,2|0|0,3:2|0:2|3:2,0:0:0:0:
453,182,93647,2,0,P|465:221|442:304,1,112,2|8,0:2|0:0,0:0:0:0:
389,345,94267,1,0,0:2:0:0:
318,298,94474,6,0,L|217:303,2,84,2|0|0,3:2|0:2|3:2,0:0:0:0:
326,214,95302,2,0,B|284:127|361:131|326:51,1,168,2|0,0:2|0:0,0:0:0:0:
243,44,96129,6,0,L|249:99,1,37.3333333333333,2|0,3:2|0:2,0:0:0:0:
221,190,96543,6,0,P|160:205|96:182,1,112,2|0,0:2|0:2,0:0:0:0:
30,46,97371,2,0,P|91:31|155:54,1,112,8|0,0:2|3:2,0:0:0:0:
168,121,97991,1,0,0:2:0:0:
26,211,98405,1,0,3:0:0:0:
26,211,98612,1,0,0:0:0:0:
361,231,99440,6,0,L|369:311,2,56,2|0|0,3:2|0:2|0:2,0:0:0:0:
412,164,100061,2,0,L|283:178,1,112,0|0,0:2|0:2,0:0:0:0:
58,104,101095,6,0,L|50:184,2,56,2|0|0,0:2|0:2|0:2,0:0:0:0:
8,37,101716,2,0,L|137:51,1,112,0|0,0:2|0:2,0:0:0:0:
202,60,102336,1,0,0:2:0:0:
369,46,102750,6,0,L|358:95,1,37.3333333333333,2|0,0:2|0:2,0:0:0:0:
451,149,103164,2,0,L|462:198,1,37.3333333333333,2|0,0:2|0:2,0:0:0:0:
360,239,103578,6,0,B|330:229|330:229|229:229,1,112,2|2,0:2|0:2,0:0:0:0:
92,169,104405,6,0,L|103:218,1,37.3333333333333,2|0,0:2|0:2,0:0:0:0:
10,272,104819,2,0,L|-1:321,1,37.3333333333333,2|0,0:2|0:2,0:0:0:0:
101,362,105233,6,0,B|131:352|131:352|232:352,1,112,2|2,0:2|0:2,0:0:0:0:
376,319,106061,6,0,L|383:382,2,56,2|0|0,0:2|0:2|0:2,0:0:0:0:
421,248,106681,2,0,P|429:190|398:127,1,112,0|0,0:2|0:2,0:0:0:0:
164,199,107716,6,0,L|157:262,2,56,2|0|0,0:2|0:2|0:2,0:0:0:0:
119,128,108336,2,0,P|111:70|142:7,1,112,0|0,0:2|0:2,0:0:0:0:
213,7,108957,1,0,0:2:0:0:
378,37,109371,6,0,L|396:83,1,37.3333333333333,2|0,0:2|0:2,0:0:0:0:
479,141,109785,2,0,L|461:187,1,37.3333333333333,2|0,0:2|0:2,0:0:0:0:
389,258,110198,6,0,P|456:257|505:296,1,112,2|2,0:2|0:2,0:0:0:0:
343,358,111026,6,0,L|325:312,1,37.3333333333333,2|0,0:2|0:2,0:0:0:0:
242,254,111440,2,0,L|260:208,1,37.3333333333333,2|0,0:2|0:2,0:0:0:0:
332,137,111853,6,0,P|265:138|216:99,1,112,2|2,0:2|0:2,0:0:0:0:
18,120,112681,6,0,L|38:16,2,105,2|0|0,3:2|0:2|3:2,0:0:0:0:
100,158,113509,2,0,L|120:54,2,105,8|0|0,0:2|0:2|0:2,0:0:0:0:
25,209,114336,2,0,P|34:262|57:290,1,70,10|0,3:2|0:2,0:0:0:0:
115,329,114750,1,10,0:2:0:0:
115,329,114957,1,0,3:2:0:0:
192,280,115164,2,0,L|288:292,2,70,8|0|8,0:2|0:2|3:2,0:0:0:0:
219,99,115992,6,0,P|267:80|320:79,2,105,10|0|0,3:2|0:2|3:2,0:0:0:0:
132,126,116819,2,0,P|83:107|30:106,2,105,8|0|0,0:2|0:2|0:2,0:0:0:0:
200,186,117647,6,0,L|190:274,1,70,10|0,3:2|0:2,0:0:0:0:
111,298,118061,2,0,L|121:386,1,70,10|0,0:2|3:2,0:0:0:0:
209,366,118474,2,0,B|274:338|280:404|365:364,1,140,8|8,0:2|3:2,0:0:0:0:
409,307,119095,1,8,0:2:0:0:
409,307,119198,1,8,0:2:0:0:
409,307,119302,6,0,B|443:307|443:307|488:323,2,70,10|8|8,3:2|0:2|0:2,0:0:0:0:
353,234,119923,2,0,P|346:182|361:141,1,70,8|8,3:2|0:2,0:0:0:0:
440,158,120336,1,8,0:0:0:0:
440,158,120543,2,0,P|447:106|432:65,1,70,8|8,3:2|0:0,0:0:0:0:
385,18,120957,6,0,P|434:0|461:2,2,70,10|8|8,3:2|0:2|0:2,0:0:0:0:
303,59,121578,2,0,L|211:49,1,70,8|8,3:2|0:2,0:0:0:0:
151,91,121992,1,8,0:2:0:0:
151,91,122198,2,0,L|81:98,1,70,8|8,3:2|0:2,0:0:0:0:
33,176,122612,6,0,L|22:234,1,46.6666666666667,10|0,0:2|0:2,0:0:0:0:
133,276,123026,2,0,L|144:334,1,46.6666666666667,10|0,0:2|0:2,0:0:0:0:
250,267,123440,5,10,3:2:0:0:
267,265,123543,1,8,0:0:0:0:
284,263,123647,1,8,3:2:0:0:
301,261,123750,1,8,0:0:0:0:
318,259,123854,2,0,L|361:253,3,35,8|8|0|0,3:2|3:2|3:0|3:0,0:0:0:0:
369,250,124267,6,0,L|361:322,1,46.6666666666667,2|0,3:2|0:2,0:0:0:0:
449,210,124681,2,0,L|454:163,1,46.6666666666667,2|0,0:2|0:2,0:0:0:0:
385,62,125095,5,2,0:2:0:0:
230,204,125509,1,2,0:2:0:0:
37,24,125923,5,2,3:2:0:0:
141,29,126130,1,2,0:2:0:0:
188,122,126336,1,2,0:2:0:0:
135,213,126543,1,2,3:2:0:0:
85,120,126750,5,8,0:2:0:0:
85,120,127164,6,0,L|1:120,1,70,2|0,3:2|0:0,0:0:0:0:
65,213,127578,2,0,L|135:213,1,70,2|0,0:2|0:0,0:0:0:0:
249,121,127992,2,0,L|165:121,1,70,2|0,3:2|0:0,0:0:0:0:
229,214,128406,2,0,L|299:214,1,70,10|0,0:2|0:0,0:0:0:0:
351,123,128819,1,2,0:2:0:0:
470,25,129233,5,2,3:2:0:0:
463,129,129440,1,2,0:2:0:0:
455,233,129647,1,2,0:2:0:0:
449,337,129854,1,2,0:2:0:0:
361,279,130061,5,8,0:2:0:0:
361,279,130474,6,0,P|307:265|274:268,1,70,2|0,3:2|0:0,0:0:0:0:
211,331,130888,2,0,P|157:345|124:342,1,70,2|0,0:2|0:0,0:0:0:0:
61,278,131302,2,0,L|58:189,1,70,2|0,3:2|0:0,0:0:0:0:
149,154,131716,5,10,0:2:0:0:
106,58,131923,2,0,P|65:57|25:63,2,70,8|4|4,0:3|0:3|0:3,0:0:0:0:
203,18,132543,5,2,3:2:0:0:
262,104,132750,1,2,0:2:0:0:
366,108,132957,1,2,0:2:0:0:
429,24,133164,1,2,3:2:0:0:
488,110,133371,5,8,0:2:0:0:
488,110,133785,6,0,L|481:207,1,70,2|0,3:2|0:0,0:0:0:0:
381,205,134198,2,0,L|374:302,1,70,2|0,0:2|0:0,0:0:0:0:
271,290,134612,2,0,L|276:220,1,70,2|0,3:2|0:0,0:0:0:0:
175,186,135026,2,0,L|180:116,1,70,10|0,0:2|0:0,0:0:0:0:
117,31,135440,1,0,0:2:0:0:
52,230,135854,5,2,3:2:0:0:
114,314,136061,1,2,0:2:0:0:
161,220,136267,1,2,0:2:0:0:
221,305,136474,1,2,0:2:0:0:
325,299,136681,5,8,0:2:0:0:
325,299,137095,6,0,P|371:265|387:242,1,70,2|0,3:2|0:0,0:0:0:0:
293,193,137509,2,0,P|247:159|231:136,1,70,2|0,0:2|0:0,0:0:0:0:
330,95,137923,2,0,P|376:61|392:38,1,70,2|0,0:2|0:0,0:0:0:0:
285,13,138336,5,2,0:2:0:0:
285,13,138750,1,2,0:2:0:0:
79,56,139164,5,0,3:2:0:0:
130,84,152198,5,0,0:0:0:0:
194,147,152405,2,0,L|185:257,2,105,2|0|0,3:2|0:2|3:2,0:0:0:0:
277,109,153233,2,0,L|285:4,2,105,8|0|0,0:2|0:2|0:2,0:0:0:0:
326,186,154061,2,0,P|370:183|411:177,1,70,10|0,3:2|0:2,0:0:0:0:
442,101,154474,2,0,P|476:105|511:107,1,70,10|0,0:2|3:2,0:0:0:0:
504,198,154888,1,8,0:2:0:0:
504,198,155302,1,8,3:2:0:0:
364,315,155716,6,0,L|485:318,2,105,10|0|0,3:2|0:2|3:2,0:0:0:0:
284,359,156543,2,0,L|179:356,2,105,8|0|0,0:2|0:2|0:2,0:0:0:0:
364,315,157371,2,0,P|368:254|359:229,1,70,10|0,3:2|0:2,0:0:0:0:
288,197,157785,2,0,P|284:136|293:111,1,70,10|0,0:2|3:2,0:0:0:0:
313,41,158198,1,8,0:2:0:0:
175,160,158612,1,8,3:2:0:0:
116,90,158819,1,8,0:2:0:0:
116,90,158923,1,8,0:2:0:0:
116,90,159026,6,0,L|16:81,2,70,10|8|8,3:2|0:2|0:2,0:0:0:0:
175,160,159647,2,0,P|196:241|180:294,1,140,8|8,3:2|0:0,0:0:0:0:
118,359,160267,1,8,3:2:0:0:
285,288,160681,6,0,L|276:388,2,70,10|8|8,3:2|0:2|0:2,0:0:0:0:
298,197,161302,2,0,L|453:205,1,140,8|8,3:2|0:2,0:0:0:0:
492,277,161922,1,8,3:2:0:0:
400,119,162336,6,0,L|412:58,1,46.6666666666667,10|0,3:2|0:2,0:0:0:0:
287,73,162750,2,0,L|275:12,1,46.6666666666667,10|0,3:2|0:2,0:0:0:0:
159,54,163164,5,10,3:2:0:0:
159,54,163371,1,8,3:2:0:0:
86,109,163578,1,8,3:2:0:0:
86,126,163681,1,8,3:2:0:0:
87,143,163785,1,0,3:0:0:0:
88,160,163888,1,0,3:0:0:0:
89,177,163992,6,0,L|92:239,1,46.6666666666667,2|0,3:2|0:2,0:0:0:0:
173,313,164405,2,0,L|170:375,1,46.6666666666667,2|0,0:2|0:2,0:0:0:0:
276,249,164819,1,2,0:2:0:0:
449,304,165233,1,2,0:2:0:0:
501,129,165647,5,2,3:2:0:0:
396,115,165854,1,2,0:2:0:0:
291,101,166061,1,2,0:2:0:0:
187,88,166267,1,2,3:2:0:0:
232,182,166474,5,8,0:2:0:0:
232,182,166888,6,0,L|241:273,1,70,2|0,3:2|0:0,0:0:0:0:
332,299,167302,2,0,L|325:229,1,70,2|0,0:2|0:0,0:0:0:0:
406,162,167716,2,0,L|415:253,1,70,2|0,3:2|0:0,0:0:0:0:
506,279,168130,2,0,L|499:209,1,70,10|0,0:2|0:0,0:0:0:0:
485,105,168543,1,0,0:2:0:0:
281,51,168957,5,2,3:2:0:0:
194,110,169164,1,2,0:2:0:0:
101,60,169371,1,2,0:2:0:0:
34,141,169578,1,2,0:2:0:0:
128,186,169785,5,8,0:2:0:0:
128,186,170198,6,0,P|130:249|122:273,1,70,2|0,3:2|0:0,0:0:0:0:
224,299,170612,2,0,P|219:264|224:229,1,70,2|0,0:2|0:0,0:0:0:0:
312,172,171026,2,0,P|314:235|306:259,1,70,2|0,3:2|0:0,0:0:0:0:
408,285,171440,5,8,0:2:0:0:
454,190,171647,2,0,L|529:195,2,70,8|4|4,0:3|0:3|0:3,0:0:0:0:
389,107,172267,5,2,3:2:0:0:
290,70,172474,1,2,0:2:0:0:
186,87,172681,1,2,0:2:0:0:
110,160,172888,1,2,3:2:0:0:
209,193,173095,5,8,0:2:0:0:
209,193,173509,6,0,P|211:248|200:279,1,70,2|0,3:2|0:0,0:0:0:0:
133,337,173923,2,0,P|78:339|47:328,1,70,2|0,0:2|0:0,0:0:0:0:
1,251,174336,2,0,P|-1:195|10:164,1,70,2|0,3:2|0:0,0:0:0:0:
77,107,174750,2,0,P|132:105|163:116,1,70,10|0,0:2|0:0,0:0:0:0:
209,193,175164,1,0,0:2:0:0:
363,50,175578,5,2,3:2:0:0:
407,145,175785,1,2,0:2:0:0:
370,243,175992,1,2,0:2:0:0:
407,340,176198,1,2,0:2:0:0:
472,258,176405,5,8,0:2:0:0:
472,258,176819,6,0,L|388:246,1,70,2|0,3:2|0:0,0:0:0:0:
320,313,177233,2,0,L|250:322,1,46.6666666666667,0|0,0:2|0:0,0:0:0:0:
161,235,177647,2,0,L|114:228,1,46.6666666666667,0|0,0:0|0:0,0:0:0:0:
35,344,178061,5,0,0:0:0:0:
46,134,178474,1,0,0:2:0:0:
46,134,178578,1,0,0:0:0:0:
46,134,178681,1,0,0:0:0:0:
126,66,178888,6,0,L|208:69,1,70,0|0,0:0|0:0,0:0:0:0:
273,139,179302,5,0,0:2:0:0:
291,145,179405,1,0,0:0:0:0:
291,165,179509,1,0,0:0:0:0:
273,171,179612,1,0,0:2:0:0:
261,155,179716,1,8,0:2:0:0:
467,115,180130,6,0,B|471:149|471:149|451:233,1,83.9999974365235,2|0,3:2|0:0,0:0:0:0:
439,304,180543,2,0,L|333:302,1,83.9999974365235,0|0,0:2|0:0,0:0:0:0:
245,302,180957,2,0,L|139:300,1,83.9999974365235,2|0,3:2|0:0,0:0:0:0:
85,221,181371,2,0,B|73:172|73:172|77:138,1,83.9999974365235,10|0,0:2|0:0,0:0:0:0:
118,36,181785,1,0,0:2:0:0:
335,32,182198,5,2,3:2:0:0:
277,124,182405,1,2,0:2:0:0:
338,214,182612,1,2,0:2:0:0:
440,176,182819,1,2,0:2:0:0:
445,66,183026,5,8,0:2:0:0:
445,66,183440,6,0,L|534:60,1,83.9999974365235,2|0,3:2|0:0,0:0:0:0:
507,168,183854,2,0,L|423:162,1,83.9999974365235,2|0,0:2|0:0,0:0:0:0:
413,271,184267,2,0,L|502:265,1,83.9999974365235,2|0,3:2|0:0,0:0:0:0:
465,370,184681,5,8,0:2:0:0:
465,370,184888,1,0,3:2:0:0:
356,360,185095,2,0,L|313:361,3,41.9999987182618,2|0|0|0,0:0|0:0|0:0|0:0,0:0:0:0:
266,332,185509,5,2,3:2:0:0:
268,222,185716,1,2,0:2:0:0:
271,112,185923,1,2,0:2:0:0:
274,2,186130,1,2,3:2:0:0:
180,57,186336,5,8,0:2:0:0:
180,57,186750,6,0,L|157:154,1,83.9999974365235,2|0,3:2|0:0,0:0:0:0:
52,119,187164,2,0,L|75:216,1,83.9999974365235,0|0,0:2|0:0,0:0:0:0:
178,225,187578,2,0,L|155:322,1,83.9999974365235,2|0,3:2|0:0,0:0:0:0:
50,287,187992,2,0,L|73:384,1,83.9999974365235,10|0,0:2|0:0,0:0:0:0:
158,306,188405,1,0,0:2:0:0:
375,325,188819,5,2,3:2:0:0:
461,257,189026,1,2,0:2:0:0:
443,149,189233,1,2,0:2:0:0:
345,98,189440,1,2,0:2:0:0:
260,167,189647,5,8,0:2:0:0:
260,167,190061,6,0,P|215:172|162:151,1,83.9999974365235,2|0,3:2|0:0,0:0:0:0:
189,52,190474,2,0,P|147:46|107:57,1,83.9999974365235,2|0,0:2|0:0,0:0:0:0:
51,152,190888,2,0,L|65:253,1,83.9999974365235,2|0,0:2|0:0,0:0:0:0:
170,256,191302,2,0,L|156:357,1,83.9999974365235,2|0,0:2|0:0,0:0:0:0:
50,357,191716,5,2,0:2:0:0:
