osu file format v14

[General]
AudioFilename: audio.mp3
AudioLeadIn: 0
PreviewTime: 163888
Countdown: 0
SampleSet: Soft
StackLeniency: 0.7
Mode: 0
LetterboxInBreaks: 0
WidescreenStoryboard: 1

[Editor]
Bookmarks: 130,6750,19992,33233,46474,59716,72957,86198,99440,112681,125923,139164,152405,164405,165647,192130
DistanceSpacing: 1
BeatDivisor: 4
GridSize: 32
TimelineZoom: 3.499999

[Metadata]
Title:Be There
TitleUnicode:Be There
Artist:Krewella
ArtistUnicode:Krewella
Creator:Mir
Version:Normal
Source:
Tags:chill bass dance Mixed Kids Records
BeatmapID:1486204
BeatmapSetID:702336

[Difficulty]
HPDrainRate:2
CircleSize:3
OverallDifficulty:3
ApproachRate:4
SliderMultiplier:1
SliderTickRate:1

[Events]
//Background and Video events
0,0,"original rockside.jpg",0,0
//Break Periods
2,139364,151085
//Storyboard Layer 0 (Background)
//Storyboard Layer 1 (Fail)
//Storyboard Layer 2 (Pass)
//Storyboard Layer 3 (Foreground)
//Storyboard Sound Samples

[TimingPoints]
130,413.793103448276,4,2,1,80,1,0
6750,-100,4,2,1,50,0,0
46474,-100,4,2,1,70,0,0
59716,-100,4,2,1,85,0,1
71198,-100,4,2,1,55,0,1
72957,-100,4,2,1,50,0,0
112681,-100,4,2,1,60,0,0
125923,-100,4,2,1,85,0,1
127164,-100,4,2,1,85,0,1
128819,-100,4,2,1,85,0,1
129233,-100,4,2,1,85,0,1
130474,-100,4,2,1,85,0,1
132543,-100,4,2,1,85,0,1
133785,-100,4,2,1,85,0,1
135440,-100,4,2,1,85,0,1
135854,-100,4,2,1,85,0,1
137095,-100,4,2,1,85,0,1
137509,-100,4,2,1,75,0,1
137923,-100,4,2,1,65,0,1
138336,-100,4,2,1,55,0,1
138750,-100,4,2,1,45,0,1
139164,-100,4,2,1,70,0,0
152405,-100,4,2,1,70,0,0
165647,-100,4,2,1,85,0,1
166888,-100,4,2,1,85,0,1
168543,-100,4,2,1,85,0,1
168957,-100,4,2,1,85,0,1
170198,-100,4,2,1,85,0,1
172267,-100,4,2,1,85,0,1
173509,-100,4,2,1,85,0,1
175164,-100,4,2,1,85,0,1
175578,-100,4,2,1,85,0,1
176819,-100,4,2,1,85,0,1
177233,-100,4,2,1,85,0,1
178888,-100,4,2,1,80,0,0
179302,-100,4,2,1,80,0,0
179354,-100,4,2,1,5,0,0
179405,-100,4,2,1,80,0,0
179457,-100,4,2,1,5,0,0
179509,-100,4,2,1,80,0,0
179561,-100,4,2,1,5,0,0
179612,-100,4,2,1,80,0,0
179664,-100,4,2,1,5,0,0
179716,-100,4,2,1,80,0,0
180130,-100,4,2,1,85,0,1
181784,-100,4,2,1,85,0,1
182198,-100,4,2,1,85,0,1
183439,-100,4,2,1,85,0,1
185508,-100,4,2,1,85,0,1
186750,-100,4,2,1,85,0,1
188405,-100,4,2,1,85,0,1
188819,-100,4,2,1,85,0,1
190061,-100,4,2,1,85,0,1
190475,-100,4,2,1,75,0,1
190889,-100,4,2,1,65,0,1
191302,-100,4,2,1,55,0,1
191716,-100,4,2,1,45,0,1
192130,-100,4,2,1,30,0,0

[Colours]
Combo1 : 240,193,142
Combo2 : 173,199,245
Combo3 : 211,187,238
Combo4 : 255,157,206

[HitObjects]
115,88,6750,6,0,P|175:81|229:89,1,100,2|0,3:2|0:2,0:0:0:0:
245,125,7371,1,0,0:2:0:0:
330,72,7785,1,0,0:2:0:0:
472,118,8405,6,0,L|468:232,1,100,2|0,0:2|0:2,0:0:0:0:
469,268,9026,2,0,P|412:258|361:270,1,100,0|0,0:2|0:2,0:0:0:0:
326,289,9647,1,0,0:2:0:0:
241,342,10061,6,0,L|133:337,1,100,2|0,0:2|0:2,0:0:0:0:
107,300,10681,2,0,P|96:237|125:192,1,100,0|0,0:2|0:2,0:0:0:0:
146,170,11302,1,0,0:2:0:0:
114,74,11716,5,0,0:0:0:0:
463,71,13164,5,0,0:2:0:0:
463,71,13371,2,0,P|443:112|442:171,1,100,2|0,0:2|0:2,0:0:0:0:
466,208,13992,1,0,0:2:0:0:
436,303,14405,1,0,0:2:0:0:
298,242,15026,6,0,L|193:239,1,100,2|0,0:2|0:2,0:0:0:0:
147,236,15647,2,0,P|139:171|163:121,1,100,0|0,0:2|0:2,0:0:0:0:
184,103,16267,1,0,0:2:0:0:
259,37,16681,6,0,L|358:39,1,100,2|0,0:2|0:2,0:0:0:0:
408,49,17302,2,0,P|428:114|412:156,1,100,0|0,0:2|0:2,0:0:0:0:
400,189,17923,1,0,0:2:0:0:
442,279,18336,6,0,P|399:290|339:271,1,100,2|0,0:2|0:2,0:0:0:0:
303,250,18957,1,0,0:2:0:0:
208,281,19371,1,0,0:0:0:0:
119,159,19992,6,0,L|117:7,2,150,2|0|0,3:2|0:2|0:0,0:0:0:0:
36,215,21647,2,0,L|34:364,2,150,2|0|0,0:2|0:2|0:0,0:0:0:0:
119,159,23302,5,2,0:2:0:0:
270,28,24130,1,2,0:2:0:0:
449,104,24957,1,2,0:2:0:0:
429,303,25785,1,2,0:2:0:0:
230,283,26612,6,0,P|165:280|86:328,2,150,2|0|0,0:2|0:2|0:0,0:0:0:0:
308,220,28267,2,0,P|373:217|452:265,2,150,2|0|0,0:2|0:2|0:0,0:0:0:0:
221,169,29923,5,2,0:2:0:0:
147,101,30336,2,0,P|203:73|255:77,1,100,2|0,0:2|0:2,0:0:0:0:
322,128,31164,2,0,P|364:103|414:100,1,100,0|0,0:2|0:2,0:0:0:0:
456,126,31785,1,0,0:2:0:0:
440,275,32405,1,0,0:2:0:0:
251,341,33233,6,0,L|193:352,2,50,2|0|0,3:2|0:2|0:2,0:0:0:0:
281,300,33854,2,0,P|286:247|257:195,1,100,0|0,0:2|0:2,0:0:0:0:
124,253,34888,6,0,L|182:264,2,50,2|0|0,0:2|0:2|0:2,0:0:0:0:
94,212,35509,2,0,P|89:159|118:107,1,100,0|0,0:2|0:2,0:0:0:0:
139,78,36130,1,0,0:2:0:0:
232,41,36543,5,2,0:2:0:0:
317,93,36957,1,2,0:2:0:0:
266,179,37371,2,0,P|310:193|382:173,1,100,2|2,0:2|0:2,0:0:0:0:
460,200,38198,5,2,0:2:0:0:
408,285,38612,1,2,0:2:0:0:
338,356,39026,2,0,L|219:356,1,100,2|2,0:2|0:2,0:0:0:0:
152,304,39854,6,0,P|137:333|133:359,2,50,2|0|0,0:2|0:2|0:2,0:0:0:0:
188,269,40474,2,0,L|193:147,1,100,0|0,0:2|0:2,0:0:0:0:
342,167,41509,6,0,P|357:196|361:222,2,50,2|0|0,0:2|0:2|0:2,0:0:0:0:
306,132,42129,2,0,L|301:10,1,100,0|0,0:2|0:2,0:0:0:0:
256,10,42750,1,0,0:2:0:0:
158,30,43164,5,2,0:2:0:0:
60,52,43578,1,2,0:2:0:0:
126,126,43992,2,0,L|120:240,1,100,2|2,0:2|0:2,0:0:0:0:
122,325,44819,5,2,0:2:0:0:
215,288,45233,1,2,0:2:0:0:
227,196,45647,2,0,L|233:82,1,100,2|2,0:2|0:2,0:0:0:0:
321,51,46474,6,0,P|378:44|435:64,1,100,2|8,3:2|0:2,0:0:0:0:
438,101,47095,1,0,0:2:0:0:
438,101,47302,1,8,0:2:0:0:
381,183,47716,1,8,0:2:0:0:
316,259,48130,2,0,L|322:323,2,50,10|0|10,0:2|0:2|0:2,0:0:0:0:
236,197,48957,2,0,L|242:133,2,50,8|0|8,0:2|0:2|0:2,0:0:0:0:
153,253,49785,6,0,P|89:255|41:233,1,100,10|8,0:2|0:2,0:0:0:0:
31,199,50405,1,0,0:2:0:0:
31,199,50612,1,8,0:2:0:0:
102,129,51026,1,8,0:2:0:0:
104,28,51440,2,0,L|43:33,2,50,10|0|10,0:2|0:2|0:2,0:0:0:0:
187,83,52267,2,0,L|236:87,2,50,8|0|8,0:2|0:2|0:2,0:0:0:0:
212,179,53095,6,0,B|206:203|206:203|208:238,2,50,10|0|0,0:2|0:2|0:2,0:0:0:0:
259,163,53716,2,0,P|320:156|370:174,1,100,8|0,0:2|0:0,0:0:0:0:
394,198,54336,1,8,0:2:0:0:
371,295,54750,6,0,B|377:319|377:319|375:354,2,50,10|0|0,0:2|0:2|0:2,0:0:0:0:
323,311,55371,2,0,P|262:318|212:300,1,100,8|0,0:2|0:2,0:0:0:0:
188,276,55991,1,8,0:2:0:0:
102,223,56405,5,10,0:2:0:0:
28,155,56819,1,10,0:2:0:0:
75,66,57233,2,0,P|141:64|195:80,1,100,2|2,0:2|0:2,0:0:0:0:
267,107,58061,5,2,0:2:0:0:
343,43,58474,1,2,0:2:0:0:
419,106,58888,1,2,0:2:0:0:
382,199,59302,1,2,3:2:0:0:
440,280,59716,6,0,P|391:300|302:258,1,150,0|0,3:2|3:2,0:0:0:0:
269,229,60543,1,8,0:2:0:0:
173,198,60957,2,0,L|77:202,2,75,2|2|2,3:2|0:2|0:2,0:0:0:0:
195,153,61785,1,0,3:2:0:0:
259,76,62198,2,0,L|333:72,2,75,10|2|2,0:2|0:2|0:2,0:0:0:0:
228,35,63026,6,0,P|157:25|74:55,1,150,0|0,3:2|0:2,0:0:0:0:
48,84,63854,1,8,0:2:0:0:
112,160,64267,2,0,L|186:156,2,75,0|2|0,3:2|0:2|0:2,0:0:0:0:
86,203,65095,1,2,3:2:0:0:
123,295,65509,1,8,0:2:0:0:
123,295,65716,2,0,L|126:363,2,50,0|8|0,3:2|0:2|3:2,0:0:0:0:
167,271,66336,6,0,P|238:254|321:278,1,150,0|0,3:2|0:2,0:0:0:0:
342,311,67164,1,8,0:2:0:0:
431,274,67578,2,0,B|441:315|441:315|432:365,2,75,2|2|2,3:2|0:2|0:2,0:0:0:0:
431,223,68405,1,0,3:2:0:0:
372,141,68819,2,0,B|366:108|366:108|376:67,2,75,10|2|2,0:2|0:2|0:2,0:0:0:0:
350,186,69647,6,0,P|311:199|233:186,1,100,0|0,3:2|3:2,0:0:0:0:
187,118,70474,2,0,L|116:124,1,50,8|0,0:2|3:2,0:0:0:0:
86,123,70888,1,2,3:2:0:0:
443,96,72957,6,0,L|446:47,2,50,2|0|0,3:2|0:2|0:2,0:0:0:0:
469,139,73578,2,0,P|401:126|358:132,1,100,0|0,0:2|0:2,0:0:0:0:
322,143,74198,1,0,0:0:0:0:
223,123,74612,6,0,L|225:172,2,50,2|0|0,0:2|0:2|0:2,0:0:0:0:
248,81,75233,2,0,P|180:94|137:88,1,100,0|0,0:2|0:2,0:0:0:0:
101,77,75853,1,0,0:2:0:0:
45,159,76267,6,0,L|-16:168,2,50,2|0|0,0:2|0:2|0:2,0:0:0:0:
91,177,76888,2,0,B|106:210|106:210|102:293,1,100,0|0,0:2|0:2,0:0:0:0:
100,323,77509,1,0,0:2:0:0:
193,286,77923,6,0,L|359:283,1,150,2|0,0:2|0:0,0:0:0:0:
442,276,78957,1,0,0:0:0:0:
414,128,79578,6,0,L|424:62,2,50,2|0|0,3:2|0:2|0:2,0:0:0:0:
421,177,80198,2,0,P|369:161|314:164,1,100,0|0,3:2|0:2,0:0:0:0:
273,168,80819,1,0,0:0:0:0:
195,104,81233,6,0,L|185:170,2,50,2|0|0,3:2|0:2|0:2,0:0:0:0:
188,55,81853,2,0,P|240:71|295:68,1,100,0|0,3:2|0:2,0:0:0:0:
336,64,82474,1,0,0:2:0:0:
436,61,82888,6,0,P|443:32|446:4,2,50,2|0|0,3:2|0:2|0:2,0:0:0:0:
419,108,83509,2,0,B|411:143|411:143|417:227,1,100,0|0,3:2|0:2,0:0:0:0:
418,257,84130,1,0,0:2:0:0:
375,347,84543,6,0,P|316:353|262:331,1,100,2|0,3:2|0:2,0:0:0:0:
240,306,85164,2,0,L|241:191,1,100,0|0,3:0|0:0,0:0:0:0:
286,185,85785,1,0,0:0:0:0:
252,92,86198,6,0,P|175:63|104:80,2,150,2|0|8,3:2|3:2|0:0,0:0:0:0:
333,148,87854,2,0,P|410:119|481:136,2,150,2|0|8,3:2|3:2|0:0,0:0:0:0:
256,212,89509,5,2,3:2:0:0:
101,211,90130,1,0,3:2:0:0:
179,338,90750,1,8,0:0:0:0:
274,308,91164,6,0,B|336:283|346:343|436:310,2,150,2|0|8,3:2|3:2|0:0,0:0:0:0:
256,212,92819,6,0,L|264:118,2,75,2|0|0,3:2|0:2|3:2,0:0:0:0:
211,235,93647,2,0,P|162:231|101:200,1,100,2|8,0:2|0:0,0:0:0:0:
34,152,94474,6,0,L|26:58,2,75,2|0|0,3:2|0:2|3:2,0:0:0:0:
41,201,95302,2,0,B|45:244|45:244|36:307,1,100,2|8,0:2|0:0,0:0:0:0:
111,367,96130,5,2,3:2:0:0:
193,310,96543,2,0,P|252:300|301:313,1,100,2|0,0:2|0:2,0:0:0:0:
353,230,97371,2,0,P|401:219|450:228,1,100,8|0,0:2|3:2,0:0:0:0:
476,271,97992,2,0,L|475:378,2,100,0|0|0,0:0|3:0|0:0,0:0:0:0:
450,228,99026,1,8,0:0:0:0:
351,245,99440,6,0,L|353:310,2,50,2|0|0,3:2|0:2|0:2,0:0:0:0:
313,211,100061,2,0,P|257:191|210:197,1,100,0|0,0:2|0:2,0:0:0:0:
101,99,101095,6,0,L|99:164,2,50,2|0|0,0:2|0:2|0:2,0:0:0:0:
132,58,101716,2,0,P|188:38|235:44,1,100,0|0,0:2|0:2,0:0:0:0:
269,69,102336,1,0,0:2:0:0:
365,44,102750,5,2,0:2:0:0:
404,135,103164,1,2,0:2:0:0:
330,202,103578,2,0,L|327:317,1,100,2|2,0:2|0:2,0:0:0:0:
234,338,104405,5,2,0:2:0:0:
164,266,104819,1,2,0:2:0:0:
220,183,105233,2,0,L|223:68,1,100,2|2,0:2|0:2,0:0:0:0:
142,23,106061,6,0,L|205:4,2,50,2|0|0,0:2|0:2|0:2,0:0:0:0:
98,47,106681,2,0,B|74:89|74:89|77:151,1,100,0|0,0:2|0:2,0:0:0:0:
226,136,107716,6,0,L|163:117,2,50,2|0|0,0:2|0:2|0:2,0:0:0:0:
262,170,108336,2,0,B|286:212|286:212|283:274,1,100,0|0,0:2|0:2,0:0:0:0:
259,307,108957,1,0,0:2:0:0:
182,371,109371,5,2,0:2:0:0:
97,316,109785,1,2,0:2:0:0:
131,223,110198,2,0,P|153:155|146:116,1,100,2|2,0:2|0:2,0:0:0:0:
78,57,111026,5,2,0:2:0:0:
176,39,111440,1,2,0:2:0:0:
274,20,111854,2,0,L|384:28,1,100,2|2,0:2|0:2,0:0:0:0:
385,126,112681,6,0,P|442:119|499:139,1,100,2|8,3:2|0:2,0:0:0:0:
502,176,113302,1,0,3:2:0:0:
502,176,113509,1,8,0:2:0:0:
478,273,113923,1,8,3:2:0:0:
387,315,114337,2,0,L|393:379,2,50,10|0|10,3:2|0:2|0:2,0:0:0:0:
305,257,115164,2,0,L|311:193,2,50,8|0|8,0:2|0:2|3:2,0:0:0:0:
217,306,115992,6,0,B|166:311|166:311|105:286,1,100,10|8,3:2|0:2,0:0:0:0:
88,256,116612,1,0,3:2:0:0:
88,256,116819,1,8,0:2:0:0:
146,174,117233,1,8,3:2:0:0:
80,98,117647,2,0,L|19:103,2,50,10|0|10,3:2|0:2|0:2,0:0:0:0:
161,39,118474,2,0,L|210:43,2,50,8|0|8,0:2|0:2|3:2,0:0:0:0:
181,137,119302,6,0,B|177:196,2,50,10|8|8,3:2|0:2|0:2,0:0:0:0:
231,136,119923,2,0,L|342:147,1,100,8|8,3:2|0:0,0:0:0:0:
380,150,120543,1,8,3:2:0:0:
418,242,120957,6,0,B|422:301,2,50,10|8|8,3:2|0:2|0:2,0:0:0:0:
368,241,121578,2,0,L|257:252,1,100,8|8,3:2|0:2,0:0:0:0:
219,255,122198,1,8,3:2:0:0:
119,263,122612,5,10,0:2:0:0:
42,197,123026,1,10,0:2:0:0:
62,100,123440,2,0,P|128:98|182:114,1,100,10|8,3:2|3:2,0:0:0:0:
252,145,124268,5,2,3:2:0:0:
331,84,124681,1,2,0:2:0:0:
430,90,125095,1,2,0:2:0:0:
485,173,125509,1,2,0:2:0:0:
438,261,125923,6,0,L|373:260,1,50,2|2,3:2|0:2,0:0:0:0:
345,286,126336,2,0,L|280:285,1,50,2|2,0:2|3:2,0:0:0:0:
244,285,126750,1,8,0:2:0:0:
156,333,127164,6,0,P|146:284|164:223,3,100,2|2|2|10,3:2|0:2|3:2|0:2,0:0:0:0:
189,141,128819,1,2,0:2:0:0:
119,69,129233,6,0,P|156:54|176:53,1,50,2|2,3:2|0:2,0:0:0:0:
215,54,129647,2,0,P|239:58|261:70,1,50,2|2,0:2|0:2,0:0:0:0:
296,106,130061,1,8,0:2:0:0:
385,151,130474,6,0,L|371:269,3,100,2|2|2|10,3:2|0:2|3:2|0:2,0:0:0:0:
287,302,132130,1,4,0:3:0:0:
349,379,132543,6,0,L|398:382,1,50,2|2,3:2|0:2,0:0:0:0:
442,356,132957,2,0,L|491:352,1,50,2|2,0:2|3:2,0:0:0:0:
505,303,133371,1,8,0:2:0:0:
499,203,133785,6,0,B|488:129|488:129|464:99,3,100,2|2|2|10,3:2|0:2|3:2|0:2,0:0:0:0:
399,40,135440,1,0,0:2:0:0:
287,63,135854,6,0,L|229:64,1,50,2|2,3:2|0:2,0:0:0:0:
193,39,136267,2,0,L|143:38,1,50,2|2,0:2|0:2,0:0:0:0:
100,64,136681,1,8,0:2:0:0:
131,158,137095,6,0,L|141:271,3,100,2|2|2|2,3:2|0:2|0:2|0:2,0:0:0:0:
101,349,138750,1,2,0:2:0:0:
201,349,139164,5,0,3:2:0:0:
79,107,152405,6,0,P|146:96|190:112,1,100,2|8,3:2|0:2,0:0:0:0:
208,142,153026,1,0,3:2:0:0:
208,142,153233,1,8,0:2:0:0:
293,90,153647,1,8,3:2:0:0:
364,159,154061,2,0,L|422:157,2,50,10|0|10,3:2|0:2|0:2,0:0:0:0:
320,182,154681,2,0,P|289:263|293:290,1,100,0|0,3:2|0:2,0:0:0:0:
295,323,155302,1,8,3:2:0:0:
389,288,155716,6,0,L|506:280,1,100,10|8,3:2|0:2,0:0:0:0:
506,234,156336,1,0,3:2:0:0:
506,234,156543,1,8,0:2:0:0:
497,134,156957,1,8,3:2:0:0:
466,38,157371,2,0,L|413:31,1,50,10|0,3:2|0:2,0:0:0:0:
390,71,157785,1,8,0:0:0:0:
390,71,157992,2,0,P|303:96|283:91,1,100,0|0,3:2|0:2,0:0:0:0:
253,68,158612,1,8,3:2:0:0:
154,87,159026,6,0,L|146:29,2,50,10|8|8,3:2|0:2|0:2,0:0:0:0:
127,129,159647,2,0,B|106:172|106:172|114:237,1,100,8|8,3:2|0:0,0:0:0:0:
252,171,160681,6,0,L|260:113,2,50,10|8|8,3:2|0:2|0:2,0:0:0:0:
279,213,161302,2,0,B|300:256|300:256|292:321,1,100,8|8,3:2|0:2,0:0:0:0:
268,351,161923,1,8,3:2:0:0:
168,352,162336,5,10,3:2:0:0:
67,352,162750,1,10,3:2:0:0:
20,263,163164,2,0,P|27:194|64:161,1,100,10|8,3:2|3:2,0:0:0:0:
93,84,163992,5,2,3:2:0:0:
183,125,164405,1,2,0:2:0:0:
251,52,164819,2,0,P|300:37|361:40,1,100,2|2,0:2|0:2,0:0:0:0:
430,95,165647,6,0,L|428:155,1,50,2|2,3:2|0:2,0:0:0:0:
424,195,166061,2,0,L|422:255,1,50,2|2,0:2|3:2,0:0:0:0:
421,294,166474,1,8,0:2:0:0:
320,294,166888,6,0,B|291:298|291:298|261:288|261:288|203:293,3,100,2|2|2|10,3:2|0:2|3:2|0:2,0:0:0:0:
123,308,168543,1,0,0:2:0:0:
35,356,168957,6,0,P|28:318|29:294,1,50,2|2,3:2|0:2,0:0:0:0:
24,256,169371,2,0,P|25:231|31:206,1,50,2|2,0:2|0:2,0:0:0:0:
48,159,169785,1,8,0:2:0:0:
146,141,170198,6,0,P|221:139|255:116,3,100,2|2|2|8,3:2|0:2|3:2|0:2,0:0:0:0:
255,28,171854,1,4,0:3:0:0:
339,80,172267,6,0,L|410:79,1,50,2|2,3:2|0:2,0:0:0:0:
439,80,172681,2,0,L|510:79,1,50,2|2,0:2|3:2,0:0:0:0:
510,124,173095,1,8,0:2:0:0:
432,187,173509,6,0,B|419:226|419:226|434:301,3,100,2|2|2|10,3:2|0:2|3:2|0:2,0:0:0:0:
456,381,175164,1,0,0:2:0:0:
356,370,175578,6,0,L|287:367,1,50,2|2,3:2|0:2,0:0:0:0:
255,365,175992,2,0,L|186:362,1,50,2|2,0:2|0:2,0:0:0:0:
155,361,176405,1,8,0:2:0:0:
97,279,176819,6,0,P|85:199|99:161,3,100,2|0|0|0,3:2|0:2|0:0|0:0,0:0:0:0:
138,94,178474,1,0,0:2:0:0:
322,172,179302,6,0,L|384:168,2,50,0|0|8,0:2|0:0|0:2,0:0:0:0:
231,128,180130,6,0,P|225:172|244:235,3,100,2|0|2|10,3:2|0:2|3:2|0:2,0:0:0:0:
320,282,181785,1,0,0:2:0:0:
244,346,182198,6,0,L|180:337,1,50,2|2,3:2|0:2,0:0:0:0:
145,327,182612,2,0,L|81:318,1,50,2|2,0:2|0:2,0:0:0:0:
46,307,183026,1,8,0:2:0:0:
27,208,183440,6,0,P|19:160|39:93,3,100,2|2|2|8,3:2|0:2|3:2|0:2,0:0:0:0:
56,68,184888,1,0,3:2:0:0:
197,117,185509,6,0,P|242:116|263:111,1,50,2|2,3:2|0:2,0:0:0:0:
291,91,185923,2,0,P|336:92|357:97,1,50,2|2,0:2|3:2,0:0:0:0:
383,119,186336,1,8,0:2:0:0:
471,80,186750,6,0,P|479:129|464:176,3,100,2|0|2|10,3:2|0:2|3:2|0:2,0:0:0:0:
406,257,188405,1,0,0:2:0:0:
308,236,188819,6,0,L|253:232,1,50,2|2,3:2|0:2,0:0:0:0:
208,226,189233,2,0,L|153:222,1,50,2|2,0:2|0:2,0:0:0:0:
108,217,189647,1,8,0:2:0:0:
18,261,190061,6,0,B|7:221|7:221|29:146,3,100,2|2|2|2,3:2|0:2|0:2|0:2,0:0:0:0:
51,68,191716,5,2,0:2:0:0:
